osu file format v14

[General]
AudioFilename: audio_1.2.mp3
AudioLeadIn: 0
PreviewTime: 13428
Countdown: 0
SampleSet: Normal
StackLeniency: 0.7
Mode: 3
LetterboxInBreaks: 0
SpecialStyle: 0
WidescreenStoryboard: 0

[Editor]
DistanceSpacing: 1.2
BeatDivisor: 12
GridSize: 8
TimelineZoom: 1.4

[Metadata]
Title:Abandon Ship
TitleUnicode:Abandon Ship
Artist:Kamakazi
ArtistUnicode:Kamakazi
Creator:Mat
Version: x1.2
Source:Subnautica
Tags:
BeatmapID:1675905
BeatmapSetID:734759

[Difficulty]
HPDrainRate:7.5
CircleSize:4
OverallDifficulty:8.4
ApproachRate:5
SliderMultiplier:1.4
SliderTickRate:1

[Events]
//Background and Video events
0,0,"4546B.jpg",0,0
//Break Periods
//Storyboard Layer 0 (Background)
//Storyboard Layer 1 (Fail)
//Storyboard Layer 2 (Pass)
//Storyboard Layer 3 (Foreground)
//Storyboard Sound Samples

[TimingPoints]
2178,357.142857142858,4,1,0,30,1,0
25035,-100,4,1,0,30,0,1
29320,-100,4,1,0,30,0,0
30749,-100,4,1,0,30,0,1
34678,-100,4,1,0,30,0,0
36463,-100,4,1,0,30,0,1
40749,-100,4,1,0,30,0,0
42178,-100,4,1,0,30,0,1
46463,-100,4,1,0,30,0,0
73606,-100,4,1,0,30,0,1
81820,-100,4,1,0,30,0,0
82178,-100,4,1,0,30,0,1
85392,-100,4,1,0,30,0,0

[HitObjects]
64,192,1642,128,0,2178:0:0:0:0:
448,192,2178,128,0,5035:0:0:0:0:
320,192,2178,128,0,3606:0:0:0:0:
192,192,2178,1,0,0:0:0:0:
64,192,2535,1,0,0:0:0:0:
192,192,2892,1,0,0:0:0:0:
64,192,3011,1,0,0:0:0:0:
64,192,3130,1,0,0:0:0:0:
192,192,3249,1,0,0:0:0:0:
192,192,3606,1,0,0:0:0:0:
64,192,3725,1,0,0:0:0:0:
64,192,3845,1,0,0:0:0:0:
320,192,3963,1,0,0:0:0:0:
192,192,4320,1,0,0:0:0:0:
320,192,4440,1,0,0:0:0:0:
320,192,4559,1,0,0:0:0:0:
64,192,4678,1,0,0:0:0:0:
192,192,5035,1,0,0:0:0:0:
64,192,5154,1,0,0:0:0:0:
64,192,5273,1,0,0:0:0:0:
192,192,5392,1,0,0:0:0:0:
320,192,5749,1,0,0:0:0:0:
192,192,5868,1,0,0:0:0:0:
192,192,5987,1,0,0:0:0:0:
448,192,6106,1,0,0:0:0:0:
64,192,6463,1,0,0:0:0:0:
320,192,6582,1,0,0:0:0:0:
320,192,6701,1,0,0:0:0:0:
64,192,6820,1,0,0:0:0:0:
64,192,7178,1,0,0:0:0:0:
448,192,7296,1,0,0:0:0:0:
448,192,7415,1,0,0:0:0:0:
64,192,7535,1,0,0:0:0:0:
192,192,7892,1,0,0:0:0:0:
320,192,8011,1,0,0:0:0:0:
320,192,8130,1,0,0:0:0:0:
192,192,8249,1,0,0:0:0:0:
320,192,8606,1,0,0:0:0:0:
64,192,8725,1,0,0:0:0:0:
64,192,8845,1,0,0:0:0:0:
448,192,8963,1,0,0:0:0:0:
192,192,9320,1,0,0:0:0:0:
320,192,9440,1,0,0:0:0:0:
320,192,9559,1,0,0:0:0:0:
192,192,9678,1,0,0:0:0:0:
320,192,10035,1,0,0:0:0:0:
64,192,10154,1,0,0:0:0:0:
192,192,10154,1,0,0:0:0:0:
64,192,10273,1,0,0:0:0:0:
448,192,10392,1,0,0:0:0:0:
64,192,10749,1,0,0:0:0:0:
320,192,10868,1,0,0:0:0:0:
320,192,10987,1,0,0:0:0:0:
64,192,11106,1,0,0:0:0:0:
192,192,11463,1,0,0:0:0:0:
448,192,11582,1,0,0:0:0:0:
448,192,11701,1,0,0:0:0:0:
320,192,11820,1,0,0:0:0:0:
448,192,12178,1,0,0:0:0:0:
64,192,12296,1,0,0:0:0:0:
64,192,12415,1,0,0:0:0:0:
320,192,12535,1,0,0:0:0:0:
192,192,12892,1,0,0:0:0:0:
320,192,13011,1,0,0:0:0:0:
320,192,13130,1,0,0:0:0:0:
64,192,13249,1,0,0:0:0:0:
448,192,13606,1,0,0:0:0:0:
320,192,13606,1,0,0:0:0:0:
192,192,13815,1,0,0:0:0:0:
64,192,13963,1,0,0:0:0:0:
320,192,13963,1,0,0:0:0:0:
448,192,14171,1,0,0:0:0:0:
320,192,14320,1,0,0:0:0:0:
192,192,14320,1,0,0:0:0:0:
64,192,14529,1,0,0:0:0:0:
448,192,14678,1,0,0:0:0:0:
192,192,14678,1,0,0:0:0:0:
320,192,14886,1,0,0:0:0:0:
448,192,15035,1,0,0:0:0:0:
64,192,15035,1,0,0:0:0:0:
192,192,15243,1,0,0:0:0:0:
64,192,15392,1,0,0:0:0:0:
320,192,15392,1,0,0:0:0:0:
192,192,15600,1,0,0:0:0:0:
320,192,15749,1,0,0:0:0:0:
448,192,15749,1,0,0:0:0:0:
192,192,15957,1,0,0:0:0:0:
64,192,16106,1,0,0:0:0:0:
448,192,16106,1,0,0:0:0:0:
320,192,16315,1,0,0:0:0:0:
64,192,16463,1,0,0:0:0:0:
448,192,16463,1,0,0:0:0:0:
192,192,16671,1,0,0:0:0:0:
64,192,16820,1,0,0:0:0:0:
448,192,16820,1,0,0:0:0:0:
320,192,17029,1,0,0:0:0:0:
64,192,17178,1,0,0:0:0:0:
192,192,17178,1,0,0:0:0:0:
320,192,17386,1,0,0:0:0:0:
192,192,17535,1,0,0:0:0:0:
448,192,17535,1,0,0:0:0:0:
64,192,17743,1,0,0:0:0:0:
448,192,17892,1,0,0:0:0:0:
320,192,17892,1,0,0:0:0:0:
192,192,18100,1,0,0:0:0:0:
320,192,18249,1,0,0:0:0:0:
64,192,18249,1,0,0:0:0:0:
448,192,18457,1,0,0:0:0:0:
192,192,18606,1,0,0:0:0:0:
64,192,18606,1,0,0:0:0:0:
320,192,18815,1,0,0:0:0:0:
64,192,18963,1,0,0:0:0:0:
448,192,18963,1,0,0:0:0:0:
320,192,19171,1,0,0:0:0:0:
192,192,19320,1,0,0:0:0:0:
64,192,19320,1,0,0:0:0:0:
320,192,19529,1,0,0:0:0:0:
64,192,19678,1,0,0:0:0:0:
448,192,19678,1,0,0:0:0:0:
192,192,19886,1,0,0:0:0:0:
64,192,20035,1,0,0:0:0:0:
320,192,20035,1,0,0:0:0:0:
448,192,20243,1,0,0:0:0:0:
64,192,20392,1,0,0:0:0:0:
320,192,20392,1,0,0:0:0:0:
192,192,20600,1,0,0:0:0:0:
448,192,20749,1,0,0:0:0:0:
320,192,20749,1,0,0:0:0:0:
192,192,20957,1,0,0:0:0:0:
64,192,21106,1,0,0:0:0:0:
448,192,21106,1,0,0:0:0:0:
192,192,21315,1,0,0:0:0:0:
320,192,21463,1,0,0:0:0:0:
448,192,21463,1,0,0:0:0:0:
448,192,21582,1,0,0:0:0:0:
64,192,21671,1,0,0:0:0:0:
448,192,21820,1,0,0:0:0:0:
192,192,21820,1,0,0:0:0:0:
320,192,22029,1,0,0:0:0:0:
192,192,22178,1,0,0:0:0:0:
64,192,22178,1,0,0:0:0:0:
320,192,22386,1,0,0:0:0:0:
192,192,22535,1,0,0:0:0:0:
448,192,22535,1,0,0:0:0:0:
64,192,22743,1,0,0:0:0:0:
320,192,22892,1,0,0:0:0:0:
448,192,22892,1,0,0:0:0:0:
192,192,23100,1,0,0:0:0:0:
64,192,23249,1,0,0:0:0:0:
448,192,23249,1,0,0:0:0:0:
320,192,23457,1,0,0:0:0:0:
64,192,23606,1,0,0:0:0:0:
192,192,23606,1,0,0:0:0:0:
320,192,23815,1,0,0:0:0:0:
448,192,23963,1,0,0:0:0:0:
64,192,23963,1,0,0:0:0:0:
192,192,24201,5,0,0:0:0:0:
64,192,24201,1,0,0:0:0:0:
320,192,24320,1,0,0:0:0:0:
448,192,24320,1,0,0:0:0:0:
64,192,24440,1,0,0:0:0:0:
448,192,24440,1,0,0:0:0:0:
320,192,24559,1,0,0:0:0:0:
192,192,24559,1,0,0:0:0:0:
64,192,24678,1,0,0:0:0:0:
320,192,24678,1,0,0:0:0:0:
192,192,24796,1,0,0:0:0:0:
64,192,24796,1,0,0:0:0:0:
448,192,24915,1,0,0:0:0:0:
320,192,24915,1,0,0:0:0:0:
320,192,25035,1,0,0:0:0:0:
448,192,25035,1,0,0:0:0:0:
192,192,25035,1,0,0:0:0:0:
64,192,25154,1,0,0:0:0:0:
448,192,25154,1,0,0:0:0:0:
192,192,25273,1,0,0:0:0:0:
64,192,25273,1,0,0:0:0:0:
320,192,25392,1,0,0:0:0:0:
448,192,25392,1,0,0:0:0:0:
192,192,25392,1,0,0:0:0:0:
448,192,25511,1,0,0:0:0:0:
64,192,25511,1,0,0:0:0:0:
192,192,25630,1,0,0:0:0:0:
320,192,25630,1,0,0:0:0:0:
320,192,25749,1,0,0:0:0:0:
448,192,25749,1,0,0:0:0:0:
64,192,25749,1,0,0:0:0:0:
448,192,25868,1,0,0:0:0:0:
192,192,25868,1,0,0:0:0:0:
64,192,25987,1,0,0:0:0:0:
320,192,25987,1,0,0:0:0:0:
192,192,26106,1,0,0:0:0:0:
448,192,26106,1,0,0:0:0:0:
64,192,26106,1,0,0:0:0:0:
448,192,26225,1,0,0:0:0:0:
320,192,26225,1,0,0:0:0:0:
192,192,26345,1,0,0:0:0:0:
64,192,26345,1,0,0:0:0:0:
448,192,26463,5,0,0:0:0:0:
64,192,26463,1,0,0:0:0:0:
320,192,26463,1,0,0:0:0:0:
192,192,26582,1,0,0:0:0:0:
448,192,26582,1,0,0:0:0:0:
192,192,26701,1,0,0:0:0:0:
64,192,26701,1,0,0:0:0:0:
448,192,26820,1,0,0:0:0:0:
320,192,26820,1,0,0:0:0:0:
64,192,26820,1,0,0:0:0:0:
448,192,26940,1,0,0:0:0:0:
192,192,26940,1,0,0:0:0:0:
320,192,27059,1,0,0:0:0:0:
64,192,27059,1,0,0:0:0:0:
320,192,27178,1,0,0:0:0:0:
448,192,27178,1,0,0:0:0:0:
192,192,27178,1,0,0:0:0:0:
192,192,27296,1,0,0:0:0:0:
64,192,27296,1,0,0:0:0:0:
320,192,27415,1,0,0:0:0:0:
448,192,27415,1,0,0:0:0:0:
64,192,27535,1,0,0:0:0:0:
320,192,27535,1,0,0:0:0:0:
192,192,27535,1,0,0:0:0:0:
448,192,27654,1,0,0:0:0:0:
192,192,27654,1,0,0:0:0:0:
64,192,27773,1,0,0:0:0:0:
320,192,27773,1,0,0:0:0:0:
448,192,27892,5,0,0:0:0:0:
320,192,27892,1,0,0:0:0:0:
64,192,27892,1,0,0:0:0:0:
448,192,28011,1,0,0:0:0:0:
192,192,28011,1,0,0:0:0:0:
192,192,28130,1,0,0:0:0:0:
320,192,28130,1,0,0:0:0:0:
64,192,28249,1,0,0:0:0:0:
448,192,28249,1,0,0:0:0:0:
320,192,28249,1,0,0:0:0:0:
192,192,28368,1,0,0:0:0:0:
448,192,28368,1,0,0:0:0:0:
320,192,28487,1,0,0:0:0:0:
192,192,28487,1,0,0:0:0:0:
448,192,28606,1,0,0:0:0:0:
64,192,28606,1,0,0:0:0:0:
320,192,28606,1,0,0:0:0:0:
64,192,28725,1,0,0:0:0:0:
192,192,28725,1,0,0:0:0:0:
448,192,28845,1,0,0:0:0:0:
320,192,28845,1,0,0:0:0:0:
64,192,28963,1,0,0:0:0:0:
320,192,28963,1,0,0:0:0:0:
192,192,28963,1,0,0:0:0:0:
448,192,29082,1,0,0:0:0:0:
64,192,29082,1,0,0:0:0:0:
192,192,29201,1,0,0:0:0:0:
448,192,29201,1,0,0:0:0:0:
192,192,29320,5,0,0:0:0:0:
320,192,29320,1,0,0:0:0:0:
64,192,29320,1,0,0:0:0:0:
320,192,29529,1,0,0:0:0:0:
448,192,29678,1,0,0:0:0:0:
64,192,29678,1,0,0:0:0:0:
192,192,29678,1,0,0:0:0:0:
192,192,29886,1,0,0:0:0:0:
320,192,30035,1,0,0:0:0:0:
448,192,30035,1,0,0:0:0:0:
64,192,30035,1,0,0:0:0:0:
448,192,30243,1,0,0:0:0:0:
64,192,30392,1,0,0:0:0:0:
192,192,30392,1,0,0:0:0:0:
320,192,30392,1,0,0:0:0:0:
64,192,30600,1,0,0:0:0:0:
320,192,30749,5,0,0:0:0:0:
448,192,30749,1,0,0:0:0:0:
192,192,30749,1,0,0:0:0:0:
448,192,30868,1,0,0:0:0:0:
64,192,30868,1,0,0:0:0:0:
64,192,30987,1,0,0:0:0:0:
192,192,30987,1,0,0:0:0:0:
320,192,31106,1,0,0:0:0:0:
448,192,31106,1,0,0:0:0:0:
64,192,31106,1,0,0:0:0:0:
320,192,31225,1,0,0:0:0:0:
192,192,31225,1,0,0:0:0:0:
64,192,31345,1,0,0:0:0:0:
448,192,31345,1,0,0:0:0:0:
192,192,31463,1,0,0:0:0:0:
320,192,31463,1,0,0:0:0:0:
448,192,31463,1,0,0:0:0:0:
320,192,31582,1,0,0:0:0:0:
192,192,31582,1,0,0:0:0:0:
64,192,31701,1,0,0:0:0:0:
448,192,31701,1,0,0:0:0:0:
320,192,31820,1,0,0:0:0:0:
192,192,31820,1,0,0:0:0:0:
64,192,31820,1,0,0:0:0:0:
448,192,32029,1,0,0:0:0:0:
320,192,32178,5,0,0:0:0:0:
64,192,32178,1,0,0:0:0:0:
192,192,32178,1,0,0:0:0:0:
320,192,32296,1,0,0:0:0:0:
64,192,32296,1,0,0:0:0:0:
448,192,32415,1,0,0:0:0:0:
192,192,32415,1,0,0:0:0:0:
448,192,32535,1,0,0:0:0:0:
320,192,32535,1,0,0:0:0:0:
192,192,32535,1,0,0:0:0:0:
320,192,32654,1,0,0:0:0:0:
64,192,32654,1,0,0:0:0:0:
192,192,32773,1,0,0:0:0:0:
448,192,32773,1,0,0:0:0:0:
320,192,32892,1,0,0:0:0:0:
448,192,32892,1,0,0:0:0:0:
192,192,32892,1,0,0:0:0:0:
320,192,33011,1,0,0:0:0:0:
64,192,33011,1,0,0:0:0:0:
192,192,33011,1,0,0:0:0:0:
64,192,33130,1,0,0:0:0:0:
448,192,33130,1,0,0:0:0:0:
448,192,33249,1,0,0:0:0:0:
320,192,33249,1,0,0:0:0:0:
192,192,33249,1,0,0:0:0:0:
448,192,33487,1,0,0:0:0:0:
320,192,33487,1,0,0:0:0:0:
64,192,33606,5,0,0:0:0:0:
448,192,33606,1,0,0:0:0:0:
192,192,33606,1,0,0:0:0:0:
320,192,33725,1,0,0:0:0:0:
64,192,33725,1,0,0:0:0:0:
64,192,33845,1,0,0:0:0:0:
192,192,33845,1,0,0:0:0:0:
320,192,33963,1,0,0:0:0:0:
448,192,33963,1,0,0:0:0:0:
192,192,33963,1,0,0:0:0:0:
320,192,34082,1,0,0:0:0:0:
448,192,34082,1,0,0:0:0:0:
192,192,34201,1,0,0:0:0:0:
64,192,34201,1,0,0:0:0:0:
448,192,34320,1,0,0:0:0:0:
320,192,34320,1,0,0:0:0:0:
64,192,34320,1,0,0:0:0:0:
64,192,34440,1,0,0:0:0:0:
192,192,34440,1,0,0:0:0:0:
448,192,34559,1,0,0:0:0:0:
320,192,34559,1,0,0:0:0:0:
64,192,34678,1,0,0:0:0:0:
448,192,34678,1,0,0:0:0:0:
192,192,34678,1,0,0:0:0:0:
320,192,34886,1,0,0:0:0:0:
448,192,35035,1,0,0:0:0:0:
192,192,35035,1,0,0:0:0:0:
64,192,35035,1,0,0:0:0:0:
192,192,35243,1,0,0:0:0:0:
448,192,35392,1,0,0:0:0:0:
320,192,35392,1,0,0:0:0:0:
64,192,35392,1,0,0:0:0:0:
64,192,35600,1,0,0:0:0:0:
320,192,35749,1,0,0:0:0:0:
448,192,35749,1,0,0:0:0:0:
192,192,35749,1,0,0:0:0:0:
448,192,35957,1,0,0:0:0:0:
320,192,36106,1,0,0:0:0:0:
192,192,36106,1,0,0:0:0:0:
64,192,36106,1,0,0:0:0:0:
64,192,36225,1,0,0:0:0:0:
320,192,36225,1,0,0:0:0:0:
448,192,36225,1,0,0:0:0:0:
192,192,36345,1,0,0:0:0:0:
320,192,36345,1,0,0:0:0:0:
448,192,36345,1,0,0:0:0:0:
448,192,36463,1,0,0:0:0:0:
192,192,36463,1,0,0:0:0:0:
64,192,36463,1,0,0:0:0:0:
320,192,36582,1,0,0:0:0:0:
64,192,36582,1,0,0:0:0:0:
192,192,36701,1,0,0:0:0:0:
320,192,36701,1,0,0:0:0:0:
448,192,36820,1,0,0:0:0:0:
192,192,36820,1,0,0:0:0:0:
64,192,36820,1,0,0:0:0:0:
448,192,36940,1,0,0:0:0:0:
320,192,36940,1,0,0:0:0:0:
320,192,37059,1,0,0:0:0:0:
64,192,37059,1,0,0:0:0:0:
192,192,37178,1,0,0:0:0:0:
320,192,37178,1,0,0:0:0:0:
448,192,37178,1,0,0:0:0:0:
192,192,37296,1,0,0:0:0:0:
64,192,37296,1,0,0:0:0:0:
320,192,37415,1,0,0:0:0:0:
448,192,37415,1,0,0:0:0:0:
448,192,37535,1,0,0:0:0:0:
192,192,37535,1,0,0:0:0:0:
64,192,37535,1,0,0:0:0:0:
320,192,37654,1,0,0:0:0:0:
192,192,37654,1,0,0:0:0:0:
64,192,37773,1,0,0:0:0:0:
320,192,37773,1,0,0:0:0:0:
320,192,37892,1,0,0:0:0:0:
192,192,37892,1,0,0:0:0:0:
448,192,37892,1,0,0:0:0:0:
448,192,38011,1,0,0:0:0:0:
64,192,38011,1,0,0:0:0:0:
64,192,38130,1,0,0:0:0:0:
320,192,38130,1,0,0:0:0:0:
192,192,38249,1,0,0:0:0:0:
320,192,38249,1,0,0:0:0:0:
64,192,38249,1,0,0:0:0:0:
448,192,38368,1,0,0:0:0:0:
192,192,38368,1,0,0:0:0:0:
448,192,38487,1,0,0:0:0:0:
64,192,38487,1,0,0:0:0:0:
192,192,38606,1,0,0:0:0:0:
320,192,38606,1,0,0:0:0:0:
64,192,38606,1,0,0:0:0:0:
320,192,38725,1,0,0:0:0:0:
192,192,38725,1,0,0:0:0:0:
448,192,38845,1,0,0:0:0:0:
64,192,38845,1,0,0:0:0:0:
448,192,38963,1,0,0:0:0:0:
64,192,38963,1,0,0:0:0:0:
320,192,38963,1,0,0:0:0:0:
192,192,39082,1,0,0:0:0:0:
320,192,39082,1,0,0:0:0:0:
64,192,39201,1,0,0:0:0:0:
192,192,39201,1,0,0:0:0:0:
448,192,39320,1,0,0:0:0:0:
320,192,39320,1,0,0:0:0:0:
64,192,39320,1,0,0:0:0:0:
192,192,39440,1,0,0:0:0:0:
448,192,39440,1,0,0:0:0:0:
64,192,39559,1,0,0:0:0:0:
448,192,39559,1,0,0:0:0:0:
192,192,39678,1,0,0:0:0:0:
320,192,39678,1,0,0:0:0:0:
64,192,39678,1,0,0:0:0:0:
448,192,39796,1,0,0:0:0:0:
192,192,39796,1,0,0:0:0:0:
448,192,39915,1,0,0:0:0:0:
64,192,39915,1,0,0:0:0:0:
192,192,40035,1,0,0:0:0:0:
64,192,40035,1,0,0:0:0:0:
320,192,40035,1,0,0:0:0:0:
448,192,40154,1,0,0:0:0:0:
192,192,40154,1,0,0:0:0:0:
320,192,40273,1,0,0:0:0:0:
64,192,40273,1,0,0:0:0:0:
448,192,40392,1,0,0:0:0:0:
192,192,40392,1,0,0:0:0:0:
320,192,40392,1,0,0:0:0:0:
192,192,40511,1,0,0:0:0:0:
64,192,40511,1,0,0:0:0:0:
64,192,40630,1,0,0:0:0:0:
320,192,40630,1,0,0:0:0:0:
192,192,40749,1,0,0:0:0:0:
448,192,40749,1,0,0:0:0:0:
64,192,40749,1,0,0:0:0:0:
64,192,40957,1,0,0:0:0:0:
320,192,41106,1,0,0:0:0:0:
448,192,41106,1,0,0:0:0:0:
192,192,41106,1,0,0:0:0:0:
448,192,41315,1,0,0:0:0:0:
64,192,41463,1,0,0:0:0:0:
192,192,41463,1,0,0:0:0:0:
320,192,41463,1,0,0:0:0:0:
64,192,41582,1,0,0:0:0:0:
192,192,41582,1,0,0:0:0:0:
64,192,41701,1,0,0:0:0:0:
320,192,41701,1,0,0:0:0:0:
448,192,41820,1,0,0:0:0:0:
320,192,41820,1,0,0:0:0:0:
192,192,41820,1,0,0:0:0:0:
448,192,42029,1,0,0:0:0:0:
64,192,42178,1,0,0:0:0:0:
192,192,42178,1,0,0:0:0:0:
320,192,42178,1,0,0:0:0:0:
64,192,42296,1,0,0:0:0:0:
192,192,42296,1,0,0:0:0:0:
192,192,42415,1,0,0:0:0:0:
448,192,42415,1,0,0:0:0:0:
320,192,42535,1,0,0:0:0:0:
448,192,42535,1,0,0:0:0:0:
64,192,42535,1,0,0:0:0:0:
192,192,42654,1,0,0:0:0:0:
320,192,42654,1,0,0:0:0:0:
448,192,42773,1,0,0:0:0:0:
192,192,42773,1,0,0:0:0:0:
64,192,42892,1,0,0:0:0:0:
448,192,42892,1,0,0:0:0:0:
320,192,42892,1,0,0:0:0:0:
192,192,43011,1,0,0:0:0:0:
320,192,43011,1,0,0:0:0:0:
64,192,43130,1,0,0:0:0:0:
448,192,43130,1,0,0:0:0:0:
192,192,43249,1,0,0:0:0:0:
64,192,43249,1,0,0:0:0:0:
320,192,43249,1,0,0:0:0:0:
448,192,43368,1,0,0:0:0:0:
320,192,43368,1,0,0:0:0:0:
448,192,43487,1,0,0:0:0:0:
192,192,43487,1,0,0:0:0:0:
448,192,43606,1,0,0:0:0:0:
64,192,43606,1,0,0:0:0:0:
320,192,43606,1,0,0:0:0:0:
192,192,43725,1,0,0:0:0:0:
64,192,43725,1,0,0:0:0:0:
448,192,43845,1,0,0:0:0:0:
320,192,43845,1,0,0:0:0:0:
448,192,43963,1,0,0:0:0:0:
192,192,43963,1,0,0:0:0:0:
64,192,43963,1,0,0:0:0:0:
320,192,44082,1,0,0:0:0:0:
64,192,44082,1,0,0:0:0:0:
192,192,44201,1,0,0:0:0:0:
320,192,44201,1,0,0:0:0:0:
64,192,44320,1,0,0:0:0:0:
192,192,44320,1,0,0:0:0:0:
448,192,44320,1,0,0:0:0:0:
320,192,44440,1,0,0:0:0:0:
448,192,44440,1,0,0:0:0:0:
64,192,44440,1,0,0:0:0:0:
192,192,44559,1,0,0:0:0:0:
64,192,44559,1,0,0:0:0:0:
320,192,44678,1,0,0:0:0:0:
448,192,44678,1,0,0:0:0:0:
192,192,44678,1,0,0:0:0:0:
64,192,44796,1,0,0:0:0:0:
320,192,44796,1,0,0:0:0:0:
320,192,44915,1,0,0:0:0:0:
448,192,44915,1,0,0:0:0:0:
192,192,45035,1,0,0:0:0:0:
64,192,45035,1,0,0:0:0:0:
448,192,45035,1,0,0:0:0:0:
64,192,45154,1,0,0:0:0:0:
320,192,45154,1,0,0:0:0:0:
448,192,45273,1,0,0:0:0:0:
192,192,45273,1,0,0:0:0:0:
64,192,45392,1,0,0:0:0:0:
320,192,45392,1,0,0:0:0:0:
448,192,45392,1,0,0:0:0:0:
64,192,45511,1,0,0:0:0:0:
192,192,45511,1,0,0:0:0:0:
448,192,45630,1,0,0:0:0:0:
320,192,45630,1,0,0:0:0:0:
448,192,45749,1,0,0:0:0:0:
64,192,45749,1,0,0:0:0:0:
192,192,45749,1,0,0:0:0:0:
320,192,45868,1,0,0:0:0:0:
64,192,45868,1,0,0:0:0:0:
192,192,45987,1,0,0:0:0:0:
448,192,45987,1,0,0:0:0:0:
448,192,46106,1,0,0:0:0:0:
320,192,46106,1,0,0:0:0:0:
192,192,46106,1,0,0:0:0:0:
64,192,46225,1,0,0:0:0:0:
320,192,46225,1,0,0:0:0:0:
192,192,46345,1,0,0:0:0:0:
64,192,46345,1,0,0:0:0:0:
192,192,46463,1,0,0:0:0:0:
320,192,46463,1,0,0:0:0:0:
448,192,46463,1,0,0:0:0:0:
192,192,46671,1,0,0:0:0:0:
320,192,46820,1,0,0:0:0:0:
448,192,46820,1,0,0:0:0:0:
64,192,46820,1,0,0:0:0:0:
320,192,47029,1,0,0:0:0:0:
192,192,47178,1,0,0:0:0:0:
448,192,47178,1,0,0:0:0:0:
64,192,47178,1,0,0:0:0:0:
448,192,47386,1,0,0:0:0:0:
320,192,47535,1,0,0:0:0:0:
192,192,47535,1,0,0:0:0:0:
64,192,47535,1,0,0:0:0:0:
64,192,47743,1,0,0:0:0:0:
192,192,47892,128,0,48249:0:0:0:0:
448,192,47892,128,0,48249:0:0:0:0:
64,192,47892,1,0,0:0:0:0:
320,192,47892,1,0,0:0:0:0:
320,192,48249,1,0,0:0:0:0:
64,192,48249,1,0,0:0:0:0:
64,192,48606,128,0,48963:0:0:0:0:
192,192,48606,128,0,48963:0:0:0:0:
320,192,48606,1,0,0:0:0:0:
448,192,48606,1,0,0:0:0:0:
320,192,48963,1,0,0:0:0:0:
448,192,48963,1,0,0:0:0:0:
448,192,49320,128,0,49499:0:0:0:0:
320,192,49320,128,0,49499:0:0:0:0:
192,192,49320,1,0,0:0:0:0:
64,192,49320,1,0,0:0:0:0:
64,192,49678,128,0,49856:0:0:0:0:
320,192,49678,128,0,49856:0:0:0:0:
192,192,49678,1,0,0:0:0:0:
448,192,49678,1,0,0:0:0:0:
448,192,50035,128,0,50392:0:0:0:0:
320,192,50035,1,0,0:0:0:0:
192,192,50035,128,0,50392:0:0:0:0:
64,192,50035,1,0,0:0:0:0:
320,192,50392,128,0,50749:0:0:0:0:
64,192,50392,128,0,50749:0:0:0:0:
192,192,50749,128,0,51106:0:0:0:0:
448,192,50749,128,0,51106:0:0:0:0:
320,192,51106,1,0,0:0:0:0:
64,192,51106,1,0,0:0:0:0:
320,192,51463,1,0,0:0:0:0:
192,192,51463,128,0,51820:0:0:0:0:
448,192,51463,128,0,51820:0:0:0:0:
64,192,51463,1,0,0:0:0:0:
320,192,51820,1,0,0:0:0:0:
64,192,51820,1,0,0:0:0:0:
64,192,52178,128,0,52237:0:0:0:0:
448,192,52178,1,0,0:0:0:0:
320,192,52178,1,0,0:0:0:0:
192,192,52296,128,0,52356:0:0:0:0:
320,192,52415,128,0,52475:0:0:0:0:
448,192,52535,128,0,52595:0:0:0:0:
64,192,52535,128,0,52713:0:0:0:0:
192,192,52535,128,0,52713:0:0:0:0:
320,192,52773,1,0,0:0:0:0:
448,192,52773,1,0,0:0:0:0:
448,192,52892,128,0,53249:0:0:0:0:
320,192,52892,128,0,53249:0:0:0:0:
192,192,52892,1,0,0:0:0:0:
64,192,52892,1,0,0:0:0:0:
64,192,53249,128,0,53606:0:0:0:0:
192,192,53249,128,0,53606:0:0:0:0:
320,192,53606,128,0,53963:0:0:0:0:
448,192,53606,128,0,53963:0:0:0:0:
64,192,53963,1,0,0:0:0:0:
192,192,53963,1,0,0:0:0:0:
64,192,54320,128,0,54678:0:0:0:0:
448,192,54320,128,0,54678:0:0:0:0:
192,192,54320,1,0,0:0:0:0:
320,192,54320,1,0,0:0:0:0:
192,192,54678,1,0,0:0:0:0:
320,192,54678,1,0,0:0:0:0:
448,192,55035,128,0,55095:0:0:0:0:
192,192,55035,1,0,0:0:0:0:
64,192,55035,1,0,0:0:0:0:
320,192,55154,128,0,55213:0:0:0:0:
192,192,55273,128,0,55332:0:0:0:0:
320,192,55392,128,0,55570:0:0:0:0:
64,192,55392,128,0,55451:0:0:0:0:
448,192,55392,128,0,55570:0:0:0:0:
192,192,55749,128,0,56106:0:0:0:0:
320,192,55749,128,0,56106:0:0:0:0:
448,192,55749,1,0,0:0:0:0:
64,192,55749,1,0,0:0:0:0:
64,192,56106,128,0,56463:0:0:0:0:
448,192,56106,128,0,56463:0:0:0:0:
192,192,56463,1,0,0:0:0:0:
320,192,56463,1,0,0:0:0:0:
192,192,56582,1,0,0:0:0:0:
192,192,56701,1,0,0:0:0:0:
320,192,56820,1,0,0:0:0:0:
448,192,56820,1,0,0:0:0:0:
64,192,56820,1,0,0:0:0:0:
320,192,56940,1,0,0:0:0:0:
320,192,57059,1,0,0:0:0:0:
64,192,57178,1,0,0:0:0:0:
448,192,57178,1,0,0:0:0:0:
192,192,57178,1,0,0:0:0:0:
448,192,57296,1,0,0:0:0:0:
448,192,57415,1,0,0:0:0:0:
64,192,57535,1,0,0:0:0:0:
192,192,57535,1,0,0:0:0:0:
320,192,57535,1,0,0:0:0:0:
192,192,57654,1,0,0:0:0:0:
192,192,57773,1,0,0:0:0:0:
320,192,57892,1,0,0:0:0:0:
64,192,57892,128,0,57951:0:0:0:0:
448,192,57892,1,0,0:0:0:0:
192,192,58011,128,0,58070:0:0:0:0:
320,192,58130,128,0,58190:0:0:0:0:
448,192,58249,1,0,0:0:0:0:
64,192,58249,128,0,58309:0:0:0:0:
192,192,58249,1,0,0:0:0:0:
448,192,58368,1,0,0:0:0:0:
448,192,58487,1,0,0:0:0:0:
64,192,58606,1,0,0:0:0:0:
192,192,58606,1,0,0:0:0:0:
320,192,58606,1,0,0:0:0:0:
64,192,58725,1,0,0:0:0:0:
64,192,58845,1,0,0:0:0:0:
448,192,58963,1,0,0:0:0:0:
192,192,58963,1,0,0:0:0:0:
320,192,58963,1,0,0:0:0:0:
320,192,59082,1,0,0:0:0:0:
320,192,59201,1,0,0:0:0:0:
64,192,59320,1,0,0:0:0:0:
192,192,59320,1,0,0:0:0:0:
448,192,59320,1,0,0:0:0:0:
192,192,59440,1,0,0:0:0:0:
192,192,59559,1,0,0:0:0:0:
448,192,59678,1,0,0:0:0:0:
320,192,59678,1,0,0:0:0:0:
64,192,59678,1,0,0:0:0:0:
448,192,59796,1,0,0:0:0:0:
448,192,59915,1,0,0:0:0:0:
64,192,60035,1,0,0:0:0:0:
192,192,60035,1,0,0:0:0:0:
320,192,60035,1,0,0:0:0:0:
64,192,60154,1,0,0:0:0:0:
64,192,60273,1,0,0:0:0:0:
448,192,60392,1,0,0:0:0:0:
320,192,60392,1,0,0:0:0:0:
192,192,60392,1,0,0:0:0:0:
192,192,60511,1,0,0:0:0:0:
192,192,60630,1,0,0:0:0:0:
64,192,60749,1,0,0:0:0:0:
448,192,60749,1,0,0:0:0:0:
320,192,60749,1,0,0:0:0:0:
320,192,60868,1,0,0:0:0:0:
320,192,60987,1,0,0:0:0:0:
64,192,61106,1,0,0:0:0:0:
448,192,61106,128,0,61165:0:0:0:0:
192,192,61106,1,0,0:0:0:0:
320,192,61225,128,0,61285:0:0:0:0:
192,192,61345,128,0,61404:0:0:0:0:
448,192,61463,1,0,0:0:0:0:
64,192,61463,128,0,61523:0:0:0:0:
320,192,61463,1,0,0:0:0:0:
448,192,61582,1,0,0:0:0:0:
448,192,61701,1,0,0:0:0:0:
64,192,61820,1,0,0:0:0:0:
320,192,61820,1,0,0:0:0:0:
192,192,61820,1,0,0:0:0:0:
320,192,61940,1,0,0:0:0:0:
320,192,62059,1,0,0:0:0:0:
64,192,62178,1,0,0:0:0:0:
192,192,62178,1,0,0:0:0:0:
448,192,62178,1,0,0:0:0:0:
64,192,62296,1,0,0:0:0:0:
64,192,62415,1,0,0:0:0:0:
192,192,62415,1,0,0:0:0:0:
448,192,62535,1,0,0:0:0:0:
320,192,62535,1,0,0:0:0:0:
192,192,62535,1,0,0:0:0:0:
448,192,62654,1,0,0:0:0:0:
448,192,62773,1,0,0:0:0:0:
192,192,62773,1,0,0:0:0:0:
64,192,62892,1,0,0:0:0:0:
192,192,62892,1,0,0:0:0:0:
320,192,62892,1,0,0:0:0:0:
64,192,63011,1,0,0:0:0:0:
64,192,63130,1,0,0:0:0:0:
320,192,63130,1,0,0:0:0:0:
192,192,63249,1,0,0:0:0:0:
320,192,63249,1,0,0:0:0:0:
448,192,63249,1,0,0:0:0:0:
448,192,63368,1,0,0:0:0:0:
64,192,63487,1,0,0:0:0:0:
448,192,63487,1,0,0:0:0:0:
64,192,63606,1,0,0:0:0:0:
192,192,63606,1,0,0:0:0:0:
320,192,63606,1,0,0:0:0:0:
192,192,63725,1,0,0:0:0:0:
192,192,63845,1,0,0:0:0:0:
448,192,63845,1,0,0:0:0:0:
448,192,63963,1,0,0:0:0:0:
320,192,63963,1,0,0:0:0:0:
64,192,63963,1,0,0:0:0:0:
64,192,64082,1,0,0:0:0:0:
64,192,64201,1,0,0:0:0:0:
448,192,64201,1,0,0:0:0:0:
192,192,64320,1,0,0:0:0:0:
320,192,64320,1,0,0:0:0:0:
448,192,64320,1,0,0:0:0:0:
320,192,64440,1,0,0:0:0:0:
64,192,64440,1,0,0:0:0:0:
320,192,64559,1,0,0:0:0:0:
192,192,64559,1,0,0:0:0:0:
64,192,64678,1,0,0:0:0:0:
192,192,64678,1,0,0:0:0:0:
448,192,64678,1,0,0:0:0:0:
64,192,64796,1,0,0:0:0:0:
64,192,64915,1,0,0:0:0:0:
320,192,64915,1,0,0:0:0:0:
320,192,65035,1,0,0:0:0:0:
192,192,65035,1,0,0:0:0:0:
448,192,65035,1,0,0:0:0:0:
448,192,65154,1,0,0:0:0:0:
448,192,65273,1,0,0:0:0:0:
64,192,65273,1,0,0:0:0:0:
320,192,65392,1,0,0:0:0:0:
192,192,65392,1,0,0:0:0:0:
64,192,65392,1,0,0:0:0:0:
320,192,65511,1,0,0:0:0:0:
320,192,65630,1,0,0:0:0:0:
64,192,65630,1,0,0:0:0:0:
64,192,65749,1,0,0:0:0:0:
192,192,65749,1,0,0:0:0:0:
448,192,65749,1,0,0:0:0:0:
192,192,65868,1,0,0:0:0:0:
192,192,65987,1,0,0:0:0:0:
320,192,65987,1,0,0:0:0:0:
64,192,66106,1,0,0:0:0:0:
192,192,66106,1,0,0:0:0:0:
448,192,66106,1,0,0:0:0:0:
448,192,66225,1,0,0:0:0:0:
448,192,66345,1,0,0:0:0:0:
320,192,66345,1,0,0:0:0:0:
320,192,66463,1,0,0:0:0:0:
64,192,66463,1,0,0:0:0:0:
192,192,66463,1,0,0:0:0:0:
64,192,66582,1,0,0:0:0:0:
64,192,66701,1,0,0:0:0:0:
448,192,66701,1,0,0:0:0:0:
320,192,66820,1,0,0:0:0:0:
192,192,66820,1,0,0:0:0:0:
448,192,66820,1,0,0:0:0:0:
320,192,66940,5,0,0:0:0:0:
64,192,67059,5,0,0:0:0:0:
320,192,67059,1,0,0:0:0:0:
192,192,67178,1,0,0:0:0:0:
64,192,67178,1,0,0:0:0:0:
448,192,67178,1,0,0:0:0:0:
448,192,67296,1,0,0:0:0:0:
448,192,67415,1,0,0:0:0:0:
64,192,67415,1,0,0:0:0:0:
64,192,67535,1,0,0:0:0:0:
192,192,67535,1,0,0:0:0:0:
320,192,67535,1,0,0:0:0:0:
192,192,67654,1,0,0:0:0:0:
192,192,67773,1,0,0:0:0:0:
320,192,67773,1,0,0:0:0:0:
448,192,67892,1,0,0:0:0:0:
320,192,67892,1,0,0:0:0:0:
64,192,67892,1,0,0:0:0:0:
448,192,68011,1,0,0:0:0:0:
448,192,68130,1,0,0:0:0:0:
320,192,68130,1,0,0:0:0:0:
192,192,68249,1,0,0:0:0:0:
320,192,68249,1,0,0:0:0:0:
64,192,68249,1,0,0:0:0:0:
192,192,68368,1,0,0:0:0:0:
192,192,68487,1,0,0:0:0:0:
320,192,68487,1,0,0:0:0:0:
64,192,68606,1,0,0:0:0:0:
448,192,68606,1,0,0:0:0:0:
320,192,68606,1,0,0:0:0:0:
64,192,68725,1,0,0:0:0:0:
64,192,68845,1,0,0:0:0:0:
192,192,68845,1,0,0:0:0:0:
448,192,68963,1,0,0:0:0:0:
320,192,68963,1,0,0:0:0:0:
192,192,68963,1,0,0:0:0:0:
320,192,69082,1,0,0:0:0:0:
320,192,69201,1,0,0:0:0:0:
64,192,69201,1,0,0:0:0:0:
448,192,69320,1,0,0:0:0:0:
64,192,69320,1,0,0:0:0:0:
192,192,69320,1,0,0:0:0:0:
448,192,69440,1,0,0:0:0:0:
448,192,69559,1,0,0:0:0:0:
192,192,69559,1,0,0:0:0:0:
64,192,69678,1,0,0:0:0:0:
320,192,69678,1,0,0:0:0:0:
192,192,69678,1,0,0:0:0:0:
64,192,69796,1,0,0:0:0:0:
64,192,69915,1,0,0:0:0:0:
448,192,69915,1,0,0:0:0:0:
448,192,70035,1,0,0:0:0:0:
320,192,70035,1,0,0:0:0:0:
192,192,70035,1,0,0:0:0:0:
320,192,70154,1,0,0:0:0:0:
64,192,70154,1,0,0:0:0:0:
320,192,70273,1,0,0:0:0:0:
448,192,70273,1,0,0:0:0:0:
64,192,70392,1,0,0:0:0:0:
192,192,70392,1,0,0:0:0:0:
448,192,70392,1,0,0:0:0:0:
192,192,70511,1,0,0:0:0:0:
192,192,70630,1,0,0:0:0:0:
320,192,70630,1,0,0:0:0:0:
448,192,70749,1,0,0:0:0:0:
320,192,70749,1,0,0:0:0:0:
64,192,70749,1,0,0:0:0:0:
448,192,70868,1,0,0:0:0:0:
448,192,70987,1,0,0:0:0:0:
64,192,70987,1,0,0:0:0:0:
320,192,71106,1,0,0:0:0:0:
192,192,71106,1,0,0:0:0:0:
64,192,71106,1,0,0:0:0:0:
192,192,71225,5,0,0:0:0:0:
192,192,71345,1,0,0:0:0:0:
64,192,71345,1,0,0:0:0:0:
448,192,71463,1,0,0:0:0:0:
64,192,71463,1,0,0:0:0:0:
320,192,71463,1,0,0:0:0:0:
448,192,71582,1,0,0:0:0:0:
448,192,71701,1,0,0:0:0:0:
64,192,71701,1,0,0:0:0:0:
320,192,71820,1,0,0:0:0:0:
192,192,71820,1,0,0:0:0:0:
64,192,71820,1,0,0:0:0:0:
192,192,71940,1,0,0:0:0:0:
192,192,72059,1,0,0:0:0:0:
320,192,72059,1,0,0:0:0:0:
64,192,72178,5,0,0:0:0:0:
192,192,72178,1,0,0:0:0:0:
448,192,72178,1,0,0:0:0:0:
320,192,72178,1,0,0:0:0:0:
448,192,72296,1,0,0:0:0:0:
448,192,72415,1,0,0:0:0:0:
64,192,72415,1,0,0:0:0:0:
448,192,72535,1,0,0:0:0:0:
320,192,72535,1,0,0:0:0:0:
192,192,72535,1,0,0:0:0:0:
64,192,72535,1,0,0:0:0:0:
192,192,72654,1,0,0:0:0:0:
192,192,72773,1,0,0:0:0:0:
448,192,72773,1,0,0:0:0:0:
64,192,72892,1,0,0:0:0:0:
192,192,72892,1,0,0:0:0:0:
320,192,72892,1,0,0:0:0:0:
448,192,72892,1,0,0:0:0:0:
320,192,73011,1,0,0:0:0:0:
320,192,73130,1,0,0:0:0:0:
64,192,73130,1,0,0:0:0:0:
448,192,73249,1,0,0:0:0:0:
320,192,73249,1,0,0:0:0:0:
192,192,73249,1,0,0:0:0:0:
448,192,73368,1,0,0:0:0:0:
64,192,73487,1,0,0:0:0:0:
192,192,73487,1,0,0:0:0:0:
448,192,73606,1,0,0:0:0:0:
320,192,73606,1,0,0:0:0:0:
64,192,73606,1,0,0:0:0:0:
192,192,73606,1,0,0:0:0:0:
448,192,73725,1,0,0:0:0:0:
320,192,73725,1,0,0:0:0:0:
64,192,73845,1,0,0:0:0:0:
192,192,73845,1,0,0:0:0:0:
320,192,73963,1,0,0:0:0:0:
448,192,73963,1,0,0:0:0:0:
64,192,73963,1,0,0:0:0:0:
192,192,74082,1,0,0:0:0:0:
320,192,74082,1,0,0:0:0:0:
448,192,74201,1,0,0:0:0:0:
192,192,74201,1,0,0:0:0:0:
448,192,74320,1,0,0:0:0:0:
320,192,74320,1,0,0:0:0:0:
192,192,74320,1,0,0:0:0:0:
64,192,74320,1,0,0:0:0:0:
448,192,74440,1,0,0:0:0:0:
320,192,74440,1,0,0:0:0:0:
64,192,74559,1,0,0:0:0:0:
320,192,74559,1,0,0:0:0:0:
320,192,74678,1,0,0:0:0:0:
448,192,74678,1,0,0:0:0:0:
192,192,74678,1,0,0:0:0:0:
192,192,74796,1,0,0:0:0:0:
64,192,74796,1,0,0:0:0:0:
448,192,74915,1,0,0:0:0:0:
64,192,74915,1,0,0:0:0:0:
64,192,75035,1,0,0:0:0:0:
192,192,75035,1,0,0:0:0:0:
448,192,75035,1,0,0:0:0:0:
320,192,75035,1,0,0:0:0:0:
320,192,75154,1,0,0:0:0:0:
192,192,75154,1,0,0:0:0:0:
448,192,75273,1,0,0:0:0:0:
192,192,75273,1,0,0:0:0:0:
64,192,75392,1,0,0:0:0:0:
320,192,75392,1,0,0:0:0:0:
448,192,75392,1,0,0:0:0:0:
64,192,75511,1,0,0:0:0:0:
192,192,75511,1,0,0:0:0:0:
448,192,75630,1,0,0:0:0:0:
192,192,75630,1,0,0:0:0:0:
448,192,75749,1,0,0:0:0:0:
320,192,75749,1,0,0:0:0:0:
192,192,75749,1,0,0:0:0:0:
64,192,75749,1,0,0:0:0:0:
320,192,75868,1,0,0:0:0:0:
64,192,75868,1,0,0:0:0:0:
320,192,75987,1,0,0:0:0:0:
448,192,75987,1,0,0:0:0:0:
192,192,76106,1,0,0:0:0:0:
448,192,76106,1,0,0:0:0:0:
64,192,76106,1,0,0:0:0:0:
320,192,76225,1,0,0:0:0:0:
192,192,76225,1,0,0:0:0:0:
64,192,76345,1,0,0:0:0:0:
448,192,76345,1,0,0:0:0:0:
64,192,76463,1,0,0:0:0:0:
192,192,76463,1,0,0:0:0:0:
320,192,76463,1,0,0:0:0:0:
448,192,76463,1,0,0:0:0:0:
64,192,76582,1,0,0:0:0:0:
192,192,76582,1,0,0:0:0:0:
448,192,76701,1,0,0:0:0:0:
192,192,76701,1,0,0:0:0:0:
320,192,76820,1,0,0:0:0:0:
448,192,76820,1,0,0:0:0:0:
64,192,76820,1,0,0:0:0:0:
320,192,76940,1,0,0:0:0:0:
192,192,76940,1,0,0:0:0:0:
448,192,77059,1,0,0:0:0:0:
192,192,77059,1,0,0:0:0:0:
64,192,77178,1,0,0:0:0:0:
192,192,77178,1,0,0:0:0:0:
320,192,77178,1,0,0:0:0:0:
448,192,77178,1,0,0:0:0:0:
64,192,77296,1,0,0:0:0:0:
320,192,77296,1,0,0:0:0:0:
448,192,77415,1,0,0:0:0:0:
192,192,77415,1,0,0:0:0:0:
320,192,77535,1,0,0:0:0:0:
448,192,77535,1,0,0:0:0:0:
192,192,77535,1,0,0:0:0:0:
64,192,77654,1,0,0:0:0:0:
320,192,77654,1,0,0:0:0:0:
192,192,77773,1,0,0:0:0:0:
64,192,77773,1,0,0:0:0:0:
64,192,77892,1,0,0:0:0:0:
192,192,77892,1,0,0:0:0:0:
320,192,77892,1,0,0:0:0:0:
448,192,77892,1,0,0:0:0:0:
448,192,78011,1,0,0:0:0:0:
320,192,78011,1,0,0:0:0:0:
448,192,78130,1,0,0:0:0:0:
64,192,78130,1,0,0:0:0:0:
64,192,78249,1,0,0:0:0:0:
192,192,78249,1,0,0:0:0:0:
320,192,78249,1,0,0:0:0:0:
448,192,78249,1,0,0:0:0:0:
192,192,78368,1,0,0:0:0:0:
64,192,78368,1,0,0:0:0:0:
448,192,78487,1,0,0:0:0:0:
320,192,78487,1,0,0:0:0:0:
448,192,78606,1,0,0:0:0:0:
320,192,78606,1,0,0:0:0:0:
64,192,78606,1,0,0:0:0:0:
192,192,78606,1,0,0:0:0:0:
64,192,78725,1,0,0:0:0:0:
320,192,78725,1,0,0:0:0:0:
192,192,78845,1,0,0:0:0:0:
448,192,78845,1,0,0:0:0:0:
64,192,78963,1,0,0:0:0:0:
192,192,78963,1,0,0:0:0:0:
448,192,78963,1,0,0:0:0:0:
320,192,78963,1,0,0:0:0:0:
320,192,79082,1,0,0:0:0:0:
448,192,79082,1,0,0:0:0:0:
192,192,79201,1,0,0:0:0:0:
64,192,79201,1,0,0:0:0:0:
448,192,79320,1,0,0:0:0:0:
320,192,79320,1,0,0:0:0:0:
64,192,79320,1,0,0:0:0:0:
192,192,79320,1,0,0:0:0:0:
192,192,79559,1,0,0:0:0:0:
64,192,79559,1,0,0:0:0:0:
448,192,79559,1,0,0:0:0:0:
320,192,79678,1,0,0:0:0:0:
64,192,79678,1,0,0:0:0:0:
448,192,79678,1,0,0:0:0:0:
192,192,79678,1,0,0:0:0:0:
320,192,79796,1,0,0:0:0:0:
448,192,79796,1,0,0:0:0:0:
64,192,79796,1,0,0:0:0:0:
192,192,79915,1,0,0:0:0:0:
64,192,79915,1,0,0:0:0:0:
320,192,79915,1,0,0:0:0:0:
192,192,80035,1,0,0:0:0:0:
64,192,80035,1,0,0:0:0:0:
448,192,80035,1,0,0:0:0:0:
320,192,80154,1,0,0:0:0:0:
192,192,80154,1,0,0:0:0:0:
448,192,80154,1,0,0:0:0:0:
192,192,80273,1,0,0:0:0:0:
448,192,80273,1,0,0:0:0:0:
64,192,80273,1,0,0:0:0:0:
448,192,80392,1,0,0:0:0:0:
320,192,80392,1,0,0:0:0:0:
64,192,80392,1,0,0:0:0:0:
192,192,80392,1,0,0:0:0:0:
448,192,80630,1,0,0:0:0:0:
64,192,80630,1,0,0:0:0:0:
320,192,80630,1,0,0:0:0:0:
192,192,80749,1,0,0:0:0:0:
320,192,80749,1,0,0:0:0:0:
448,192,80749,1,0,0:0:0:0:
64,192,80749,1,0,0:0:0:0:
320,192,80987,1,0,0:0:0:0:
64,192,80987,1,0,0:0:0:0:
448,192,80987,1,0,0:0:0:0:
448,192,81106,1,0,0:0:0:0:
320,192,81106,1,0,0:0:0:0:
192,192,81106,1,0,0:0:0:0:
64,192,81106,1,0,0:0:0:0:
320,192,81225,1,0,0:0:0:0:
192,192,81225,1,0,0:0:0:0:
64,192,81225,1,0,0:0:0:0:
192,192,81345,1,0,0:0:0:0:
320,192,81345,1,0,0:0:0:0:
448,192,81345,1,0,0:0:0:0:
448,192,81463,1,0,0:0:0:0:
192,192,81463,1,0,0:0:0:0:
64,192,81463,1,0,0:0:0:0:
64,192,81582,1,0,0:0:0:0:
320,192,81582,1,0,0:0:0:0:
448,192,81582,1,0,0:0:0:0:
192,192,81701,1,0,0:0:0:0:
64,192,81701,1,0,0:0:0:0:
320,192,81701,1,0,0:0:0:0:
320,192,81820,1,0,0:0:0:0:
192,192,81820,1,0,0:0:0:0:
448,192,81820,1,0,0:0:0:0:
64,192,81820,1,0,0:0:0:0:
320,192,82059,1,0,0:0:0:0:
64,192,82059,1,0,0:0:0:0:
448,192,82059,1,0,0:0:0:0:
320,192,82178,1,0,0:0:0:0:
448,192,82178,1,0,0:0:0:0:
192,192,82237,1,0,0:0:0:0:
64,192,82296,1,0,0:0:0:0:
448,192,82296,1,0,0:0:0:0:
320,192,82356,1,0,0:0:0:0:
64,192,82415,1,0,0:0:0:0:
192,192,82415,1,0,0:0:0:0:
320,192,82475,1,0,0:0:0:0:
448,192,82535,1,0,0:0:0:0:
64,192,82535,1,0,0:0:0:0:
192,192,82595,1,0,0:0:0:0:
320,192,82654,1,0,0:0:0:0:
448,192,82654,1,0,0:0:0:0:
64,192,82713,1,0,0:0:0:0:
448,192,82773,1,0,0:0:0:0:
192,192,82773,1,0,0:0:0:0:
320,192,82832,1,0,0:0:0:0:
64,192,82892,1,0,0:0:0:0:
192,192,82892,1,0,0:0:0:0:
448,192,82951,1,0,0:0:0:0:
64,192,83011,1,0,0:0:0:0:
320,192,83011,1,0,0:0:0:0:
192,192,83070,1,0,0:0:0:0:
320,192,83130,1,0,0:0:0:0:
448,192,83130,1,0,0:0:0:0:
192,192,83190,1,0,0:0:0:0:
448,192,83249,1,0,0:0:0:0:
64,192,83249,1,0,0:0:0:0:
320,192,83309,1,0,0:0:0:0:
64,192,83368,1,0,0:0:0:0:
192,192,83368,1,0,0:0:0:0:
320,192,83428,1,0,0:0:0:0:
448,192,83606,1,0,0:0:0:0:
320,192,83636,1,0,0:0:0:0:
64,192,83665,1,0,0:0:0:0:
192,192,83695,1,0,0:0:0:0:
448,192,83725,1,0,0:0:0:0:
320,192,83755,1,0,0:0:0:0:
64,192,83785,1,0,0:0:0:0:
192,192,83815,1,0,0:0:0:0:
448,192,83845,1,0,0:0:0:0:
320,192,83845,1,0,0:0:0:0:
64,192,83963,1,0,0:0:0:0:
192,192,83993,1,0,0:0:0:0:
448,192,84023,1,0,0:0:0:0:
320,192,84053,1,0,0:0:0:0:
64,192,84082,1,0,0:0:0:0:
192,192,84112,1,0,0:0:0:0:
448,192,84142,1,0,0:0:0:0:
320,192,84171,1,0,0:0:0:0:
64,192,84201,1,0,0:0:0:0:
192,192,84201,1,0,0:0:0:0:
448,192,84320,1,0,0:0:0:0:
320,192,84350,1,0,0:0:0:0:
64,192,84380,1,0,0:0:0:0:
192,192,84410,1,0,0:0:0:0:
448,192,84440,1,0,0:0:0:0:
320,192,84470,1,0,0:0:0:0:
64,192,84499,1,0,0:0:0:0:
192,192,84529,1,0,0:0:0:0:
320,192,84559,1,0,0:0:0:0:
448,192,84559,1,0,0:0:0:0:
64,192,84678,1,0,0:0:0:0:
192,192,84707,1,0,0:0:0:0:
448,192,84737,1,0,0:0:0:0:
320,192,84767,1,0,0:0:0:0:
64,192,84796,1,0,0:0:0:0:
192,192,84826,1,0,0:0:0:0:
448,192,84856,1,0,0:0:0:0:
320,192,84886,1,0,0:0:0:0:
192,192,84915,1,0,0:0:0:0:
64,192,84915,1,0,0:0:0:0:
64,192,85035,128,0,85392:0:0:0:0:
320,192,85035,128,0,85392:0:0:0:0:
448,192,85035,128,0,85392:0:0:0:0:
192,192,85035,128,0,85392:0:0:0:0:
