osu file format v14

[General]
AudioFilename: audio.mp3
AudioLeadIn: 0
PreviewTime: 42479
Countdown: 0
SampleSet: Normal
StackLeniency: 1
Mode: 1
LetterboxInBreaks: 0
WidescreenStoryboard: 1

[Editor]
Bookmarks: 9479
DistanceSpacing: 1
BeatDivisor: 4
GridSize: 32
TimelineZoom: 1.700001

[Metadata]
Title:Stefania
TitleUnicode:Stefania
Artist:Kalush Orchestra
ArtistUnicode:Kalush Orchestra
Creator:Fallmorph
Version:Kantan
Source:Eurovision Song Contest 2022
Tags:electronic folk hip hop hip-hop rap ukraine ukrainian
BeatmapID:3613449
BeatmapSetID:1764195

[Difficulty]
HPDrainRate:8
CircleSize:2
OverallDifficulty:3
ApproachRate:10
SliderMultiplier:1.4
SliderTickRate:1

[Events]
//Background and Video events
0,0,"bg.jpg",0,16
//Break Periods
//Storyboard Layer 0 (Background)
//Storyboard Layer 1 (Fail)
//Storyboard Layer 2 (Pass)
//Storyboard Layer 3 (Foreground)
//Storyboard Layer 4 (Overlay)
//Storyboard Sound Samples

[TimingPoints]
337,285.714285714286,4,1,0,50,1,0
337,-133.333333333333,4,1,0,50,0,0
18265,-100,4,1,0,60,0,0
18551,-100,4,1,0,70,0,0
36837,-100,4,1,0,60,0,0
37979,-133.333333333333,4,1,0,57,0,0
39122,-166.666666666667,4,1,0,53,0,0
40265,-200,4,1,0,50,0,0
40337,285.714285714286,8,1,0,50,1,0
40337,-200,4,1,0,50,0,0
42551,-100,4,1,0,70,0,0
42622,285.714285714286,4,1,0,70,1,1
58835,-103.118161925602,4,1,0,68,0,1
58978,-104.682713347921,4,1,0,66,0,1
59121,-106.247264770241,4,1,0,65,0,1
59407,-109.37636761488,4,1,0,62,0,1
59550,-110.940919037199,4,1,0,61,0,1
59692,-112.494529540481,4,1,0,60,0,1
59835,-114.059080962801,4,1,0,59,0,1
60264,-118.752735229759,4,1,0,55,0,1
60836,-100,4,1,0,70,0,1
60907,-100,4,1,0,70,0,0
77122,-103.127734033246,4,1,0,67,0,0
77265,-104.691601049869,4,1,0,66,0,0
77408,-106.255468066492,4,1,0,65,0,0
77693,-109.372265966754,4,1,0,63,0,0
77979,-112.5,4,1,0,60,0,0
78122,-114.063867016623,4,1,0,60,0,0
78408,-117.191601049869,4,1,0,60,0,0
78693,-120.308398950131,4,1,0,60,0,0
78836,-121.872265966754,4,1,0,60,0,0
79122,-100,4,1,0,70,0,0
97407,-100,4,1,0,60,0,0
98550,-133.333333333333,4,1,0,57,0,0
99692,-166.637503645378,4,1,0,53,0,0
100835,-200,4,1,0,50,0,0
100907,285.714285714286,4,1,0,50,1,0
100907,-200,4,1,0,50,0,0
100908,285.714285714286,8,1,0,50,1,0
100908,-200,4,1,0,50,0,0
103122,-100,4,1,0,70,0,0
103193,285.714285714286,4,1,0,70,1,0
103194,285.714285714286,4,1,0,70,1,1
119408,-103.118161925602,4,1,0,68,0,1
119551,-104.682713347921,4,1,0,66,0,1
119694,-106.247264770241,4,1,0,65,0,1
119980,-109.37636761488,4,1,0,62,0,1
120123,-110.940919037199,4,1,0,61,0,1
120265,-112.494529540481,4,1,0,60,0,1
120408,-114.059080962801,4,1,0,59,0,1
120837,-118.752735229759,4,1,0,55,0,1
121123,-121.881838074398,4,1,0,52,0,1
121408,-125,4,1,0,50,0,1
121479,-125,4,1,0,50,0,0
139694,-100,4,1,0,70,0,0
155836,-101.563867016623,4,1,0,69,0,0
155944,-102.340332458443,4,1,0,68,0,0
156015,-103.127734033246,4,1,0,67,0,0
156122,-104.691601049869,4,1,0,66,0,0
156264,-106.244531933508,4,1,0,65,0,0
156550,-109.372265966754,4,1,0,63,0,0
156836,-112.5,4,1,0,60,0,0
156979,-114.063867016623,4,1,0,60,0,0
157264,-117.180664916885,4,1,0,60,0,0
157407,-118.744531933508,4,1,0,60,0,0
157550,-120.308398950131,4,1,0,60,0,0
157693,-121.872265966754,4,1,0,60,0,0
157979,-125,4,1,0,60,0,0
165122,-121.872265966754,4,1,0,61,0,0
165264,-120.319335083115,4,1,0,62,0,0
165407,-118.755468066492,4,1,0,62,0,0
165693,-115.627734033246,4,1,0,64,0,0
165979,-112.5,4,1,0,65,0,0
166122,-110.936132983377,4,1,0,66,0,0
166264,-109.383202099738,4,1,0,66,0,0
166550,-106.255468066492,4,1,0,67,0,0
166836,-103.127734033246,4,1,0,69,0,0
167122,-100,4,1,0,70,0,0
174265,-103.118161925602,4,1,0,68,0,0
174408,-104.682713347921,4,1,0,66,0,0
174551,-106.247264770241,4,1,0,65,0,0
174694,-107.81181619256,4,1,0,64,0,0
174837,-109.37636761488,4,1,0,62,0,0
174980,-110.940919037199,4,1,0,61,0,0
175123,-112.505470459519,4,1,0,60,0,0
175265,-114.059080962801,4,1,0,59,0,0
175408,-115.62363238512,4,1,0,58,0,0
175694,-118.752735229759,4,1,0,55,0,0
175837,-120.317286652079,4,1,0,54,0,0
175980,-121.881838074398,4,1,0,52,0,0
176336,285.714285714286,16,1,0,50,1,8

[HitObjects]
256,192,9479,5,8,0:0:0:0:
256,192,10479,1,8,0:0:0:0:
256,192,11765,1,8,0:0:0:0:
256,192,12765,1,8,0:0:0:0:
256,192,14051,1,8,0:0:0:0:
256,192,15051,1,8,0:0:0:0:
256,192,16337,1,8,0:0:0:0:
256,192,17337,1,8,0:0:0:0:
256,192,18622,5,4,0:0:0:0:
256,192,19194,1,8,0:0:0:0:
256,192,20337,1,8,0:0:0:0:
256,192,20908,1,0,0:0:0:0:
256,192,21479,1,8,0:0:0:0:
256,192,22622,1,8,0:0:0:0:
256,192,22908,1,0,0:0:0:0:
256,192,23194,1,0,0:0:0:0:
256,192,23765,1,8,0:0:0:0:
256,192,24908,1,8,0:0:0:0:
256,192,25479,1,0,0:0:0:0:
256,192,26051,1,8,0:0:0:0:
256,192,27194,1,8,0:0:0:0:
256,192,27479,1,8,0:0:0:0:
256,192,27765,5,4,0:0:0:0:
256,192,28337,1,0,0:0:0:0:
256,192,28765,1,0,0:0:0:0:
256,192,29479,1,8,0:0:0:0:
256,192,29765,1,0,0:0:0:0:
256,192,30051,1,0,0:0:0:0:
256,192,30622,1,0,0:0:0:0:
256,192,31051,1,0,0:0:0:0:
256,192,31765,1,8,0:0:0:0:
256,192,32051,1,0,0:0:0:0:
256,192,32337,1,0,0:0:0:0:
256,192,32908,1,8,0:0:0:0:
256,192,34051,1,8,0:0:0:0:
256,192,34622,1,0,0:0:0:0:
256,192,35194,1,8,0:0:0:0:
256,192,36337,1,8,0:0:0:0:
256,192,36622,1,8,0:0:0:0:
256,192,36908,1,0,0:0:0:0:
256,192,38051,1,0,0:0:0:0:
256,192,39194,1,0,0:0:0:0:
256,192,40337,1,8,0:0:0:0:
256,192,42622,5,4,0:0:0:0:
256,192,43193,1,8,0:0:0:0:
256,192,43622,1,0,0:0:0:0:
256,192,43907,1,0,0:0:0:0:
256,192,44336,1,8,0:0:0:0:
256,192,44907,1,0,0:0:0:0:
256,192,45479,1,8,0:0:0:0:
256,192,46622,1,8,0:0:0:0:
256,192,47193,1,0,0:0:0:0:
256,192,47764,1,8,0:0:0:0:
256,192,48193,1,0,0:0:0:0:
256,192,48479,1,0,0:0:0:0:
256,192,48907,1,8,0:0:0:0:
256,192,49479,1,0,0:0:0:0:
256,192,50050,1,8,0:0:0:0:
256,192,51193,1,8,0:0:0:0:
256,192,51479,1,8,0:0:0:0:
256,192,51764,5,4,0:0:0:0:
256,192,52336,1,8,0:0:0:0:
256,192,52764,1,0,0:0:0:0:
256,192,53050,1,0,0:0:0:0:
256,192,53479,1,8,0:0:0:0:
256,192,54050,1,0,0:0:0:0:
256,192,54622,1,8,0:0:0:0:
256,192,55764,1,8,0:0:0:0:
256,192,56336,1,0,0:0:0:0:
256,192,56907,1,8,0:0:0:0:
256,192,57336,1,0,0:0:0:0:
256,192,57622,1,0,0:0:0:0:
256,192,58050,1,8,0:0:0:0:
256,192,58622,1,0,0:0:0:0:
256,192,60907,5,4,0:0:0:0:
256,192,61479,1,8,0:0:0:0:
256,192,62050,1,0,0:0:0:0:
256,192,62336,1,0,0:0:0:0:
256,192,62622,1,8,0:0:0:0:
256,192,63479,1,0,0:0:0:0:
256,192,63764,1,8,0:0:0:0:
256,192,64336,1,0,0:0:0:0:
256,192,64622,1,0,0:0:0:0:
256,192,64907,1,8,0:0:0:0:
256,192,65193,1,8,0:0:0:0:
256,192,65479,1,0,0:0:0:0:
256,192,66050,1,8,0:0:0:0:
256,192,66622,1,0,0:0:0:0:
256,192,66907,1,8,0:0:0:0:
256,192,67193,1,8,0:0:0:0:
256,192,67764,1,0,0:0:0:0:
256,192,68336,1,8,0:0:0:0:
256,192,69479,1,8,0:0:0:0:
256,192,69764,1,8,0:0:0:0:
256,192,70050,5,4,0:0:0:0:
256,192,70622,1,8,0:0:0:0:
256,192,71193,1,0,0:0:0:0:
256,192,71479,1,0,0:0:0:0:
256,192,71764,1,8,0:0:0:0:
256,192,72622,1,8,0:0:0:0:
256,192,72907,1,8,0:0:0:0:
256,192,73479,1,0,0:0:0:0:
256,192,73764,1,8,0:0:0:0:
256,192,74050,1,0,0:0:0:0:
256,192,74336,1,8,0:0:0:0:
256,192,74622,1,0,0:0:0:0:
256,192,75193,1,8,0:0:0:0:
256,192,75764,1,0,0:0:0:0:
256,192,76050,1,0,0:0:0:0:
256,192,76336,1,8,0:0:0:0:
256,192,76907,1,0,0:0:0:0:
256,192,79193,5,4,0:0:0:0:
256,192,79764,1,8,0:0:0:0:
256,192,80907,1,8,0:0:0:0:
256,192,81479,1,0,0:0:0:0:
256,192,82050,1,8,0:0:0:0:
256,192,82479,1,0,0:0:0:0:
256,192,83193,1,8,0:0:0:0:
256,192,83764,1,0,0:0:0:0:
256,192,84336,1,8,0:0:0:0:
256,192,85479,1,8,0:0:0:0:
256,192,86050,1,0,0:0:0:0:
256,192,86622,1,8,0:0:0:0:
256,192,87193,1,0,0:0:0:0:
256,192,87479,1,0,0:0:0:0:
256,192,87764,1,8,0:0:0:0:
256,192,88050,1,8,0:0:0:0:
256,192,88336,5,4,0:0:0:0:
256,192,88907,1,8,0:0:0:0:
256,192,90050,1,8,0:0:0:0:
256,192,90622,1,0,0:0:0:0:
256,192,91193,1,8,0:0:0:0:
256,192,91622,1,8,0:0:0:0:
256,192,92336,1,8,0:0:0:0:
256,192,92622,1,8,0:0:0:0:
256,192,92907,1,0,0:0:0:0:
256,192,93479,1,8,0:0:0:0:
256,192,93907,1,8,0:0:0:0:
256,192,94622,1,8,0:0:0:0:
256,192,94907,1,8,0:0:0:0:
256,192,95193,1,0,0:0:0:0:
256,192,95764,1,8,0:0:0:0:
256,192,96907,1,8,0:0:0:0:
256,192,97193,1,8,0:0:0:0:
256,192,97479,1,0,0:0:0:0:
256,192,98622,1,0,0:0:0:0:
256,192,99764,1,0,0:0:0:0:
256,192,100908,1,8,0:0:0:0:
256,192,103194,5,4,0:0:0:0:
256,192,103765,1,8,0:0:0:0:
256,192,104194,1,0,0:0:0:0:
256,192,104479,1,0,0:0:0:0:
256,192,104908,1,8,0:0:0:0:
256,192,105479,1,0,0:0:0:0:
256,192,106051,1,8,0:0:0:0:
256,192,107194,1,8,0:0:0:0:
256,192,107765,1,0,0:0:0:0:
256,192,108336,1,8,0:0:0:0:
256,192,108765,1,0,0:0:0:0:
256,192,109051,1,0,0:0:0:0:
256,192,109479,1,8,0:0:0:0:
256,192,110051,1,0,0:0:0:0:
256,192,110622,1,8,0:0:0:0:
256,192,111765,1,8,0:0:0:0:
256,192,112051,1,8,0:0:0:0:
256,192,112336,5,4,0:0:0:0:
256,192,112908,1,8,0:0:0:0:
256,192,113336,1,0,0:0:0:0:
256,192,113622,1,0,0:0:0:0:
256,192,114051,1,8,0:0:0:0:
256,192,114622,1,0,0:0:0:0:
256,192,115194,1,8,0:0:0:0:
256,192,116336,1,8,0:0:0:0:
256,192,116908,1,0,0:0:0:0:
256,192,117479,1,8,0:0:0:0:
256,192,117908,1,0,0:0:0:0:
256,192,118194,1,0,0:0:0:0:
256,192,118622,1,8,0:0:0:0:
256,192,119194,1,0,0:0:0:0:
256,192,121479,1,0,0:0:0:0:
256,192,122051,1,8,0:0:0:0:
256,192,123194,1,8,0:0:0:0:
256,192,124336,1,8,0:0:0:0:
256,192,125479,1,8,0:0:0:0:
256,192,126051,1,0,0:0:0:0:
256,192,126622,1,8,0:0:0:0:
256,192,127765,1,8,0:0:0:0:
256,192,128908,1,8,0:0:0:0:
256,192,130051,1,8,0:0:0:0:
256,192,130336,1,0,0:0:0:0:
256,192,130622,1,0,0:0:0:0:
256,192,131194,1,8,0:0:0:0:
256,192,132336,1,8,0:0:0:0:
256,192,133479,1,8,0:0:0:0:
256,192,134622,1,8,0:0:0:0:
256,192,135194,1,0,0:0:0:0:
256,192,135765,1,8,0:0:0:0:
256,192,136908,1,8,0:0:0:0:
256,192,138051,1,8,0:0:0:0:
256,192,139765,5,4,0:0:0:0:
256,192,140337,1,8,0:0:0:0:
256,192,140908,1,0,0:0:0:0:
256,192,141194,1,0,0:0:0:0:
256,192,141480,1,8,0:0:0:0:
256,192,142337,1,0,0:0:0:0:
256,192,142622,1,8,0:0:0:0:
256,192,143194,1,8,0:0:0:0:
256,192,143480,1,0,0:0:0:0:
256,192,143765,1,8,0:0:0:0:
256,192,144051,1,8,0:0:0:0:
256,192,144337,1,0,0:0:0:0:
256,192,144908,1,8,0:0:0:0:
256,192,145480,1,0,0:0:0:0:
256,192,145765,1,8,0:0:0:0:
256,192,146051,1,8,0:0:0:0:
256,192,146622,1,0,0:0:0:0:
256,192,147194,1,8,0:0:0:0:
256,192,148337,1,8,0:0:0:0:
256,192,148622,1,8,0:0:0:0:
256,192,148908,5,4,0:0:0:0:
256,192,149480,1,8,0:0:0:0:
256,192,150051,1,0,0:0:0:0:
256,192,150337,1,0,0:0:0:0:
256,192,150622,1,8,0:0:0:0:
256,192,151480,1,8,0:0:0:0:
256,192,151765,1,8,0:0:0:0:
256,192,152337,1,8,0:0:0:0:
256,192,152622,1,8,0:0:0:0:
256,192,152908,1,0,0:0:0:0:
256,192,153194,1,8,0:0:0:0:
256,192,153480,1,0,0:0:0:0:
256,192,154051,1,8,0:0:0:0:
256,192,154622,1,0,0:0:0:0:
256,192,154908,1,0,0:0:0:0:
256,192,155194,1,8,0:0:0:0:
256,192,155765,1,0,0:0:0:0:
256,192,156336,1,8,0:0:0:0:
256,192,157479,1,8,0:0:0:0:
256,192,157765,1,8,0:0:0:0:
256,192,158051,5,4,0:0:0:0:
256,192,158622,1,8,0:0:0:0:
256,192,159194,1,0,0:0:0:0:
256,192,159765,1,8,0:0:0:0:
256,192,160336,1,0,0:0:0:0:
256,192,160908,1,8,0:0:0:0:
256,192,161479,1,0,0:0:0:0:
256,192,162051,1,8,0:0:0:0:
256,192,162336,1,8,0:0:0:0:
256,192,162622,1,0,0:0:0:0:
256,192,163194,1,8,0:0:0:0:
256,192,163765,1,0,0:0:0:0:
256,192,164336,1,8,0:0:0:0:
256,192,164908,1,0,0:0:0:0:
256,192,165765,1,0,0:0:0:0:
256,192,166622,1,0,0:0:0:0:
256,192,166908,1,8,0:0:0:0:
256,192,167194,5,4,0:0:0:0:
256,192,167765,1,8,0:0:0:0:
256,192,168336,1,0,0:0:0:0:
256,192,168622,1,0,0:0:0:0:
256,192,168908,1,8,0:0:0:0:
256,192,169765,1,8,0:0:0:0:
256,192,170051,1,8,0:0:0:0:
256,192,170622,1,0,0:0:0:0:
256,192,170908,1,8,0:0:0:0:
256,192,171194,1,8,0:0:0:0:
256,192,171479,1,8,0:0:0:0:
256,192,171765,1,0,0:0:0:0:
256,192,172336,1,8,0:0:0:0:
256,192,172908,1,0,0:0:0:0:
256,192,173194,1,0,0:0:0:0:
256,192,173479,1,8,0:0:0:0:
256,192,174051,1,0,0:0:0:0:
256,192,174622,1,8,0:0:0:0:
256,192,175194,1,8,0:0:0:0:
256,192,175765,1,8,0:0:0:0:
