osu file format v14

[General]
AudioFilename: audio.mp3
AudioLeadIn: 0
PreviewTime: 42479
Countdown: 0
SampleSet: Normal
StackLeniency: 1
Mode: 1
LetterboxInBreaks: 0
WidescreenStoryboard: 0

[Editor]
Bookmarks: 9479
DistanceSpacing: 1
BeatDivisor: 4
GridSize: 32
TimelineZoom: 3

[Metadata]
Title:Stefania
TitleUnicode:Stefania
Artist:Kalush Orchestra
ArtistUnicode:Kalush Orchestra
Creator:Fallmorph
Version:Inner Oni
Source:Eurovision Song Contest 2022
Tags:electronic folk hip hop hip-hop rap ukraine ukrainian
BeatmapID:3610938
BeatmapSetID:1764195

[Difficulty]
HPDrainRate:6
CircleSize:2
OverallDifficulty:7
ApproachRate:10
SliderMultiplier:1.4
SliderTickRate:1

[Events]
//Background and Video events
0,0,"bg.jpg",0,16
//Break Periods
//Storyboard Layer 0 (Background)
//Storyboard Layer 1 (Fail)
//Storyboard Layer 2 (Pass)
//Storyboard Layer 3 (Foreground)
//Storyboard Layer 4 (Overlay)
//Storyboard Sound Samples

[TimingPoints]
337,285.714285714286,4,1,0,50,1,0
337,-133.333333333333,4,1,0,50,0,0
18265,-100,4,1,0,60,0,0
18551,-100,4,1,0,70,0,0
36837,-100,4,1,0,60,0,0
37979,-133.333333333333,4,1,0,57,0,0
39122,-166.666666666667,4,1,0,53,0,0
40265,-200,4,1,0,50,0,0
40337,285.714285714286,8,1,0,50,1,0
40337,-200,4,1,0,50,0,0
42551,-100,4,1,0,70,0,0
42622,285.714285714286,4,1,0,70,1,1
58835,-103.118161925602,4,1,0,68,0,1
58978,-104.682713347921,4,1,0,66,0,1
59121,-106.247264770241,4,1,0,65,0,1
59407,-109.37636761488,4,1,0,62,0,1
59550,-110.940919037199,4,1,0,61,0,1
59692,-112.494529540481,4,1,0,60,0,1
59835,-114.059080962801,4,1,0,59,0,1
60264,-118.752735229759,4,1,0,55,0,1
60836,-100,4,1,0,70,0,1
60907,-100,4,1,0,70,0,0
77122,-103.127734033246,4,1,0,67,0,0
77265,-104.691601049869,4,1,0,66,0,0
77408,-106.255468066492,4,1,0,65,0,0
77693,-109.372265966754,4,1,0,63,0,0
77979,-112.5,4,1,0,60,0,0
78122,-114.063867016623,4,1,0,60,0,0
78408,-117.191601049869,4,1,0,60,0,0
78693,-120.308398950131,4,1,0,60,0,0
78836,-121.872265966754,4,1,0,60,0,0
79122,-100,4,1,0,70,0,0
97407,-100,4,1,0,60,0,0
98550,-133.333333333333,4,1,0,57,0,0
99692,-166.637503645378,4,1,0,53,0,0
100835,-200,4,1,0,50,0,0
100907,285.714285714286,4,1,0,50,1,0
100907,-200,4,1,0,50,0,0
100908,285.714285714286,8,1,0,50,1,0
100908,-200,4,1,0,50,0,0
103122,-100,4,1,0,70,0,0
103193,285.714285714286,4,1,0,70,1,0
103194,285.714285714286,4,1,0,70,1,1
119408,-103.118161925602,4,1,0,68,0,1
119551,-104.682713347921,4,1,0,66,0,1
119694,-106.247264770241,4,1,0,65,0,1
119980,-109.37636761488,4,1,0,62,0,1
120123,-110.940919037199,4,1,0,61,0,1
120265,-112.494529540481,4,1,0,60,0,1
120408,-114.059080962801,4,1,0,59,0,1
120837,-118.752735229759,4,1,0,55,0,1
121123,-121.881838074398,4,1,0,52,0,1
121408,-125,4,1,0,50,0,1
121479,-125,4,1,0,50,0,0
139694,-100,4,1,0,70,0,0
155836,-101.563867016623,4,1,0,69,0,0
155944,-102.340332458443,4,1,0,68,0,0
156015,-103.127734033246,4,1,0,67,0,0
156122,-104.691601049869,4,1,0,66,0,0
156264,-106.244531933508,4,1,0,65,0,0
156550,-109.372265966754,4,1,0,63,0,0
156836,-112.5,4,1,0,60,0,0
156979,-114.063867016623,4,1,0,60,0,0
157264,-117.180664916885,4,1,0,60,0,0
157407,-118.744531933508,4,1,0,60,0,0
157550,-120.308398950131,4,1,0,60,0,0
157693,-121.872265966754,4,1,0,60,0,0
157979,-125,4,1,0,60,0,0
165122,-121.872265966754,4,1,0,61,0,0
165264,-120.319335083115,4,1,0,62,0,0
165407,-118.755468066492,4,1,0,62,0,0
165693,-115.627734033246,4,1,0,64,0,0
165979,-112.5,4,1,0,65,0,0
166122,-110.936132983377,4,1,0,66,0,0
166264,-109.383202099738,4,1,0,66,0,0
166550,-106.255468066492,4,1,0,67,0,0
166836,-103.127734033246,4,1,0,69,0,0
167122,-100,4,1,0,70,0,0
174265,-103.118161925602,4,1,0,68,0,0
174408,-104.682713347921,4,1,0,66,0,0
174551,-106.247264770241,4,1,0,65,0,0
174694,-107.81181619256,4,1,0,64,0,0
174837,-109.37636761488,4,1,0,62,0,0
174980,-110.940919037199,4,1,0,61,0,0
175123,-112.505470459519,4,1,0,60,0,0
175265,-114.059080962801,4,1,0,59,0,0
175408,-115.62363238512,4,1,0,58,0,0
175694,-118.752735229759,4,1,0,55,0,0
175837,-120.317286652079,4,1,0,54,0,0
175980,-121.881838074398,4,1,0,52,0,0
176336,285.714285714286,16,1,0,50,1,0

[HitObjects]
256,192,9479,5,8,0:0:0:0:
256,192,10479,1,8,0:0:0:0:
256,192,11765,1,8,0:0:0:0:
256,192,12337,1,0,0:0:0:0:
256,192,12765,1,8,0:0:0:0:
256,192,13479,1,0,0:0:0:0:
256,192,14051,1,8,0:0:0:0:
256,192,15051,1,8,0:0:0:0:
256,192,16337,1,8,0:0:0:0:
256,192,16908,1,0,0:0:0:0:
256,192,17337,1,8,0:0:0:0:
256,192,18051,1,0,0:0:0:0:
256,192,18337,1,0,0:0:0:0:
256,192,18408,1,0,0:0:0:0:
256,192,18479,1,8,0:0:0:0:
256,192,18622,5,4,0:0:0:0:
256,192,18765,1,8,0:0:0:0:
256,192,18837,1,8,0:0:0:0:
256,192,18908,1,8,0:0:0:0:
256,192,19051,1,0,0:0:0:0:
256,192,19194,1,8,0:0:0:0:
256,192,19337,1,8,0:0:0:0:
256,192,19479,1,0,0:0:0:0:
256,192,19622,1,0,0:0:0:0:
256,192,19765,1,8,0:0:0:0:
256,192,19908,1,0,0:0:0:0:
256,192,20051,1,8,0:0:0:0:
256,192,20194,1,0,0:0:0:0:
256,192,20265,1,8,0:0:0:0:
256,192,20337,1,8,0:0:0:0:
256,192,20479,1,0,0:0:0:0:
256,192,20551,1,0,0:0:0:0:
256,192,20622,1,8,0:0:0:0:
256,192,20765,1,0,0:0:0:0:
256,192,20908,1,0,0:0:0:0:
256,192,21051,1,0,0:0:0:0:
256,192,21122,1,0,0:0:0:0:
256,192,21194,1,8,0:0:0:0:
256,192,21337,1,0,0:0:0:0:
256,192,21479,1,8,0:0:0:0:
256,192,21622,1,8,0:0:0:0:
256,192,21765,1,0,0:0:0:0:
256,192,21908,1,0,0:0:0:0:
256,192,22051,1,8,0:0:0:0:
256,192,22194,1,0,0:0:0:0:
256,192,22337,1,8,0:0:0:0:
256,192,22479,1,0,0:0:0:0:
256,192,22551,1,0,0:0:0:0:
256,192,22622,1,8,0:0:0:0:
256,192,22765,1,0,0:0:0:0:
256,192,22837,1,0,0:0:0:0:
256,192,22908,1,8,0:0:0:0:
256,192,22979,1,0,0:0:0:0:
256,192,23051,1,0,0:0:0:0:
256,192,23194,1,0,0:0:0:0:
256,192,23337,1,8,0:0:0:0:
256,192,23408,1,8,0:0:0:0:
256,192,23479,1,8,0:0:0:0:
256,192,23622,1,0,0:0:0:0:
256,192,23765,1,8,0:0:0:0:
256,192,23908,1,8,0:0:0:0:
256,192,24051,1,0,0:0:0:0:
256,192,24194,1,0,0:0:0:0:
256,192,24337,1,8,0:0:0:0:
256,192,24479,1,0,0:0:0:0:
256,192,24622,1,8,0:0:0:0:
256,192,24765,1,0,0:0:0:0:
256,192,24837,1,0,0:0:0:0:
256,192,24908,1,8,0:0:0:0:
256,192,25051,1,8,0:0:0:0:
256,192,25122,1,0,0:0:0:0:
256,192,25194,1,8,0:0:0:0:
256,192,25337,1,8,0:0:0:0:
256,192,25479,1,0,0:0:0:0:
256,192,25622,1,0,0:0:0:0:
256,192,25694,1,0,0:0:0:0:
256,192,25765,1,8,0:0:0:0:
256,192,25908,1,0,0:0:0:0:
256,192,26051,1,8,0:0:0:0:
256,192,26194,1,8,0:0:0:0:
256,192,26337,1,0,0:0:0:0:
256,192,26479,1,0,0:0:0:0:
256,192,26622,1,8,0:0:0:0:
256,192,26765,1,0,0:0:0:0:
256,192,26908,1,8,0:0:0:0:
256,192,27051,1,0,0:0:0:0:
256,192,27122,1,0,0:0:0:0:
256,192,27194,1,8,0:0:0:0:
256,192,27337,1,0,0:0:0:0:
256,192,27408,1,0,0:0:0:0:
256,192,27479,1,8,0:0:0:0:
256,192,27551,1,0,0:0:0:0:
256,192,27622,1,8,0:0:0:0:
256,192,27765,5,4,0:0:0:0:
256,192,27908,1,8,0:0:0:0:
256,192,27979,1,8,0:0:0:0:
256,192,28051,1,8,0:0:0:0:
256,192,28194,1,0,0:0:0:0:
256,192,28337,5,4,0:0:0:0:
256,192,28479,1,8,0:0:0:0:
256,192,28622,1,0,0:0:0:0:
256,192,28765,5,4,0:0:0:0:
256,192,28908,1,8,0:0:0:0:
256,192,29194,1,8,0:0:0:0:
256,192,29337,1,0,0:0:0:0:
256,192,29479,1,8,0:0:0:0:
256,192,29622,1,8,0:0:0:0:
256,192,29765,5,4,0:0:0:0:
256,192,29908,1,8,0:0:0:0:
256,192,30051,1,0,0:0:0:0:
256,192,30194,1,0,0:0:0:0:
256,192,30265,1,0,0:0:0:0:
256,192,30337,1,8,0:0:0:0:
256,192,30479,1,0,0:0:0:0:
256,192,30622,5,4,0:0:0:0:
256,192,30765,1,8,0:0:0:0:
256,192,30908,1,0,0:0:0:0:
256,192,31051,5,4,0:0:0:0:
256,192,31194,1,8,0:0:0:0:
256,192,31479,1,8,0:0:0:0:
256,192,31622,1,0,0:0:0:0:
256,192,31765,1,8,0:0:0:0:
256,192,31908,1,0,0:0:0:0:
256,192,32051,5,4,0:0:0:0:
256,192,32194,1,8,0:0:0:0:
256,192,32337,1,0,0:0:0:0:
256,192,32479,1,8,0:0:0:0:
256,192,32551,1,8,0:0:0:0:
256,192,32622,1,8,0:0:0:0:
256,192,32765,1,0,0:0:0:0:
256,192,32908,1,8,0:0:0:0:
256,192,33051,1,8,0:0:0:0:
256,192,33194,1,0,0:0:0:0:
256,192,33337,1,0,0:0:0:0:
256,192,33479,1,8,0:0:0:0:
256,192,33622,1,0,0:0:0:0:
256,192,33765,1,8,0:0:0:0:
256,192,33908,1,0,0:0:0:0:
256,192,33979,1,0,0:0:0:0:
256,192,34051,1,8,0:0:0:0:
256,192,34194,1,0,0:0:0:0:
256,192,34337,1,8,0:0:0:0:
256,192,34479,1,0,0:0:0:0:
256,192,34622,1,0,0:0:0:0:
256,192,34765,1,0,0:0:0:0:
256,192,34837,1,0,0:0:0:0:
256,192,34908,1,8,0:0:0:0:
256,192,35051,1,0,0:0:0:0:
256,192,35194,1,8,0:0:0:0:
256,192,35337,1,8,0:0:0:0:
256,192,35479,1,0,0:0:0:0:
256,192,35622,1,0,0:0:0:0:
256,192,35765,1,8,0:0:0:0:
256,192,35908,1,0,0:0:0:0:
256,192,36051,1,8,0:0:0:0:
256,192,36194,1,8,0:0:0:0:
256,192,36337,1,8,0:0:0:0:
256,192,36479,1,0,0:0:0:0:
256,192,36622,1,8,0:0:0:0:
256,192,36908,1,0,0:0:0:0:
256,192,38051,1,0,0:0:0:0:
256,192,39194,1,0,0:0:0:0:
256,192,40337,1,8,0:0:0:0:
256,192,42622,5,4,0:0:0:0:
256,192,42764,1,0,0:0:0:0:
256,192,42836,1,0,0:0:0:0:
256,192,42907,1,8,0:0:0:0:
256,192,43050,1,0,0:0:0:0:
256,192,43193,1,8,0:0:0:0:
256,192,43264,1,8,0:0:0:0:
256,192,43336,1,0,0:0:0:0:
256,192,43407,1,0,0:0:0:0:
256,192,43479,1,8,0:0:0:0:
256,192,43622,1,0,0:0:0:0:
256,192,43693,1,0,0:0:0:0:
256,192,43764,1,8,0:0:0:0:
256,192,43907,1,0,0:0:0:0:
256,192,44050,1,8,0:0:0:0:
256,192,44193,1,0,0:0:0:0:
256,192,44336,1,8,0:0:0:0:
256,192,44479,1,8,0:0:0:0:
256,192,44622,1,0,0:0:0:0:
256,192,44764,1,8,0:0:0:0:
256,192,44907,1,0,0:0:0:0:
256,192,44979,1,0,0:0:0:0:
256,192,45050,1,0,0:0:0:0:
256,192,45122,1,0,0:0:0:0:
256,192,45193,1,8,0:0:0:0:
256,192,45336,1,0,0:0:0:0:
256,192,45479,1,8,0:0:0:0:
256,192,45550,1,8,0:0:0:0:
256,192,45622,1,0,0:0:0:0:
256,192,45693,1,0,0:0:0:0:
256,192,45764,1,8,0:0:0:0:
256,192,45907,1,0,0:0:0:0:
256,192,46050,1,8,0:0:0:0:
256,192,46122,1,8,0:0:0:0:
256,192,46193,1,0,0:0:0:0:
256,192,46336,1,8,0:0:0:0:
256,192,46479,1,0,0:0:0:0:
256,192,46550,1,0,0:0:0:0:
256,192,46622,1,8,0:0:0:0:
256,192,46764,1,0,0:0:0:0:
256,192,46907,1,8,0:0:0:0:
256,192,46979,1,0,0:0:0:0:
256,192,47050,1,0,0:0:0:0:
256,192,47193,1,0,0:0:0:0:
256,192,47336,1,0,0:0:0:0:
256,192,47407,1,0,0:0:0:0:
256,192,47479,1,8,0:0:0:0:
256,192,47622,1,0,0:0:0:0:
256,192,47764,1,8,0:0:0:0:
256,192,47836,1,0,0:0:0:0:
256,192,47907,1,0,0:0:0:0:
256,192,47979,1,0,0:0:0:0:
256,192,48050,1,8,0:0:0:0:
256,192,48193,1,0,0:0:0:0:
256,192,48264,1,0,0:0:0:0:
256,192,48336,1,8,0:0:0:0:
256,192,48479,1,0,0:0:0:0:
256,192,48622,1,8,0:0:0:0:
256,192,48764,1,0,0:0:0:0:
256,192,48907,1,8,0:0:0:0:
256,192,49050,1,0,0:0:0:0:
256,192,49193,1,0,0:0:0:0:
256,192,49336,1,8,0:0:0:0:
256,192,49479,1,0,0:0:0:0:
256,192,49550,1,0,0:0:0:0:
256,192,49622,1,8,0:0:0:0:
256,192,49693,1,0,0:0:0:0:
256,192,49764,1,8,0:0:0:0:
256,192,49907,1,0,0:0:0:0:
256,192,50050,1,8,0:0:0:0:
256,192,50122,1,0,0:0:0:0:
256,192,50193,1,0,0:0:0:0:
256,192,50264,1,0,0:0:0:0:
256,192,50336,1,8,0:0:0:0:
256,192,50479,1,0,0:0:0:0:
256,192,50622,1,8,0:0:0:0:
256,192,50693,1,8,0:0:0:0:
256,192,50764,1,0,0:0:0:0:
256,192,50907,1,0,0:0:0:0:
256,192,51050,1,0,0:0:0:0:
256,192,51122,1,0,0:0:0:0:
256,192,51193,1,8,0:0:0:0:
256,192,51336,1,8,0:0:0:0:
256,192,51407,1,0,0:0:0:0:
256,192,51479,1,8,0:0:0:0:
256,192,51550,1,8,0:0:0:0:
256,192,51622,1,0,0:0:0:0:
256,192,51764,5,4,0:0:0:0:
256,192,51907,1,0,0:0:0:0:
256,192,51979,1,0,0:0:0:0:
256,192,52050,1,8,0:0:0:0:
256,192,52193,1,0,0:0:0:0:
256,192,52336,1,8,0:0:0:0:
256,192,52407,1,8,0:0:0:0:
256,192,52479,1,0,0:0:0:0:
256,192,52550,1,0,0:0:0:0:
256,192,52622,1,8,0:0:0:0:
256,192,52764,1,0,0:0:0:0:
256,192,52836,1,0,0:0:0:0:
256,192,52907,1,8,0:0:0:0:
256,192,53050,1,0,0:0:0:0:
256,192,53193,1,8,0:0:0:0:
256,192,53336,1,0,0:0:0:0:
256,192,53479,1,8,0:0:0:0:
256,192,53622,1,8,0:0:0:0:
256,192,53764,1,0,0:0:0:0:
256,192,53907,1,8,0:0:0:0:
256,192,54050,1,0,0:0:0:0:
256,192,54122,1,8,0:0:0:0:
256,192,54193,1,8,0:0:0:0:
256,192,54264,1,0,0:0:0:0:
256,192,54336,1,8,0:0:0:0:
256,192,54479,1,0,0:0:0:0:
256,192,54622,1,8,0:0:0:0:
256,192,54693,1,8,0:0:0:0:
256,192,54764,1,0,0:0:0:0:
256,192,54836,1,0,0:0:0:0:
256,192,54907,1,8,0:0:0:0:
256,192,55050,1,0,0:0:0:0:
256,192,55193,1,8,0:0:0:0:
256,192,55264,1,8,0:0:0:0:
256,192,55336,1,0,0:0:0:0:
256,192,55479,1,8,0:0:0:0:
256,192,55622,1,0,0:0:0:0:
256,192,55693,1,0,0:0:0:0:
256,192,55764,1,8,0:0:0:0:
256,192,55907,1,0,0:0:0:0:
256,192,56050,1,8,0:0:0:0:
256,192,56122,1,0,0:0:0:0:
256,192,56193,1,0,0:0:0:0:
256,192,56336,1,0,0:0:0:0:
256,192,56479,1,0,0:0:0:0:
256,192,56550,1,0,0:0:0:0:
256,192,56622,1,8,0:0:0:0:
256,192,56764,1,0,0:0:0:0:
256,192,56907,1,8,0:0:0:0:
256,192,56979,1,0,0:0:0:0:
256,192,57050,1,0,0:0:0:0:
256,192,57122,1,0,0:0:0:0:
256,192,57193,1,8,0:0:0:0:
256,192,57336,1,0,0:0:0:0:
256,192,57407,1,0,0:0:0:0:
256,192,57479,1,8,0:0:0:0:
256,192,57622,1,0,0:0:0:0:
256,192,57764,1,8,0:0:0:0:
256,192,57907,1,0,0:0:0:0:
256,192,58050,1,8,0:0:0:0:
256,192,58193,1,0,0:0:0:0:
256,192,58336,1,0,0:0:0:0:
256,192,58479,1,8,0:0:0:0:
256,192,58622,1,0,0:0:0:0:
256,192,58907,1,0,0:0:0:0:
256,192,59050,1,0,0:0:0:0:
256,192,59193,1,8,0:0:0:0:
256,192,59479,1,0,0:0:0:0:
256,192,59622,1,0,0:0:0:0:
256,192,59907,1,0,0:0:0:0:
256,192,60336,1,8,0:0:0:0:
256,192,60907,5,4,0:0:0:0:
256,192,61050,1,8,0:0:0:0:
256,192,61193,1,8,0:0:0:0:
256,192,61264,1,8,0:0:0:0:
256,192,61336,1,0,0:0:0:0:
256,192,61479,1,8,0:0:0:0:
256,192,61550,1,0,0:0:0:0:
256,192,61622,1,8,0:0:0:0:
256,192,61764,1,0,0:0:0:0:
256,192,61907,1,0,0:0:0:0:
256,192,62050,1,8,0:0:0:0:
256,192,62122,1,8,0:0:0:0:
256,192,62193,1,0,0:0:0:0:
256,192,62336,1,0,0:0:0:0:
256,192,62407,1,0,0:0:0:0:
256,192,62479,1,8,0:0:0:0:
256,192,62550,1,0,0:0:0:0:
256,192,62622,1,8,0:0:0:0:
256,192,62693,1,8,0:0:0:0:
256,192,62764,1,0,0:0:0:0:
256,192,62907,1,8,0:0:0:0:
256,192,62979,1,8,0:0:0:0:
256,192,63050,1,0,0:0:0:0:
256,192,63193,1,0,0:0:0:0:
256,192,63336,1,0,0:0:0:0:
256,192,63407,1,0,0:0:0:0:
256,192,63479,1,8,0:0:0:0:
256,192,63550,1,0,0:0:0:0:
256,192,63622,1,0,0:0:0:0:
256,192,63764,1,8,0:0:0:0:
256,192,63836,1,0,0:0:0:0:
256,192,63907,1,8,0:0:0:0:
256,192,64050,1,0,0:0:0:0:
256,192,64193,1,0,0:0:0:0:
256,192,64336,1,8,0:0:0:0:
256,192,64407,1,8,0:0:0:0:
256,192,64479,1,0,0:0:0:0:
256,192,64622,1,0,0:0:0:0:
256,192,64693,1,0,0:0:0:0:
256,192,64764,1,8,0:0:0:0:
256,192,64836,1,0,0:0:0:0:
256,192,64907,1,8,0:0:0:0:
256,192,64979,1,0,0:0:0:0:
256,192,65050,1,8,0:0:0:0:
256,192,65122,1,8,0:0:0:0:
256,192,65193,1,0,0:0:0:0:
256,192,65264,1,8,0:0:0:0:
256,192,65336,1,8,0:0:0:0:
256,192,65407,1,8,0:0:0:0:
256,192,65479,1,0,0:0:0:0:
256,192,65622,1,0,0:0:0:0:
256,192,65764,1,8,0:0:0:0:
256,192,65836,1,8,0:0:0:0:
256,192,65907,1,0,0:0:0:0:
256,192,66050,1,8,0:0:0:0:
256,192,66122,1,8,0:0:0:0:
256,192,66193,1,8,0:0:0:0:
256,192,66336,1,0,0:0:0:0:
256,192,66479,1,0,0:0:0:0:
256,192,66622,1,8,0:0:0:0:
256,192,66693,1,8,0:0:0:0:
256,192,66764,1,0,0:0:0:0:
256,192,66907,1,0,0:0:0:0:
256,192,66979,1,8,0:0:0:0:
256,192,67050,1,0,0:0:0:0:
256,192,67122,1,0,0:0:0:0:
256,192,67193,1,8,0:0:0:0:
256,192,67264,1,8,0:0:0:0:
256,192,67336,1,0,0:0:0:0:
256,192,67479,1,8,0:0:0:0:
256,192,67550,1,8,0:0:0:0:
256,192,67622,1,0,0:0:0:0:
256,192,67764,1,0,0:0:0:0:
256,192,67836,1,0,0:0:0:0:
256,192,67907,1,8,0:0:0:0:
256,192,68050,1,0,0:0:0:0:
256,192,68122,1,0,0:0:0:0:
256,192,68193,1,8,0:0:0:0:
256,192,68264,1,0,0:0:0:0:
256,192,68336,1,8,0:0:0:0:
256,192,68407,1,8,0:0:0:0:
256,192,68479,1,0,0:0:0:0:
256,192,68622,1,0,0:0:0:0:
256,192,68764,1,0,0:0:0:0:
256,192,68907,1,8,0:0:0:0:
256,192,68979,1,8,0:0:0:0:
256,192,69050,1,0,0:0:0:0:
256,192,69122,1,0,0:0:0:0:
256,192,69193,1,8,0:0:0:0:
256,192,69336,1,0,0:0:0:0:
256,192,69479,1,8,0:0:0:0:
256,192,69550,1,0,0:0:0:0:
256,192,69622,1,8,0:0:0:0:
256,192,69693,1,0,0:0:0:0:
256,192,69764,1,8,0:0:0:0:
256,192,69907,1,0,0:0:0:0:
256,192,70050,5,12,0:0:0:0:
256,192,70193,1,0,0:0:0:0:
256,192,70336,1,8,0:0:0:0:
256,192,70407,1,8,0:0:0:0:
256,192,70479,1,0,0:0:0:0:
256,192,70622,1,8,0:0:0:0:
256,192,70693,1,0,0:0:0:0:
256,192,70764,1,8,0:0:0:0:
256,192,70907,1,0,0:0:0:0:
256,192,71050,1,0,0:0:0:0:
256,192,71193,1,8,0:0:0:0:
256,192,71264,1,8,0:0:0:0:
256,192,71336,1,0,0:0:0:0:
256,192,71479,1,0,0:0:0:0:
256,192,71550,1,8,0:0:0:0:
256,192,71622,1,8,0:0:0:0:
256,192,71693,1,0,0:0:0:0:
256,192,71764,1,8,0:0:0:0:
256,192,71836,1,8,0:0:0:0:
256,192,71907,1,0,0:0:0:0:
256,192,72050,1,8,0:0:0:0:
256,192,72122,1,8,0:0:0:0:
256,192,72193,1,0,0:0:0:0:
256,192,72336,1,0,0:0:0:0:
256,192,72479,1,0,0:0:0:0:
256,192,72550,1,0,0:0:0:0:
256,192,72622,1,8,0:0:0:0:
256,192,72693,1,0,0:0:0:0:
256,192,72764,1,0,0:0:0:0:
256,192,72907,1,8,0:0:0:0:
256,192,72979,1,0,0:0:0:0:
256,192,73050,1,8,0:0:0:0:
256,192,73193,1,0,0:0:0:0:
256,192,73336,1,0,0:0:0:0:
256,192,73479,1,8,0:0:0:0:
256,192,73550,1,8,0:0:0:0:
256,192,73622,1,0,0:0:0:0:
256,192,73764,1,0,0:0:0:0:
256,192,73836,1,0,0:0:0:0:
256,192,73907,1,8,0:0:0:0:
256,192,73979,1,0,0:0:0:0:
256,192,74050,1,8,0:0:0:0:
256,192,74122,1,8,0:0:0:0:
256,192,74193,1,0,0:0:0:0:
256,192,74264,1,0,0:0:0:0:
256,192,74336,1,8,0:0:0:0:
256,192,74407,1,8,0:0:0:0:
256,192,74479,1,0,0:0:0:0:
256,192,74550,1,8,0:0:0:0:
256,192,74622,1,0,0:0:0:0:
256,192,74764,1,0,0:0:0:0:
256,192,74907,1,8,0:0:0:0:
256,192,74979,1,8,0:0:0:0:
256,192,75050,1,0,0:0:0:0:
256,192,75193,1,8,0:0:0:0:
256,192,75264,1,0,0:0:0:0:
256,192,75336,1,8,0:0:0:0:
256,192,75479,1,0,0:0:0:0:
256,192,75622,1,0,0:0:0:0:
256,192,75764,1,8,0:0:0:0:
256,192,75836,1,8,0:0:0:0:
256,192,75907,1,0,0:0:0:0:
256,192,76050,1,0,0:0:0:0:
256,192,76122,1,8,0:0:0:0:
256,192,76193,1,0,0:0:0:0:
256,192,76264,1,0,0:0:0:0:
256,192,76336,1,8,0:0:0:0:
256,192,76407,1,8,0:0:0:0:
256,192,76479,1,0,0:0:0:0:
256,192,76622,1,8,0:0:0:0:
256,192,76693,1,8,0:0:0:0:
256,192,76764,1,0,0:0:0:0:
256,192,76907,1,0,0:0:0:0:
256,192,77193,1,0,0:0:0:0:
256,192,77336,1,0,0:0:0:0:
256,192,77479,1,8,0:0:0:0:
256,192,77764,1,0,0:0:0:0:
256,192,78050,1,0,0:0:0:0:
256,192,78193,1,0,0:0:0:0:
256,192,78479,1,0,0:0:0:0:
256,192,78764,1,0,0:0:0:0:
256,192,78907,1,8,0:0:0:0:
256,192,79193,5,4,0:0:0:0:
256,192,79336,1,8,0:0:0:0:
256,192,79407,1,8,0:0:0:0:
256,192,79479,1,8,0:0:0:0:
256,192,79622,1,0,0:0:0:0:
256,192,79764,1,8,0:0:0:0:
256,192,79907,1,8,0:0:0:0:
256,192,80050,1,0,0:0:0:0:
256,192,80193,1,0,0:0:0:0:
256,192,80479,1,0,0:0:0:0:
256,192,80622,1,8,0:0:0:0:
256,192,80907,1,8,0:0:0:0:
256,192,81050,1,0,0:0:0:0:
256,192,81193,1,8,0:0:0:0:
256,192,81336,1,0,0:0:0:0:
256,192,81479,1,0,0:0:0:0:
256,192,81622,1,0,0:0:0:0:
256,192,81693,1,0,0:0:0:0:
256,192,81764,1,8,0:0:0:0:
256,192,81907,1,0,0:0:0:0:
256,192,82050,5,4,0:0:0:0:
256,192,82193,1,8,0:0:0:0:
256,192,82336,1,0,0:0:0:0:
256,192,82479,5,4,0:0:0:0:
256,192,82622,1,8,0:0:0:0:
256,192,82764,1,0,0:0:0:0:
256,192,82907,1,8,0:0:0:0:
256,192,83050,1,0,0:0:0:0:
256,192,83193,1,8,0:0:0:0:
256,192,83336,1,8,0:0:0:0:
256,192,83479,1,0,0:0:0:0:
256,192,83622,1,8,0:0:0:0:
256,192,83764,1,0,0:0:0:0:
256,192,83836,1,0,0:0:0:0:
256,192,83907,1,8,0:0:0:0:
256,192,83979,1,8,0:0:0:0:
256,192,84050,1,8,0:0:0:0:
256,192,84193,1,0,0:0:0:0:
256,192,84336,1,8,0:0:0:0:
256,192,84479,1,8,0:0:0:0:
256,192,84622,1,0,0:0:0:0:
256,192,84764,1,0,0:0:0:0:
256,192,84907,1,8,0:0:0:0:
256,192,85050,1,0,0:0:0:0:
256,192,85193,1,8,0:0:0:0:
256,192,85264,1,8,0:0:0:0:
256,192,85336,1,0,0:0:0:0:
256,192,85407,1,0,0:0:0:0:
256,192,85479,1,8,0:0:0:0:
256,192,85622,1,0,0:0:0:0:
256,192,85764,1,8,0:0:0:0:
256,192,85907,1,0,0:0:0:0:
256,192,86050,1,0,0:0:0:0:
256,192,86122,1,0,0:0:0:0:
256,192,86193,1,0,0:0:0:0:
256,192,86264,1,0,0:0:0:0:
256,192,86336,1,8,0:0:0:0:
256,192,86407,1,8,0:0:0:0:
256,192,86479,1,0,0:0:0:0:
256,192,86550,1,0,0:0:0:0:
256,192,86622,1,8,0:0:0:0:
256,192,86907,1,0,0:0:0:0:
256,192,87050,1,0,0:0:0:0:
256,192,87193,1,8,0:0:0:0:
256,192,87336,1,0,0:0:0:0:
256,192,87479,1,8,0:0:0:0:
256,192,87622,1,0,0:0:0:0:
256,192,87764,1,8,0:0:0:0:
256,192,87907,1,0,0:0:0:0:
256,192,88050,1,8,0:0:0:0:
256,192,88122,1,0,0:0:0:0:
256,192,88193,1,8,0:0:0:0:
256,192,88336,5,4,0:0:0:0:
256,192,88479,1,8,0:0:0:0:
256,192,88550,1,8,0:0:0:0:
256,192,88622,1,8,0:0:0:0:
256,192,88764,1,0,0:0:0:0:
256,192,88907,1,8,0:0:0:0:
256,192,89050,1,8,0:0:0:0:
256,192,89193,1,0,0:0:0:0:
256,192,89336,1,0,0:0:0:0:
256,192,89622,1,0,0:0:0:0:
256,192,89764,1,8,0:0:0:0:
256,192,90050,5,12,0:0:0:0:
256,192,90193,1,0,0:0:0:0:
256,192,90336,1,8,0:0:0:0:
256,192,90479,1,8,0:0:0:0:
256,192,90622,1,0,0:0:0:0:
256,192,90764,1,0,0:0:0:0:
256,192,90836,1,0,0:0:0:0:
256,192,90907,1,8,0:0:0:0:
256,192,91050,1,0,0:0:0:0:
256,192,91193,5,12,0:0:0:0:
256,192,91336,1,0,0:0:0:0:
256,192,91479,1,0,0:0:0:0:
256,192,91622,5,12,0:0:0:0:
256,192,91764,1,0,0:0:0:0:
256,192,91907,1,0,0:0:0:0:
256,192,92050,1,8,0:0:0:0:
256,192,92193,1,0,0:0:0:0:
256,192,92336,1,8,0:0:0:0:
256,192,92479,1,0,0:0:0:0:
256,192,92622,5,12,0:0:0:0:
256,192,92764,1,0,0:0:0:0:
256,192,92907,1,0,0:0:0:0:
256,192,93050,1,8,0:0:0:0:
256,192,93122,1,8,0:0:0:0:
256,192,93193,1,8,0:0:0:0:
256,192,93336,1,0,0:0:0:0:
256,192,93479,5,12,0:0:0:0:
256,192,93622,1,0,0:0:0:0:
256,192,93764,1,0,0:0:0:0:
256,192,93907,5,12,0:0:0:0:
256,192,94050,1,0,0:0:0:0:
256,192,94193,1,0,0:0:0:0:
256,192,94336,1,8,0:0:0:0:
256,192,94479,1,0,0:0:0:0:
256,192,94622,5,12,0:0:0:0:
256,192,94907,1,0,0:0:0:0:
256,192,95193,1,0,0:0:0:0:
256,192,95336,1,0,0:0:0:0:
256,192,95407,1,0,0:0:0:0:
256,192,95479,1,8,0:0:0:0:
256,192,95622,1,0,0:0:0:0:
256,192,95764,1,8,0:0:0:0:
256,192,96050,1,0,0:0:0:0:
256,192,96193,1,0,0:0:0:0:
256,192,96336,1,8,0:0:0:0:
256,192,96479,1,0,0:0:0:0:
256,192,96622,1,8,0:0:0:0:
256,192,96764,1,8,0:0:0:0:
256,192,96907,1,8,0:0:0:0:
256,192,97050,1,0,0:0:0:0:
256,192,97193,1,8,0:0:0:0:
256,192,97479,1,0,0:0:0:0:
256,192,98622,1,0,0:0:0:0:
256,192,99764,1,0,0:0:0:0:
256,192,100907,1,8,0:0:0:0:
256,192,103193,5,4,0:0:0:0:
256,192,103336,1,0,0:0:0:0:
256,192,103408,1,0,0:0:0:0:
256,192,103479,1,8,0:0:0:0:
256,192,103622,1,0,0:0:0:0:
256,192,103765,1,8,0:0:0:0:
256,192,103836,1,0,0:0:0:0:
256,192,103908,1,8,0:0:0:0:
256,192,103979,1,8,0:0:0:0:
256,192,104051,1,0,0:0:0:0:
256,192,104194,1,0,0:0:0:0:
256,192,104265,1,0,0:0:0:0:
256,192,104336,1,8,0:0:0:0:
256,192,104479,1,0,0:0:0:0:
256,192,104622,1,8,0:0:0:0:
256,192,104765,1,0,0:0:0:0:
256,192,104908,1,8,0:0:0:0:
256,192,105051,1,8,0:0:0:0:
256,192,105194,1,0,0:0:0:0:
256,192,105336,1,8,0:0:0:0:
256,192,105479,1,0,0:0:0:0:
256,192,105551,1,0,0:0:0:0:
256,192,105622,1,8,0:0:0:0:
256,192,105694,1,0,0:0:0:0:
256,192,105765,1,8,0:0:0:0:
256,192,105836,1,0,0:0:0:0:
256,192,105908,1,0,0:0:0:0:
256,192,106051,1,8,0:0:0:0:
256,192,106122,1,8,0:0:0:0:
256,192,106194,1,0,0:0:0:0:
256,192,106265,1,0,0:0:0:0:
256,192,106336,1,8,0:0:0:0:
256,192,106479,1,0,0:0:0:0:
256,192,106622,1,8,0:0:0:0:
256,192,106694,1,8,0:0:0:0:
256,192,106765,1,0,0:0:0:0:
256,192,106908,1,8,0:0:0:0:
256,192,107051,1,0,0:0:0:0:
256,192,107122,1,0,0:0:0:0:
256,192,107194,1,8,0:0:0:0:
256,192,107336,1,0,0:0:0:0:
256,192,107479,1,8,0:0:0:0:
256,192,107551,1,0,0:0:0:0:
256,192,107622,1,0,0:0:0:0:
256,192,107765,1,0,0:0:0:0:
256,192,107908,1,0,0:0:0:0:
256,192,107979,1,0,0:0:0:0:
256,192,108051,1,8,0:0:0:0:
256,192,108194,1,0,0:0:0:0:
256,192,108336,1,8,0:0:0:0:
256,192,108408,1,0,0:0:0:0:
256,192,108479,1,8,0:0:0:0:
256,192,108551,1,0,0:0:0:0:
256,192,108622,1,0,0:0:0:0:
256,192,108765,1,0,0:0:0:0:
256,192,108836,1,0,0:0:0:0:
256,192,108908,1,8,0:0:0:0:
256,192,109051,1,0,0:0:0:0:
256,192,109194,1,8,0:0:0:0:
256,192,109336,1,0,0:0:0:0:
256,192,109479,1,8,0:0:0:0:
256,192,109622,1,0,0:0:0:0:
256,192,109765,1,0,0:0:0:0:
256,192,109908,1,8,0:0:0:0:
256,192,110051,1,0,0:0:0:0:
256,192,110122,1,0,0:0:0:0:
256,192,110194,1,8,0:0:0:0:
256,192,110265,1,0,0:0:0:0:
256,192,110336,1,8,0:0:0:0:
256,192,110408,1,8,0:0:0:0:
256,192,110479,1,0,0:0:0:0:
256,192,110622,1,8,0:0:0:0:
256,192,110694,1,0,0:0:0:0:
256,192,110765,1,0,0:0:0:0:
256,192,110836,1,0,0:0:0:0:
256,192,110908,1,8,0:0:0:0:
256,192,111051,1,0,0:0:0:0:
256,192,111194,1,8,0:0:0:0:
256,192,111265,1,8,0:0:0:0:
256,192,111336,1,0,0:0:0:0:
256,192,111479,1,0,0:0:0:0:
256,192,111622,1,0,0:0:0:0:
256,192,111694,1,0,0:0:0:0:
256,192,111765,1,8,0:0:0:0:
256,192,111908,1,8,0:0:0:0:
256,192,111979,1,0,0:0:0:0:
256,192,112051,1,8,0:0:0:0:
256,192,112122,1,8,0:0:0:0:
256,192,112194,1,0,0:0:0:0:
256,192,112336,5,4,0:0:0:0:
256,192,112479,1,0,0:0:0:0:
256,192,112551,1,0,0:0:0:0:
256,192,112622,1,8,0:0:0:0:
256,192,112765,1,0,0:0:0:0:
256,192,112908,1,8,0:0:0:0:
256,192,112979,1,0,0:0:0:0:
256,192,113051,1,8,0:0:0:0:
256,192,113122,1,8,0:0:0:0:
256,192,113194,1,0,0:0:0:0:
256,192,113336,1,0,0:0:0:0:
256,192,113408,1,0,0:0:0:0:
256,192,113479,1,8,0:0:0:0:
256,192,113622,1,0,0:0:0:0:
256,192,113765,1,8,0:0:0:0:
256,192,113908,1,0,0:0:0:0:
256,192,114051,1,8,0:0:0:0:
256,192,114194,1,8,0:0:0:0:
256,192,114336,1,0,0:0:0:0:
256,192,114479,1,8,0:0:0:0:
256,192,114622,1,0,0:0:0:0:
256,192,114694,1,8,0:0:0:0:
256,192,114765,1,8,0:0:0:0:
256,192,114836,1,0,0:0:0:0:
256,192,114908,1,8,0:0:0:0:
256,192,114979,1,8,0:0:0:0:
256,192,115051,1,0,0:0:0:0:
256,192,115194,1,8,0:0:0:0:
256,192,115265,1,8,0:0:0:0:
256,192,115336,1,0,0:0:0:0:
256,192,115408,1,0,0:0:0:0:
256,192,115479,1,8,0:0:0:0:
256,192,115622,1,0,0:0:0:0:
256,192,115765,1,8,0:0:0:0:
256,192,115836,1,8,0:0:0:0:
256,192,115908,1,0,0:0:0:0:
256,192,116051,1,8,0:0:0:0:
256,192,116194,1,0,0:0:0:0:
256,192,116265,1,0,0:0:0:0:
256,192,116336,1,8,0:0:0:0:
256,192,116479,1,0,0:0:0:0:
256,192,116622,1,8,0:0:0:0:
256,192,116694,1,0,0:0:0:0:
256,192,116765,1,0,0:0:0:0:
256,192,116908,1,0,0:0:0:0:
256,192,117051,1,0,0:0:0:0:
256,192,117122,1,0,0:0:0:0:
256,192,117194,1,8,0:0:0:0:
256,192,117336,1,0,0:0:0:0:
256,192,117479,1,8,0:0:0:0:
256,192,117551,1,0,0:0:0:0:
256,192,117622,1,8,0:0:0:0:
256,192,117694,1,0,0:0:0:0:
256,192,117765,1,0,0:0:0:0:
256,192,117908,1,0,0:0:0:0:
256,192,117979,1,0,0:0:0:0:
256,192,118051,1,8,0:0:0:0:
256,192,118194,1,0,0:0:0:0:
256,192,118336,1,8,0:0:0:0:
256,192,118479,1,0,0:0:0:0:
256,192,118622,1,8,0:0:0:0:
256,192,118765,1,0,0:0:0:0:
256,192,118908,1,0,0:0:0:0:
256,192,119051,1,8,0:0:0:0:
256,192,119194,1,0,0:0:0:0:
256,192,119479,1,0,0:0:0:0:
256,192,119622,1,0,0:0:0:0:
256,192,119765,1,8,0:0:0:0:
256,192,120051,1,0,0:0:0:0:
256,192,120194,1,0,0:0:0:0:
256,192,120479,1,0,0:0:0:0:
256,192,120908,1,8,0:0:0:0:
256,192,121194,1,8,0:0:0:0:
256,192,121479,1,0,0:0:0:0:
256,192,122051,1,8,0:0:0:0:
256,192,122479,1,0,0:0:0:0:
256,192,122765,1,0,0:0:0:0:
256,192,123051,1,0,0:0:0:0:
256,192,123194,1,8,0:0:0:0:
256,192,123479,1,0,0:0:0:0:
256,192,123765,1,0,0:0:0:0:
256,192,124336,1,8,0:0:0:0:
256,192,124765,1,0,0:0:0:0:
256,192,125051,1,0,0:0:0:0:
256,192,125336,1,0,0:0:0:0:
256,192,125479,1,8,0:0:0:0:
256,192,125765,1,0,0:0:0:0:
256,192,126051,1,0,0:0:0:0:
256,192,126622,1,8,0:0:0:0:
256,192,127051,1,0,0:0:0:0:
256,192,127336,1,0,0:0:0:0:
256,192,127622,1,0,0:0:0:0:
256,192,127765,1,8,0:0:0:0:
256,192,128051,1,0,0:0:0:0:
256,192,128336,1,0,0:0:0:0:
256,192,128908,1,8,0:0:0:0:
256,192,129336,1,0,0:0:0:0:
256,192,129622,1,0,0:0:0:0:
256,192,129908,1,0,0:0:0:0:
256,192,130051,1,8,0:0:0:0:
256,192,130194,1,0,0:0:0:0:
256,192,130336,1,0,0:0:0:0:
256,192,130622,1,0,0:0:0:0:
256,192,131194,1,8,0:0:0:0:
256,192,131622,1,0,0:0:0:0:
256,192,131908,1,0,0:0:0:0:
256,192,132194,1,0,0:0:0:0:
256,192,132336,1,8,0:0:0:0:
256,192,132622,1,0,0:0:0:0:
256,192,132908,1,0,0:0:0:0:
256,192,133479,1,8,0:0:0:0:
256,192,133908,1,0,0:0:0:0:
256,192,134194,1,0,0:0:0:0:
256,192,134479,1,0,0:0:0:0:
256,192,134622,1,8,0:0:0:0:
256,192,134908,1,0,0:0:0:0:
256,192,135194,1,0,0:0:0:0:
256,192,135765,1,8,0:0:0:0:
256,192,136194,1,0,0:0:0:0:
256,192,136479,1,0,0:0:0:0:
256,192,136765,1,0,0:0:0:0:
256,192,136908,1,8,0:0:0:0:
256,192,137194,1,0,0:0:0:0:
256,192,137479,1,0,0:0:0:0:
256,192,138051,1,8,0:0:0:0:
256,192,139765,5,4,0:0:0:0:
256,192,139908,1,8,0:0:0:0:
256,192,140051,1,8,0:0:0:0:
256,192,140122,1,8,0:0:0:0:
256,192,140194,1,0,0:0:0:0:
256,192,140336,1,8,0:0:0:0:
256,192,140408,1,8,0:0:0:0:
256,192,140479,1,8,0:0:0:0:
256,192,140551,1,8,0:0:0:0:
256,192,140622,1,0,0:0:0:0:
256,192,140765,1,0,0:0:0:0:
256,192,140908,1,8,0:0:0:0:
256,192,140979,1,8,0:0:0:0:
256,192,141051,1,0,0:0:0:0:
256,192,141194,1,8,0:0:0:0:
256,192,141265,1,0,0:0:0:0:
256,192,141336,1,8,0:0:0:0:
256,192,141408,1,0,0:0:0:0:
256,192,141479,1,8,0:0:0:0:
256,192,141551,1,8,0:0:0:0:
256,192,141622,1,0,0:0:0:0:
256,192,141765,1,8,0:0:0:0:
256,192,141836,1,8,0:0:0:0:
256,192,141908,1,0,0:0:0:0:
256,192,142051,1,0,0:0:0:0:
256,192,142194,1,0,0:0:0:0:
256,192,142265,1,0,0:0:0:0:
256,192,142336,1,8,0:0:0:0:
256,192,142408,1,8,0:0:0:0:
256,192,142479,1,0,0:0:0:0:
256,192,142622,1,8,0:0:0:0:
256,192,142694,1,0,0:0:0:0:
256,192,142765,1,8,0:0:0:0:
256,192,142836,1,8,0:0:0:0:
256,192,142908,1,0,0:0:0:0:
256,192,143051,1,0,0:0:0:0:
256,192,143194,1,8,0:0:0:0:
256,192,143265,1,8,0:0:0:0:
256,192,143336,1,0,0:0:0:0:
256,192,143479,1,8,0:0:0:0:
256,192,143551,1,0,0:0:0:0:
256,192,143622,1,8,0:0:0:0:
256,192,143694,1,0,0:0:0:0:
256,192,143765,1,8,0:0:0:0:
256,192,143836,1,8,0:0:0:0:
256,192,143908,1,8,0:0:0:0:
256,192,143979,1,0,0:0:0:0:
256,192,144051,1,8,0:0:0:0:
256,192,144122,1,0,0:0:0:0:
256,192,144194,1,8,0:0:0:0:
256,192,144265,1,8,0:0:0:0:
256,192,144336,1,0,0:0:0:0:
256,192,144479,1,0,0:0:0:0:
256,192,144622,1,8,0:0:0:0:
256,192,144694,1,8,0:0:0:0:
256,192,144765,1,0,0:0:0:0:
256,192,144908,1,8,0:0:0:0:
256,192,144979,1,8,0:0:0:0:
256,192,145051,1,8,0:0:0:0:
256,192,145122,1,8,0:0:0:0:
256,192,145194,1,0,0:0:0:0:
256,192,145336,1,0,0:0:0:0:
256,192,145479,1,8,0:0:0:0:
256,192,145551,1,8,0:0:0:0:
256,192,145622,1,0,0:0:0:0:
256,192,145765,1,8,0:0:0:0:
256,192,145836,1,8,0:0:0:0:
256,192,145908,1,0,0:0:0:0:
256,192,145979,1,0,0:0:0:0:
256,192,146051,1,8,0:0:0:0:
256,192,146122,1,8,0:0:0:0:
256,192,146194,1,0,0:0:0:0:
256,192,146336,1,8,0:0:0:0:
256,192,146408,1,8,0:0:0:0:
256,192,146479,1,0,0:0:0:0:
256,192,146622,1,0,0:0:0:0:
256,192,146694,1,0,0:0:0:0:
256,192,146765,1,8,0:0:0:0:
256,192,146908,1,8,0:0:0:0:
256,192,146979,1,0,0:0:0:0:
256,192,147051,1,8,0:0:0:0:
256,192,147122,1,0,0:0:0:0:
256,192,147194,1,8,0:0:0:0:
256,192,147265,1,8,0:0:0:0:
256,192,147336,1,0,0:0:0:0:
256,192,147479,1,0,0:0:0:0:
256,192,147622,1,0,0:0:0:0:
256,192,147765,1,8,0:0:0:0:
256,192,147836,1,8,0:0:0:0:
256,192,147908,1,0,0:0:0:0:
256,192,147979,1,0,0:0:0:0:
256,192,148051,1,8,0:0:0:0:
256,192,148194,1,0,0:0:0:0:
256,192,148336,1,8,0:0:0:0:
256,192,148408,1,0,0:0:0:0:
256,192,148479,1,8,0:0:0:0:
256,192,148551,1,0,0:0:0:0:
256,192,148622,1,8,0:0:0:0:
256,192,148765,1,0,0:0:0:0:
256,192,148908,5,12,0:0:0:0:
256,192,149051,1,0,0:0:0:0:
256,192,149194,1,8,0:0:0:0:
256,192,149265,1,8,0:0:0:0:
256,192,149336,1,0,0:0:0:0:
256,192,149479,1,8,0:0:0:0:
256,192,149551,1,8,0:0:0:0:
256,192,149622,1,8,0:0:0:0:
256,192,149694,1,8,0:0:0:0:
256,192,149765,1,0,0:0:0:0:
256,192,149908,1,0,0:0:0:0:
256,192,150051,1,8,0:0:0:0:
256,192,150122,1,8,0:0:0:0:
256,192,150194,1,0,0:0:0:0:
256,192,150336,1,8,0:0:0:0:
256,192,150408,1,8,0:0:0:0:
256,192,150479,1,8,0:0:0:0:
256,192,150551,1,0,0:0:0:0:
256,192,150622,1,8,0:0:0:0:
256,192,150694,1,8,0:0:0:0:
256,192,150765,1,0,0:0:0:0:
256,192,150908,1,8,0:0:0:0:
256,192,150979,1,8,0:0:0:0:
256,192,151051,1,0,0:0:0:0:
256,192,151194,1,0,0:0:0:0:
256,192,151336,1,0,0:0:0:0:
256,192,151408,1,0,0:0:0:0:
256,192,151479,1,8,0:0:0:0:
256,192,151551,1,8,0:0:0:0:
256,192,151622,1,0,0:0:0:0:
256,192,151765,1,8,0:0:0:0:
256,192,151836,1,0,0:0:0:0:
256,192,151908,1,8,0:0:0:0:
256,192,151979,1,8,0:0:0:0:
256,192,152051,1,0,0:0:0:0:
256,192,152194,1,0,0:0:0:0:
256,192,152336,1,8,0:0:0:0:
256,192,152408,1,8,0:0:0:0:
256,192,152479,1,0,0:0:0:0:
256,192,152622,1,8,0:0:0:0:
256,192,152694,1,0,0:0:0:0:
256,192,152765,1,8,0:0:0:0:
256,192,152836,1,0,0:0:0:0:
256,192,152908,1,8,0:0:0:0:
256,192,152979,1,8,0:0:0:0:
256,192,153051,1,0,0:0:0:0:
256,192,153122,1,0,0:0:0:0:
256,192,153194,1,8,0:0:0:0:
256,192,153265,1,0,0:0:0:0:
256,192,153336,1,8,0:0:0:0:
256,192,153408,1,8,0:0:0:0:
256,192,153479,1,0,0:0:0:0:
256,192,153622,1,0,0:0:0:0:
256,192,153765,1,8,0:0:0:0:
256,192,153836,1,8,0:0:0:0:
256,192,153908,1,0,0:0:0:0:
256,192,154051,1,8,0:0:0:0:
256,192,154122,1,8,0:0:0:0:
256,192,154194,1,8,0:0:0:0:
256,192,154265,1,8,0:0:0:0:
256,192,154336,1,0,0:0:0:0:
256,192,154479,1,0,0:0:0:0:
256,192,154622,1,8,0:0:0:0:
256,192,154694,1,8,0:0:0:0:
256,192,154765,1,0,0:0:0:0:
256,192,154908,1,8,0:0:0:0:
256,192,154979,1,8,0:0:0:0:
256,192,155051,1,0,0:0:0:0:
256,192,155122,1,0,0:0:0:0:
256,192,155194,1,8,0:0:0:0:
256,192,155265,1,8,0:0:0:0:
256,192,155336,1,0,0:0:0:0:
256,192,155479,1,8,0:0:0:0:
256,192,155551,1,8,0:0:0:0:
256,192,155622,1,0,0:0:0:0:
256,192,155765,1,0,0:0:0:0:
256,192,155908,1,0,0:0:0:0:
256,192,155979,1,0,0:0:0:0:
256,192,156051,1,8,0:0:0:0:
256,192,156194,1,0,0:0:0:0:
256,192,156336,1,8,0:0:0:0:
256,192,156622,1,0,0:0:0:0:
256,192,156908,1,0,0:0:0:0:
256,192,157051,1,0,0:0:0:0:
256,192,157336,1,0,0:0:0:0:
256,192,157479,1,8,0:0:0:0:
256,192,157622,1,0,0:0:0:0:
256,192,157765,1,8,0:0:0:0:
256,192,158051,5,4,0:0:0:0:
256,192,158336,1,8,0:0:0:0:
256,192,158622,1,8,0:0:0:0:
256,192,158765,1,8,0:0:0:0:
256,192,158908,1,0,0:0:0:0:
256,192,159051,1,8,0:0:0:0:
256,192,159194,1,0,0:0:0:0:
256,192,159336,1,8,0:0:0:0:
256,192,159479,1,0,0:0:0:0:
256,192,159622,1,8,0:0:0:0:
256,192,159765,1,8,0:0:0:0:
256,192,160051,1,0,0:0:0:0:
256,192,160336,1,0,0:0:0:0:
256,192,160622,1,0,0:0:0:0:
256,192,160908,1,8,0:0:0:0:
256,192,161051,1,8,0:0:0:0:
256,192,161194,1,0,0:0:0:0:
256,192,161336,1,8,0:0:0:0:
256,192,161479,1,0,0:0:0:0:
256,192,161622,1,8,0:0:0:0:
256,192,161765,1,0,0:0:0:0:
256,192,161908,1,8,0:0:0:0:
256,192,162051,1,8,0:0:0:0:
256,192,162194,1,0,0:0:0:0:
256,192,162336,1,8,0:0:0:0:
256,192,162479,1,8,0:0:0:0:
256,192,162622,1,0,0:0:0:0:
256,192,162908,1,8,0:0:0:0:
256,192,163194,1,8,0:0:0:0:
256,192,163336,1,8,0:0:0:0:
256,192,163479,1,0,0:0:0:0:
256,192,163622,1,8,0:0:0:0:
256,192,163765,1,0,0:0:0:0:
256,192,163908,1,8,0:0:0:0:
256,192,164051,1,0,0:0:0:0:
256,192,164194,1,8,0:0:0:0:
256,192,164336,1,8,0:0:0:0:
256,192,164622,1,0,0:0:0:0:
256,192,164908,1,8,0:0:0:0:
256,192,165194,1,0,0:0:0:0:
256,192,165336,1,8,0:0:0:0:
256,192,165479,1,0,0:0:0:0:
256,192,165765,1,8,0:0:0:0:
256,192,166051,1,0,0:0:0:0:
256,192,166194,1,8,0:0:0:0:
256,192,166336,1,0,0:0:0:0:
256,192,166622,1,8,0:0:0:0:
256,192,166908,1,8,0:0:0:0:
256,192,167194,5,4,0:0:0:0:
256,192,167336,1,0,0:0:0:0:
256,192,167479,1,8,0:0:0:0:
256,192,167551,1,8,0:0:0:0:
256,192,167622,1,0,0:0:0:0:
256,192,167694,1,0,0:0:0:0:
256,192,167765,1,8,0:0:0:0:
256,192,167836,1,8,0:0:0:0:
256,192,167908,1,8,0:0:0:0:
256,192,167979,1,8,0:0:0:0:
256,192,168051,1,0,0:0:0:0:
256,192,168194,1,8,0:0:0:0:
256,192,168336,1,0,0:0:0:0:
256,192,168408,1,0,0:0:0:0:
256,192,168479,1,8,0:0:0:0:
256,192,168622,1,0,0:0:0:0:
256,192,168694,1,0,0:0:0:0:
256,192,168765,1,8,0:0:0:0:
256,192,168836,1,0,0:0:0:0:
256,192,168908,1,8,0:0:0:0:
256,192,168979,1,8,0:0:0:0:
256,192,169051,1,0,0:0:0:0:
256,192,169122,1,0,0:0:0:0:
256,192,169194,1,8,0:0:0:0:
256,192,169265,1,8,0:0:0:0:
256,192,169336,1,0,0:0:0:0:
256,192,169408,1,0,0:0:0:0:
256,192,169479,1,0,0:0:0:0:
256,192,169622,1,0,0:0:0:0:
256,192,169765,1,8,0:0:0:0:
256,192,169836,1,8,0:0:0:0:
256,192,169908,1,0,0:0:0:0:
256,192,169979,1,0,0:0:0:0:
256,192,170051,1,8,0:0:0:0:
256,192,170122,1,0,0:0:0:0:
256,192,170194,1,8,0:0:0:0:
256,192,170265,1,8,0:0:0:0:
256,192,170336,1,0,0:0:0:0:
256,192,170479,1,8,0:0:0:0:
256,192,170622,1,0,0:0:0:0:
256,192,170694,1,0,0:0:0:0:
256,192,170765,1,8,0:0:0:0:
256,192,170836,1,8,0:0:0:0:
256,192,170908,1,0,0:0:0:0:
256,192,170979,1,0,0:0:0:0:
256,192,171051,1,8,0:0:0:0:
256,192,171122,1,0,0:0:0:0:
256,192,171194,1,8,0:0:0:0:
256,192,171265,1,8,0:0:0:0:
256,192,171336,1,8,0:0:0:0:
256,192,171408,1,0,0:0:0:0:
256,192,171479,1,8,0:0:0:0:
256,192,171551,1,0,0:0:0:0:
256,192,171622,1,8,0:0:0:0:
256,192,171658,1,8,0:0:0:0:
256,192,171765,1,0,0:0:0:0:
256,192,171908,1,0,0:0:0:0:
256,192,172051,1,8,0:0:0:0:
256,192,172122,1,8,0:0:0:0:
256,192,172194,1,0,0:0:0:0:
256,192,172265,1,0,0:0:0:0:
256,192,172336,1,8,0:0:0:0:
256,192,172408,1,8,0:0:0:0:
256,192,172479,1,8,0:0:0:0:
256,192,172551,1,8,0:0:0:0:
256,192,172622,1,0,0:0:0:0:
256,192,172765,1,8,0:0:0:0:
256,192,172908,1,0,0:0:0:0:
256,192,172979,1,0,0:0:0:0:
256,192,173051,1,8,0:0:0:0:
256,192,173194,1,0,0:0:0:0:
256,192,173265,1,0,0:0:0:0:
256,192,173336,1,8,0:0:0:0:
256,192,173408,1,0,0:0:0:0:
256,192,173479,1,8,0:0:0:0:
256,192,173551,1,8,0:0:0:0:
256,192,173622,1,0,0:0:0:0:
256,192,173694,1,0,0:0:0:0:
256,192,173765,1,8,0:0:0:0:
256,192,173836,1,0,0:0:0:0:
256,192,173908,1,0,0:0:0:0:
256,192,173979,1,0,0:0:0:0:
256,192,174051,1,0,0:0:0:0:
256,192,174336,1,0,0:0:0:0:
256,192,174479,1,0,0:0:0:0:
256,192,174622,1,8,0:0:0:0:
256,192,174765,1,8,0:0:0:0:
256,192,174908,1,0,0:0:0:0:
256,192,175051,1,8,0:0:0:0:
256,192,175194,1,8,0:0:0:0:
256,192,175336,1,0,0:0:0:0:
256,192,175479,1,0,0:0:0:0:
256,192,175765,1,8,0:0:0:0:
256,192,175908,1,0,0:0:0:0:
256,192,176051,1,0,0:0:0:0:
