osu file format v14

[General]
AudioFilename: audio.mp3
AudioLeadIn: 0
PreviewTime: 218754
Countdown: 0
SampleSet: Normal
StackLeniency: 0.7
Mode: 0
LetterboxInBreaks: 0
WidescreenStoryboard: 0

[Editor]
Bookmarks: 48170,133504,218837
DistanceSpacing: 1.8
BeatDivisor: 4
GridSize: 16
TimelineZoom: 1.6

[Metadata]
Title:The Groan of Wind
TitleUnicode:The Groan of Wind
Artist:Kalmah
ArtistUnicode:Kalmah
Creator:Wiped
Version:Supernatural
Source:
Tags:the black waltz melodic death metal
BeatmapID:1327885
BeatmapSetID:629073

[Difficulty]
HPDrainRate:5
CircleSize:4
OverallDifficulty:9
ApproachRate:9.4
SliderMultiplier:1.4
SliderTickRate:1

[Events]
//Background and Video events
0,0,"846953.jpg",0,0
//Break Periods
2,203037,216170
//Storyboard Layer 0 (Background)
//Storyboard Layer 1 (Fail)
//Storyboard Layer 2 (Pass)
//Storyboard Layer 3 (Foreground)
//Storyboard Layer 4 (Overlay)
//Storyboard Sound Samples

[TimingPoints]
171,333.333333333333,4,1,1,80,1,0
171,-200,4,1,1,80,0,0
26837,-100,4,1,2,80,0,0
36170,-100,4,1,9,80,0,0
37504,-100,4,1,2,80,0,0
46837,-100,4,1,1,80,0,0
47087,-100,4,1,1,30,0,0
47170,-100,4,1,1,80,0,0
47420,-100,4,1,1,30,0,0
47504,-100,4,1,1,80,0,0
47754,-100,4,1,1,30,0,0
47837,-100,4,1,1,80,0,0
48087,-100,4,1,1,30,0,0
48170,-76.9230769230769,4,1,1,80,0,0
48420,-76.9230769230769,4,1,1,30,0,0
48504,-76.9230769230769,4,1,1,80,0,0
50420,-76.9230769230769,4,1,1,30,0,0
50504,-76.9230769230769,4,1,1,80,0,0
51087,-76.9230769230769,4,1,1,30,0,0
51170,-76.9230769230769,4,1,1,80,0,0
53754,-76.9230769230769,4,1,1,30,0,0
53837,-76.9230769230769,4,1,1,80,0,0
55754,-76.9230769230769,4,1,1,30,0,0
55837,-76.9230769230769,4,1,1,80,0,0
56420,-76.9230769230769,4,1,1,30,0,0
56504,-76.9230769230769,4,1,1,80,0,0
57504,-76.9230769230769,4,3,1,80,0,0
58837,-76.9230769230769,4,1,1,80,0,0
59087,-76.9230769230769,4,1,1,30,0,0
59170,-76.9230769230769,4,1,1,80,0,0
61754,-76.9230769230769,4,1,1,30,0,0
61837,-76.9230769230769,4,1,1,80,0,0
64420,-76.9230769230769,4,1,1,30,0,0
64504,-76.9230769230769,4,1,1,80,0,0
67087,-76.9230769230769,4,1,1,30,0,0
67170,-76.9230769230769,4,1,1,80,0,0
68170,-76.9230769230769,4,3,1,80,0,0
69504,-100,4,2,2,80,0,0
74004,-100,4,2,2,40,0,0
74170,-100,4,2,2,80,0,0
74670,-100,4,2,2,40,0,0
74837,-100,4,2,2,80,0,0
76837,-100,4,3,1,60,0,0
77504,-100,4,2,2,80,0,0
78837,-100,4,1,1,80,0,0
80170,-76.9230769230769,4,1,1,80,0,1
81004,-76.9230769230769,4,1,3,80,0,1
81337,-76.9230769230769,4,1,1,80,0,1
81920,-76.9230769230769,4,1,1,30,0,1
82004,-76.9230769230769,4,1,1,80,0,1
83670,-76.9230769230769,4,1,3,80,0,1
84004,-76.9230769230769,4,1,1,80,0,1
84587,-76.9230769230769,4,1,1,30,0,1
84670,-76.9230769230769,4,1,1,80,0,1
85170,-76.9230769230769,4,1,3,80,0,1
85420,-76.9230769230769,4,1,3,30,0,1
85504,-76.9230769230769,4,1,1,80,0,1
86337,-76.9230769230769,4,1,3,80,0,1
86670,-76.9230769230769,4,1,1,80,0,1
87254,-76.9230769230769,4,1,1,30,0,1
87337,-76.9230769230769,4,1,1,80,0,1
89004,-76.9230769230769,4,1,3,80,0,1
89337,-76.9230769230769,4,1,1,80,0,1
89504,-76.9230769230769,4,3,1,80,0,1
90837,-76.9230769230769,4,1,1,80,0,0
91754,-76.9230769230769,4,1,1,30,0,0
91837,-76.9230769230769,4,1,1,80,0,0
94420,-76.9230769230769,4,1,1,30,0,0
94504,-76.9230769230769,4,1,1,80,0,0
97087,-76.9230769230769,4,1,1,30,0,0
97170,-76.9230769230769,4,1,1,80,0,0
100170,-76.9230769230769,4,1,8,80,0,0
101504,-76.9230769230769,4,1,1,80,0,0
101837,-76.9230769230769,4,1,8,80,0,0
102004,-76.9230769230769,4,1,1,80,0,0
102420,-76.9230769230769,4,1,1,30,0,0
102504,-76.9230769230769,4,1,1,80,0,0
105087,-76.9230769230769,4,1,1,30,0,0
105170,-76.9230769230769,4,1,1,80,0,0
107754,-76.9230769230769,4,1,1,30,0,0
107837,-76.9230769230769,4,1,1,80,0,0
110837,-76.9230769230769,4,3,1,80,0,0
112170,-100,4,1,1,80,0,1
116170,-76.9230769230769,4,1,1,80,0,1
117504,-100,4,1,1,80,0,1
120837,-76.9230769230769,4,1,1,80,0,1
121504,-76.9230769230769,4,3,2,80,0,1
122837,-76.9230769230769,4,1,1,80,0,0
123754,-76.9230769230769,4,1,1,30,0,0
123837,-76.9230769230769,4,1,1,80,0,0
127837,-76.9230769230769,4,3,1,80,0,0
128170,-76.9230769230769,4,1,1,80,0,0
132170,-100,4,3,1,80,0,0
133504,-100,4,1,1,80,0,0
136420,-100,4,1,1,30,0,0
136504,-100,4,1,1,80,0,0
138004,-100,4,3,1,50,0,0
138170,-100,4,1,1,80,0,0
139087,-100,4,1,1,30,0,0
139170,-100,4,1,1,80,0,0
140670,-100,4,3,1,50,0,0
140837,-100,4,1,1,80,0,0
141087,-100,4,1,1,30,0,0
141170,-100,4,1,1,80,0,0
141504,-100,4,3,1,80,0,0
143170,-100,4,3,2,80,0,0
144170,-100,4,3,1,80,0,0
153504,-100,4,3,1,80,0,0
154504,-76.9230769230769,4,1,1,80,0,0
154754,-76.9230769230769,4,1,1,30,0,0
154837,-100,4,1,2,80,0,0
164170,-100,4,1,9,80,0,0
165504,-100,4,1,2,80,0,0
174837,-100,4,3,1,80,0,1
176170,-100,4,1,1,80,0,0
176670,-100,4,1,1,30,0,0
176837,-100,4,1,1,80,0,0
177337,-100,4,1,1,30,0,0
177504,-100,4,1,1,80,0,0
178504,-100,4,1,3,80,0,0
178837,-100,4,1,1,80,0,0
179337,-100,4,1,1,30,0,0
179504,-100,4,1,1,80,0,0
180004,-100,4,1,1,30,0,0
180170,-100,4,1,1,80,0,0
181170,-100,4,1,3,80,0,0
181504,-100,4,1,1,80,0,0
181837,-100,4,1,1,30,0,0
182004,-100,4,1,1,80,0,0
182504,-100,4,1,1,30,0,0
182670,-100,4,1,1,80,0,0
183170,-100,4,1,1,30,0,0
183337,-100,4,1,1,80,0,0
183837,-100,4,1,3,80,0,0
184170,-100,4,1,1,80,0,0
184504,-100,4,1,1,30,0,0
184670,-100,4,1,1,80,0,0
185170,-100,4,1,1,30,0,0
185337,-100,4,1,1,80,0,0
185837,-100,4,1,1,30,0,0
186004,-100,4,1,1,80,0,0
186504,-100,4,1,3,80,0,0
186837,-100,4,1,1,80,0,0
187170,-100,4,1,1,30,0,0
187337,-100,4,1,1,80,0,0
187837,-100,4,1,1,30,0,0
188004,-100,4,1,1,80,0,0
188504,-100,4,1,1,30,0,0
188670,-100,4,1,1,80,0,0
189170,-100,4,1,3,80,0,0
189504,-100,4,1,1,80,0,0
189837,-100,4,1,1,30,0,0
190004,-100,4,1,1,80,0,0
190504,-100,4,1,1,30,0,0
190670,-100,4,1,1,80,0,0
191170,-100,4,1,1,30,0,0
191337,-100,4,1,1,80,0,0
191837,-100,4,1,3,80,0,0
192170,-100,4,1,1,80,0,0
192504,-100,4,1,1,30,0,0
192670,-100,4,1,1,80,0,0
193170,-100,4,1,1,30,0,0
193337,-100,4,1,1,80,0,0
193837,-100,4,1,1,30,0,0
194004,-100,4,1,1,80,0,0
194504,-100,4,1,3,80,0,0
194837,-100,4,1,1,80,0,0
195170,-100,4,1,1,30,0,0
195337,-100,4,1,1,80,0,0
195837,-100,4,1,1,30,0,0
196004,-100,4,1,1,80,0,0
196504,-100,4,1,1,30,0,0
196670,-100,4,1,1,80,0,0
197004,-100,4,1,3,80,0,0
197170,-100,4,1,1,80,0,0
198837,-100,4,1,1,70,0,0
200170,-100,4,1,1,60,0,0
201504,-100,4,1,1,50,0,0
202837,-100,4,1,1,40,0,0
216837,-100,4,3,2,80,0,0
218837,-76.9230769230769,4,1,1,80,0,1
219670,-76.9230769230769,4,1,3,80,0,1
220004,-76.9230769230769,4,1,1,80,0,1
220587,-76.9230769230769,4,1,1,30,0,1
220670,-76.9230769230769,4,1,1,80,0,1
222337,-76.9230769230769,4,1,3,80,0,1
222670,-76.9230769230769,4,1,1,80,0,1
223254,-76.9230769230769,4,1,1,30,0,1
223337,-76.9230769230769,4,1,1,80,0,1
225004,-76.9230769230769,4,1,3,80,0,1
225337,-76.9230769230769,4,1,1,80,0,1
225920,-76.9230769230769,4,1,1,30,0,1
226004,-76.9230769230769,4,1,1,80,0,1
227670,-76.9230769230769,4,1,3,80,0,1
228004,-76.9230769230769,4,1,1,80,0,1
228170,-76.9230769230769,4,3,2,80,0,0
229504,-76.9230769230769,4,1,1,80,0,1
230837,-76.9230769230769,4,3,2,80,0,1
232170,-76.9230769230769,4,1,1,80,0,1
233504,-76.9230769230769,4,3,2,80,0,1
234837,-76.9230769230769,4,1,1,80,0,1
236170,-76.9230769230769,4,3,2,80,0,1
237504,-76.9230769230769,4,1,1,80,0,1
238837,-100,4,1,1,80,0,1
239087,-100,4,1,1,30,0,1
239170,-100,4,1,1,80,0,1
239420,-100,4,1,1,30,0,1
239504,-100,4,1,1,80,0,1
239754,-100,4,1,1,30,0,1
239837,-100,4,1,1,80,0,1
240087,-100,4,1,1,30,0,1
240170,-76.9230769230769,4,1,1,80,0,0
241087,-76.9230769230769,4,1,1,30,0,0
241170,-76.9230769230769,4,1,1,80,0,0
243754,-76.9230769230769,4,1,1,30,0,0
243837,-76.9230769230769,4,1,1,80,0,0
245087,-76.9230769230769,4,1,1,30,0,0
245170,-76.9230769230769,4,1,1,80,0,0
246420,-76.9230769230769,4,1,1,30,0,0
246504,-76.9230769230769,4,1,1,80,0,0
249504,-76.9230769230769,4,3,1,80,0,0
250837,-76.9230769230769,4,1,1,80,0,0
251754,-76.9230769230769,4,1,1,30,0,0
251837,-76.9230769230769,4,1,1,80,0,0
255837,-76.9230769230769,4,3,1,80,0,0
256170,-76.9230769230769,4,1,1,80,0,0
257087,-76.9230769230769,4,1,1,30,0,0
257170,-76.9230769230769,4,1,1,80,0,0
258837,-76.9230769230769,4,3,1,80,0,0
261504,-100,4,1,1,80,0,0
264420,-100,4,1,1,30,0,0
264504,-100,4,1,1,80,0,0
266004,-100,4,3,1,50,0,0
266170,-100,4,1,1,80,0,0
267087,-100,4,1,1,30,0,0
267170,-100,4,1,1,80,0,0
268670,-100,4,3,1,50,0,0
268837,-100,4,1,1,80,0,0
269087,-100,4,1,1,30,0,0
269170,-100,4,1,1,80,0,0
269504,-100,4,3,1,80,0,0
282837,-76.9230769230769,4,1,1,100,0,1
284087,-76.9230769230769,4,1,1,30,0,1
284170,-76.9230769230769,4,1,1,100,0,1
286254,-76.9230769230769,4,1,1,30,0,1
286337,-76.9230769230769,4,1,1,100,0,1
292170,-76.9230769230769,4,3,1,100,0,1
293504,-76.9230769230769,4,1,1,100,0,0
294837,-76.9230769230769,4,1,1,85,0,0
296170,-76.9230769230769,4,1,1,70,0,0
297504,-76.9230769230769,4,1,1,60,0,0
298170,-76.9230769230769,4,1,1,50,0,0
298837,-76.9230769230769,4,1,1,40,0,0
299504,-76.9230769230769,4,1,1,30,0,0
300170,-76.9230769230769,4,1,1,20,0,0
300837,-76.9230769230769,4,1,1,10,0,0

[Colours]
Combo1 : 128,128,128
Combo2 : 128,128,64
Combo3 : 192,192,192
Combo4 : 64,128,128

[HitObjects]
205,187,171,6,0,B|211:177|214:141|188:117|167:108|167:108|193:132|229:136|253:109|257:74|230:50|195:46|171:73,1,280,4|0,0:0|0:0,0:0:0:0:
124,176,1837,1,4,0:0:0:0:
58,84,2170,1,4,0:0:0:0:
171,73,2504,1,4,0:0:0:0:
124,176,2837,6,0,P|141:240|296:183,1,280,4|0,0:0|0:0,0:0:0:0:
296,93,4504,1,4,0:0:0:0:
385,132,4837,1,4,0:0:0:0:
477,98,5170,1,4,0:0:0:0:
473,196,5504,6,0,B|468:267|399:308|399:308|332:252|270:293,1,280,4|0,0:0|0:0,0:0:0:0:
190,347,7170,1,4,0:0:0:0:
104,298,7504,1,4,0:0:0:0:
69,205,7837,1,4,0:0:0:0:
101,111,8170,6,0,B|199:81|199:81|214:42,1,140,4|0,0:0|3:0,0:0:0:0:
411,111,9504,2,0,B|313:81|313:81|298:42,1,140,4|0,0:0|0:3,0:0:0:0:
464,50,10837,6,0,B|507:83|505:143|475:181|426:193|426:193|460:228|455:286,1,280,4|0,0:0|0:0,0:0:0:0:
371,330,12504,1,4,0:0:0:0:
273,336,12837,1,4,0:0:0:0:
175,342,13170,1,4,0:0:0:0:
77,348,13504,6,0,B|75:281|123:240|175:230|225:258|225:258|211:207|214:180,1,280,4|0,0:0|0:0,0:0:0:0:
190,96,15170,1,4,0:0:0:0:
101,53,15504,1,4,0:0:0:0:
109,152,15837,1,4,0:0:0:0:
190,96,16170,6,0,B|254:128|318:64|318:64|382:96|446:32,1,280,4|0,0:0|0:0,0:0:0:0:
488,122,17837,1,4,0:0:0:0:
463,216,18170,1,4,0:0:0:0:
394,284,18504,1,4,0:0:0:0:
300,308,18837,6,0,B|328:206|328:206|365:184,1,140,4|0,0:0|0:3,0:0:0:0:
154,188,20170,2,0,B|184:206|184:206|212:308,1,140,4|0,0:0|0:3,0:0:0:0:
256,192,21504,1,4,0:0:0:0:
256,192,21670,12,0,26504,0:0:0:0:
208,320,26837,6,0,L|200:272,3,35,4|0|0|0,0:0|0:0|0:0|0:0,0:0:0:0:
304,320,27170,2,0,L|309:285,3,35,8|0|0|0,0:0|0:0|0:0|0:0,0:0:0:0:
184,224,27504,2,0,L|176:176,3,35
328,224,27837,2,0,L|333:189,3,35,8|0|0|0,0:0|0:0|0:0|0:0,0:0:0:0:
256,64,28170,5,0,0:0:0:0:
288,50,28253,1,0,0:0:0:0:
322,44,28336,1,0,0:0:0:0:
357,47,28419,1,0,0:0:0:0:
390,59,28504,1,8,0:0:0:0:
351,95,28587,1,0,0:0:0:0:
304,117,28670,1,0,0:0:0:0:
252,123,28753,1,0,0:0:0:0:
201,112,28837,1,0,0:0:0:0:
178,75,28920,1,0,0:0:0:0:
144,49,29003,1,0,0:0:0:0:
102,37,29086,1,0,0:0:0:0:
59,41,29170,1,8,0:0:0:0:
80,68,29253,1,0,0:0:0:0:
91,101,29336,1,0,0:0:0:0:
91,136,29419,1,0,0:0:0:0:
78,169,29504,6,0,L|63:211,3,35
112,332,29837,2,0,L|96:290,3,35,8|0|0|0,0:0|0:0|0:0|0:0,0:0:0:0:
174,193,30170,2,0,L|158:234,3,35
208,356,30504,2,0,L|191:312,3,35,8|0|0|0,0:0|0:0|0:0|0:0,0:0:0:0:
269,216,30837,5,0,0:0:0:0:
293,217,30920,1,0,0:0:0:0:
317,219,31003,1,0,0:0:0:0:
342,221,31086,1,0,0:0:0:0:
366,223,31170,1,8,0:0:0:0:
391,225,31253,1,0,0:0:0:0:
415,227,31336,1,0,0:0:0:0:
439,229,31420,1,0,0:0:0:0:
464,231,31504,1,0,0:0:0:0:
441,257,31587,1,0,0:0:0:0:
412,276,31670,1,0,0:0:0:0:
378,287,31753,1,0,0:0:0:0:
344,289,31837,1,8,0:0:0:0:
336,254,31921,1,0,0:0:0:0:
338,220,32004,1,0,0:0:0:0:
349,186,32087,1,0,0:0:0:0:
369,158,32170,6,0,L|396:121,3,35,4|0|0|0,0:0|0:0|0:0|0:0,0:0:0:0:
335,34,32504,2,0,L|325:67,3,35,8|0|0|0,0:0|0:0|0:0|0:0,0:0:0:0:
220,29,32837,2,0,L|229:62,3,35
186,153,33170,2,0,L|159:116,3,35,8|0|0|0,0:0|0:0|0:0|0:0,0:0:0:0:
134,38,33504,5,0,0:0:0:0:
100,29,33587,1,0,0:0:0:0:
65,31,33670,1,0,0:0:0:0:
33,44,33754,1,0,0:0:0:0:
7,67,33837,1,8,0:0:0:0:
39,108,33920,1,0,0:0:0:0:
61,156,34003,1,0,0:0:0:0:
71,207,34087,1,0,0:0:0:0:
68,259,34170,1,0,0:0:0:0:
91,296,34253,1,0,0:0:0:0:
126,322,34336,1,0,0:0:0:0:
168,333,34420,1,0,0:0:0:0:
211,327,34504,1,8,0:0:0:0:
242,312,34587,1,0,0:0:0:0:
276,304,34670,1,0,0:0:0:0:
311,305,34754,1,0,0:0:0:0:
345,314,34837,6,0,L|398:328,3,35
477,245,35170,2,0,L|424:258,3,35,8|0|0|0,0:0|0:0|0:0|0:0,0:0:0:0:
323,213,35504,2,0,L|375:226,3,35
454,143,35837,1,8,0:0:0:0:
454,125,35920,1,0,0:0:0:0:
454,108,36003,1,8,0:0:0:0:
454,90,36087,1,8,0:0:0:0:
454,73,36170,6,0,L|395:68,1,35
454,61,36337,2,0,L|394:55,1,35
260,40,36504,2,0,P|257:17|263:-15,1,35,12|0,0:0|0:0,0:0:0:0:
326,110,36670,2,0,P|328:132|323:165,1,35,12|0,0:0|0:0,0:0:0:0:
100,66,36837,6,0,L|159:71,1,35
100,78,37004,2,0,L|160:84,1,35
265,45,37170,2,0,P|262:22|268:-10,1,35,12|0,0:0|0:0,0:0:0:0:
321,105,37336,2,0,P|323:127|318:160,1,35,12|0,0:0|0:0,0:0:0:0:
186,173,37504,6,0,L|183:207,3,35,4|0|0|0,0:0|0:0|0:0|0:0,0:0:0:0:
112,204,37837,2,0,L|121:237,3,35,8|0|0|0,0:0|0:0|0:0|0:0,0:0:0:0:
53,258,38170,2,0,L|73:286,3,35
16,328,38504,2,0,L|44:347,3,35,8|0|0|0,0:0|0:0|0:0|0:0,0:0:0:0:
122,378,38837,5,0,0:0:0:0:
156,378,38920,1,0,0:0:0:0:
191,372,39003,1,0,0:0:0:0:
224,362,39087,1,0,0:0:0:0:
256,346,39170,1,8,0:0:0:0:
262,295,39253,1,0,0:0:0:0:
233,253,39336,1,0,0:0:0:0:
182,243,39420,1,0,0:0:0:0:
138,269,39504,1,0,0:0:0:0:
171,297,39587,1,0,0:0:0:0:
213,309,39670,1,0,0:0:0:0:
256,302,39754,1,0,0:0:0:0:
291,278,39837,1,8,0:0:0:0:
322,261,39920,1,0,0:0:0:0:
356,255,40003,1,0,0:0:0:0:
391,258,40087,1,0,0:0:0:0:
423,272,40170,6,0,L|425:326,3,35
459,193,40504,2,0,L|458:158,3,35,8|0|0|0,0:0|0:0|0:0|0:0,0:0:0:0:
353,145,40837,2,0,L|354:198,3,35
388,65,41171,2,0,L|387:30,3,35,8|0|0|0,0:0|0:0|0:0|0:0,0:0:0:0:
262,71,41504,5,0,0:0:0:0:
237,69,41587,1,0,0:0:0:0:
213,67,41670,1,0,0:0:0:0:
188,65,41754,1,0,0:0:0:0:
164,63,41837,1,8,0:0:0:0:
139,61,41920,1,0,0:0:0:0:
115,59,42004,1,0,0:0:0:0:
90,58,42087,1,0,0:0:0:0:
66,56,42170,1,0,0:0:0:0:
79,88,42253,1,0,0:0:0:0:
102,115,42336,1,0,0:0:0:0:
132,132,42420,1,0,0:0:0:0:
166,139,42504,1,8,0:0:0:0:
151,171,42587,1,0,0:0:0:0:
129,197,42670,1,0,0:0:0:0:
100,216,42754,1,0,0:0:0:0:
66,227,42837,6,0,L|24:231,3,35,4|0|0|0,0:0|0:0|0:0|0:0,0:0:0:0:
167,273,43170,2,0,L|124:276,3,35,8|0|0|0,0:0|0:0|0:0|0:0,0:0:0:0:
267,318,43504,2,0,L|224:321,3,35
367,363,43837,2,0,L|324:366,3,35,8|0|0|0,0:0|0:0|0:0|0:0,0:0:0:0:
363,254,44170,5,0,0:0:0:0:
393,237,44253,1,0,0:0:0:0:
427,230,44336,1,0,0:0:0:0:
462,232,44420,1,0,0:0:0:0:
495,245,44504,1,8,0:0:0:0:
451,271,44587,1,0,0:0:0:0:
401,262,44670,1,0,0:0:0:0:
370,220,44754,1,0,0:0:0:0:
375,169,44837,1,0,0:0:0:0:
417,156,44920,1,0,0:0:0:0:
445,124,45003,1,0,0:0:0:0:
453,81,45087,1,0,0:0:0:0:
437,41,45170,1,8,0:0:0:0:
402,45,45253,1,0,0:0:0:0:
367,46,45336,1,0,0:0:0:0:
333,42,45420,1,0,0:0:0:0:
298,35,45504,6,0,L|293:95,3,35
214,130,45837,2,0,L|217:95,3,35,8|0|0|0,0:0|0:0|0:0|0:0,0:0:0:0:
120,129,46170,2,0,L|114:69,3,35
35,35,46503,2,0,L|38:69,3,35,8|0|0|0,0:0|0:0|0:0|0:0,0:0:0:0:
58,206,46837,6,0,B|94:220|94:220|174:209,1,105,4|0,0:0|0:0,0:0:0:0:
50,277,47170,2,0,B|86:291|86:291|166:280,1,105,4|0,0:0|0:0,0:0:0:0:
159,210,47504,2,0,B|94:220|94:220|58:206,1,105,4|0,0:0|0:0,0:0:0:0:
42,348,47837,2,0,B|78:362|78:362|158:351,1,105,4|0,0:0|0:0,0:0:0:0:
242,188,48170,6,0,B|338:175|338:175|373:191,1,136.499993751526,4|0,0:0|0:0,0:0:0:0:
320,256,48504,1,8,0:0:0:0:
289,17,48670,1,0,0:0:0:0:
385,65,48837,1,0,0:0:0:0:
214,95,49004,1,0,0:0:0:0:
414,248,49170,1,8,0:0:0:0:
243,278,49337,1,0,0:0:0:0:
198,5,49504,6,0,L|213:94,1,90.9999958343508
263,358,49837,1,8,0:0:0:0:
8,181,50004,1,0,0:0:0:0:
385,65,50170,2,0,P|409:146|413:229,1,136.499993751526
414,248,50504,1,8,0:0:0:0:
243,278,50670,1,0,0:0:0:0:
131,67,50837,6,0,B|31:77|31:77|3:110,1,136.499993751526,4|0,0:0|0:0,0:0:0:0:
73,144,51170,1,8,0:0:0:0:
385,65,51336,1,0,0:0:0:0:
116,208,51504,1,0,0:0:0:0:
369,138,51670,1,0,0:0:0:0:
159,272,51837,1,8,0:0:0:0:
354,213,52004,1,0,0:0:0:0:
73,144,52170,5,0,0:0:0:0:
73,144,52337,1,0,0:0:0:0:
115,350,52504,2,0,P|131:307|158:271,1,90.9999958343508,8|0,0:0|0:0,0:0:0:0:
439,85,52837,5,0,0:0:0:0:
439,85,53004,1,0,0:0:0:0:
397,291,53170,2,0,P|380:248|353:212,1,90.9999958343508,8|0,0:0|0:0,0:0:0:0:
131,67,53504,6,0,B|159:58|159:58|208:100|278:72,1,136.499993751526,4|0,0:0|0:0,0:0:0:0:
224,0,53837,1,8,0:0:0:0:
46,241,54004,1,0,0:0:0:0:
353,212,54170,1,0,0:0:0:0:
93,67,54337,1,0,0:0:0:0:
143,318,54504,1,8,0:0:0:0:
302,147,54670,1,0,0:0:0:0:
26,152,54837,6,0,L|50:259,1,90.9999958343508
86,384,55170,1,8,0:0:0:0:
353,212,55337,1,0,0:0:0:0:
21,21,55504,2,0,B|3:57|3:57|26:153,1,136.499993751526
116,156,55837,2,0,L|91:59,1,90.9999958343508,8|0,0:0|0:0,0:0:0:0:
45,240,56170,6,0,B|67:265|67:265|169:277,1,136.499993751526,4|0,0:0|0:0,0:0:0:0:
237,251,56504,1,8,0:0:0:0:
21,21,56670,1,0,0:0:0:0:
126,195,56837,1,0,0:0:0:0:
267,29,57004,1,0,0:0:0:0:
340,165,57170,1,8,0:0:0:0:
453,44,57337,1,0,0:0:0:0:
448,89,57420,1,0,0:0:0:0:
443,134,57504,6,0,L|436:193,1,45.4999979171754,12|0,0:0|0:0,0:0:0:0:
338,310,57670,2,0,L|292:304,1,45.4999979171754
162,205,57837,2,0,L|167:159,1,45.4999979171754
267,29,58003,2,0,L|312:34,1,45.4999979171754,12|0,0:0|0:0,0:0:0:0:
390,209,58170,6,0,L|395:163,1,45.4999979171754
342,82,58337,2,0,L|283:75,1,45.4999979171754
215,130,58504,2,0,L|208:189,1,45.4999979171754
263,257,58671,2,0,L|322:264,1,45.4999979171754
437,179,58837,6,0,B|428:276|428:276|451:307,1,136.499993751526,4|0,0:0|0:0,0:0:0:0:
499,252,59170,1,8,0:0:0:0:
160,332,59337,1,0,0:0:0:0:
390,209,59504,1,0,0:0:0:0:
130,187,59670,1,0,0:0:0:0:
308,262,59837,1,8,0:0:0:0:
108,265,60004,1,0,0:0:0:0:
210,218,60170,5,0,0:0:0:0:
210,218,60337,1,0,0:0:0:0:
150,25,60504,2,0,P|175:63|188:107,1,90.9999958343508,8|0,0:0|0:0,0:0:0:0:
361,25,60837,2,0,P|336:63|324:107,1,90.9999958343508
461,333,61170,2,0,P|485:295|498:251,1,90.9999958343508,8|0,0:0|0:0,0:0:0:0:
234,289,61504,6,0,P|267:347|320:305,1,136.499993751526,4|0,0:0|0:0,0:0:0:0:
308,262,61837,1,8,0:0:0:0:
61,78,62004,1,0,0:0:0:0:
77,278,62170,1,0,0:0:0:0:
292,57,62337,1,0,0:0:0:0:
314,268,62504,1,8,0:0:0:0:
55,72,62671,1,0,0:0:0:0:
71,284,62837,5,0,0:0:0:0:
71,284,63004,1,0,0:0:0:0:
211,112,63170,2,0,P|150:124|100:160,1,90.9999958343508,8|0,0:0|0:0,0:0:0:0:
314,268,63504,1,0,0:0:0:0:
298,51,63670,1,0,0:0:0:0:
304,96,63754,1,0,0:0:0:0:
309,140,63837,2,0,P|370:128|420:92,1,90.9999958343508,8|0,0:0|0:0,0:0:0:0:
462,354,64170,6,0,P|471:291|469:209,1,136.499993751526,4|0,0:0|0:0,0:0:0:0:
460,172,64504,1,8,0:0:0:0:
206,329,64670,1,0,0:0:0:0:
402,241,64837,1,0,0:0:0:0:
185,241,65003,1,0,0:0:0:0:
381,329,65170,1,8,0:0:0:0:
127,172,65336,1,0,0:0:0:0:
459,64,65504,5,0,0:0:0:0:
459,64,65670,1,0,0:0:0:0:
317,31,65837,2,0,P|305:102|305:138,1,90.9999958343508,8|0,0:0|0:0,0:0:0:0:
65,354,66170,2,0,P|53:283|53:247,1,90.9999958343508
195,31,66504,2,0,P|207:102|207:138,1,90.9999958343508,8|0,0:0|0:0,0:0:0:0:
37,104,66837,6,0,P|33:52|115:53,1,136.499993751526,4|0,0:0|0:0,0:0:0:0:
126,108,67170,1,8,0:0:0:0:
65,354,67337,1,0,0:0:0:0:
257,198,67504,1,0,0:0:0:0:
74,174,67670,1,0,0:0:0:0:
163,335,67837,1,8,0:0:0:0:
346,359,68004,1,0,0:0:0:0:
366,318,68087,1,0,0:0:0:0:
386,277,68170,6,0,B|419:215|419:215|446:203,1,90.9999958343508,4|0,0:1|0:0,0:0:0:0:
475,313,68504,1,8,0:0:0:0:
475,313,68587,1,8,0:0:0:0:
475,313,68670,1,8,0:0:0:0:
305,244,68837,1,0,0:0:0:0:
391,90,69004,1,8,0:0:0:0:
391,90,69087,1,8,0:0:0:0:
391,90,69170,1,8,0:0:0:0:
437,206,69337,1,0,0:0:0:0:
293,46,69504,5,6,0:0:0:0:
293,46,69670,1,2,0:0:0:0:
293,46,69837,2,0,P|240:52|205:53,1,70,2|0,0:0|0:0,0:0:0:0:
79,46,70170,1,0,0:0:0:0:
223,132,70337,1,0,0:0:0:0:
223,132,70504,2,0,P|276:138|311:139,1,70,2|0,0:0|0:0,0:0:0:0:
430,58,70837,5,0,0:0:0:0:
430,58,71004,2,0,P|425:161|440:222,1,140,2|0,0:0|0:0,0:0:0:0:
469,263,71504,1,0,0:0:0:0:
335,348,71670,1,0,0:0:0:0:
444,373,71837,1,2,0:0:0:0:
360,239,72004,1,0,0:0:0:0:
218,338,72170,5,2,0:0:0:0:
218,338,72336,1,2,0:0:0:0:
218,338,72503,2,0,P|183:333|148:331,1,70,2|0,0:0|0:0,0:0:0:0:
4,338,72837,1,0,0:0:0:0:
148,252,73004,1,0,0:0:0:0:
148,252,73171,2,0,P|201:246|236:245,1,70,2|0,0:0|0:0,0:0:0:0:
374,147,73504,6,0,P|418:89|315:89,1,210,6|0,0:0|0:0,0:0:0:0:
138,147,74170,2,0,P|93:89|196:89,1,210,6|0,0:0|0:0,0:0:0:0:
295,245,74837,5,2,0:0:0:0:
295,245,75004,1,2,0:0:0:0:
294,245,75170,2,0,P|329:247|364:252,1,70,2|0,0:0|0:0,0:0:0:0:
496,300,75504,1,0,0:0:0:0:
246,325,75670,1,2,0:0:0:0:
294,245,75837,1,0,0:0:0:0:
44,270,76003,1,2,0:0:0:0:
246,325,76170,5,0,0:0:0:0:
76,80,76337,1,2,0:0:0:0:
76,80,76504,2,0,P|95:124|120:152,1,70,2|0,0:0|0:0,0:0:0:0:
209,112,76837,6,0,L|200:62,2,46.6666666666667
290,110,77170,2,0,L|282:65,2,46.6666666666667
369,112,77504,5,2,0:0:0:0:
369,112,77670,1,2,0:0:0:0:
369,112,77837,2,0,P|376:168|374:194,1,70,2|0,0:0|0:0,0:0:0:0:
338,316,78170,1,0,0:0:0:0:
214,249,78337,1,0,0:0:0:0:
214,249,78504,2,0,P|270:242|296:244,1,70,2|0,0:0|0:0,0:0:0:0:
472,296,78837,6,0,P|407:320|338:316,1,140,12|8,0:0|0:0,0:0:0:0:
290,110,79337,1,0,0:0:0:0:
490,43,79504,5,8,0:0:0:0:
229,58,79670,1,0,0:0:0:0:
476,121,79837,5,8,0:0:0:0:
215,136,80003,1,0,0:0:0:0:
48,38,80170,6,0,B|36:109|36:109|50:129,1,90.9999958343508,4|0,0:0|0:0,0:0:0:0:
125,345,80504,2,0,B|137:274|137:274|123:254,1,90.9999958343508
123,89,80837,1,8,0:0:0:0:
50,294,81004,1,2,0:0:0:0:
50,294,81087,1,2,0:0:0:0:
50,294,81170,1,2,0:0:0:0:
215,136,81337,1,0,0:0:0:0:
220,346,81504,5,0,0:0:0:0:
220,346,81670,2,0,B|373:349,1,136.499993751526
356,348,82004,1,0,0:0:0:0:
493,268,82170,5,8,0:0:0:0:
309,18,82337,1,0,0:0:0:0:
408,233,82504,5,0,0:0:0:0:
394,53,82670,1,0,0:0:0:0:
401,143,82837,6,0,B|349:182|349:182|320:183,1,90.9999958343508
34,200,83170,2,0,B|86:161|86:161|115:160,1,90.9999958343508
321,109,83504,1,8,0:0:0:0:
114,234,83670,1,2,0:0:0:0:
114,234,83754,1,2,0:0:0:0:
114,234,83837,1,2,0:0:0:0:
408,233,84004,1,0,0:0:0:0:
214,97,84170,5,0,0:0:0:0:
214,97,84337,2,0,L|224:235,1,136.499993751526
223,233,84670,1,0,0:0:0:0:
31,356,84837,5,8,0:0:0:0:
250,344,85004,1,0,0:0:0:0:
476,317,85170,2,0,P|431:337|464:300,1,136.499993751526,2|0,0:0|0:0,0:0:0:0:
435,225,85504,6,0,B|427:156|427:156|448:129,1,90.9999958343508,4|0,0:0|0:0,0:0:0:0:
285,22,85837,2,0,B|293:91|293:91|272:118,1,90.9999958343508
505,179,86170,1,8,0:0:0:0:
215,68,86337,1,2,0:0:0:0:
215,68,86420,1,2,0:0:0:0:
215,68,86504,1,2,0:0:0:0:
499,58,86670,1,0,0:0:0:0:
221,189,86837,5,0,0:0:0:0:
221,189,87004,2,0,L|71:195,1,136.499993751526
84,194,87337,1,0,0:0:0:0:
80,340,87504,5,8,0:0:0:0:
97,58,87670,1,0,0:0:0:0:
28,281,87837,5,0,0:0:0:0:
149,117,88004,1,0,0:0:0:0:
224,318,88170,6,0,B|261:333|261:333|336:325,1,90.9999958343508
481,91,88504,2,0,B|444:76|444:76|369:84,1,90.9999958343508
272,256,88837,1,8,0:0:0:0:
433,153,89004,1,2,0:0:0:0:
433,153,89087,1,2,0:0:0:0:
433,153,89170,1,2,0:0:0:0:
277,32,89337,1,0,0:0:0:0:
65,184,89504,5,8,0:0:0:0:
153,164,89670,1,8,0:0:0:0:
92,98,89837,1,8,0:0:0:0:
92,98,89920,1,8,0:0:0:0:
92,98,90004,1,8,0:0:0:0:
38,270,90170,1,8,0:0:0:0:
214,230,90337,1,8,0:0:0:0:
214,230,90420,1,8,0:0:0:0:
214,230,90504,1,8,0:0:0:0:
153,164,90670,1,8,0:0:0:0:
126,251,90837,5,4,0:0:0:0:
283,361,91004,1,0,0:0:0:0:
441,218,91171,1,8,0:0:0:0:
205,53,91337,1,0,0:0:0:0:
315,288,91504,2,0,P|379:300|476:294,1,136.499993751526
493,286,91837,1,8,0:0:0:0:
469,92,92004,1,0,0:0:0:0:
466,69,92087,1,0,0:0:0:0:
463,46,92170,6,0,P|410:35|365:32,1,90.9999958343508
214,230,92504,2,0,P|203:283|200:328,1,90.9999958343508,8|0,0:0|0:0,0:0:0:0:
200,319,92754,1,0,0:0:0:0:
200,319,92837,1,0,0:0:0:0:
315,288,93004,1,0,0:0:0:0:
234,129,93170,1,8,0:0:0:0:
108,348,93337,1,0,0:0:0:0:
50,60,93504,5,0,0:0:0:0:
317,154,93670,1,0,0:0:0:0:
114,141,93837,5,8,0:0:0:0:
298,70,94004,1,0,0:0:0:0:
11,155,94170,2,0,P|9:227|45:298,1,136.499993751526
49,302,94504,1,8,0:0:0:0:
234,129,94670,1,0,0:0:0:0:
435,341,94837,5,0,0:0:0:0:
383,125,95004,1,0,0:0:0:0:
357,282,95170,5,8,0:0:0:0:
469,92,95337,1,0,0:0:0:0:
345,380,95504,5,0,0:0:0:0:
454,182,95670,1,0,0:0:0:0:
463,202,95754,1,0,0:0:0:0:
473,222,95837,1,8,0:0:0:0:
234,129,96004,1,0,0:0:0:0:
398,35,96170,5,4,0:0:0:0:
357,282,96337,1,0,0:0:0:0:
172,57,96504,1,8,0:0:0:0:
201,346,96671,1,0,0:0:0:0:
383,125,96837,2,0,B|283:108|283:108|248:67,1,136.499993751526
264,58,97170,1,8,0:0:0:0:
303,212,97337,1,0,0:0:0:0:
296,233,97420,1,0,0:0:0:0:
290,255,97504,6,0,P|215:250|173:240,1,90.9999958343508
81,48,97837,2,0,P|156:53|198:63,1,90.9999958343508,8|0,0:0|0:0,0:0:0:0:
172,78,98087,1,0,0:0:0:0:
173,100,98170,1,0,0:0:0:0:
41,235,98337,1,0,0:0:0:0:
35,127,98504,1,8,0:0:0:0:
199,246,98671,1,0,0:0:0:0:
132,358,98837,5,4,0:0:0:0:
132,358,99004,1,0,0:0:0:0:
304,372,99170,1,8,0:0:0:0:
108,279,99337,1,0,0:0:0:0:
357,286,99504,5,0,0:0:0:0:
218,365,99670,1,0,0:0:0:0:
373,282,99837,1,8,0:0:0:0:
183,206,100004,1,0,0:0:0:0:
191,226,100087,1,0,0:0:0:0:
201,246,100170,6,0,B|273:238|273:238|293:216,1,90.9999958343508,12|0,0:0|0:0,0:0:0:0:
74,135,100504,2,0,B|44:201|44:201|53:229,1,90.9999958343508,12|0,0:0|0:0,0:0:0:0:
233,80,100837,2,0,B|190:21|190:21|161:15,1,90.9999958343508,12|0,0:0|0:0,0:0:0:0:
62,207,101170,2,0,L|108:194,1,45.4999979171754,12|0,0:0|0:0,0:0:0:0:
293,144,101337,1,8,0:0:0:0:
337,133,101420,1,8,0:0:0:0:
380,121,101504,5,4,0:0:0:0:
354,288,101670,1,0,0:0:0:0:
324,57,101837,5,12,0:0:0:0:
410,352,102004,1,0,0:0:0:0:
172,292,102170,2,0,P|166:350|223:327,1,136.499993751526
226,311,102504,1,8,0:0:0:0:
173,92,102670,1,0,0:0:0:0:
167,69,102754,1,0,0:0:0:0:
161,46,102837,6,0,P|112:25|62:25,1,90.9999958343508
45,238,103170,2,0,L|152:233,1,90.9999958343508,8|0,0:0|0:0,0:0:0:0:
135,233,103420,1,0,0:0:0:0:
135,233,103504,1,0,0:0:0:0:
18,157,103670,1,0,0:0:0:0:
63,357,103837,1,8,0:0:0:0:
272,223,104004,1,0,0:0:0:0:
457,326,104170,5,4,0:0:0:0:
436,113,104337,1,0,0:0:0:0:
384,292,104504,5,8,0:0:0:0:
509,147,104670,1,0,0:0:0:0:
392,373,104837,2,0,P|320:371|256:347,1,136.499993751526
241,336,105170,1,8,0:0:0:0:
210,184,105337,1,0,0:0:0:0:
55,326,105504,5,0,0:0:0:0:
73,89,105670,1,0,0:0:0:0:
128,292,105837,5,8,0:0:0:0:
0,123,106004,1,0,0:0:0:0:
120,372,106170,5,0,0:0:0:0:
66,170,106337,1,0,0:0:0:0:
58,191,106420,1,0,0:0:0:0:
50,212,106504,1,8,0:0:0:0:
210,184,106670,1,0,0:0:0:0:
162,77,106837,6,0,P|109:80|66:91,1,90.9999958343508,4|0,0:0|0:0,0:0:0:0:
294,280,107170,2,0,P|338:290|383:291,1,90.9999958343508,8|0,0:0|0:0,0:0:0:0:
401,83,107504,2,0,P|443:50|452:120,1,136.499993751526
447,122,107837,1,8,0:0:0:0:
162,77,108004,1,0,0:0:0:0:
139,72,108087,1,0,0:0:0:0:
110,65,108170,5,0,0:0:0:0:
55,326,108337,1,0,0:0:0:0:
342,170,108504,1,8,0:0:0:0:
226,313,108670,1,0,0:0:0:0:
217,333,108753,1,0,0:0:0:0:
208,353,108837,1,0,0:0:0:0:
130,198,109004,1,0,0:0:0:0:
319,99,109170,5,8,0:0:0:0:
7,160,109338,1,0,0:0:0:0:
257,198,109504,6,0,P|328:179|362:154,1,90.9999958343508,4|0,0:0|0:0,0:0:0:0:
249,194,109837,1,8,0:0:0:0:
277,42,110004,1,0,0:0:0:0:
142,71,110170,6,0,P|71:90|37:115,1,90.9999958343508
150,75,110503,1,8,0:0:0:0:
223,290,110670,1,0,0:0:0:0:
200,287,110754,1,0,0:0:0:0:
177,285,110837,5,8,0:0:0:0:
95,275,111004,1,0,0:0:0:0:
13,265,111170,1,0,0:0:0:0:
15,287,111254,1,0,0:0:0:0:
18,309,111337,1,0,0:0:0:0:
100,319,111504,5,0,0:0:0:0:
182,329,111670,1,0,0:0:0:0:
204,333,111753,1,0,0:0:0:0:
226,335,111836,1,0,0:0:0:0:
249,334,111919,1,0,0:0:0:0:
272,330,112003,1,0,0:0:0:0:
294,324,112086,1,0,0:0:0:0:
315,315,112170,6,0,L|349:295,3,35,4|0|0|0,0:0|0:0|0:0|0:0,0:0:0:0:
338,209,112504,2,0,L|367:190,3,35,4|0|0|0,0:0|0:0|0:0|0:0,0:0:0:0:
359,103,112837,1,12,0:0:0:0:
385,124,112920,1,0,0:0:0:0:
420,126,113003,1,0,0:0:0:0:
448,107,113086,1,0,0:0:0:0:
460,74,113170,1,4,0:0:0:0:
450,41,113253,1,0,0:0:0:0:
422,21,113336,1,0,0:0:0:0:
388,21,113420,1,0,0:0:0:0:
360,41,113504,6,0,L|308:37,3,35,4|0|0|0,0:0|0:0|0:0|0:0,0:0:0:0:
242,68,113837,2,0,L|189:63,3,35,4|0|0|0,0:0|0:0|0:0|0:0,0:0:0:0:
123,94,114170,1,12,0:0:0:0:
95,114,114253,1,0,0:0:0:0:
75,143,114336,1,0,0:0:0:0:
66,177,114419,1,0,0:0:0:0:
68,212,114503,1,4,0:0:0:0:
81,243,114587,1,0,0:0:0:0:
81,277,114670,1,0,0:0:0:0:
72,311,114753,1,0,0:0:0:0:
51,339,114837,6,0,L|36:292,3,35,4|0|0|0,0:0|0:0|0:0|0:0,0:0:0:0:
144,305,115170,2,0,L|133:271,3,35,4|0|0|0,0:0|0:0|0:0|0:0,0:0:0:0:
237,271,115504,1,12,0:0:0:0:
270,261,115587,1,0,0:0:0:0:
305,260,115670,1,0,0:0:0:0:
339,268,115753,1,0,0:0:0:0:
370,283,115837,1,4,0:0:0:0:
360,249,115920,1,0,0:0:0:0:
359,214,116003,1,0,0:0:0:0:
367,180,116086,1,0,0:0:0:0:
382,149,116170,6,0,L|435:135,3,45.4999979171754,4|0|0|0,0:0|0:0|0:0|0:0,0:0:0:0:
433,243,116504,2,0,L|486:229,3,45.4999979171754,4|0|0|0,0:0|0:0|0:0|0:0,0:0:0:0:
484,337,116837,1,12,0:0:0:0:
441,353,116920,1,0,0:0:0:0:
396,357,117003,1,0,0:0:0:0:
352,347,117086,1,0,0:0:0:0:
313,324,117170,1,4,0:0:0:0:
320,280,117253,1,0,0:0:0:0:
313,235,117336,1,0,0:0:0:0:
292,194,117419,1,0,0:0:0:0:
260,163,117504,6,0,L|220:129,3,35,4|0|0|0,0:0|0:0|0:0|0:0,0:0:0:0:
171,224,117837,2,0,L|144:177,3,35,4|0|0|0,0:0|0:0|0:0|0:0,0:0:0:0:
65,250,118170,1,12,0:0:0:0:
41,225,118253,1,0,0:0:0:0:
35,191,118336,1,0,0:0:0:0:
50,160,118419,1,0,0:0:0:0:
80,143,118504,1,4,0:0:0:0:
114,147,118587,1,0,0:0:0:0:
146,135,118670,1,0,0:0:0:0:
169,108,118753,1,0,0:0:0:0:
175,74,118837,6,0,L|170:36,3,35,4|0|0|0,0:0|0:0|0:0|0:0,0:0:0:0:
274,55,119170,2,0,L|268:16,3,35,4|0|0|0,0:0|0:0|0:0|0:0,0:0:0:0:
372,35,119504,1,12,0:0:0:0:
406,40,119587,1,0,0:0:0:0:
431,63,119670,1,0,0:0:0:0:
439,97,119753,1,0,0:0:0:0:
427,129,119837,1,4,0:0:0:0:
393,132,119920,1,0,0:0:0:0:
363,149,120003,1,0,0:0:0:0:
344,179,120086,1,0,0:0:0:0:
341,213,120170,6,0,L|388:221,1,35,4|0,0:0|0:0,0:0:0:0:
493,272,120336,2,0,L|445:263,1,35
268,253,120504,6,0,L|309:277,1,35,4|0,0:0|0:0,0:0:0:0:
390,360,120670,2,0,L|348:336,1,35
163,229,120837,6,0,L|204:278,1,45.4999979171754,12|0,0:0|0:0,0:0:0:0:
251,384,121003,2,0,L|209:334,1,45.4999979171754
71,174,121170,6,0,L|92:234,1,45.4999979171754,4|0,0:0|0:0,0:0:0:0:
100,349,121336,2,0,L|78:288,1,45.4999979171754
164,121,121504,5,8,0:0:0:0:
390,360,121670,1,8,0:0:0:0:
100,349,121837,1,8,0:0:0:0:
427,129,122004,1,8,0:0:0:0:
251,384,122170,1,8,0:0:0:0:
274,55,122337,1,8,0:0:0:0:
493,272,122504,1,8,0:0:0:0:
163,229,122670,1,8,0:0:0:0:
425,38,122837,6,0,P|418:83|426:128,1,90.9999958343508,4|0,0:0|0:0,0:0:0:0:
390,360,123170,2,0,P|396:315|388:270,1,90.9999958343508,8|0,0:0|0:0,0:0:0:0:
134,59,123504,2,0,P|108:114|174:98,1,136.499993751526
174,106,123837,1,8,0:0:0:0:
15,12,124004,1,0,0:0:0:0:
16,30,124087,1,0,0:0:0:0:
17,48,124171,6,0,B|18:114|18:114|37:132,1,90.9999958343508
293,138,124504,2,0,B|292:72|292:72|273:54,1,90.9999958343508,8|0,0:0|0:0,0:0:0:0:
258,45,124754,1,0,0:0:0:0:
242,35,124837,1,0,0:0:0:0:
136,231,125004,1,0,0:0:0:0:
376,77,125170,1,8,0:0:0:0:
134,59,125337,1,0,0:0:0:0:
242,331,125504,6,0,P|288:352|342:348,1,90.9999958343508
136,231,125837,2,0,P|81:218|32:213,1,90.9999958343508,8|0,0:0|0:0,0:0:0:0:
22,357,126170,1,0,0:0:0:0:
237,326,126337,1,0,0:0:0:0:
174,106,126504,1,8,0:0:0:0:
149,369,126670,1,0,0:0:0:0:
441,164,126837,6,0,P|460:115|456:73,1,90.9999958343508
348,278,127170,2,0,P|351:322|361:370,1,90.9999958343508,8|0,0:0|0:0,0:0:0:0:
445,168,127504,1,0,0:0:0:0:
270,344,127670,1,0,0:0:0:0:
443,250,127837,1,8,0:1:0:0:
427,241,127920,1,0,0:0:0:0:
410,232,128004,1,0,0:0:0:0:
394,223,128087,1,0,0:0:0:0:
377,214,128170,6,0,P|354:169|347:127,1,90.9999958343508,4|0,0:0|0:0,0:0:0:0:
427,12,128504,1,8,0:0:0:0:
348,278,128670,1,0,0:0:0:0:
348,278,128754,1,0,0:0:0:0:
348,278,128837,2,0,P|289:280|228:265,1,90.9999958343508
51,231,129170,1,8,0:0:0:0:
218,61,129337,1,0,0:0:0:0:
218,61,129420,1,0,0:0:0:0:
218,61,129504,6,0,P|276:67|312:78,1,90.9999958343508
108,133,129837,2,0,P|50:127|14:116,1,90.9999958343508,8|0,0:0|0:0,0:0:0:0:
18,117,130087,1,0,0:0:0:0:
18,117,130170,1,0,0:0:0:0:
113,25,130337,1,0,0:0:0:0:
213,169,130504,1,8,0:0:0:0:
307,76,130671,1,0,0:0:0:0:
181,328,130837,5,4,0:0:0:0:
181,328,131004,1,0,0:0:0:0:
34,339,131170,1,8,0:0:0:0:
220,265,131337,1,0,0:0:0:0:
51,231,131504,5,0,0:0:0:0:
255,330,131670,1,0,0:0:0:0:
51,231,131837,1,8,0:0:0:0:
294,267,132004,1,0,0:0:0:0:
311,269,132087,1,0,0:0:0:0:
328,271,132170,6,8,L|362:276,1,35
443,337,132337,1,8,0:0:0:0:
458,305,132420,1,8,0:0:0:0:
462,271,132503,1,8,0:0:0:0:
454,237,132587,1,8,0:0:0:0:
435,207,132670,1,0,0:0:0:0:
438,189,132753,1,0,0:0:0:0:
440,171,132837,6,8,L|435:136,1,35
420,31,133004,1,0,0:0:0:0:
402,34,133087,1,0,0:0:0:0:
386,40,133170,1,0,0:0:0:0:
371,49,133254,1,0,0:0:0:0:
358,60,133337,1,0,0:0:0:0:
346,74,133420,1,0,0:0:0:0:
338,89,133504,6,0,L|290:92,1,35,4|0,0:0|0:0,0:0:0:0:
226,132,133670,2,0,L|177:134,1,35
191,134,135337,1,0,0:0:0:0:
139,62,135504,2,0,P|103:119|118:186,1,140,4|4,0:0|0:0,0:0:0:0:
258,241,136004,1,0,0:0:0:0:
196,317,136170,6,0,P|151:343|99:347,1,105,4|0,0:0|0:0,0:0:0:0:
64,339,136504,1,0,0:0:0:0:
118,186,136670,1,0,0:0:0:0:
258,241,136837,1,8,0:0:0:0:
191,134,137004,1,0,0:0:0:0:
196,317,137170,1,0,0:0:0:0:
293,333,137337,1,0,0:0:0:0:
317,129,137504,6,0,P|372:118|412:120,1,70
507,172,137837,1,0,0:0:0:0:
411,311,138004,2,0,L|384:321,2,23.3333333333333
418,289,138170,2,0,P|402:231|403:203,1,70,12|0,0:0|0:0,0:0:0:0:
408,29,138504,1,4,0:0:0:0:
507,172,138670,1,0,0:0:0:0:
281,60,138837,6,0,P|213:50|149:60,1,105,4|0,0:0|0:0,0:0:0:0:
142,59,139170,2,0,B|121:109|121:109|93:129,1,70
196,317,139504,2,0,B|217:267|217:267|245:247,1,70,8|0,0:0|0:0,0:0:0:0:
150,67,139837,2,0,L|124:131,1,70
188,309,140170,5,0,0:0:0:0:
213,244,140337,1,0,0:0:0:0:
66,60,140504,1,0,0:0:0:0:
27,215,140670,2,0,L|2:206,2,23.3333333333333
35,236,140837,2,0,P|43:290|79:330,1,105,12|0,0:0|0:0,0:0:0:0:
106,342,141170,1,4,0:0:0:0:
170,185,141337,1,0,0:0:0:0:
273,318,141504,6,8,L|318:326,1,35,12|8,0:0|0:0,0:0:0:0:
402,359,141670,1,0,0:0:0:0:
432,341,141753,1,0,0:0:0:0:
452,314,141836,1,0,0:0:0:0:
460,280,141920,1,0,0:0:0:0:
453,246,142004,6,8,L|415:237,1,35
388,171,142170,2,8,L|423:168,1,35
367,105,142337,2,0,L|331:122,1,35
268,88,142504,2,0,L|293:64,1,35
209,52,142671,2,0,L|195:84,1,35
143,223,142837,5,0,0:0:0:0:
109,231,142920,1,0,0:0:0:0:
75,225,143003,1,0,0:0:0:0:
47,204,143087,1,0,0:0:0:0:
36,152,143170,5,12,0:0:0:0:
419,238,143337,1,0,0:0:0:0:
99,304,143504,5,12,0:0:0:0:
166,32,143671,1,8,0:0:0:0:
438,99,143838,1,12,0:0:0:0:
369,371,144004,1,8,0:0:0:0:
330,154,144170,6,0,L|336:108,1,35,4|0,0:0|0:0,0:0:0:0:
264,107,144337,2,0,L|270:61,1,35
340,38,144504,1,0,0:0:0:0:
257,188,144670,1,0,0:0:0:0:
438,99,144837,1,8,0:0:0:0:
469,265,145003,1,0,0:0:0:0:
323,235,145170,1,0,0:0:0:0:
407,205,145337,1,0,0:0:0:0:
369,371,145504,6,0,L|322:362,1,35
264,349,145670,2,0,L|230:343,1,35
159,327,145837,1,0,0:0:0:0:
385,295,146004,1,0,0:0:0:0:
53,304,146170,5,12,0:0:0:0:
230,247,146337,1,0,0:0:0:0:
18,201,146504,1,4,0:0:0:0:
159,327,146670,1,0,0:0:0:0:
124,224,146837,6,0,L|121:176,1,35,4|0,0:0|0:0,0:0:0:0:
94,123,147004,2,0,L|91:75,1,35
64,22,147170,1,0,0:0:0:0:
164,131,147337,1,0,0:0:0:0:
203,32,147504,1,8,0:0:0:0:
291,130,147671,1,0,0:0:0:0:
333,56,147837,1,0,0:0:0:0:
376,129,148004,1,0,0:0:0:0:
492,54,148170,6,0,L|485:97,1,35
473,156,148337,2,0,L|467:190,1,35
454,258,148504,1,0,0:0:0:0:
416,54,148670,1,0,0:0:0:0:
382,302,148837,6,0,L|390:352,2,46.6666666666667,12|0|0,0:1|0:0|0:0,0:0:0:0:
306,275,149170,1,4,0:1:0:0:
271,281,149254,1,0,0:0:0:0:
236,287,149337,1,0,0:0:0:0:
201,293,149420,1,0,0:0:0:0:
166,299,149504,6,0,L|125:291,1,35,4|0,0:0|0:0,0:0:0:0:
121,223,149670,2,0,L|80:215,1,35,0|0,0:0|0:0,0:0:0:0:
43,293,149837,1,0,0:0:0:0:
209,222,150004,1,0,0:0:0:0:
115,371,150170,1,8,0:0:0:0:
137,144,150337,1,0,0:0:0:0:
166,299,150504,1,0,0:0:0:0:
86,216,150670,1,0,0:0:0:0:
86,72,150837,6,0,L|149:68,1,35
188,63,151004,2,0,L|223:61,1,35
290,54,151170,1,0,0:0:0:0:
19,29,151337,1,0,0:0:0:0:
247,146,151504,5,12,0:0:0:0:
391,44,151670,1,0,0:0:0:0:
507,208,151837,1,4,0:0:0:0:
348,136,152004,1,0,0:0:0:0:
406,218,152170,6,0,L|412:261,1,35,4|0,0:0|0:0,0:0:0:0:
345,267,152337,2,0,L|351:310,1,35
407,383,152504,1,0,0:0:0:0:
348,136,152670,1,0,0:0:0:0:
494,310,152837,1,8,0:0:0:0:
261,209,153004,1,0,0:0:0:0:
406,218,153170,1,0,0:0:0:0:
349,301,153337,1,0,0:0:0:0:
254,334,153504,5,8,0:0:0:0:
204,348,153587,1,8,0:0:0:0:
153,337,153670,1,0,0:0:0:0:
165,305,153753,1,0,0:0:0:0:
152,273,153836,1,0,0:0:0:0:
121,259,153920,1,0,0:0:0:0:
88,269,154003,1,0,0:0:0:0:
71,298,154086,1,0,0:0:0:0:
79,332,154170,5,8,0:0:0:0:
95,293,154253,1,0,0:0:0:0:
98,251,154336,1,8,0:0:0:0:
89,210,154420,1,0,0:0:0:0:
68,174,154504,6,0,P|49:127|117:138,1,136.499993751526,4|0,0:0|0:0,0:0:0:0:
165,181,154837,6,0,P|194:184|213:183,3,35,4|0|0|0,0:0|0:0|0:0|0:0,0:0:0:0:
314,190,155170,2,0,P|284:188|266:184,3,35,8|0|0|0,0:0|0:0|0:0|0:0,0:0:0:0:
176,100,155504,2,0,P|204:92|221:85,3,35,0|0|0|0,0:0|0:0|0:0|0:0,0:0:0:0:
315,108,155837,2,0,P|288:96|272:86,3,35,8|0|0|0,0:0|0:0|0:0|0:0,0:0:0:0:
234,26,156170,5,0,0:0:0:0:
267,17,156253,1,0,0:0:0:0:
302,13,156336,1,0,0:0:0:0:
337,16,156420,1,0,0:0:0:0:
371,24,156504,1,8,0:0:0:0:
383,73,156587,1,0,0:0:0:0:
429,95,156670,1,0,0:0:0:0:
474,73,156754,1,0,0:0:0:0:
486,24,156837,1,0,0:0:0:0:
459,58,156920,1,0,0:0:0:0:
448,100,157003,1,0,0:0:0:0:
453,143,157087,1,0,0:0:0:0:
475,181,157170,1,8,0:0:0:0:
489,212,157253,1,0,0:0:0:0:
495,247,157336,1,0,0:0:0:0:
491,281,157420,1,0,0:0:0:0:
477,314,157504,6,0,L|420:310,3,35
338,266,157837,2,0,L|372:268,3,35,8|0|0|0,0:0|0:0|0:0|0:0,0:0:0:0:
321,346,158170,2,0,L|263:341,3,35
181,297,158503,2,0,L|215:299,3,35,8|0|0|0,0:0|0:0|0:0|0:0,0:0:0:0:
164,377,158837,5,0,0:0:0:0:
147,372,158920,1,0,0:0:0:0:
131,364,159003,1,0,0:0:0:0:
118,353,159087,1,0,0:0:0:0:
107,339,159170,1,8,0:0:0:0:
100,323,159253,1,0,0:0:0:0:
97,306,159337,1,0,0:0:0:0:
97,289,159420,1,0,0:0:0:0:
102,272,159504,1,0,0:0:0:0:
136,264,159587,1,0,0:0:0:0:
166,247,159670,1,0,0:0:0:0:
190,222,159754,1,0,0:0:0:0:
207,191,159837,1,8,0:0:0:0:
173,199,159920,1,0,0:0:0:0:
136,199,160003,1,0,0:0:0:0:
104,188,160087,1,0,0:0:0:0:
74,170,160170,6,0,L|66:128,3,35,4|0|0|0,0:0|0:0|0:0|0:0,0:0:0:0:
149,41,160504,2,0,L|142:75,3,35,8|0|0|0,0:0|0:0|0:0|0:0,0:0:0:0:
207,191,160837,2,0,L|199:149,3,35
282,62,161171,2,0,L|275:96,3,35,8|0|0|0,0:0|0:0|0:0|0:0,0:0:0:0:
316,211,161504,5,0,0:0:0:0:
350,217,161587,1,0,0:0:0:0:
385,217,161670,1,0,0:0:0:0:
419,212,161754,1,0,0:0:0:0:
453,201,161837,1,8,0:0:0:0:
403,189,161920,1,0,0:0:0:0:
368,150,162003,1,0,0:0:0:0:
363,99,162087,1,0,0:0:0:0:
387,53,162170,1,0,0:0:0:0:
421,79,162253,1,0,0:0:0:0:
445,116,162336,1,0,0:0:0:0:
456,158,162420,1,0,0:0:0:0:
453,201,162504,1,8,0:0:0:0:
437,232,162587,1,0,0:0:0:0:
433,266,162670,1,0,0:0:0:0:
442,300,162754,1,0,0:0:0:0:
463,328,162837,6,0,P|479:311|490:294,3,35
381,283,163170,2,0,P|390:261|394:241,3,35,8|0|0|0,0:0|0:0|0:0|0:0,0:0:0:0:
289,247,163504,2,0,P|279:225|275:205,3,35
207,292,163837,2,0,P|191:275|180:258,3,35,8|0|0|0,0:0|0:0|0:0|0:0,0:0:0:0:
145,362,164170,6,0,P|124:351|107:339,1,35,12|0,0:0|0:0,0:0:0:0:
41,224,164337,1,0,0:0:0:0:
41,224,164420,1,0,0:0:0:0:
41,224,164504,6,0,P|64:224|84:221,1,35,12|0,0:0|0:0,0:0:0:0:
239,181,164670,1,0,0:0:0:0:
239,181,164754,1,0,0:0:0:0:
239,181,164837,6,0,P|218:170|201:158,1,35,12|0,0:0|0:0,0:0:0:0:
135,43,165004,1,0,0:0:0:0:
135,43,165087,1,0,0:0:0:0:
135,43,165171,6,0,P|158:43|178:40,1,35,12|0,0:0|0:0,0:0:0:0:
324,27,165337,1,0,0:0:0:0:
376,22,165420,1,0,0:0:0:0:
428,17,165504,6,0,L|447:52,3,35,4|0|0|0,0:0|0:0|0:0|0:0,0:0:0:0:
458,156,165837,2,0,L|450:195,3,35,8|0|0|0,0:0|0:0|0:0|0:0,0:0:0:0:
391,281,166170,2,0,L|359:305,3,35
259,333,166504,2,0,L|219:331,3,35,8|0|0|0,0:0|0:0|0:0|0:0,0:0:0:0:
124,287,166837,5,0,0:0:0:0:
98,263,166920,1,0,0:0:0:0:
83,232,167003,1,0,0:0:0:0:
81,197,167087,1,0,0:0:0:0:
93,164,167170,1,8,0:0:0:0:
111,118,167253,1,0,0:0:0:0:
76,83,167336,1,0,0:0:0:0:
30,100,167420,1,0,0:0:0:0:
27,150,167504,1,0,0:0:0:0:
62,177,167587,1,0,0:0:0:0:
104,186,167670,1,0,0:0:0:0:
146,177,167754,1,0,0:0:0:0:
181,151,167837,1,8,0:0:0:0:
182,117,167920,1,0,0:0:0:0:
197,85,168003,1,0,0:0:0:0:
224,64,168087,1,0,0:0:0:0:
258,55,168170,6,0,L|319:53,3,35
381,46,168504,2,0,L|441:43,3,35,8|0|0|0,0:0|0:0|0:0|0:0,0:0:0:0:
401,139,168837,2,0,L|367:141,3,35
279,149,169170,2,0,L|245:151,3,35,8|0|0|0,0:0|0:0|0:0|0:0,0:0:0:0:
242,247,169504,5,0,0:0:0:0:
259,246,169587,1,0,0:0:0:0:
276,245,169670,1,0,0:0:0:0:
294,244,169754,1,0,0:0:0:0:
311,243,169837,1,8,0:0:0:0:
329,242,169920,1,0,0:0:0:0:
346,241,170004,1,0,0:0:0:0:
364,241,170087,1,0,0:0:0:0:
381,240,170170,1,0,0:0:0:0:
404,265,170253,1,0,0:0:0:0:
415,298,170336,1,0,0:0:0:0:
410,332,170420,1,0,0:0:0:0:
390,361,170503,1,8,0:0:0:0:
360,377,170586,1,0,0:0:0:0:
326,380,170670,1,0,0:0:0:0:
294,366,170753,1,0,0:0:0:0:
271,341,170837,6,0,L|234:326,3,35,4|0|0|0,0:0|0:0|0:0|0:0,0:0:0:0:
68,325,171170,2,0,L|105:309,3,35,8|0|0|0,0:0|0:0|0:0|0:0,0:0:0:0:
272,256,171504,2,0,L|234:240,3,35
68,239,171837,2,0,L|105:223,3,35,8|0|0|0,0:0|0:0|0:0|0:0,0:0:0:0:
272,170,172170,5,0,0:0:0:0:
305,178,172253,1,0,0:0:0:0:
333,199,172336,1,0,0:0:0:0:
351,229,172420,1,0,0:0:0:0:
356,263,172504,1,8,0:0:0:0:
401,238,172587,1,0,0:0:0:0:
431,195,172670,1,0,0:0:0:0:
439,144,172754,1,0,0:0:0:0:
425,94,172837,1,0,0:0:0:0:
397,60,172920,1,0,0:0:0:0:
358,40,173003,1,0,0:0:0:0:
315,36,173087,1,0,0:0:0:0:
274,48,173170,1,8,0:0:0:0:
240,59,173253,1,0,0:0:0:0:
206,63,173336,1,0,0:0:0:0:
171,58,173420,1,0,0:0:0:0:
138,47,173504,6,0,L|99:29,3,35,4|0|0|0,0:0|0:0|0:0|0:0,0:0:0:0:
116,142,173837,2,0,L|76:123,3,35,8|0|0|0,0:0|0:0|0:0|0:0,0:0:0:0:
93,236,174170,2,0,L|53:217,3,35
70,330,174504,1,8,0:0:0:0:
87,329,174587,1,0,0:0:0:0:
104,328,174670,1,0,0:0:0:0:
122,327,174754,1,0,0:0:0:0:
139,326,174837,5,8,0:0:0:0:
190,361,174920,1,8,0:0:0:0:
252,365,175003,1,8,0:0:0:0:
307,336,175087,1,8,0:0:0:0:
339,283,175170,1,8,0:0:0:0:
282,259,175253,1,8,0:0:0:0:
255,203,175336,1,8,0:0:0:0:
271,144,175420,1,8,0:0:0:0:
328,116,175504,1,8,0:0:0:0:
370,160,175587,1,8,0:0:0:0:
432,161,175670,1,8,0:0:0:0:
477,119,175754,1,8,0:0:0:0:
480,58,175837,1,8,0:0:0:0:
420,60,175920,1,8,0:0:0:0:
361,63,176003,1,8,0:0:0:0:
301,65,176087,1,8,0:0:0:0:
242,67,176170,6,0,P|158:115|80:50,1,210,4|0,0:0|0:0,0:0:0:0:
165,25,176837,6,0,L|148:240,1,210,4|0,0:0|0:0,0:0:0:0:
129,322,177504,6,0,P|231:355|219:271,1,210,4|0,0:0|0:0,0:0:0:0:
244,272,178087,1,0,0:0:0:0:
250,255,178170,6,0,L|352:250,1,70,8|0,0:0|0:0,0:0:0:0:
458,244,178504,1,2,0:0:0:0:
458,244,178587,1,2,0:0:0:0:
458,244,178670,1,2,0:0:0:0:
484,323,178837,6,0,P|392:296|409:175,1,210,4|0,0:0|0:0,0:0:0:0:
385,90,179504,6,0,P|415:22|454:108,1,210,4|0,0:0|0:0,0:0:0:0:
309,135,180170,6,0,B|251:140|210:100|210:100|166:62|116:70,1,210,4|0,0:0|0:0,0:0:0:0:
99,73,180754,1,0,0:0:0:0:
82,77,180837,2,0,L|98:159,1,70,8|0,0:0|0:0,0:0:0:0:
129,281,181170,1,2,0:0:0:0:
129,281,181254,1,2,0:0:0:0:
129,281,181337,1,2,0:0:0:0:
78,355,181504,6,0,P|139:370|208:320,1,140,4|0,0:0|0:0,0:0:0:0:
241,257,182004,1,0,0:0:0:0:
447,282,182170,6,0,P|386:297|317:247,1,140,12|0,0:0|0:0,0:0:0:0:
284,184,182670,1,0,0:0:0:0:
73,209,182837,6,0,P|134:224|203:174,1,140,4|0,0:0|0:0,0:0:0:0:
236,111,183337,1,0,0:0:0:0:
236,111,183420,1,0,0:0:0:0:
236,111,183504,2,0,L|148:109,1,70,8|0,0:0|0:0,0:0:0:0:
25,103,183837,1,2,0:0:0:0:
25,103,183920,1,2,0:0:0:0:
25,103,184004,1,2,0:0:0:0:
187,28,184170,6,0,L|336:31,1,140,4|0,0:0|0:0,0:0:0:0:
411,31,184670,1,0,0:0:0:0:
501,189,184837,6,0,P|446:225|392:188,1,140,12|0,0:0|0:0,0:0:0:0:
374,106,185337,1,0,0:0:0:0:
267,221,185504,6,0,P|335:227|391:187,1,140,4|0,0:0|0:0,0:0:0:0:
443,101,186004,1,0,0:0:0:0:
443,101,186087,1,0,0:0:0:0:
443,101,186170,2,0,L|361:106,1,70,8|0,0:0|0:0,0:0:0:0:
246,111,186504,1,2,0:0:0:0:
246,111,186587,1,2,0:0:0:0:
246,111,186670,1,2,0:0:0:0:
108,122,186837,6,0,P|73:154|96:255,1,140,4|0,0:0|0:0,0:0:0:0:
162,256,187337,1,0,0:0:0:0:
73,370,187504,6,0,P|118:384|194:313,1,140,12|0,0:0|0:0,0:0:0:0:
162,256,188004,1,0,0:0:0:0:
306,277,188170,6,0,P|295:230|196:200,1,140,4|0,0:0|0:0,0:0:0:0:
162,256,188670,1,0,0:0:0:0:
162,256,188754,1,0,0:0:0:0:
162,256,188837,2,0,L|234:269,1,70,8|0,0:0|0:0,0:0:0:0:
382,299,189170,1,2,0:0:0:0:
382,299,189254,1,2,0:0:0:0:
382,299,189337,1,2,0:0:0:0:
474,201,189504,6,0,P|440:167|456:71,1,140,4|0,0:0|0:0,0:0:0:0:
492,9,190004,1,0,0:0:0:0:
446,79,190170,6,0,P|376:83|306:79,1,140,12|0,0:0|0:0,0:0:0:0:
232,39,190670,1,0,0:0:0:0:
234,128,190837,6,0,P|295:140|306:78,1,140,4|0,0:0|0:0,0:0:0:0:
232,39,191337,1,0,0:0:0:0:
232,39,191420,1,0,0:0:0:0:
232,39,191504,2,0,L|150:43,1,70,8|0,0:0|0:0,0:0:0:0:
21,49,191837,1,2,0:0:0:0:
21,49,191920,1,2,0:0:0:0:
21,49,192004,1,2,0:0:0:0:
40,170,192170,6,0,P|54:270|76:305,1,140,4|0,0:0|0:0,0:0:0:0:
139,354,192670,1,0,0:0:0:0:
218,162,192837,6,0,P|150:237|137:276,1,140,12|0,0:0|0:0,0:0:0:0:
139,354,193337,1,0,0:0:0:0:
337,292,193504,6,0,P|236:288|197:304,1,140,4|0,0:0|0:0,0:0:0:0:
139,354,194004,1,0,0:0:0:0:
405,348,194170,6,0,L|413:302,1,35,8|0,0:0|0:0,0:0:0:0:
421,243,194337,1,0,0:0:0:0:
437,138,194504,1,2,0:0:0:0:
437,138,194587,1,2,0:0:0:0:
437,138,194671,1,2,0:0:0:0:
453,33,194837,6,0,P|418:44|307:34,1,140,4|0,0:0|0:0,0:0:0:0:
237,7,195337,1,0,0:0:0:0:
29,137,195504,6,0,P|64:144|173:125,1,140,12|0,0:0|0:0,0:0:0:0:
241,92,196004,1,0,0:0:0:0:
454,241,196170,6,0,P|417:245|310:217,1,140,4|0,0:0|0:0,0:0:0:0:
245,177,196670,1,0,0:0:0:0:
245,177,196754,1,0,0:0:0:0:
245,177,196837,1,12,0:0:0:0:
234,335,197004,1,2,0:0:0:0:
234,335,197087,1,2,0:0:0:0:
234,335,197170,1,4,0:0:0:0:
318,221,197337,1,0,0:0:0:0:
165,129,197504,1,4,0:0:0:0:
256,192,197587,12,0,202837,0:0:0:0:
347,255,216837,5,8,0:0:0:0:
169,192,217337,1,8,0:0:0:0:
347,255,217504,5,8,0:0:0:0:
169,192,217670,1,8,0:0:0:0:
183,242,217754,1,8,0:0:0:0:
197,292,217837,1,8,0:0:0:0:
415,315,218004,1,8,0:0:0:0:
248,198,218170,1,8,0:0:0:0:
268,338,218337,1,8,0:0:0:0:
395,175,218504,1,0,0:0:0:0:
169,192,218670,1,0,0:0:0:0:
476,187,218837,6,0,B|465:117|465:117|436:100,1,90.9999958343508,4|0,0:0|0:0,0:0:0:0:
226,20,219170,2,0,B|237:90|237:90|266:107,1,90.9999958343508
395,175,219504,1,8,0:0:0:0:
307,32,219670,1,2,0:0:0:0:
307,32,219754,1,2,0:0:0:0:
307,32,219837,1,2,0:0:0:0:
347,255,220004,1,0,0:0:0:0:
395,175,220170,5,0,0:0:0:0:
395,175,220337,2,0,L|225:192,1,136.499993751526
259,188,220670,1,0,0:0:0:0:
55,157,220837,1,8,0:0:0:0:
44,52,221004,1,0,0:0:0:0:
148,41,221170,1,0,0:0:0:0:
159,146,221337,1,0,0:0:0:0:
66,262,221504,6,0,B|74:329|74:329|97:347,1,90.9999958343508
373,336,221837,2,0,B|365:269|365:269|346:254,1,90.9999958343508
141,289,222170,1,8,0:0:0:0:
298,309,222337,1,2,0:0:0:0:
298,309,222420,1,2,0:0:0:0:
298,309,222504,1,2,0:0:0:0:
55,157,222670,1,0,0:0:0:0:
215,352,222837,5,0,0:0:0:0:
215,352,223004,2,0,L|221:212,1,136.499993751526
220,215,223337,1,0,0:0:0:0:
220,215,223420,1,0,0:0:0:0:
220,215,223504,1,8,0:0:0:0:
407,111,223670,1,0,0:0:0:0:
373,336,223837,1,0,0:0:0:0:
466,260,224004,1,0,0:0:0:0:
322,114,224170,6,0,B|360:54|360:54|394:41,1,90.9999958343508,4|0,0:0|0:0,0:0:0:0:
192,38,224504,2,0,B|154:98|154:98|120:111,1,90.9999958343508
407,111,224837,1,8,0:0:0:0:
107,41,225004,1,2,0:0:0:0:
107,41,225087,1,2,0:0:0:0:
107,41,225170,1,2,0:0:0:0:
220,215,225337,1,0,0:0:0:0:
19,23,225504,5,0,0:0:0:0:
19,23,225670,2,0,L|28:170,1,136.499993751526
27,159,226004,1,0,0:0:0:0:
149,358,226170,1,8,0:0:0:0:
45,368,226337,1,0,0:0:0:0:
36,262,226504,1,0,0:0:0:0:
141,254,226670,1,0,0:0:0:0:
293,348,226837,6,0,B|327:364|327:364|388:357,1,90.9999958343508
494,120,227170,2,0,B|460:104|460:104|399:111,1,90.9999958343508
339,292,227504,1,8,0:0:0:0:
448,176,227670,1,2,0:0:0:0:
448,176,227754,1,2,0:0:0:0:
448,176,227837,1,2,0:0:0:0:
451,346,228004,1,0,0:0:0:0:
336,122,228170,5,0,0:0:0:0:
19,23,228337,1,8,0:0:0:0:
149,358,228504,1,8,0:0:0:0:
264,60,228670,1,8,0:0:0:0:
36,262,228837,1,0,0:0:0:0:
165,102,229004,1,0,0:0:0:0:
222,298,229170,1,0,0:0:0:0:
31,148,229337,1,8,0:0:0:0:
264,60,229504,6,0,L|327:65,1,45.4999979171754,4|0,0:0|0:0,0:0:0:0:
385,70,229670,2,0,L|430:74,1,45.4999979171754
506,80,229837,1,0,0:0:0:0:
350,8,230004,1,0,0:0:0:0:
462,138,230170,1,8,0:0:0:0:
431,316,230337,1,0,0:0:0:0:
331,202,230504,1,0,0:0:0:0:
506,80,230670,1,0,0:0:0:0:
431,316,230837,5,0,0:0:0:0:
412,327,230920,1,0,0:0:0:0:
390,332,231003,1,0,0:0:0:0:
331,202,231170,1,0,0:0:0:0:
350,190,231253,1,0,0:0:0:0:
372,185,231336,1,0,0:0:0:0:
384,259,231504,1,8,0:0:0:0:
363,268,231587,1,0,0:0:0:0:
342,276,231670,1,0,0:0:0:0:
320,284,231754,1,0,0:0:0:0:
298,290,231837,1,0,0:0:0:0:
276,295,231920,1,0,0:0:0:0:
254,299,232004,1,0,0:0:0:0:
231,302,232087,1,0,0:0:0:0:
208,303,232170,6,0,L|169:251,1,45.4999979171754,4|0,0:0|0:0,0:0:0:0:
135,205,232337,2,0,L|107:168,1,45.4999979171754
62,108,232504,1,0,0:0:0:0:
104,275,232670,1,0,0:0:0:0:
137,98,232837,1,8,0:0:0:0:
31,178,233004,1,0,0:0:0:0:
210,195,233170,1,0,0:0:0:0:
16,47,233337,1,0,0:0:0:0:
248,9,233504,5,0,0:0:0:0:
270,6,233587,1,0,0:0:0:0:
293,8,233670,1,0,0:0:0:0:
310,148,233837,1,0,0:0:0:0:
287,150,233920,1,0,0:0:0:0:
264,148,234003,1,0,0:0:0:0:
282,77,234170,1,8,0:0:0:0:
304,79,234253,1,0,0:0:0:0:
327,80,234336,1,0,0:0:0:0:
350,79,234420,1,0,0:0:0:0:
372,77,234503,1,0,0:0:0:0:
395,73,234586,1,0,0:0:0:0:
417,67,234670,1,0,0:0:0:0:
438,61,234753,1,0,0:0:0:0:
460,52,234837,6,0,L|451:116,1,45.4999979171754,4|0,0:0|0:0,0:0:0:0:
444,173,235004,2,0,L|438:219,1,45.4999979171754
429,293,235171,1,0,0:0:0:0:
510,143,235337,1,0,0:0:0:0:
362,324,235504,1,8,0:0:0:0:
489,339,235671,1,0,0:0:0:0:
383,128,235837,1,0,0:0:0:0:
510,143,236004,1,0,0:0:0:0:
362,324,236170,5,0,0:0:0:0:
342,335,236253,1,0,0:0:0:0:
320,340,236336,1,0,0:0:0:0:
266,206,236504,1,0,0:0:0:0:
285,194,236587,1,0,0:0:0:0:
307,189,236670,1,0,0:0:0:0:
311,265,236837,1,8,0:0:0:0:
289,273,236920,1,0,0:0:0:0:
268,280,237003,1,0,0:0:0:0:
245,284,237087,1,0,0:0:0:0:
223,287,237170,1,0,0:0:0:0:
200,288,237253,1,0,0:0:0:0:
177,286,237337,1,0,0:0:0:0:
155,283,237420,1,0,0:0:0:0:
133,277,237504,6,0,L|124:212,1,45.4999979171754,4|0,0:0|0:0,0:0:0:0:
117,156,237671,2,0,L|111:109,1,45.4999979171754
102,36,237837,1,0,0:0:0:0:
35,294,238004,1,0,0:0:0:0:
200,19,238170,1,8,0:0:0:0:
19,173,238337,1,0,0:0:0:0:
215,139,238504,1,0,0:0:0:0:
4,53,238670,1,0,0:0:0:0:
312,67,238837,6,0,B|351:91|351:91|443:85,1,105,4|0,0:0|0:0,0:0:0:0:
295,142,239170,2,0,B|334:166|334:166|426:160,1,105,4|0,0:0|0:0,0:0:0:0:
410,87,239504,2,0,B|351:91|351:91|312:67,1,105,4|0,0:0|0:0,0:0:0:0:
278,217,239837,2,0,B|317:241|317:241|409:235,1,105,4|0,0:0|0:0,0:0:0:0:
459,229,240170,5,4,0:0:0:0:
283,358,240337,1,0,0:0:0:0:
512,285,240504,1,8,0:0:0:0:
215,139,240670,1,0,0:0:0:0:
45,357,240837,2,0,P|114:354|198:311,1,136.499993751526
195,316,241170,1,8,0:0:0:0:
77,135,241337,1,0,0:0:0:0:
69,113,241420,1,0,0:0:0:0:
61,91,241504,6,0,P|105:72|157:67,1,90.9999958343508
141,265,241837,2,0,P|97:284|45:289,1,90.9999958343508,8|0,0:0|0:0,0:0:0:0:
42,269,242087,1,0,0:0:0:0:
34,247,242170,1,0,0:0:0:0:
224,217,242337,1,0,0:0:0:0:
473,328,242504,1,8,0:0:0:0:
283,358,242671,1,0,0:0:0:0:
376,118,242837,5,0,0:0:0:0:
395,351,243004,1,0,0:0:0:0:
433,38,243170,5,8,0:0:0:0:
414,271,243337,1,0,0:0:0:0:
336,29,243504,2,0,P|262:21|196:30,1,136.499993751526
178,33,243837,1,8,0:0:0:0:
473,127,244004,1,0,0:0:0:0:
150,169,244170,5,0,0:0:0:0:
376,118,244337,1,0,0:0:0:0:
110,80,244504,5,8,0:0:0:0:
336,29,244671,1,0,0:0:0:0:
53,160,244837,2,0,P|44:223|62:298,1,136.499993751526
71,312,245170,1,8,0:0:0:0:
203,331,245337,1,0,0:0:0:0:
335,350,245504,5,4,0:0:0:0:
436,153,245670,1,0,0:0:0:0:
434,278,245837,1,8,0:0:0:0:
338,38,246004,1,0,0:0:0:0:
476,354,246170,2,0,P|511:309|502:225,1,136.499993751526
496,212,246504,1,8,0:0:0:0:
309,230,246670,1,0,0:0:0:0:
286,232,246754,1,0,0:0:0:0:
263,234,246837,6,0,P|252:176|259:139,1,90.9999958343508
115,65,247170,2,0,P|126:123|119:160,1,90.9999958343508,8|0,0:0|0:0,0:0:0:0:
97,153,247420,1,0,0:0:0:0:
74,155,247504,1,0,0:0:0:0:
21,11,247670,1,0,0:0:0:0:
268,68,247837,1,8,0:0:0:0:
110,231,248004,1,0,0:0:0:0:
268,338,248170,5,0,0:0:0:0:
268,338,248337,1,0,0:0:0:0:
93,352,248504,1,8,0:0:0:0:
326,289,248670,1,0,0:0:0:0:
110,231,248837,5,0,0:0:0:0:
339,363,249004,1,0,0:0:0:0:
106,223,249170,1,8,0:0:0:0:
268,68,249337,1,0,0:0:0:0:
479,161,249504,5,12,0:0:0:0:
476,206,249587,1,8,0:0:0:0:
474,251,249670,2,0,L|472:315,1,45.4999979171754,8|0,0:0|0:0,0:0:0:0:
401,176,249837,5,12,0:0:0:0:
404,131,249920,1,8,0:0:0:0:
406,86,250003,2,0,L|408:22,1,45.4999979171754,8|0,0:0|0:0,0:0:0:0:
332,153,250170,5,12,0:0:0:0:
329,198,250253,1,8,0:0:0:0:
327,243,250336,2,0,L|325:307,1,45.4999979171754,8|0,0:0|0:0,0:0:0:0:
250,167,250504,5,12,0:0:0:0:
191,138,250587,1,8,0:0:0:0:
185,73,250670,1,8,0:0:0:0:
238,34,250754,1,8,0:0:0:0:
298,59,250837,5,4,0:0:0:0:
45,117,251004,1,0,0:0:0:0:
332,153,251170,1,12,0:0:0:0:
43,214,251337,1,0,0:0:0:0:
406,86,251504,2,0,P|432:142|388:235,1,136.499993751526
396,226,251837,1,8,0:0:0:0:
422,369,252004,1,0,0:0:0:0:
438,352,252088,1,0,0:0:0:0:
453,335,252171,6,0,P|378:338|353:334,1,90.9999958343508
236,243,252504,2,0,P|311:240|336:244,1,90.9999958343508,8|0,0:0|0:0,0:0:0:0:
312,260,252754,1,0,0:0:0:0:
296,277,252838,1,0,0:0:0:0:
57,292,253004,1,0,0:0:0:0:
250,167,253170,1,8,0:0:0:0:
215,369,253337,1,0,0:0:0:0:
185,97,253504,5,4,0:0:0:0:
121,381,253671,1,0,0:0:0:0:
278,75,253837,5,8,0:0:0:0:
157,294,254004,1,0,0:0:0:0:
213,6,254170,5,0,0:0:0:0:
250,167,254337,1,0,0:0:0:0:
250,167,254420,1,0,0:0:0:0:
250,167,254504,1,8,0:0:0:0:
22,42,254670,1,0,0:0:0:0:
22,42,254754,1,0,0:0:0:0:
22,42,254837,6,0,P|80:33|123:39,1,90.9999958343508
278,75,255170,1,8,0:0:0:0:
64,193,255337,1,0,0:0:0:0:
64,193,255420,1,0,0:0:0:0:
64,193,255504,2,0,P|122:184|165:190,1,90.9999958343508
351,246,255837,1,8,0:1:0:0:
372,254,255920,1,0,0:0:0:0:
393,262,256004,1,0,0:0:0:0:
414,270,256087,1,0,0:0:0:0:
435,278,256170,6,0,P|437:340|423:368,1,90.9999958343508,4|0,0:0|0:0,0:0:0:0:
218,291,256504,1,8,0:0:0:0:
421,34,256670,1,0,0:0:0:0:
426,56,256754,1,0,0:0:0:0:
431,78,256837,2,0,P|344:96|264:67,1,136.499993751526
278,75,257170,1,8,0:0:0:0:
502,89,257337,1,0,0:0:0:0:
507,111,257421,1,0,0:0:0:0:
512,133,257504,6,0,P|458:154|413:161,1,90.9999958343508
198,201,257837,2,0,P|252:180|297:173,1,90.9999958343508,8|0,0:0|0:0,0:0:0:0:
287,196,258087,1,0,0:0:0:0:
292,218,258171,1,0,0:0:0:0:
60,285,258337,1,0,0:0:0:0:
372,254,258504,1,8,0:0:0:0:
119,230,258670,1,0,0:0:0:0:
40,36,258837,6,0,L|96:40,1,45.4999979171754
199,45,259004,1,8,0:0:0:0:
266,49,259087,1,8,0:0:0:0:
333,53,259170,2,0,L|329:124,1,45.4999979171754,8|0,0:0|0:0,0:0:0:0:
495,197,259337,2,0,L|499:126,1,45.4999979171754
507,15,259504,1,0,0:0:0:0:
464,31,259587,1,0,0:0:0:0:
430,61,259670,1,0,0:0:0:0:
406,99,259754,1,0,0:0:0:0:
397,144,259837,1,0,0:0:0:0:
401,189,259920,1,0,0:0:0:0:
420,230,260004,1,8,0:0:0:0:
353,219,260087,1,8,0:0:0:0:
285,228,260170,6,8,L|227:219,1,45.4999979171754
28,130,260337,2,8,L|86:139,1,45.4999979171754
302,153,260504,1,0,0:0:0:0:
259,137,260587,1,0,0:0:0:0:
215,143,260670,1,0,0:0:0:0:
178,169,260754,1,0,0:0:0:0:
158,209,260837,1,0,0:0:0:0:
170,241,260920,1,0,0:0:0:0:
165,274,261003,1,0,0:0:0:0:
143,300,261087,1,0,0:0:0:0:
111,311,261170,1,0,0:0:0:0:
78,304,261253,1,0,0:0:0:0:
53,282,261337,1,0,0:0:0:0:
43,249,261420,1,0,0:0:0:0:
51,217,261504,6,0,L|96:226,1,35,4|0,0:0|0:0,0:0:0:0:
170,241,261670,2,0,L|214:249,1,35
204,247,263504,2,0,P|230:299|332:309,1,140,4|4,0:0|0:0,0:0:0:0:
401,305,264004,1,0,0:0:0:0:
446,218,264170,6,0,P|440:159|453:112,1,105,4|0,0:0|0:0,0:0:0:0:
469,85,264504,1,0,0:0:0:0:
499,301,264670,1,0,0:0:0:0:
256,211,264837,1,8,0:0:0:0:
446,218,265004,1,0,0:0:0:0:
304,319,265170,1,0,0:0:0:0:
357,161,265337,1,0,0:0:0:0:
236,33,265504,6,0,P|160:37|139:46,1,70
37,64,265837,1,0,0:0:0:0:
259,126,266004,2,0,L|290:118,2,23.3333333333333
242,143,266170,2,0,P|259:217|271:236,1,70,12|0,0:0|0:0,0:0:0:0:
127,236,266504,2,0,P|109:161|97:142,1,70,4|0,0:0|0:0,0:0:0:0:
0,192,266837,6,0,P|11:252|41:304,1,105,4|0,0:0|0:0,0:0:0:0:
57,313,267170,1,0,0:0:0:0:
269,288,267337,1,0,0:0:0:0:
136,340,267504,1,8,0:0:0:0:
255,210,267670,1,0,0:0:0:0:
127,236,267837,1,0,0:0:0:0:
348,315,268004,1,0,0:0:0:0:
470,204,268170,6,0,P|479:157|475:108,1,70
458,23,268504,1,0,0:0:0:0:
333,92,268670,2,0,L|297:97,2,23.3333333333333
345,111,268837,2,0,P|347:164|371:210,1,105,12|0,0:0|0:0,0:0:0:0:
394,234,269170,1,0,0:0:0:0:
466,27,269337,1,0,0:0:0:0:
283,26,269504,6,0,L|235:32,1,35
92,48,269670,1,8,0:0:0:0:
56,87,269754,1,8,0:0:0:0:
8,67,269837,1,8,0:0:0:0:
13,14,269920,1,8,0:0:0:0:
64,3,270004,2,0,L|70:48,1,35
86,158,270170,2,0,L|92:203,1,35
108,313,270337,1,0,0:0:0:0:
140,326,270420,1,0,0:0:0:0:
174,330,270503,1,0,0:0:0:0:
209,326,270586,1,0,0:0:0:0:
241,313,270670,5,8,0:0:0:0:
282,342,270753,1,8,0:0:0:0:
330,325,270836,1,8,0:0:0:0:
343,276,270919,1,8,0:0:0:0:
311,238,271004,1,0,0:0:0:0:
287,246,271087,1,0,0:0:0:0:
261,241,271170,1,0,0:0:0:0:
242,223,271253,1,0,0:0:0:0:
235,198,271337,1,0,0:0:0:0:
243,174,271420,1,0,0:0:0:0:
262,156,271504,5,0,0:0:0:0:
278,162,271587,1,0,0:0:0:0:
295,166,271670,1,0,0:0:0:0:
313,168,271753,1,0,0:0:0:0:
330,167,271837,1,12,0:0:0:0:
171,39,272004,1,8,0:0:0:0:
352,89,272170,6,0,L|396:92,1,35,4|0,0:0|0:0,0:0:0:0:
404,23,272337,2,0,L|448:26,1,35
503,101,272504,1,0,0:0:0:0:
287,13,272670,1,0,0:0:0:0:
406,172,272837,1,8,0:0:0:0:
438,25,273004,1,0,0:0:0:0:
512,221,273170,1,0,0:0:0:0:
386,91,273337,1,0,0:0:0:0:
441,340,273504,6,0,L|397:337,1,35
337,331,273671,2,0,L|302:328,1,35
234,323,273838,1,0,0:0:0:0:
503,297,274004,1,0,0:0:0:0:
406,172,274170,5,12,0:0:0:0:
202,223,274337,1,0,0:0:0:0:
441,251,274504,1,4,0:0:0:0:
262,156,274670,1,0,0:0:0:0:
35,196,274837,6,0,L|42:254,1,35,4|0,0:0|0:0,0:0:0:0:
109,226,275004,2,0,L|116:284,1,35
48,323,275170,1,0,0:0:0:0:
96,99,275337,1,0,0:0:0:0:
202,223,275504,1,8,0:0:0:0:
176,68,275670,1,0,0:0:0:0:
109,226,275837,1,0,0:0:0:0:
262,156,276004,1,0,0:0:0:0:
244,19,276170,6,0,L|287:21,1,35
348,28,276337,2,0,L|382:30,1,35
451,36,276504,1,0,0:0:0:0:
176,68,276670,1,0,0:0:0:0:
450,118,276837,5,12,0:1:0:0:
459,132,276920,1,0,0:0:0:0:
464,149,277003,1,0,0:0:0:0:
464,166,277086,1,0,0:0:0:0:
458,182,277170,1,4,0:0:0:0:
448,196,277254,1,0,0:0:0:0:
443,213,277337,1,0,0:0:0:0:
443,230,277420,1,0,0:0:0:0:
449,246,277504,6,0,L|440:287,1,35,4|0,0:0|0:0,0:0:0:0:
373,265,277670,2,0,L|364:306,1,35
420,356,277837,1,0,0:0:0:0:
297,284,278004,1,0,0:0:0:0:
496,337,278170,1,8,0:0:0:0:
373,265,278337,1,0,0:0:0:0:
221,303,278504,1,0,0:0:0:0:
264,152,278670,1,0,0:0:0:0:
91,312,278837,6,0,L|88:268,1,35
82,208,279004,2,0,L|79:173,1,35
74,105,279171,1,0,0:0:0:0:
25,353,279337,1,0,0:0:0:0:
221,303,279504,5,12,0:0:0:0:
82,208,279670,1,0,0:0:0:0:
264,152,279837,1,4,0:0:0:0:
74,105,280004,1,0,0:0:0:0:
307,1,280170,6,0,L|361:17,1,35,4|0,0:0|0:0,0:0:0:0:
323,79,280337,2,0,L|377:95,1,35
425,37,280504,1,0,0:0:0:0:
247,53,280670,1,0,0:0:0:0:
437,36,280837,1,8,0:0:0:0:
356,166,281004,1,0,0:0:0:0:
449,35,281170,1,0,0:0:0:0:
507,162,281337,1,0,0:0:0:0:
441,332,281504,6,0,L|396:330,1,35,12|0,0:0|0:0,0:0:0:0:
293,239,281670,2,0,L|338:241,1,35
433,324,281837,6,0,L|388:322,1,35,12|0,0:0|0:0,0:0:0:0:
285,231,282003,2,0,L|330:233,1,35
425,316,282170,6,0,L|380:314,1,35,12|0,0:0|0:0,0:0:0:0:
231,308,282337,1,8,0:0:0:0:
213,307,282420,1,8,0:0:0:0:
195,306,282504,6,0,L|193:261,1,35,12|0,0:0|0:0,0:0:0:0:
102,158,282670,2,0,L|104:203,1,35
108,344,282837,5,12,0:0:0:0:
217,190,283004,1,0,0:0:0:0:
217,190,283087,1,0,0:0:0:0:
217,190,283170,1,8,0:0:0:0:
32,48,283337,2,2,B|160:16|240:48|240:48|320:80|443:48,1,409.499981254579
474,37,284170,5,8,0:0:0:0:
467,89,284254,1,0,0:0:0:0:
461,140,284337,1,0,0:0:0:0:
455,192,284420,1,0,0:0:0:0:
431,179,284504,1,8,0:0:0:0:
438,231,284588,1,0,0:0:0:0:
444,282,284671,1,0,0:0:0:0:
450,334,284754,1,0,0:0:0:0:
471,348,284837,5,8,0:0:0:0:
434,363,284920,1,0,0:0:0:0:
396,369,285003,1,0,0:0:0:0:
356,366,285086,1,0,0:0:0:0:
319,354,285170,1,8,0:0:0:0:
282,338,285254,1,0,0:0:0:0:
244,332,285337,1,0,0:0:0:0:
204,335,285420,1,0,0:0:0:0:
167,347,285504,6,2,P|91:358|98:249,1,181.999991668702,14|10,0:0|0:0,0:0:0:0:
161,245,285920,1,0,0:0:0:0:
205,254,286004,2,2,P|272:258|351:237,1,136.499993751526
379,222,286337,2,2,P|365:170|371:126,2,90.9999958343508,2|10|2,0:0|0:0|0:0,0:0:0:0:
439,289,286837,5,8,0:0:0:0:
464,147,287004,1,0,0:0:0:0:
467,124,287087,1,0,0:0:0:0:
470,101,287170,5,10,0:0:0:0:
411,84,287282,1,2,0:0:0:0:
352,67,287393,1,2,0:0:0:0:
368,133,287504,5,10,0:0:0:0:
309,116,287616,1,2,0:0:0:0:
250,99,287727,1,2,0:0:0:0:
266,165,287837,5,10,0:0:0:0:
207,148,287949,1,2,0:0:0:0:
148,131,288060,1,2,0:0:0:0:
191,82,288170,6,0,L|134:66,3,45.4999979171754,12|0|0|0,0:0|0:0|0:0|0:0,0:0:0:0:
82,164,288504,2,0,L|22:168,3,45.4999979171754,8|0|0|0,0:0|0:0|0:0|0:0,0:0:0:0:
6,278,288837,1,8,0:0:0:0:
34,313,288920,1,0,0:0:0:0:
74,333,289003,1,0,0:0:0:0:
119,334,289086,1,0,0:0:0:0:
160,315,289170,1,8,0:0:0:0:
201,296,289254,1,0,0:0:0:0:
246,297,289337,1,0,0:0:0:0:
286,317,289420,1,0,0:0:0:0:
315,353,289504,5,8,0:0:0:0:
359,360,289587,1,0,0:0:0:0:
401,345,289670,1,0,0:0:0:0:
429,310,289753,1,0,0:0:0:0:
436,265,289837,1,8,0:0:0:0:
419,224,289920,1,0,0:0:0:0:
383,196,290003,1,0,0:0:0:0:
339,191,290087,1,0,0:0:0:0:
297,209,290170,1,8,0:0:0:0:
255,227,290254,1,0,0:0:0:0:
211,222,290338,1,0,0:0:0:0:
175,194,290421,1,0,0:0:0:0:
158,153,290504,1,8,0:0:0:0:
165,108,290588,1,0,0:0:0:0:
193,73,290671,1,0,0:0:0:0:
235,58,290754,1,0,0:0:0:0:
280,66,290837,6,0,L|342:63,1,45.4999979171754,14|0,0:0|0:0,0:0:0:0:
481,68,291004,2,0,L|435:70,1,45.4999979171754,2|0,0:0|0:0,0:0:0:0:
288,70,291170,6,0,L|350:67,1,45.4999979171754,2|0,0:0|0:0,0:0:0:0:
473,64,291337,2,0,L|427:66,1,45.4999979171754,2|0,0:0|0:0,0:0:0:0:
242,140,291504,5,10,0:0:0:0:
222,180,291587,1,0,0:0:0:0:
187,208,291670,1,2,0:0:0:0:
143,218,291753,1,0,0:0:0:0:
99,208,291837,1,2,0:0:0:0:
63,180,291920,1,0,0:0:0:0:
44,139,292003,1,2,0:0:0:0:
44,94,292087,1,0,0:0:0:0:
64,54,292170,6,2,L|153:44,1,60.6666638895672,14|2,0:0|0:0,0:0:0:0:
242,140,292393,2,2,L|153:129,1,60.6666638895672
56,46,292615,6,2,L|144:35,1,60.6666638895672
250,148,292838,2,2,L|161:137,1,60.6666638895672
222,34,293059,5,2,0:0:0:0:
252,30,293170,1,2,0:0:0:0:
301,83,293282,1,2,0:0:0:0:
331,87,293393,1,2,0:0:0:0:
384,21,293504,1,12,0:0:0:0:
256,192,293587,12,0,300837,0:0:0:0:
