osu file format v14

[General]
AudioFilename: audio.mp3
AudioLeadIn: 0
PreviewTime:57066
Countdown: 0
SampleSet: Soft
StackLeniency: 0.4
Mode: 0
LetterboxInBreaks: 0
WidescreenStoryboard: 1

[Editor]
Bookmarks: 12155,23584,35012,57869,80726
DistanceSpacing: 1.3
BeatDivisor: 8
GridSize: 32
TimelineZoom: 2.210001

[Metadata]
Title:telepatia
TitleUnicode:telepatía
Artist:Kali Uchis
ArtistUnicode:Kali Uchis
Creator:-Magic-
Version:Pepekcz's Hard
Source:
Tags:spanish español english romantic chill Sin Miedo del amor y otros demonios Indie Pop Crissa Eula- [-Evil-] Evil Pepekcz Kyutei Anya Melfissa Anya_Melfissa erisu lanzhu mayuzumi fuyuko
BeatmapID:3188431
BeatmapSetID:1552269

[Difficulty]
HPDrainRate:4
CircleSize:3.6
OverallDifficulty:6.2
ApproachRate:8
SliderMultiplier:1.4
SliderTickRate:1

[Events]
//Background and Video events
0,0,"quien-lo-diria.jpg",0,0
//Break Periods
2,80926,102834
//Storyboard Layer 0 (Background)
//Storyboard Layer 1 (Fail)
//Storyboard Layer 2 (Pass)
//Storyboard Layer 3 (Foreground)
Sprite,Foreground,Centre,"sb/circle.png",0,0 S,2,115012,115390,0.5,0.1 F,2,115012,115390,1,0 P,0,115012,115390,A C,0,115012,,57,185,196 M,0,115012,115101,468,112,434.4222,121.8758 M,0,115101,115190,434.4222,121.8758,400.8444,131.7516
Sprite,Foreground,Centre,"sb/circle.png",0,0 S,2,115280,115658,0.5,0.1 F,2,115280,115658,1,0 P,0,115280,115658,A C,0,115280,,57,185,196 M,0,115280,115369,364,160,330.4222,150.1242 M,0,115369,115458,330.4222,150.1242,296.8444,140.2484
Sprite,Foreground,Centre,"sb/circle.png",256,120 S,2,115548,115748,0.5,0.1 F,2,115548,115748,1,0 P,0,115548,115748,A C,0,115548,,57,185,196
Sprite,Foreground,Centre,"sb/circle.png",0,0 S,2,115726,116104,0.5,0.1 F,2,115726,116104,1,0 P,0,115726,116104,A C,0,115726,,57,185,196 M,0,115726,115815,172,84,137.9681,79.59499 M,0,115815,115904,137.9681,79.59499,108.6484,97.41077
Sprite,Foreground,Centre,"sb/circle.png",84,188 S,2,116084,116284,0.5,0.1 F,2,116084,116284,1,0 P,0,116084,116284,A C,0,116084,,57,185,196
Sprite,Foreground,Centre,"sb/circle.png",84,188 S,2,116262,116462,0.5,0.1 F,2,116262,116462,1,0 P,0,116262,116462,A C,0,116262,,57,185,196
Sprite,Foreground,Centre,"sb/circle.png",0,0 S,2,116441,116819,0.5,0.1 F,2,116441,116819,1,0 P,0,116441,116819,A C,0,116441,,222,58,63 M,0,116441,116530,80,280,88.90726,313.8476 M,0,116530,116619,88.90726,313.8476,97.81453,347.6952
Sprite,Foreground,Centre,"sb/circle.png",176,404 S,2,116798,116998,0.5,0.1 F,2,116798,116998,1,0 P,0,116798,116998,A C,0,116798,,222,58,63
Sprite,Foreground,Centre,"sb/circle.png",176,404 S,2,116976,117176,0.5,0.1 F,2,116976,117176,1,0 P,0,116976,117176,A C,0,116976,,222,58,63
Sprite,Foreground,Centre,"sb/circle.png",0,0 S,2,117155,117533,0.5,0.1 F,2,117155,117533,1,0 P,0,117155,117533,A C,0,117155,,222,58,63 M,0,117155,117244,232,332,257.3369,309.0895 M,0,117244,117333,257.3369,309.0895,291.2251,304.881
Sprite,Foreground,Centre,"sb/circle.png",0,0 S,2,117512,117890,0.5,0.1 F,2,117512,117890,1,0 P,0,117512,117890,A C,0,117512,,222,58,63 M,0,117512,117601,364,360,389.3369,382.9105 M,0,117601,117690,389.3369,382.9105,423.2251,387.119
Sprite,Foreground,Centre,"sb/circle.png",0,0 S,2,117869,118247,0.5,0.1 F,2,117869,118247,1,0 P,0,117869,118247,A C,0,117869,,192,50,64 M,0,117869,117958,508,356,498.1242,322.4222 M,0,117958,118047,498.1242,322.4222,488.2484,288.8444
Sprite,Foreground,Centre,"sb/circle.png",0,0 S,2,118137,118515,0.5,0.1 F,2,118137,118515,1,0 P,0,118137,118515,A C,0,118137,,192,50,64 M,0,118137,118226,464,248,473.8758,214.4222 M,0,118226,118315,473.8758,214.4222,483.7516,180.8444
Sprite,Foreground,Centre,"sb/circle.png",500,140 S,2,118405,118605,0.5,0.1 F,2,118405,118605,1,0 P,0,118405,118605,A C,0,118405,,192,50,64
Sprite,Foreground,Centre,"sb/circle.png",0,0 S,2,118584,118962,0.5,0.1 F,2,118584,118962,1,0 P,0,118584,118962,A C,0,118584,,192,50,64 M,0,118584,118673,440,72,406.2769,81.36754 M,0,118673,118762,406.2769,81.36754,372.5537,90.73507
Sprite,Foreground,Centre,"sb/circle.png",316,164 S,2,118941,119141,0.5,0.1 F,2,118941,119141,1,0 P,0,118941,119141,A C,0,118941,,192,50,64
Sprite,Foreground,Centre,"sb/circle.png",316,164 S,2,119119,119319,0.5,0.1 F,2,119119,119319,1,0 P,0,119119,119319,A C,0,119119,,192,50,64
Sprite,Foreground,Centre,"sb/circle.png",0,0 S,2,119298,119676,0.5,0.1 F,2,119298,119676,1,0 P,0,119298,119676,A C,0,119298,,112,135,158 M,0,119298,119387,256,96,224.8786,81.44644 M,0,119387,119476,224.8786,81.44644,191.1057,87.00674
Sprite,Foreground,Centre,"sb/circle.png",0,0 S,2,119566,119944,0.5,0.1 F,2,119566,119944,1,0 P,0,119566,119944,A C,0,119566,,112,135,158 M,0,119566,119655,152,108,137.6853,139.094 M,0,119655,119744,137.6853,139.094,143.4719,172.6121
Sprite,Foreground,Centre,"sb/circle.png",168,212 S,2,119834,120034,0.5,0.1 F,2,119834,120034,1,0 P,0,119834,120034,A C,0,119834,,112,135,158
Sprite,Foreground,Centre,"sb/circle.png",160,304 S,2,120012,120212,0.5,0.1 F,2,120012,120212,1,0 P,0,120012,120212,A C,0,120012,,112,135,158
Sprite,Foreground,Centre,"sb/circle.png",160,304 S,2,120191,120391,0.5,0.1 F,2,120191,120391,1,0 P,0,120191,120391,A C,0,120191,,112,135,158
Sprite,Foreground,Centre,"sb/circle.png",0,0 S,2,120369,120747,0.5,0.1 F,2,120369,120747,1,0 P,0,120369,120747,A C,0,120369,,112,135,158 M,0,120369,120458,236,352,269.7231,342.6325 M,0,120458,120547,269.7231,342.6325,303.4463,333.2649
Sprite,Foreground,Centre,"sb/circle.png",0,0 S,2,120726,121104,0.5,0.1 F,2,120726,121104,1,0 P,0,120726,121104,A C,0,120726,,112,145,169 M,0,120726,120815,372,272,402.5779,256.4787 M,0,120815,120904,402.5779,256.4787,436.3979,262.0815
Sprite,Foreground,Centre,"sb/circle.png",0,0 S,2,120994,121372,0.5,0.1 F,2,120994,121372,1,0 P,0,120994,121372,A C,0,120994,,112,145,169 M,0,120994,121083,472,292,487.5213,322.5779 M,0,121083,121172,487.5213,322.5779,481.9185,356.3979
Sprite,Foreground,Centre,"sb/circle.png",452,392 S,2,121262,121462,0.5,0.1 F,2,121262,121462,1,0 P,0,121262,121462,A C,0,121262,,112,145,169
Sprite,Foreground,Centre,"sb/circle.png",0,0 S,2,121441,121819,0.5,0.1 F,2,121441,121819,1,0 P,0,121441,121819,A C,0,121441,,112,145,169 M,0,121441,121530,368,428,333.9304,419.9836 M,0,121530,121619,333.9304,419.9836,300,412
Sprite,Foreground,Centre,"sb/circle.png",224,372 S,2,121798,121998,0.5,0.1 F,2,121798,121998,1,0 P,0,121798,121998,A C,0,121798,,112,145,169
Sprite,Foreground,Centre,"sb/circle.png",224,372 S,2,121976,122176,0.5,0.1 F,2,121976,122176,1,0 P,0,121976,122176,A C,0,121976,,112,145,169
Sprite,Foreground,Centre,"sb/circle.png",0,0 S,2,122155,122533,0.5,0.1 F,2,122155,122533,1,0 P,0,122155,122533,A C,0,122155,,20,109,143 M,0,122155,122244,136,392,144.0164,357.9304 M,0,122244,122333,144.0164,357.9304,152,324
Sprite,Foreground,Centre,"sb/circle.png",0,0 S,2,122512,122890,0.5,0.1 F,2,122512,122890,1,0 P,0,122512,122890,A C,0,122512,,20,109,143 M,0,122512,122601,160,232,151.9836,197.9304 M,0,122601,122690,151.9836,197.9304,144,164
Sprite,Foreground,Centre,"sb/circle.png",192,88 S,2,122869,123069,0.5,0.1 F,2,122869,123069,1,0 P,0,122869,123069,A C,0,122869,,20,109,143
Sprite,Foreground,Centre,"sb/circle.png",192,88 S,2,123048,123248,0.5,0.1 F,2,123048,123248,1,0 P,0,123048,123248,A C,0,123048,,20,109,143
Sprite,Foreground,Centre,"sb/circle.png",0,0 S,2,123226,123604,0.5,0.1 F,2,123226,123604,1,0 P,0,123226,123604,A C,0,123226,,20,109,143 M,0,123226,123315,264,140,296.862,148.1729 M,0,123315,123404,296.862,148.1729,325.3523,130.2886
Sprite,Foreground,Centre,"sb/circle.png",0,0 S,2,123584,124051,0.5,0.1 F,2,123584,124051,1,0 P,0,123584,124051,A C,0,123584,,14,130,146 M,0,123584,123673,400,80,433.5488,73.52304 M,0,123673,123762,433.5488,73.52304,463.2786,90.05179 M,0,123762,123851,463.2786,90.05179,475.8755,121.7429
Sprite,Foreground,Centre,"sb/circle.png",496,168 S,2,123941,124141,0.5,0.1 F,2,123941,124141,1,0 P,0,123941,124141,A C,0,123941,,14,130,146
Sprite,Foreground,Centre,"sb/circle.png",496,168 S,2,124119,124319,0.5,0.1 F,2,124119,124319,1,0 P,0,124119,124319,A C,0,124119,,14,130,146
Sprite,Foreground,Centre,"sb/circle.png",0,0 S,2,124298,124676,0.5,0.1 F,2,124298,124676,1,0 P,0,124298,124676,A C,0,124298,,14,130,146 M,0,124298,124387,484,260,449.9518,268.1067 M,0,124387,124476,449.9518,268.1067,415.9036,276.2134
Sprite,Foreground,Centre,"sb/circle.png",0,0 S,2,124566,124944,0.5,0.1 F,2,124566,124944,1,0 P,0,124566,124944,A C,0,124566,,14,130,146 M,0,124566,124655,380,304,345.8624,311.7216 M,0,124655,124744,345.8624,311.7216,311.7248,319.4432
Sprite,Foreground,Centre,"sb/circle.png",276,348 S,2,124834,125034,0.5,0.1 F,2,124834,125034,1,0 P,0,124834,125034,A C,0,124834,,14,130,146
Sprite,Foreground,Centre,"sb/circle.png",0,0 S,2,125012,125479,0.5,0.1 F,2,125012,125479,1,0 P,0,125012,125479,A C,0,125012,,10,173,177 M,0,125012,125101,188,332,155.5046,341.719 M,0,125101,125190,155.5046,341.719,133.7573,369.0604 M,0,125190,125279,133.7573,369.0604,101.753,380.0996
Sprite,Foreground,Centre,"sb/circle.png",0,0 S,2,125369,125747,0.5,0.1 F,2,125369,125747,1,0 P,0,125369,125747,A C,0,125369,,10,173,177 M,0,125369,125458,72,344,56.08175,313.5974 M,0,125458,125547,56.08175,313.5974,63,280
Sprite,Foreground,Centre,"sb/circle.png",136,224 S,2,125726,125926,0.5,0.1 F,2,125726,125926,1,0 P,0,125726,125926,A C,0,125726,,10,173,177
Sprite,Foreground,Centre,"sb/circle.png",136,224 S,2,125905,126105,0.5,0.1 F,2,125905,126105,1,0 P,0,125905,126105,A C,0,125905,,10,173,177
Sprite,Foreground,Centre,"sb/circle.png",0,0 S,2,126084,126462,0.5,0.1 F,2,126084,126462,1,0 P,0,126084,126462,A C,0,126084,,10,173,177 M,0,126084,126173,100,140,133.7231,130.6325 M,0,126173,126262,133.7231,130.6325,167.4463,121.2649
Sprite,Foreground,Centre,"sb/circle.png",0,0 S,2,126441,126819,0.5,0.1 F,2,126441,126819,1,0 P,0,126441,126819,A C,0,126441,,57,185,196 M,0,126441,126530,288,84,322.229,83.43721 M,0,126530,126619,322.229,83.43721,348.6323,105.207
Sprite,Foreground,Centre,"sb/circle.png",0,0 S,2,126709,127087,0.5,0.1 F,2,126709,127087,1,0 P,0,126709,127087,A C,0,126709,,57,185,196 M,0,126709,126798,368,148,402.229,148.5628 M,0,126798,126887,402.229,148.5628,428.6323,126.793
Sprite,Foreground,Centre,"sb/circle.png",456,92 S,2,126976,127176,0.5,0.1 F,2,126976,127176,1,0 P,0,126976,127176,A C,0,126976,,57,185,196
Sprite,Foreground,Centre,"sb/circle.png",0,0 S,2,127155,127533,0.5,0.1 F,2,127155,127533,1,0 P,0,127155,127533,A C,0,127155,,57,185,196 M,0,127155,127244,544,68,553.8759,101.5778 M,0,127244,127333,553.8759,101.5778,563.7516,135.1556
Sprite,Foreground,Centre,"sb/circle.png",536,224 S,2,127512,127712,0.5,0.1 F,2,127512,127712,1,0 P,0,127512,127712,A C,0,127512,,57,185,196
Sprite,Foreground,Centre,"sb/circle.png",536,224 S,2,127691,127891,0.5,0.1 F,2,127691,127891,1,0 P,0,127691,127891,A C,0,127691,,57,185,196
Sprite,Foreground,Centre,"sb/circle.png",0,0 S,2,127869,128247,0.5,0.1 F,2,127869,128247,1,0 P,0,127869,128247,A C,0,127869,,222,58,63 M,0,127869,127958,484,300,450.2333,309.2091 M,0,127958,128047,450.2333,309.2091,416.4665,318.4182
Sprite,Foreground,Centre,"sb/circle.png",336,292 S,2,128226,128426,0.5,0.1 F,2,128226,128426,1,0 P,0,128226,128426,A C,0,128226,,222,58,63
Sprite,Foreground,Centre,"sb/circle.png",0,0 S,2,128584,128962,0.5,0.1 F,2,128584,128962,1,0 P,0,128584,128962,A C,0,128584,,222,58,63 M,0,128584,128673,176,380,142.0323,384.3133 M,0,128673,128762,142.0323,384.3133,111.289,369.2496
Sprite,Foreground,Centre,"sb/circle.png",0,0 S,2,128941,129319,0.5,0.1 F,2,128941,129319,1,0 P,0,128941,129319,A C,0,128941,,222,58,63 M,0,128941,129030,80,284,74.68808,250.2422 M,0,129030,129119,74.68808,250.2422,89.56903,219.489
Sprite,Foreground,Centre,"sb/circle.png",0,0 S,2,129298,129676,0.5,0.1 F,2,129298,129676,1,0 P,0,129298,129676,A C,0,129298,,192,50,64 M,0,129298,129387,168,172,201.8476,163.0927 M,0,129387,129476,201.8476,163.0927,235.6952,154.1855
Sprite,Foreground,Centre,"sb/circle.png",0,0 S,2,129566,129944,0.5,0.1 F,2,129566,129944,1,0 P,0,129566,129944,A C,0,129566,,192,50,64 M,0,129566,129655,268,124,301.955,132.4887 M,0,129655,129744,301.955,132.4887,335.91,140.9775
Sprite,Foreground,Centre,"sb/circle.png",380,152 S,2,129834,130034,0.5,0.1 F,2,129834,130034,1,0 P,0,129834,130034,A C,0,129834,,192,50,64
Sprite,Foreground,Centre,"sb/circle.png",0,0 S,2,130012,130390,0.5,0.1 F,2,130012,130390,1,0 P,0,130012,130390,A C,0,130012,,192,50,64 M,0,130012,130101,464,184,482.4881,212.9265 M,0,130101,130190,482.4881,212.9265,482.6981,247.0668
Sprite,Foreground,Centre,"sb/circle.png",444,332 S,2,130369,130569,0.5,0.1 F,2,130369,130569,1,0 P,0,130369,130569,A C,0,130369,,192,50,64
Sprite,Foreground,Centre,"sb/circle.png",444,332 S,2,130548,130748,0.5,0.1 F,2,130548,130748,1,0 P,0,130548,130748,A C,0,130548,,192,50,64
Sprite,Foreground,Centre,"sb/circle.png",0,0 S,2,130726,131104,0.5,0.1 F,2,130726,131104,1,0 P,0,130726,131104,A C,0,130726,,112,135,158 M,0,130726,130815,376,392,342.9953,380.3513 M,0,130815,130904,342.9953,380.3513,309.9907,368.7026
Sprite,Foreground,Centre,"sb/circle.png",0,0 S,2,130994,131372,0.5,0.1 F,2,130994,131372,1,0 P,0,130994,131372,A C,0,130994,,112,135,158 M,0,130994,131083,276,336,242.9953,347.6487 M,0,131083,131172,242.9953,347.6487,209.9907,359.2974
Sprite,Foreground,Centre,"sb/circle.png",168,380 S,2,131262,131462,0.5,0.1 F,2,131262,131462,1,0 P,0,131262,131462,A C,0,131262,,112,135,158
Sprite,Foreground,Centre,"sb/circle.png",84,360 S,2,131441,131641,0.5,0.1 F,2,131441,131641,1,0 P,0,131441,131641,A C,0,131441,,112,135,158
Sprite,Foreground,Centre,"sb/circle.png",84,360 S,2,131619,131819,0.5,0.1 F,2,131619,131819,1,0 P,0,131619,131819,A C,0,131619,,112,135,158
Sprite,Foreground,Centre,"sb/circle.png",0,0 S,2,131798,132176,0.5,0.1 F,2,131798,132176,1,0 P,0,131798,132176,A C,0,131798,,112,135,158 M,0,131798,131887,68,272,75.21037,237.7508 M,0,131887,131976,75.21037,237.7508,82.42073,203.5015
Sprite,Foreground,Centre,"sb/circle.png",0,0 S,2,132155,132533,0.5,0.1 F,2,132155,132533,1,0 P,0,132155,132533,A C,0,132155,,112,145,169 M,0,132155,132244,132,128,166.1386,124.6858 M,0,132244,132333,166.1386,124.6858,195.4656,142.2109
Sprite,Foreground,Centre,"sb/circle.png",0,0 S,2,132423,132801,0.5,0.1 F,2,132423,132801,1,0 P,0,132423,132801,A C,0,132423,,112,145,169 M,0,132423,132512,216,184,249.6686,190.6109 M,0,132512,132601,249.6686,190.6109,280.6118,176.0862
Sprite,Foreground,Centre,"sb/circle.png",312,144 S,2,132691,132891,0.5,0.1 F,2,132691,132891,1,0 P,0,132691,132891,A C,0,132691,,112,145,169
Sprite,Foreground,Centre,"sb/circle.png",0,0 S,2,132869,133247,0.5,0.1 F,2,132869,133247,1,0 P,0,132869,133247,A C,0,132869,,112,145,169 M,0,132869,132958,388,96,416.6487,77.46258 M,0,132958,133047,416.6487,77.46258,450.2941,82.01685
Sprite,Foreground,Centre,"sb/circle.png",524,148 S,2,133226,133426,0.5,0.1 F,2,133226,133426,1,0 P,0,133226,133426,A C,0,133226,,112,145,169
Sprite,Foreground,Centre,"sb/circle.png",524,148 S,2,133405,133605,0.5,0.1 F,2,133405,133605,1,0 P,0,133405,133605,A C,0,133405,,112,145,169
Sprite,Foreground,Centre,"sb/circle.png",0,0 S,2,133584,133962,0.5,0.1 F,2,133584,133962,1,0 P,0,133584,133962,A C,0,133584,,20,109,143 M,0,133584,133673,532,240,521.4604,273.3754 M,0,133673,133762,521.4604,273.3754,510.9208,306.7508
Sprite,Foreground,Centre,"sb/circle.png",0,0 S,2,133941,134319,0.5,0.1 F,2,133941,134319,1,0 P,0,133941,134319,A C,0,133941,,20,109,143 M,0,133941,134030,440,364,407.6363,350.6738 M,0,134030,134119,407.6363,350.6738,375.2725,337.3475
Sprite,Foreground,Centre,"sb/circle.png",308,284 S,2,134298,134498,0.5,0.1 F,2,134298,134498,1,0 P,0,134298,134498,A C,0,134298,,20,109,143
Sprite,Foreground,Centre,"sb/circle.png",308,284 S,2,134476,134676,0.5,0.1 F,2,134476,134676,1,0 P,0,134476,134676,A C,0,134476,,20,109,143
Sprite,Foreground,Centre,"sb/circle.png",0,0 S,2,134655,135033,0.5,0.1 F,2,134655,135033,1,0 P,0,134655,135033,A C,0,134655,,20,109,143 M,0,134655,134744,236,228,203.6363,241.3262 M,0,134744,134833,203.6363,241.3262,171.2725,254.6525
Sprite,Foreground,Centre,"sb/circle.png",0,0 S,2,135012,135479,0.5,0.1 F,2,135012,135479,1,0 P,0,135012,135479,A C,0,135012,,14,130,146 M,0,135012,135101,92,304,73.20936,333.5281 M,0,135101,135190,73.20936,333.5281,74.70782,362.2771 M,0,135190,135279,74.70782,362.2771,95.70782,390.2771
Sprite,Foreground,Centre,"sb/circle.png",132,428 S,2,135369,135569,0.5,0.1 F,2,135369,135569,1,0 P,0,135369,135569,A C,0,135369,,14,130,146
Sprite,Foreground,Centre,"sb/circle.png",132,428 S,2,135548,135748,0.5,0.1 F,2,135548,135748,1,0 P,0,135548,135748,A C,0,135548,,14,130,146
Sprite,Foreground,Centre,"sb/circle.png",0,0 S,2,135726,136104,0.5,0.1 F,2,135726,136104,1,0 P,0,135726,136104,A C,0,135726,,14,130,146 M,0,135726,135815,224,412,258.0482,403.8933 M,0,135815,135904,258.0482,403.8933,292.0964,395.7866
Sprite,Foreground,Centre,"sb/circle.png",0,0 S,2,135994,136372,0.5,0.1 F,2,135994,136372,1,0 P,0,135994,136372,A C,0,135994,,14,130,146 M,0,135994,136083,324,364,358.0482,355.8933 M,0,136083,136172,358.0482,355.8933,392.0964,347.7866
Sprite,Foreground,Centre,"sb/circle.png",432,324 S,2,136262,136462,0.5,0.1 F,2,136262,136462,1,0 P,0,136262,136462,A C,0,136262,,14,130,146
Sprite,Foreground,Centre,"sb/circle.png",0,0 S,2,136441,136908,0.5,0.1 F,2,136441,136908,1,0 P,0,136441,136908,A C,0,136441,,10,173,177 M,0,136441,136530,516,356,509.9533,322.2285 M,0,136530,136619,509.9533,322.2285,521.8268,289.3777 M,0,136619,136708,521.8268,289.3777,517.4191,255.2454
Sprite,Foreground,Centre,"sb/circle.png",0,0 S,2,136798,137176,0.5,0.1 F,2,136798,137176,1,0 P,0,136798,137176,A C,0,136798,,10,173,177 M,0,136798,136887,496,216,468.847,195.1751 M,0,136887,136976,468.847,195.1751,434.6277,195.1447
Sprite,Foreground,Centre,"sb/circle.png",360,244 S,2,137155,137355,0.5,0.1 F,2,137155,137355,1,0 P,0,137155,137355,A C,0,137155,,10,173,177
Sprite,Foreground,Centre,"sb/circle.png",360,244 S,2,137334,137534,0.5,0.1 F,2,137334,137534,1,0 P,0,137334,137534,A C,0,137334,,10,173,177
Sprite,Foreground,Centre,"sb/circle.png",0,0 S,2,137512,137890,0.5,0.1 F,2,137512,137890,1,0 P,0,137512,137890,A C,0,137512,,10,173,177 M,0,137512,137601,292,304,264.8469,324.8249 M,0,137601,137690,264.8469,324.8249,230.6277,324.8553
Sprite,Foreground,Centre,"sb/glow.png",568,216 S,2,57155,57455,4,0.8 F,2,57155,57455,1,0 P,0,57155,57455,A C,0,57155,,192,50,64
Sprite,Foreground,Centre,"sb/glow.png",568,216 S,2,57334,57634,4,0.8 F,2,57334,57634,1,0 P,0,57334,57634,A C,0,57334,,192,50,64
Sprite,Foreground,Centre,"sb/glow.png",512,156 S,2,57512,57812,4,0.8 F,2,57512,57812,1,0 P,0,57512,57812,A C,0,57512,,192,50,64
Sprite,Foreground,Centre,"sb/glow.png",0,0 S,2,57869,58347,4,0.8 F,2,57869,58347,1,0 P,0,57869,58347,A C,0,57869,,112,135,158 M,0,57869,57958,352,240,318.4222,230.1242 M,0,57958,58047,318.4222,230.1242,284.8444,220.2484
Sprite,Foreground,Centre,"sb/glow.png",0,0 S,2,58137,58615,4,0.8 F,2,58137,58615,1,0 P,0,58137,58615,A C,0,58137,,112,135,158 M,0,58137,58226,252,188,218.4222,197.8758 M,0,58226,58315,218.4222,197.8758,184.8444,207.7516
Sprite,Foreground,Centre,"sb/glow.png",144,224 S,2,58405,58705,4,0.8 F,2,58405,58705,1,0 P,0,58405,58705,A C,0,58405,,112,135,158
Sprite,Foreground,Centre,"sb/glow.png",0,0 S,2,58584,59062,4,0.8 F,2,58584,59062,1,0 P,0,58584,59062,A C,0,58584,,112,135,158 M,0,58584,58673,80,288,67.81926,319.7009 M,0,58673,58762,67.81926,319.7009,78.26972,351.993
Sprite,Foreground,Centre,"sb/glow.png",148,420 S,2,58941,59241,4,0.8 F,2,58941,59241,1,0 P,0,58941,59241,A C,0,58941,,112,135,158
Sprite,Foreground,Centre,"sb/glow.png",148,420 S,2,59119,59419,4,0.8 F,2,59119,59419,1,0 P,0,59119,59419,A C,0,59119,,112,135,158
Sprite,Foreground,Centre,"sb/glow.png",0,0 S,2,59298,59776,4,0.8 F,2,59298,59776,1,0 P,0,59298,59776,A C,0,59298,,112,145,169 M,0,59298,59387,216,360,249.9379,354.9479 M,0,59387,59476,249.9379,354.9479,280.2007,370.8396
Sprite,Foreground,Centre,"sb/glow.png",360,424 S,2,59655,59955,4,0.8 F,2,59655,59955,1,0 P,0,59655,59955,A C,0,59655,,112,145,169
Sprite,Foreground,Centre,"sb/glow.png",360,424 S,2,59834,60134,4,0.8 F,2,59834,60134,1,0 P,0,59834,60134,A C,0,59834,,112,145,169
Sprite,Foreground,Centre,"sb/glow.png",0,0 S,2,60012,60490,4,0.8 F,2,60012,60490,1,0 P,0,60012,60490,A C,0,60012,,112,145,169 M,0,60012,60101,408,348,398.1242,314.4222 M,0,60101,60190,398.1242,314.4222,388.2484,280.8444
Sprite,Foreground,Centre,"sb/glow.png",0,0 S,2,60369,60847,4,0.8 F,2,60369,60847,1,0 P,0,60369,60847,A C,0,60369,,112,145,169 M,0,60369,60458,320,220,329.8758,186.4222 M,0,60458,60547,329.8758,186.4222,339.7516,152.8444
Sprite,Foreground,Centre,"sb/glow.png",0,0 S,2,60726,61204,4,0.8 F,2,60726,61204,1,0 P,0,60726,61204,A C,0,60726,,20,109,143 M,0,60726,60815,404,88,431.9355,68.41539 M,0,60815,60904,431.9355,68.41539,465.9512,71.12235
Sprite,Foreground,Centre,"sb/glow.png",0,0 S,2,60994,61472,4,0.8 F,2,60994,61472,1,0 P,0,60994,61472,A C,0,60994,,20,109,143 M,0,60994,61083,508,88,515.2103,122.2492 M,0,61083,61172,515.2103,122.2492,522.4208,156.4985
Sprite,Foreground,Centre,"sb/glow.png",532,200 S,2,61262,61562,4,0.8 F,2,61262,61562,1,0 P,0,61262,61562,A C,0,61262,,20,109,143
Sprite,Foreground,Centre,"sb/glow.png",0,0 S,2,61441,61919,4,0.8 F,2,61441,61919,1,0 P,0,61441,61919,A C,0,61441,,20,109,143 M,0,61441,61530,464,260,471.2104,294.2492 M,0,61530,61619,471.2104,294.2492,478.4207,328.4985
Sprite,Foreground,Centre,"sb/glow.png",528,412 S,2,61798,62098,4,0.8 F,2,61798,62098,1,0 P,0,61798,62098,A C,0,61798,,20,109,143
Sprite,Foreground,Centre,"sb/glow.png",528,412 S,2,61976,62276,4,0.8 F,2,61976,62276,1,0 P,0,61976,62276,A C,0,61976,,20,109,143
Sprite,Foreground,Centre,"sb/glow.png",0,0 S,2,62155,62633,4,0.8 F,2,62155,62633,1,0 P,0,62155,62633,A C,0,62155,,14,130,146 M,0,62155,62244,436,400,402.4222,409.8758 M,0,62244,62333,402.4222,409.8758,368.8444,419.7516
Sprite,Foreground,Centre,"sb/glow.png",0,0 S,2,62423,62901,4,0.8 F,2,62423,62901,1,0 P,0,62423,62901,A C,0,62423,,14,130,146 M,0,62423,62512,324,428,290.4222,418.1242 M,0,62512,62601,290.4222,418.1242,256.8444,408.2484
Sprite,Foreground,Centre,"sb/glow.png",212,392 S,2,62691,62991,4,0.8 F,2,62691,62991,1,0 P,0,62691,62991,A C,0,62691,,14,130,146
Sprite,Foreground,Centre,"sb/glow.png",156,328 S,2,62869,63169,4,0.8 F,2,62869,63169,1,0 P,0,62869,63169,A C,0,62869,,14,130,146
Sprite,Foreground,Centre,"sb/glow.png",156,328 S,2,63048,63348,4,0.8 F,2,63048,63348,1,0 P,0,63048,63348,A C,0,63048,,14,130,146
Sprite,Foreground,Centre,"sb/glow.png",0,0 S,2,63226,63704,4,0.8 F,2,63226,63704,1,0 P,0,63226,63704,A C,0,63226,,14,130,146 M,0,63226,63315,84,384,74.63246,350.2769 M,0,63315,63404,74.63246,350.2769,65.26493,316.5537
Sprite,Foreground,Centre,"sb/glow.png",0,0 S,2,63584,64062,4,0.8 F,2,63584,64062,1,0 P,0,63584,64062,A C,0,63584,,10,173,177 M,0,63584,63673,76,224,100.3553,200.0609 M,0,63673,63762,100.3553,200.0609,134.4247,198.0318
Sprite,Foreground,Centre,"sb/glow.png",0,0 S,2,63851,64329,4,0.8 F,2,63851,64329,1,0 P,0,63851,64329,A C,0,63851,,10,173,177 M,0,63851,63940,168,228,192.2896,252.0826 M,0,63940,64029,192.2896,252.0826,226,254
Sprite,Foreground,Centre,"sb/glow.png",264,232 S,2,64119,64419,4,0.8 F,2,64119,64419,1,0 P,0,64119,64419,A C,0,64119,,10,173,177
Sprite,Foreground,Centre,"sb/glow.png",0,0 S,2,64298,64776,4,0.8 F,2,64298,64776,1,0 P,0,64298,64776,A C,0,64298,,10,173,177 M,0,64298,64387,348,200,381.2039,211.068 M,0,64387,64476,381.2039,211.068,414.4078,222.1359
Sprite,Foreground,Centre,"sb/glow.png",476,296 S,2,64655,64955,4,0.8 F,2,64655,64955,1,0 P,0,64655,64955,A C,0,64655,,10,173,177
Sprite,Foreground,Centre,"sb/glow.png",476,296 S,2,64834,65134,4,0.8 F,2,64834,65134,1,0 P,0,64834,65134,A C,0,64834,,10,173,177
Sprite,Foreground,Centre,"sb/glow.png",0,0 S,2,65012,65490,4,0.8 F,2,65012,65490,1,0 P,0,65012,65490,A C,0,65012,,57,185,196 M,0,65012,65101,500,208,508.7006,174.8805 M,0,65101,65190,508.7006,174.8805,495.2135,143.4216
Sprite,Foreground,Centre,"sb/glow.png",0,0 S,2,65369,65847,4,0.8 F,2,65369,65847,1,0 P,0,65369,65847,A C,0,65369,,57,185,196 M,0,65369,65458,568,88,543.5058,63.98118 M,0,65458,65547,543.5058,63.98118,509.5605,59.11853
Sprite,Foreground,Centre,"sb/glow.png",432,100 S,2,65726,66026,4,0.8 F,2,65726,66026,1,0 P,0,65726,66026,A C,0,65726,,57,185,196
Sprite,Foreground,Centre,"sb/glow.png",432,100 S,2,65905,66205,4,0.8 F,2,65905,66205,1,0 P,0,65905,66205,A C,0,65905,,57,185,196
Sprite,Foreground,Centre,"sb/glow.png",0,0 S,2,66084,66562,4,0.8 F,2,66084,66562,1,0 P,0,66084,66562,A C,0,66084,,57,185,196 M,0,66084,66173,344,72,310.2769,81.36754 M,0,66173,66262,310.2769,81.36754,276.5537,90.73507
Sprite,Foreground,Centre,"sb/glow.png",0,0 S,2,66441,67008,4,0.8 F,2,66441,67008,1,0 P,0,66441,67008,A C,0,66441,,222,58,63 M,0,66441,66530,220,164,187.5046,154.2811 M,0,66530,66619,187.5046,154.2811,165.7573,126.9396 M,0,66619,66708,165.7573,126.9396,133.753,115.9004
Sprite,Foreground,Centre,"sb/glow.png",92,132 S,2,66798,67098,4,0.8 F,2,66798,67098,1,0 P,0,66798,67098,A C,0,66798,,222,58,63
Sprite,Foreground,Centre,"sb/glow.png",92,132 S,2,66976,67276,4,0.8 F,2,66976,67276,1,0 P,0,66976,67276,A C,0,66976,,222,58,63
Sprite,Foreground,Centre,"sb/glow.png",0,0 S,2,67155,67633,4,0.8 F,2,67155,67633,1,0 P,0,67155,67633,A C,0,67155,,222,58,63 M,0,67155,67244,68,220,76.10672,254.0482 M,0,67244,67333,76.10672,254.0482,84.21344,288.0964
Sprite,Foreground,Centre,"sb/glow.png",0,0 S,2,67423,67901,4,0.8 F,2,67423,67901,1,0 P,0,67423,67901,A C,0,67423,,222,58,63 M,0,67423,67512,112,324,120.1067,358.0482 M,0,67512,67601,120.1067,358.0482,128.2134,392.0964
Sprite,Foreground,Centre,"sb/glow.png",140,436 S,2,67691,67991,4,0.8 F,2,67691,67991,1,0 P,0,67691,67991,A C,0,67691,,222,58,63
Sprite,Foreground,Centre,"sb/glow.png",0,0 S,2,67869,68436,4,0.8 F,2,67869,68436,1,0 P,0,67869,68436,A C,0,67869,,192,50,64 M,0,67869,67958,228,412,261.732,418.3771 M,0,67958,68047,261.732,418.3771,292.892,404.2924 M,0,68047,68136,292.892,404.2924,310.7752,375.0376
Sprite,Foreground,Centre,"sb/glow.png",0,0 S,2,68226,68704,4,0.8 F,2,68226,68704,1,0 P,0,68226,68704,A C,0,68226,,192,50,64 M,0,68226,68315,332,336,366.1183,334.2365 M,0,68315,68404,366.1183,334.2365,393.1586,355.0837
Sprite,Foreground,Centre,"sb/glow.png",456,428 S,2,68584,68884,4,0.8 F,2,68584,68884,1,0 P,0,68584,68884,A C,0,68584,,192,50,64
Sprite,Foreground,Centre,"sb/glow.png",456,428 S,2,68762,69062,4,0.8 F,2,68762,69062,1,0 P,0,68762,69062,A C,0,68762,,192,50,64
Sprite,Foreground,Centre,"sb/glow.png",0,0 S,2,68941,69419,4,0.8 F,2,68941,69419,1,0 P,0,68941,69419,A C,0,68941,,192,50,64 M,0,68941,69030,524,364,514.1241,330.4222 M,0,69030,69119,514.1241,330.4222,504.2484,296.8444
Sprite,Foreground,Centre,"sb/glow.png",0,0 S,2,69298,69776,4,0.8 F,2,69298,69776,1,0 P,0,69298,69776,A C,0,69298,,112,135,158 M,0,69298,69387,412,212,377.771,211.4372 M,0,69387,69476,377.771,211.4372,351.3677,233.207
Sprite,Foreground,Centre,"sb/glow.png",0,0 S,2,69566,70044,4,0.8 F,2,69566,70044,1,0 P,0,69566,70044,A C,0,69566,,112,135,158 M,0,69566,69655,324,272,296.8391,293.009 M,0,69655,69744,296.8391,293.009,263,293
Sprite,Foreground,Centre,"sb/glow.png",228,264 S,2,69834,70134,4,0.8 F,2,69834,70134,1,0 P,0,69834,70134,A C,0,69834,,112,135,158
Sprite,Foreground,Centre,"sb/glow.png",0,0 S,2,70012,70490,4,0.8 F,2,70012,70490,1,0 P,0,70012,70490,A C,0,70012,,112,135,158 M,0,70012,70101,164,200,173.8758,166.4222 M,0,70101,70190,173.8758,166.4222,183.7516,132.8444
Sprite,Foreground,Centre,"sb/glow.png",256,76 S,2,70369,70669,4,0.8 F,2,70369,70669,1,0 P,0,70369,70669,A C,0,70369,,112,135,158
Sprite,Foreground,Centre,"sb/glow.png",256,76 S,2,70548,70848,4,0.8 F,2,70548,70848,1,0 P,0,70548,70848,A C,0,70548,,112,135,158
Sprite,Foreground,Centre,"sb/glow.png",0,0 S,2,70726,71204,4,0.8 F,2,70726,71204,1,0 P,0,70726,71204,A C,0,70726,,112,145,169 M,0,70726,70815,332,128,365.7338,133.2154 M,0,70815,70904,365.7338,133.2154,394.8062,115.6598
Sprite,Foreground,Centre,"sb/glow.png",464,56 S,2,71084,71384,4,0.8 F,2,71084,71384,1,0 P,0,71084,71384,A C,0,71084,,112,145,169
Sprite,Foreground,Centre,"sb/glow.png",0,0 S,2,71441,71919,4,0.8 F,2,71441,71919,1,0 P,0,71441,71919,A C,0,71441,,112,145,169 M,0,71441,71530,576,200,566.1241,233.5778 M,0,71530,71619,566.1241,233.5778,556.2484,267.1556
Sprite,Foreground,Centre,"sb/glow.png",0,0 S,2,71798,72276,4,0.8 F,2,71798,72276,1,0 P,0,71798,72276,A C,0,71798,,112,145,169 M,0,71798,71887,464,268,473.8758,301.5778 M,0,71887,71976,473.8758,301.5778,483.7516,335.1556
Sprite,Foreground,Centre,"sb/glow.png",0,0 S,2,72155,72633,4,0.8 F,2,72155,72633,1,0 P,0,72155,72633,A C,0,72155,,20,109,143 M,0,72155,72244,468,424,434.1524,415.0927 M,0,72244,72333,434.1524,415.0927,400.3048,406.1855
Sprite,Foreground,Centre,"sb/glow.png",0,0 S,2,72423,72901,4,0.8 F,2,72423,72901,1,0 P,0,72423,72901,A C,0,72423,,20,109,143 M,0,72423,72512,368,372,334.045,380.4887 M,0,72512,72601,334.045,380.4887,300.09,388.9775
Sprite,Foreground,Centre,"sb/glow.png",256,404 S,2,72691,72991,4,0.8 F,2,72691,72991,1,0 P,0,72691,72991,A C,0,72691,,20,109,143
Sprite,Foreground,Centre,"sb/glow.png",0,0 S,2,72869,73347,4,0.8 F,2,72869,73347,1,0 P,0,72869,73347,A C,0,72869,,20,109,143 M,0,72869,72958,168,428,134.5145,423.2412 M,0,72958,73047,134.5145,423.2412,112.5833,397.5292
Sprite,Foreground,Centre,"sb/glow.png",84,316 S,2,73226,73526,4,0.8 F,2,73226,73526,1,0 P,0,73226,73526,A C,0,73226,,20,109,143
Sprite,Foreground,Centre,"sb/glow.png",84,316 S,2,73405,73705,4,0.8 F,2,73405,73705,1,0 P,0,73405,73705,A C,0,73405,,20,109,143
Sprite,Foreground,Centre,"sb/glow.png",0,0 S,2,73584,74062,4,0.8 F,2,73584,74062,1,0 P,0,73584,74062,A C,0,73584,,14,130,146 M,0,73584,73673,140,244,173.5778,234.1242 M,0,73673,73762,173.5778,234.1242,207.1556,224.2484
Sprite,Foreground,Centre,"sb/glow.png",0,0 S,2,73851,74329,4,0.8 F,2,73851,74329,1,0 P,0,73851,74329,A C,0,73851,,14,130,146 M,0,73851,73940,240,196,273.5778,205.8758 M,0,73940,74029,273.5778,205.8758,307.1556,215.7516
Sprite,Foreground,Centre,"sb/glow.png",352,232 S,2,74119,74419,4,0.8 F,2,74119,74419,1,0 P,0,74119,74419,A C,0,74119,,14,130,146
Sprite,Foreground,Centre,"sb/glow.png",436,276 S,2,74298,74598,4,0.8 F,2,74298,74598,1,0 P,0,74298,74598,A C,0,74298,,14,130,146
Sprite,Foreground,Centre,"sb/glow.png",436,276 S,2,74476,74776,4,0.8 F,2,74476,74776,1,0 P,0,74476,74776,A C,0,74476,,14,130,146
Sprite,Foreground,Centre,"sb/glow.png",0,0 S,2,74655,75133,4,0.8 F,2,74655,75133,1,0 P,0,74655,75133,A C,0,74655,,14,130,146 M,0,74655,74744,496,208,512.9803,178.8367 M,0,74744,74833,512.9803,178.8367,505.5891,145.9315
Sprite,Foreground,Centre,"sb/glow.png",0,0 S,2,75012,75490,4,0.8 F,2,75012,75490,1,0 P,0,75012,75490,A C,0,75012,,10,173,177 M,0,75012,75101,452,72,418.0615,66.91554 M,0,75101,75190,418.0615,66.91554,387.8094,82.85413
Sprite,Foreground,Centre,"sb/glow.png",0,0 S,2,75280,75758,4,0.8 F,2,75280,75758,1,0 P,0,75280,75758,A C,0,75280,,10,173,177 M,0,75280,75369,360,120,326.0615,125.0845 M,0,75369,75458,326.0615,125.0845,295.8094,109.1459
Sprite,Foreground,Centre,"sb/glow.png",260,84 S,2,75548,75848,4,0.8 F,2,75548,75848,1,0 P,0,75548,75848,A C,0,75548,,10,173,177
Sprite,Foreground,Centre,"sb/glow.png",0,0 S,2,75726,76204,4,0.8 F,2,75726,76204,1,0 P,0,75726,76204,A C,0,75726,,10,173,177 M,0,75726,75815,168,80,157.4604,113.3754 M,0,75815,75904,157.4604,113.3754,146.9208,146.7508
Sprite,Foreground,Centre,"sb/glow.png",96,224 S,2,76084,76384,4,0.8 F,2,76084,76384,1,0 P,0,76084,76384,A C,0,76084,,10,173,177
Sprite,Foreground,Centre,"sb/glow.png",96,224 S,2,76262,76562,4,0.8 F,2,76262,76562,1,0 P,0,76262,76562,A C,0,76262,,10,173,177
Sprite,Foreground,Centre,"sb/glow.png",0,0 S,2,76441,76919,4,0.8 F,2,76441,76919,1,0 P,0,76441,76919,A C,0,76441,,57,185,196 M,0,76441,76530,168,276,201.3754,286.5396 M,0,76530,76619,201.3754,286.5396,234.7508,297.0792
Sprite,Foreground,Centre,"sb/glow.png",0,0 S,2,76798,77276,4,0.8 F,2,76798,77276,1,0 P,0,76798,77276,A C,0,76798,,57,185,196 M,0,76798,76887,312,348,345.2039,336.932 M,0,76887,76976,345.2039,336.932,378,326
Sprite,Foreground,Centre,"sb/glow.png",448,268 S,2,77155,77455,4,0.8 F,2,77155,77455,1,0 P,0,77155,77455,A C,0,77155,,57,185,196
Sprite,Foreground,Centre,"sb/glow.png",448,268 S,2,77334,77634,4,0.8 F,2,77334,77634,1,0 P,0,77334,77634,A C,0,77334,,57,185,196
Sprite,Foreground,Centre,"sb/glow.png",0,0 S,2,77512,77990,4,0.8 F,2,77512,77990,1,0 P,0,77512,77990,A C,0,77512,,57,185,196 M,0,77512,77601,524,316,532.9562,282.1653 M,0,77601,77690,532.9562,282.1653,541.9125,248.3306
Sprite,Foreground,Centre,"sb/glow.png",0,0 S,2,77869,78436,4,0.8 F,2,77869,78436,1,0 P,0,77869,78436,A C,0,77869,,222,58,63 M,0,77869,77958,540,156,530.9937,122.9701 M,0,77958,78047,530.9937,122.9701,503.5612,102.7233 M,0,78047,78136,503.5612,102.7233,469.5807,103.8523
Sprite,Foreground,Centre,"sb/glow.png",432,124 S,2,78226,78526,4,0.8 F,2,78226,78526,1,0 P,0,78226,78526,A C,0,78226,,222,58,63
Sprite,Foreground,Centre,"sb/glow.png",432,124 S,2,78405,78705,4,0.8 F,2,78405,78705,1,0 P,0,78405,78705,A C,0,78405,,222,58,63
Sprite,Foreground,Centre,"sb/glow.png",0,0 S,2,78584,79062,4,0.8 F,2,78584,79062,1,0 P,0,78584,79062,A C,0,78584,,222,58,63 M,0,78584,78673,356,176,321.9518,167.8933 M,0,78673,78762,321.9518,167.8933,287.9036,159.7866
Sprite,Foreground,Centre,"sb/glow.png",0,0 S,2,78851,79329,4,0.8 F,2,78851,79329,1,0 P,0,78851,79329,A C,0,78851,,222,58,63 M,0,78851,78940,260,140,225.9518,131.8933 M,0,78940,79029,225.9518,131.8933,191.9036,123.7866
Sprite,Foreground,Centre,"sb/glow.png",148,112 S,2,79119,79419,4,0.8 F,2,79119,79419,1,0 P,0,79119,79419,A C,0,79119,,222,58,63
Sprite,Foreground,Centre,"sb/glow.png",0,0 S,2,79298,79865,4,0.8 F,2,79298,79865,1,0 P,0,79298,79865,A C,0,79298,,192,50,64 M,0,79298,79387,76,56,55.8916,84.01124 M,0,79387,79476,55.8916,84.01124,53.33114,118.2996 M,0,79476,79565,53.33114,118.2996,68.98715,148.8407
Sprite,Foreground,Centre,"sb/glow.png",0,0 S,2,79655,80133,4,0.8 F,2,79655,80133,1,0 P,0,79655,80133,A C,0,79655,,192,50,64 M,0,79655,79744,108,176,98.12418,209.5778 M,0,79744,79833,98.12418,209.5778,88.24836,243.1556
Sprite,Foreground,Centre,"sb/glow.png",96,340 S,2,80012,80312,4,0.8 F,2,80012,80312,1,0 P,0,80012,80312,A C,0,80012,,192,50,64
Sprite,Foreground,Centre,"sb/glow.png",96,340 S,2,80191,80491,4,0.8 F,2,80191,80491,1,0 P,0,80191,80491,A C,0,80191,,192,50,64
Sprite,Foreground,Centre,"sb/glow.png",152,412 S,2,80369,80669,4,0.8 F,2,80369,80669,1,0 P,0,80369,80669,A C,0,80369,,192,50,64
Sprite,Foreground,Centre,"sb/glow.png",272,336 S,2,80726,81026,4,0.8 F,2,80726,81026,1,0 P,0,80726,81026,A C,0,80726,,112,135,158
Sprite,Foreground,Centre,"sb/circle.png",568,216 S,2,57155,57455,0.5,0.1 F,2,57155,57455,1,0 P,0,57155,57455,A C,0,57155,,192,50,64
Sprite,Foreground,Centre,"sb/circle.png",568,216 S,2,57334,57634,0.5,0.1 F,2,57334,57634,1,0 P,0,57334,57634,A C,0,57334,,192,50,64
Sprite,Foreground,Centre,"sb/circle.png",512,156 S,2,57512,57812,0.5,0.1 F,2,57512,57812,1,0 P,0,57512,57812,A C,0,57512,,192,50,64
Sprite,Foreground,Centre,"sb/circle.png",0,0 S,2,57869,58347,0.5,0.1 F,2,57869,58347,1,0 P,0,57869,58347,A C,0,57869,,112,135,158 M,0,57869,57958,352,240,318.4222,230.1242 M,0,57958,58047,318.4222,230.1242,284.8444,220.2484
Sprite,Foreground,Centre,"sb/circle.png",0,0 S,2,58137,58615,0.5,0.1 F,2,58137,58615,1,0 P,0,58137,58615,A C,0,58137,,112,135,158 M,0,58137,58226,252,188,218.4222,197.8758 M,0,58226,58315,218.4222,197.8758,184.8444,207.7516
Sprite,Foreground,Centre,"sb/circle.png",144,224 S,2,58405,58705,0.5,0.1 F,2,58405,58705,1,0 P,0,58405,58705,A C,0,58405,,112,135,158
Sprite,Foreground,Centre,"sb/circle.png",0,0 S,2,58584,59062,0.5,0.1 F,2,58584,59062,1,0 P,0,58584,59062,A C,0,58584,,112,135,158 M,0,58584,58673,80,288,67.81926,319.7009 M,0,58673,58762,67.81926,319.7009,78.26972,351.993
Sprite,Foreground,Centre,"sb/circle.png",148,420 S,2,58941,59241,0.5,0.1 F,2,58941,59241,1,0 P,0,58941,59241,A C,0,58941,,112,135,158
Sprite,Foreground,Centre,"sb/circle.png",148,420 S,2,59119,59419,0.5,0.1 F,2,59119,59419,1,0 P,0,59119,59419,A C,0,59119,,112,135,158
Sprite,Foreground,Centre,"sb/circle.png",0,0 S,2,59298,59776,0.5,0.1 F,2,59298,59776,1,0 P,0,59298,59776,A C,0,59298,,112,145,169 M,0,59298,59387,216,360,249.9379,354.9479 M,0,59387,59476,249.9379,354.9479,280.2007,370.8396
Sprite,Foreground,Centre,"sb/circle.png",360,424 S,2,59655,59955,0.5,0.1 F,2,59655,59955,1,0 P,0,59655,59955,A C,0,59655,,112,145,169
Sprite,Foreground,Centre,"sb/circle.png",360,424 S,2,59834,60134,0.5,0.1 F,2,59834,60134,1,0 P,0,59834,60134,A C,0,59834,,112,145,169
Sprite,Foreground,Centre,"sb/circle.png",0,0 S,2,60012,60490,0.5,0.1 F,2,60012,60490,1,0 P,0,60012,60490,A C,0,60012,,112,145,169 M,0,60012,60101,408,348,398.1242,314.4222 M,0,60101,60190,398.1242,314.4222,388.2484,280.8444
Sprite,Foreground,Centre,"sb/circle.png",0,0 S,2,60369,60847,0.5,0.1 F,2,60369,60847,1,0 P,0,60369,60847,A C,0,60369,,112,145,169 M,0,60369,60458,320,220,329.8758,186.4222 M,0,60458,60547,329.8758,186.4222,339.7516,152.8444
Sprite,Foreground,Centre,"sb/circle.png",0,0 S,2,60726,61204,0.5,0.1 F,2,60726,61204,1,0 P,0,60726,61204,A C,0,60726,,20,109,143 M,0,60726,60815,404,88,431.9355,68.41539 M,0,60815,60904,431.9355,68.41539,465.9512,71.12235
Sprite,Foreground,Centre,"sb/circle.png",0,0 S,2,60994,61472,0.5,0.1 F,2,60994,61472,1,0 P,0,60994,61472,A C,0,60994,,20,109,143 M,0,60994,61083,508,88,515.2103,122.2492 M,0,61083,61172,515.2103,122.2492,522.4208,156.4985
Sprite,Foreground,Centre,"sb/circle.png",532,200 S,2,61262,61562,0.5,0.1 F,2,61262,61562,1,0 P,0,61262,61562,A C,0,61262,,20,109,143
Sprite,Foreground,Centre,"sb/circle.png",0,0 S,2,61441,61919,0.5,0.1 F,2,61441,61919,1,0 P,0,61441,61919,A C,0,61441,,20,109,143 M,0,61441,61530,464,260,471.2104,294.2492 M,0,61530,61619,471.2104,294.2492,478.4207,328.4985
Sprite,Foreground,Centre,"sb/circle.png",528,412 S,2,61798,62098,0.5,0.1 F,2,61798,62098,1,0 P,0,61798,62098,A C,0,61798,,20,109,143
Sprite,Foreground,Centre,"sb/circle.png",528,412 S,2,61976,62276,0.5,0.1 F,2,61976,62276,1,0 P,0,61976,62276,A C,0,61976,,20,109,143
Sprite,Foreground,Centre,"sb/circle.png",0,0 S,2,62155,62633,0.5,0.1 F,2,62155,62633,1,0 P,0,62155,62633,A C,0,62155,,14,130,146 M,0,62155,62244,436,400,402.4222,409.8758 M,0,62244,62333,402.4222,409.8758,368.8444,419.7516
Sprite,Foreground,Centre,"sb/circle.png",0,0 S,2,62423,62901,0.5,0.1 F,2,62423,62901,1,0 P,0,62423,62901,A C,0,62423,,14,130,146 M,0,62423,62512,324,428,290.4222,418.1242 M,0,62512,62601,290.4222,418.1242,256.8444,408.2484
Sprite,Foreground,Centre,"sb/circle.png",212,392 S,2,62691,62991,0.5,0.1 F,2,62691,62991,1,0 P,0,62691,62991,A C,0,62691,,14,130,146
Sprite,Foreground,Centre,"sb/circle.png",156,328 S,2,62869,63169,0.5,0.1 F,2,62869,63169,1,0 P,0,62869,63169,A C,0,62869,,14,130,146
Sprite,Foreground,Centre,"sb/circle.png",156,328 S,2,63048,63348,0.5,0.1 F,2,63048,63348,1,0 P,0,63048,63348,A C,0,63048,,14,130,146
Sprite,Foreground,Centre,"sb/circle.png",0,0 S,2,63226,63704,0.5,0.1 F,2,63226,63704,1,0 P,0,63226,63704,A C,0,63226,,14,130,146 M,0,63226,63315,84,384,74.63246,350.2769 M,0,63315,63404,74.63246,350.2769,65.26493,316.5537
Sprite,Foreground,Centre,"sb/circle.png",0,0 S,2,63584,64062,0.5,0.1 F,2,63584,64062,1,0 P,0,63584,64062,A C,0,63584,,10,173,177 M,0,63584,63673,76,224,100.3553,200.0609 M,0,63673,63762,100.3553,200.0609,134.4247,198.0318
Sprite,Foreground,Centre,"sb/circle.png",0,0 S,2,63851,64329,0.5,0.1 F,2,63851,64329,1,0 P,0,63851,64329,A C,0,63851,,10,173,177 M,0,63851,63940,168,228,192.2896,252.0826 M,0,63940,64029,192.2896,252.0826,226,254
Sprite,Foreground,Centre,"sb/circle.png",264,232 S,2,64119,64419,0.5,0.1 F,2,64119,64419,1,0 P,0,64119,64419,A C,0,64119,,10,173,177
Sprite,Foreground,Centre,"sb/circle.png",0,0 S,2,64298,64776,0.5,0.1 F,2,64298,64776,1,0 P,0,64298,64776,A C,0,64298,,10,173,177 M,0,64298,64387,348,200,381.2039,211.068 M,0,64387,64476,381.2039,211.068,414.4078,222.1359
Sprite,Foreground,Centre,"sb/circle.png",476,296 S,2,64655,64955,0.5,0.1 F,2,64655,64955,1,0 P,0,64655,64955,A C,0,64655,,10,173,177
Sprite,Foreground,Centre,"sb/circle.png",476,296 S,2,64834,65134,0.5,0.1 F,2,64834,65134,1,0 P,0,64834,65134,A C,0,64834,,10,173,177
Sprite,Foreground,Centre,"sb/circle.png",0,0 S,2,65012,65490,0.5,0.1 F,2,65012,65490,1,0 P,0,65012,65490,A C,0,65012,,57,185,196 M,0,65012,65101,500,208,508.7006,174.8805 M,0,65101,65190,508.7006,174.8805,495.2135,143.4216
Sprite,Foreground,Centre,"sb/circle.png",0,0 S,2,65369,65847,0.5,0.1 F,2,65369,65847,1,0 P,0,65369,65847,A C,0,65369,,57,185,196 M,0,65369,65458,568,88,543.5058,63.98118 M,0,65458,65547,543.5058,63.98118,509.5605,59.11853
Sprite,Foreground,Centre,"sb/circle.png",432,100 S,2,65726,66026,0.5,0.1 F,2,65726,66026,1,0 P,0,65726,66026,A C,0,65726,,57,185,196
Sprite,Foreground,Centre,"sb/circle.png",432,100 S,2,65905,66205,0.5,0.1 F,2,65905,66205,1,0 P,0,65905,66205,A C,0,65905,,57,185,196
Sprite,Foreground,Centre,"sb/circle.png",0,0 S,2,66084,66562,0.5,0.1 F,2,66084,66562,1,0 P,0,66084,66562,A C,0,66084,,57,185,196 M,0,66084,66173,344,72,310.2769,81.36754 M,0,66173,66262,310.2769,81.36754,276.5537,90.73507
Sprite,Foreground,Centre,"sb/circle.png",0,0 S,2,66441,67008,0.5,0.1 F,2,66441,67008,1,0 P,0,66441,67008,A C,0,66441,,222,58,63 M,0,66441,66530,220,164,187.5046,154.2811 M,0,66530,66619,187.5046,154.2811,165.7573,126.9396 M,0,66619,66708,165.7573,126.9396,133.753,115.9004
Sprite,Foreground,Centre,"sb/circle.png",92,132 S,2,66798,67098,0.5,0.1 F,2,66798,67098,1,0 P,0,66798,67098,A C,0,66798,,222,58,63
Sprite,Foreground,Centre,"sb/circle.png",92,132 S,2,66976,67276,0.5,0.1 F,2,66976,67276,1,0 P,0,66976,67276,A C,0,66976,,222,58,63
Sprite,Foreground,Centre,"sb/circle.png",0,0 S,2,67155,67633,0.5,0.1 F,2,67155,67633,1,0 P,0,67155,67633,A C,0,67155,,222,58,63 M,0,67155,67244,68,220,76.10672,254.0482 M,0,67244,67333,76.10672,254.0482,84.21344,288.0964
Sprite,Foreground,Centre,"sb/circle.png",0,0 S,2,67423,67901,0.5,0.1 F,2,67423,67901,1,0 P,0,67423,67901,A C,0,67423,,222,58,63 M,0,67423,67512,112,324,120.1067,358.0482 M,0,67512,67601,120.1067,358.0482,128.2134,392.0964
Sprite,Foreground,Centre,"sb/circle.png",140,436 S,2,67691,67991,0.5,0.1 F,2,67691,67991,1,0 P,0,67691,67991,A C,0,67691,,222,58,63
Sprite,Foreground,Centre,"sb/circle.png",0,0 S,2,67869,68436,0.5,0.1 F,2,67869,68436,1,0 P,0,67869,68436,A C,0,67869,,192,50,64 M,0,67869,67958,228,412,261.732,418.3771 M,0,67958,68047,261.732,418.3771,292.892,404.2924 M,0,68047,68136,292.892,404.2924,310.7752,375.0376
Sprite,Foreground,Centre,"sb/circle.png",0,0 S,2,68226,68704,0.5,0.1 F,2,68226,68704,1,0 P,0,68226,68704,A C,0,68226,,192,50,64 M,0,68226,68315,332,336,366.1183,334.2365 M,0,68315,68404,366.1183,334.2365,393.1586,355.0837
Sprite,Foreground,Centre,"sb/circle.png",456,428 S,2,68584,68884,0.5,0.1 F,2,68584,68884,1,0 P,0,68584,68884,A C,0,68584,,192,50,64
Sprite,Foreground,Centre,"sb/circle.png",456,428 S,2,68762,69062,0.5,0.1 F,2,68762,69062,1,0 P,0,68762,69062,A C,0,68762,,192,50,64
Sprite,Foreground,Centre,"sb/circle.png",0,0 S,2,68941,69419,0.5,0.1 F,2,68941,69419,1,0 P,0,68941,69419,A C,0,68941,,192,50,64 M,0,68941,69030,524,364,514.1241,330.4222 M,0,69030,69119,514.1241,330.4222,504.2484,296.8444
Sprite,Foreground,Centre,"sb/circle.png",0,0 S,2,69298,69776,0.5,0.1 F,2,69298,69776,1,0 P,0,69298,69776,A C,0,69298,,112,135,158 M,0,69298,69387,412,212,377.771,211.4372 M,0,69387,69476,377.771,211.4372,351.3677,233.207
Sprite,Foreground,Centre,"sb/circle.png",0,0 S,2,69566,70044,0.5,0.1 F,2,69566,70044,1,0 P,0,69566,70044,A C,0,69566,,112,135,158 M,0,69566,69655,324,272,296.8391,293.009 M,0,69655,69744,296.8391,293.009,263,293
Sprite,Foreground,Centre,"sb/circle.png",228,264 S,2,69834,70134,0.5,0.1 F,2,69834,70134,1,0 P,0,69834,70134,A C,0,69834,,112,135,158
Sprite,Foreground,Centre,"sb/circle.png",0,0 S,2,70012,70490,0.5,0.1 F,2,70012,70490,1,0 P,0,70012,70490,A C,0,70012,,112,135,158 M,0,70012,70101,164,200,173.8758,166.4222 M,0,70101,70190,173.8758,166.4222,183.7516,132.8444
Sprite,Foreground,Centre,"sb/circle.png",256,76 S,2,70369,70669,0.5,0.1 F,2,70369,70669,1,0 P,0,70369,70669,A C,0,70369,,112,135,158
Sprite,Foreground,Centre,"sb/circle.png",256,76 S,2,70548,70848,0.5,0.1 F,2,70548,70848,1,0 P,0,70548,70848,A C,0,70548,,112,135,158
Sprite,Foreground,Centre,"sb/circle.png",0,0 S,2,70726,71204,0.5,0.1 F,2,70726,71204,1,0 P,0,70726,71204,A C,0,70726,,112,145,169 M,0,70726,70815,332,128,365.7338,133.2154 M,0,70815,70904,365.7338,133.2154,394.8062,115.6598
Sprite,Foreground,Centre,"sb/circle.png",464,56 S,2,71084,71384,0.5,0.1 F,2,71084,71384,1,0 P,0,71084,71384,A C,0,71084,,112,145,169
Sprite,Foreground,Centre,"sb/circle.png",0,0 S,2,71441,71919,0.5,0.1 F,2,71441,71919,1,0 P,0,71441,71919,A C,0,71441,,112,145,169 M,0,71441,71530,576,200,566.1241,233.5778 M,0,71530,71619,566.1241,233.5778,556.2484,267.1556
Sprite,Foreground,Centre,"sb/circle.png",0,0 S,2,71798,72276,0.5,0.1 F,2,71798,72276,1,0 P,0,71798,72276,A C,0,71798,,112,145,169 M,0,71798,71887,464,268,473.8758,301.5778 M,0,71887,71976,473.8758,301.5778,483.7516,335.1556
Sprite,Foreground,Centre,"sb/circle.png",0,0 S,2,72155,72633,0.5,0.1 F,2,72155,72633,1,0 P,0,72155,72633,A C,0,72155,,20,109,143 M,0,72155,72244,468,424,434.1524,415.0927 M,0,72244,72333,434.1524,415.0927,400.3048,406.1855
Sprite,Foreground,Centre,"sb/circle.png",0,0 S,2,72423,72901,0.5,0.1 F,2,72423,72901,1,0 P,0,72423,72901,A C,0,72423,,20,109,143 M,0,72423,72512,368,372,334.045,380.4887 M,0,72512,72601,334.045,380.4887,300.09,388.9775
Sprite,Foreground,Centre,"sb/circle.png",256,404 S,2,72691,72991,0.5,0.1 F,2,72691,72991,1,0 P,0,72691,72991,A C,0,72691,,20,109,143
Sprite,Foreground,Centre,"sb/circle.png",0,0 S,2,72869,73347,0.5,0.1 F,2,72869,73347,1,0 P,0,72869,73347,A C,0,72869,,20,109,143 M,0,72869,72958,168,428,134.5145,423.2412 M,0,72958,73047,134.5145,423.2412,112.5833,397.5292
Sprite,Foreground,Centre,"sb/circle.png",84,316 S,2,73226,73526,0.5,0.1 F,2,73226,73526,1,0 P,0,73226,73526,A C,0,73226,,20,109,143
Sprite,Foreground,Centre,"sb/circle.png",84,316 S,2,73405,73705,0.5,0.1 F,2,73405,73705,1,0 P,0,73405,73705,A C,0,73405,,20,109,143
Sprite,Foreground,Centre,"sb/circle.png",0,0 S,2,73584,74062,0.5,0.1 F,2,73584,74062,1,0 P,0,73584,74062,A C,0,73584,,14,130,146 M,0,73584,73673,140,244,173.5778,234.1242 M,0,73673,73762,173.5778,234.1242,207.1556,224.2484
Sprite,Foreground,Centre,"sb/circle.png",0,0 S,2,73851,74329,0.5,0.1 F,2,73851,74329,1,0 P,0,73851,74329,A C,0,73851,,14,130,146 M,0,73851,73940,240,196,273.5778,205.8758 M,0,73940,74029,273.5778,205.8758,307.1556,215.7516
Sprite,Foreground,Centre,"sb/circle.png",352,232 S,2,74119,74419,0.5,0.1 F,2,74119,74419,1,0 P,0,74119,74419,A C,0,74119,,14,130,146
Sprite,Foreground,Centre,"sb/circle.png",436,276 S,2,74298,74598,0.5,0.1 F,2,74298,74598,1,0 P,0,74298,74598,A C,0,74298,,14,130,146
Sprite,Foreground,Centre,"sb/circle.png",436,276 S,2,74476,74776,0.5,0.1 F,2,74476,74776,1,0 P,0,74476,74776,A C,0,74476,,14,130,146
Sprite,Foreground,Centre,"sb/circle.png",0,0 S,2,74655,75133,0.5,0.1 F,2,74655,75133,1,0 P,0,74655,75133,A C,0,74655,,14,130,146 M,0,74655,74744,496,208,512.9803,178.8367 M,0,74744,74833,512.9803,178.8367,505.5891,145.9315
Sprite,Foreground,Centre,"sb/circle.png",0,0 S,2,75012,75490,0.5,0.1 F,2,75012,75490,1,0 P,0,75012,75490,A C,0,75012,,10,173,177 M,0,75012,75101,452,72,418.0615,66.91554 M,0,75101,75190,418.0615,66.91554,387.8094,82.85413
Sprite,Foreground,Centre,"sb/circle.png",0,0 S,2,75280,75758,0.5,0.1 F,2,75280,75758,1,0 P,0,75280,75758,A C,0,75280,,10,173,177 M,0,75280,75369,360,120,326.0615,125.0845 M,0,75369,75458,326.0615,125.0845,295.8094,109.1459
Sprite,Foreground,Centre,"sb/circle.png",260,84 S,2,75548,75848,0.5,0.1 F,2,75548,75848,1,0 P,0,75548,75848,A C,0,75548,,10,173,177
Sprite,Foreground,Centre,"sb/circle.png",0,0 S,2,75726,76204,0.5,0.1 F,2,75726,76204,1,0 P,0,75726,76204,A C,0,75726,,10,173,177 M,0,75726,75815,168,80,157.4604,113.3754 M,0,75815,75904,157.4604,113.3754,146.9208,146.7508
Sprite,Foreground,Centre,"sb/circle.png",96,224 S,2,76084,76384,0.5,0.1 F,2,76084,76384,1,0 P,0,76084,76384,A C,0,76084,,10,173,177
Sprite,Foreground,Centre,"sb/circle.png",96,224 S,2,76262,76562,0.5,0.1 F,2,76262,76562,1,0 P,0,76262,76562,A C,0,76262,,10,173,177
Sprite,Foreground,Centre,"sb/circle.png",0,0 S,2,76441,76919,0.5,0.1 F,2,76441,76919,1,0 P,0,76441,76919,A C,0,76441,,57,185,196 M,0,76441,76530,168,276,201.3754,286.5396 M,0,76530,76619,201.3754,286.5396,234.7508,297.0792
Sprite,Foreground,Centre,"sb/circle.png",0,0 S,2,76798,77276,0.5,0.1 F,2,76798,77276,1,0 P,0,76798,77276,A C,0,76798,,57,185,196 M,0,76798,76887,312,348,345.2039,336.932 M,0,76887,76976,345.2039,336.932,378,326
Sprite,Foreground,Centre,"sb/circle.png",448,268 S,2,77155,77455,0.5,0.1 F,2,77155,77455,1,0 P,0,77155,77455,A C,0,77155,,57,185,196
Sprite,Foreground,Centre,"sb/circle.png",448,268 S,2,77334,77634,0.5,0.1 F,2,77334,77634,1,0 P,0,77334,77634,A C,0,77334,,57,185,196
Sprite,Foreground,Centre,"sb/circle.png",0,0 S,2,77512,77990,0.5,0.1 F,2,77512,77990,1,0 P,0,77512,77990,A C,0,77512,,57,185,196 M,0,77512,77601,524,316,532.9562,282.1653 M,0,77601,77690,532.9562,282.1653,541.9125,248.3306
Sprite,Foreground,Centre,"sb/circle.png",0,0 S,2,77869,78436,0.5,0.1 F,2,77869,78436,1,0 P,0,77869,78436,A C,0,77869,,222,58,63 M,0,77869,77958,540,156,530.9937,122.9701 M,0,77958,78047,530.9937,122.9701,503.5612,102.7233 M,0,78047,78136,503.5612,102.7233,469.5807,103.8523
Sprite,Foreground,Centre,"sb/circle.png",432,124 S,2,78226,78526,0.5,0.1 F,2,78226,78526,1,0 P,0,78226,78526,A C,0,78226,,222,58,63
Sprite,Foreground,Centre,"sb/circle.png",432,124 S,2,78405,78705,0.5,0.1 F,2,78405,78705,1,0 P,0,78405,78705,A C,0,78405,,222,58,63
Sprite,Foreground,Centre,"sb/circle.png",0,0 S,2,78584,79062,0.5,0.1 F,2,78584,79062,1,0 P,0,78584,79062,A C,0,78584,,222,58,63 M,0,78584,78673,356,176,321.9518,167.8933 M,0,78673,78762,321.9518,167.8933,287.9036,159.7866
Sprite,Foreground,Centre,"sb/circle.png",0,0 S,2,78851,79329,0.5,0.1 F,2,78851,79329,1,0 P,0,78851,79329,A C,0,78851,,222,58,63 M,0,78851,78940,260,140,225.9518,131.8933 M,0,78940,79029,225.9518,131.8933,191.9036,123.7866
Sprite,Foreground,Centre,"sb/circle.png",148,112 S,2,79119,79419,0.5,0.1 F,2,79119,79419,1,0 P,0,79119,79419,A C,0,79119,,222,58,63
Sprite,Foreground,Centre,"sb/circle.png",0,0 S,2,79298,79865,0.5,0.1 F,2,79298,79865,1,0 P,0,79298,79865,A C,0,79298,,192,50,64 M,0,79298,79387,76,56,55.8916,84.01124 M,0,79387,79476,55.8916,84.01124,53.33114,118.2996 M,0,79476,79565,53.33114,118.2996,68.98715,148.8407
Sprite,Foreground,Centre,"sb/circle.png",0,0 S,2,79655,80133,0.5,0.1 F,2,79655,80133,1,0 P,0,79655,80133,A C,0,79655,,192,50,64 M,0,79655,79744,108,176,98.12418,209.5778 M,0,79744,79833,98.12418,209.5778,88.24836,243.1556
Sprite,Foreground,Centre,"sb/circle.png",96,340 S,2,80012,80312,0.5,0.1 F,2,80012,80312,1,0 P,0,80012,80312,A C,0,80012,,192,50,64
Sprite,Foreground,Centre,"sb/circle.png",96,340 S,2,80191,80491,0.5,0.1 F,2,80191,80491,1,0 P,0,80191,80491,A C,0,80191,,192,50,64
Sprite,Foreground,Centre,"sb/circle.png",152,412 S,2,80369,80669,0.5,0.1 F,2,80369,80669,1,0 P,0,80369,80669,A C,0,80369,,192,50,64
Sprite,Foreground,Centre,"sb/circle.png",272,336 S,2,80726,81026,0.5,0.1 F,2,80726,81026,1,0 P,0,80726,81026,A C,0,80726,,112,135,158
Sprite,Foreground,Centre,"sb/glow.png",0,0 S,2,115012,115490,4,0.8 F,2,115012,115490,1,0 P,0,115012,115490,A C,0,115012,,57,185,196 M,0,115012,115101,468,112,434.4222,121.8758 M,0,115101,115190,434.4222,121.8758,400.8444,131.7516
Sprite,Foreground,Centre,"sb/glow.png",0,0 S,2,115280,115758,4,0.8 F,2,115280,115758,1,0 P,0,115280,115758,A C,0,115280,,57,185,196 M,0,115280,115369,364,160,330.4222,150.1242 M,0,115369,115458,330.4222,150.1242,296.8444,140.2484
Sprite,Foreground,Centre,"sb/glow.png",256,120 S,2,115548,115848,4,0.8 F,2,115548,115848,1,0 P,0,115548,115848,A C,0,115548,,57,185,196
Sprite,Foreground,Centre,"sb/glow.png",0,0 S,2,115726,116204,4,0.8 F,2,115726,116204,1,0 P,0,115726,116204,A C,0,115726,,57,185,196 M,0,115726,115815,172,84,137.9681,79.59499 M,0,115815,115904,137.9681,79.59499,108.6484,97.41077
Sprite,Foreground,Centre,"sb/glow.png",84,188 S,2,116084,116384,4,0.8 F,2,116084,116384,1,0 P,0,116084,116384,A C,0,116084,,57,185,196
Sprite,Foreground,Centre,"sb/glow.png",84,188 S,2,116262,116562,4,0.8 F,2,116262,116562,1,0 P,0,116262,116562,A C,0,116262,,57,185,196
Sprite,Foreground,Centre,"sb/glow.png",0,0 S,2,116441,116919,4,0.8 F,2,116441,116919,1,0 P,0,116441,116919,A C,0,116441,,222,58,63 M,0,116441,116530,80,280,88.90726,313.8476 M,0,116530,116619,88.90726,313.8476,97.81453,347.6952
Sprite,Foreground,Centre,"sb/glow.png",176,404 S,2,116798,117098,4,0.8 F,2,116798,117098,1,0 P,0,116798,117098,A C,0,116798,,222,58,63
Sprite,Foreground,Centre,"sb/glow.png",176,404 S,2,116976,117276,4,0.8 F,2,116976,117276,1,0 P,0,116976,117276,A C,0,116976,,222,58,63
Sprite,Foreground,Centre,"sb/glow.png",0,0 S,2,117155,117633,4,0.8 F,2,117155,117633,1,0 P,0,117155,117633,A C,0,117155,,222,58,63 M,0,117155,117244,232,332,257.3369,309.0895 M,0,117244,117333,257.3369,309.0895,291.2251,304.881
Sprite,Foreground,Centre,"sb/glow.png",0,0 S,2,117512,117990,4,0.8 F,2,117512,117990,1,0 P,0,117512,117990,A C,0,117512,,222,58,63 M,0,117512,117601,364,360,389.3369,382.9105 M,0,117601,117690,389.3369,382.9105,423.2251,387.119
Sprite,Foreground,Centre,"sb/glow.png",0,0 S,2,117869,118347,4,0.8 F,2,117869,118347,1,0 P,0,117869,118347,A C,0,117869,,192,50,64 M,0,117869,117958,508,356,498.1242,322.4222 M,0,117958,118047,498.1242,322.4222,488.2484,288.8444
Sprite,Foreground,Centre,"sb/glow.png",0,0 S,2,118137,118615,4,0.8 F,2,118137,118615,1,0 P,0,118137,118615,A C,0,118137,,192,50,64 M,0,118137,118226,464,248,473.8758,214.4222 M,0,118226,118315,473.8758,214.4222,483.7516,180.8444
Sprite,Foreground,Centre,"sb/glow.png",500,140 S,2,118405,118705,4,0.8 F,2,118405,118705,1,0 P,0,118405,118705,A C,0,118405,,192,50,64
Sprite,Foreground,Centre,"sb/glow.png",0,0 S,2,118584,119062,4,0.8 F,2,118584,119062,1,0 P,0,118584,119062,A C,0,118584,,192,50,64 M,0,118584,118673,440,72,406.2769,81.36754 M,0,118673,118762,406.2769,81.36754,372.5537,90.73507
Sprite,Foreground,Centre,"sb/glow.png",316,164 S,2,118941,119241,4,0.8 F,2,118941,119241,1,0 P,0,118941,119241,A C,0,118941,,192,50,64
Sprite,Foreground,Centre,"sb/glow.png",316,164 S,2,119119,119419,4,0.8 F,2,119119,119419,1,0 P,0,119119,119419,A C,0,119119,,192,50,64
Sprite,Foreground,Centre,"sb/glow.png",0,0 S,2,119298,119776,4,0.8 F,2,119298,119776,1,0 P,0,119298,119776,A C,0,119298,,112,135,158 M,0,119298,119387,256,96,224.8786,81.44644 M,0,119387,119476,224.8786,81.44644,191.1057,87.00674
Sprite,Foreground,Centre,"sb/glow.png",0,0 S,2,119566,120044,4,0.8 F,2,119566,120044,1,0 P,0,119566,120044,A C,0,119566,,112,135,158 M,0,119566,119655,152,108,137.6853,139.094 M,0,119655,119744,137.6853,139.094,143.4719,172.6121
Sprite,Foreground,Centre,"sb/glow.png",168,212 S,2,119834,120134,4,0.8 F,2,119834,120134,1,0 P,0,119834,120134,A C,0,119834,,112,135,158
Sprite,Foreground,Centre,"sb/glow.png",160,304 S,2,120012,120312,4,0.8 F,2,120012,120312,1,0 P,0,120012,120312,A C,0,120012,,112,135,158
Sprite,Foreground,Centre,"sb/glow.png",160,304 S,2,120191,120491,4,0.8 F,2,120191,120491,1,0 P,0,120191,120491,A C,0,120191,,112,135,158
Sprite,Foreground,Centre,"sb/glow.png",0,0 S,2,120369,120847,4,0.8 F,2,120369,120847,1,0 P,0,120369,120847,A C,0,120369,,112,135,158 M,0,120369,120458,236,352,269.7231,342.6325 M,0,120458,120547,269.7231,342.6325,303.4463,333.2649
Sprite,Foreground,Centre,"sb/glow.png",0,0 S,2,120726,121204,4,0.8 F,2,120726,121204,1,0 P,0,120726,121204,A C,0,120726,,112,145,169 M,0,120726,120815,372,272,402.5779,256.4787 M,0,120815,120904,402.5779,256.4787,436.3979,262.0815
Sprite,Foreground,Centre,"sb/glow.png",0,0 S,2,120994,121472,4,0.8 F,2,120994,121472,1,0 P,0,120994,121472,A C,0,120994,,112,145,169 M,0,120994,121083,472,292,487.5213,322.5779 M,0,121083,121172,487.5213,322.5779,481.9185,356.3979
Sprite,Foreground,Centre,"sb/glow.png",452,392 S,2,121262,121562,4,0.8 F,2,121262,121562,1,0 P,0,121262,121562,A C,0,121262,,112,145,169
Sprite,Foreground,Centre,"sb/glow.png",0,0 S,2,121441,121919,4,0.8 F,2,121441,121919,1,0 P,0,121441,121919,A C,0,121441,,112,145,169 M,0,121441,121530,368,428,333.9304,419.9836 M,0,121530,121619,333.9304,419.9836,300,412
Sprite,Foreground,Centre,"sb/glow.png",224,372 S,2,121798,122098,4,0.8 F,2,121798,122098,1,0 P,0,121798,122098,A C,0,121798,,112,145,169
Sprite,Foreground,Centre,"sb/glow.png",224,372 S,2,121976,122276,4,0.8 F,2,121976,122276,1,0 P,0,121976,122276,A C,0,121976,,112,145,169
Sprite,Foreground,Centre,"sb/glow.png",0,0 S,2,122155,122633,4,0.8 F,2,122155,122633,1,0 P,0,122155,122633,A C,0,122155,,20,109,143 M,0,122155,122244,136,392,144.0164,357.9304 M,0,122244,122333,144.0164,357.9304,152,324
Sprite,Foreground,Centre,"sb/glow.png",0,0 S,2,122512,122990,4,0.8 F,2,122512,122990,1,0 P,0,122512,122990,A C,0,122512,,20,109,143 M,0,122512,122601,160,232,151.9836,197.9304 M,0,122601,122690,151.9836,197.9304,144,164
Sprite,Foreground,Centre,"sb/glow.png",192,88 S,2,122869,123169,4,0.8 F,2,122869,123169,1,0 P,0,122869,123169,A C,0,122869,,20,109,143
Sprite,Foreground,Centre,"sb/glow.png",192,88 S,2,123048,123348,4,0.8 F,2,123048,123348,1,0 P,0,123048,123348,A C,0,123048,,20,109,143
Sprite,Foreground,Centre,"sb/glow.png",0,0 S,2,123226,123704,4,0.8 F,2,123226,123704,1,0 P,0,123226,123704,A C,0,123226,,20,109,143 M,0,123226,123315,264,140,296.862,148.1729 M,0,123315,123404,296.862,148.1729,325.3523,130.2886
Sprite,Foreground,Centre,"sb/glow.png",0,0 S,2,123584,124151,4,0.8 F,2,123584,124151,1,0 P,0,123584,124151,A C,0,123584,,14,130,146 M,0,123584,123673,400,80,433.5488,73.52304 M,0,123673,123762,433.5488,73.52304,463.2786,90.05179 M,0,123762,123851,463.2786,90.05179,475.8755,121.7429
Sprite,Foreground,Centre,"sb/glow.png",496,168 S,2,123941,124241,4,0.8 F,2,123941,124241,1,0 P,0,123941,124241,A C,0,123941,,14,130,146
Sprite,Foreground,Centre,"sb/glow.png",496,168 S,2,124119,124419,4,0.8 F,2,124119,124419,1,0 P,0,124119,124419,A C,0,124119,,14,130,146
Sprite,Foreground,Centre,"sb/glow.png",0,0 S,2,124298,124776,4,0.8 F,2,124298,124776,1,0 P,0,124298,124776,A C,0,124298,,14,130,146 M,0,124298,124387,484,260,449.9518,268.1067 M,0,124387,124476,449.9518,268.1067,415.9036,276.2134
Sprite,Foreground,Centre,"sb/glow.png",0,0 S,2,124566,125044,4,0.8 F,2,124566,125044,1,0 P,0,124566,125044,A C,0,124566,,14,130,146 M,0,124566,124655,380,304,345.8624,311.7216 M,0,124655,124744,345.8624,311.7216,311.7248,319.4432
Sprite,Foreground,Centre,"sb/glow.png",276,348 S,2,124834,125134,4,0.8 F,2,124834,125134,1,0 P,0,124834,125134,A C,0,124834,,14,130,146
Sprite,Foreground,Centre,"sb/glow.png",0,0 S,2,125012,125579,4,0.8 F,2,125012,125579,1,0 P,0,125012,125579,A C,0,125012,,10,173,177 M,0,125012,125101,188,332,155.5046,341.719 M,0,125101,125190,155.5046,341.719,133.7573,369.0604 M,0,125190,125279,133.7573,369.0604,101.753,380.0996
Sprite,Foreground,Centre,"sb/glow.png",0,0 S,2,125369,125847,4,0.8 F,2,125369,125847,1,0 P,0,125369,125847,A C,0,125369,,10,173,177 M,0,125369,125458,72,344,56.08175,313.5974 M,0,125458,125547,56.08175,313.5974,63,280
Sprite,Foreground,Centre,"sb/glow.png",136,224 S,2,125726,126026,4,0.8 F,2,125726,126026,1,0 P,0,125726,126026,A C,0,125726,,10,173,177
Sprite,Foreground,Centre,"sb/glow.png",136,224 S,2,125905,126205,4,0.8 F,2,125905,126205,1,0 P,0,125905,126205,A C,0,125905,,10,173,177
Sprite,Foreground,Centre,"sb/glow.png",0,0 S,2,126084,126562,4,0.8 F,2,126084,126562,1,0 P,0,126084,126562,A C,0,126084,,10,173,177 M,0,126084,126173,100,140,133.7231,130.6325 M,0,126173,126262,133.7231,130.6325,167.4463,121.2649
Sprite,Foreground,Centre,"sb/glow.png",0,0 S,2,126441,126919,4,0.8 F,2,126441,126919,1,0 P,0,126441,126919,A C,0,126441,,57,185,196 M,0,126441,126530,288,84,322.229,83.43721 M,0,126530,126619,322.229,83.43721,348.6323,105.207
Sprite,Foreground,Centre,"sb/glow.png",0,0 S,2,126709,127187,4,0.8 F,2,126709,127187,1,0 P,0,126709,127187,A C,0,126709,,57,185,196 M,0,126709,126798,368,148,402.229,148.5628 M,0,126798,126887,402.229,148.5628,428.6323,126.793
Sprite,Foreground,Centre,"sb/glow.png",456,92 S,2,126976,127276,4,0.8 F,2,126976,127276,1,0 P,0,126976,127276,A C,0,126976,,57,185,196
Sprite,Foreground,Centre,"sb/glow.png",0,0 S,2,127155,127633,4,0.8 F,2,127155,127633,1,0 P,0,127155,127633,A C,0,127155,,57,185,196 M,0,127155,127244,544,68,553.8759,101.5778 M,0,127244,127333,553.8759,101.5778,563.7516,135.1556
Sprite,Foreground,Centre,"sb/glow.png",536,224 S,2,127512,127812,4,0.8 F,2,127512,127812,1,0 P,0,127512,127812,A C,0,127512,,57,185,196
Sprite,Foreground,Centre,"sb/glow.png",536,224 S,2,127691,127991,4,0.8 F,2,127691,127991,1,0 P,0,127691,127991,A C,0,127691,,57,185,196
Sprite,Foreground,Centre,"sb/glow.png",0,0 S,2,127869,128347,4,0.8 F,2,127869,128347,1,0 P,0,127869,128347,A C,0,127869,,222,58,63 M,0,127869,127958,484,300,450.2333,309.2091 M,0,127958,128047,450.2333,309.2091,416.4665,318.4182
Sprite,Foreground,Centre,"sb/glow.png",336,292 S,2,128226,128526,4,0.8 F,2,128226,128526,1,0 P,0,128226,128526,A C,0,128226,,222,58,63
Sprite,Foreground,Centre,"sb/glow.png",0,0 S,2,128584,129062,4,0.8 F,2,128584,129062,1,0 P,0,128584,129062,A C,0,128584,,222,58,63 M,0,128584,128673,176,380,142.0323,384.3133 M,0,128673,128762,142.0323,384.3133,111.289,369.2496
Sprite,Foreground,Centre,"sb/glow.png",0,0 S,2,128941,129419,4,0.8 F,2,128941,129419,1,0 P,0,128941,129419,A C,0,128941,,222,58,63 M,0,128941,129030,80,284,74.68808,250.2422 M,0,129030,129119,74.68808,250.2422,89.56903,219.489
Sprite,Foreground,Centre,"sb/glow.png",0,0 S,2,129298,129776,4,0.8 F,2,129298,129776,1,0 P,0,129298,129776,A C,0,129298,,192,50,64 M,0,129298,129387,168,172,201.8476,163.0927 M,0,129387,129476,201.8476,163.0927,235.6952,154.1855
Sprite,Foreground,Centre,"sb/glow.png",0,0 S,2,129566,130044,4,0.8 F,2,129566,130044,1,0 P,0,129566,130044,A C,0,129566,,192,50,64 M,0,129566,129655,268,124,301.955,132.4887 M,0,129655,129744,301.955,132.4887,335.91,140.9775
Sprite,Foreground,Centre,"sb/glow.png",380,152 S,2,129834,130134,4,0.8 F,2,129834,130134,1,0 P,0,129834,130134,A C,0,129834,,192,50,64
Sprite,Foreground,Centre,"sb/glow.png",0,0 S,2,130012,130490,4,0.8 F,2,130012,130490,1,0 P,0,130012,130490,A C,0,130012,,192,50,64 M,0,130012,130101,464,184,482.4881,212.9265 M,0,130101,130190,482.4881,212.9265,482.6981,247.0668
Sprite,Foreground,Centre,"sb/glow.png",444,332 S,2,130369,130669,4,0.8 F,2,130369,130669,1,0 P,0,130369,130669,A C,0,130369,,192,50,64
Sprite,Foreground,Centre,"sb/glow.png",444,332 S,2,130548,130848,4,0.8 F,2,130548,130848,1,0 P,0,130548,130848,A C,0,130548,,192,50,64
Sprite,Foreground,Centre,"sb/glow.png",0,0 S,2,130726,131204,4,0.8 F,2,130726,131204,1,0 P,0,130726,131204,A C,0,130726,,112,135,158 M,0,130726,130815,376,392,342.9953,380.3513 M,0,130815,130904,342.9953,380.3513,309.9907,368.7026
Sprite,Foreground,Centre,"sb/glow.png",0,0 S,2,130994,131472,4,0.8 F,2,130994,131472,1,0 P,0,130994,131472,A C,0,130994,,112,135,158 M,0,130994,131083,276,336,242.9953,347.6487 M,0,131083,131172,242.9953,347.6487,209.9907,359.2974
Sprite,Foreground,Centre,"sb/glow.png",168,380 S,2,131262,131562,4,0.8 F,2,131262,131562,1,0 P,0,131262,131562,A C,0,131262,,112,135,158
Sprite,Foreground,Centre,"sb/glow.png",84,360 S,2,131441,131741,4,0.8 F,2,131441,131741,1,0 P,0,131441,131741,A C,0,131441,,112,135,158
Sprite,Foreground,Centre,"sb/glow.png",84,360 S,2,131619,131919,4,0.8 F,2,131619,131919,1,0 P,0,131619,131919,A C,0,131619,,112,135,158
Sprite,Foreground,Centre,"sb/glow.png",0,0 S,2,131798,132276,4,0.8 F,2,131798,132276,1,0 P,0,131798,132276,A C,0,131798,,112,135,158 M,0,131798,131887,68,272,75.21037,237.7508 M,0,131887,131976,75.21037,237.7508,82.42073,203.5015
Sprite,Foreground,Centre,"sb/glow.png",0,0 S,2,132155,132633,4,0.8 F,2,132155,132633,1,0 P,0,132155,132633,A C,0,132155,,112,145,169 M,0,132155,132244,132,128,166.1386,124.6858 M,0,132244,132333,166.1386,124.6858,195.4656,142.2109
Sprite,Foreground,Centre,"sb/glow.png",0,0 S,2,132423,132901,4,0.8 F,2,132423,132901,1,0 P,0,132423,132901,A C,0,132423,,112,145,169 M,0,132423,132512,216,184,249.6686,190.6109 M,0,132512,132601,249.6686,190.6109,280.6118,176.0862
Sprite,Foreground,Centre,"sb/glow.png",312,144 S,2,132691,132991,4,0.8 F,2,132691,132991,1,0 P,0,132691,132991,A C,0,132691,,112,145,169
Sprite,Foreground,Centre,"sb/glow.png",0,0 S,2,132869,133347,4,0.8 F,2,132869,133347,1,0 P,0,132869,133347,A C,0,132869,,112,145,169 M,0,132869,132958,388,96,416.6487,77.46258 M,0,132958,133047,416.6487,77.46258,450.2941,82.01685
Sprite,Foreground,Centre,"sb/glow.png",524,148 S,2,133226,133526,4,0.8 F,2,133226,133526,1,0 P,0,133226,133526,A C,0,133226,,112,145,169
Sprite,Foreground,Centre,"sb/glow.png",524,148 S,2,133405,133705,4,0.8 F,2,133405,133705,1,0 P,0,133405,133705,A C,0,133405,,112,145,169
Sprite,Foreground,Centre,"sb/glow.png",0,0 S,2,133584,134062,4,0.8 F,2,133584,134062,1,0 P,0,133584,134062,A C,0,133584,,20,109,143 M,0,133584,133673,532,240,521.4604,273.3754 M,0,133673,133762,521.4604,273.3754,510.9208,306.7508
Sprite,Foreground,Centre,"sb/glow.png",0,0 S,2,133941,134419,4,0.8 F,2,133941,134419,1,0 P,0,133941,134419,A C,0,133941,,20,109,143 M,0,133941,134030,440,364,407.6363,350.6738 M,0,134030,134119,407.6363,350.6738,375.2725,337.3475
Sprite,Foreground,Centre,"sb/glow.png",308,284 S,2,134298,134598,4,0.8 F,2,134298,134598,1,0 P,0,134298,134598,A C,0,134298,,20,109,143
Sprite,Foreground,Centre,"sb/glow.png",308,284 S,2,134476,134776,4,0.8 F,2,134476,134776,1,0 P,0,134476,134776,A C,0,134476,,20,109,143
Sprite,Foreground,Centre,"sb/glow.png",0,0 S,2,134655,135133,4,0.8 F,2,134655,135133,1,0 P,0,134655,135133,A C,0,134655,,20,109,143 M,0,134655,134744,236,228,203.6363,241.3262 M,0,134744,134833,203.6363,241.3262,171.2725,254.6525
Sprite,Foreground,Centre,"sb/glow.png",0,0 S,2,135012,135579,4,0.8 F,2,135012,135579,1,0 P,0,135012,135579,A C,0,135012,,14,130,146 M,0,135012,135101,92,304,73.20936,333.5281 M,0,135101,135190,73.20936,333.5281,74.70782,362.2771 M,0,135190,135279,74.70782,362.2771,95.70782,390.2771
Sprite,Foreground,Centre,"sb/glow.png",132,428 S,2,135369,135669,4,0.8 F,2,135369,135669,1,0 P,0,135369,135669,A C,0,135369,,14,130,146
Sprite,Foreground,Centre,"sb/glow.png",132,428 S,2,135548,135848,4,0.8 F,2,135548,135848,1,0 P,0,135548,135848,A C,0,135548,,14,130,146
Sprite,Foreground,Centre,"sb/glow.png",0,0 S,2,135726,136204,4,0.8 F,2,135726,136204,1,0 P,0,135726,136204,A C,0,135726,,14,130,146 M,0,135726,135815,224,412,258.0482,403.8933 M,0,135815,135904,258.0482,403.8933,292.0964,395.7866
Sprite,Foreground,Centre,"sb/glow.png",0,0 S,2,135994,136472,4,0.8 F,2,135994,136472,1,0 P,0,135994,136472,A C,0,135994,,14,130,146 M,0,135994,136083,324,364,358.0482,355.8933 M,0,136083,136172,358.0482,355.8933,392.0964,347.7866
Sprite,Foreground,Centre,"sb/glow.png",432,324 S,2,136262,136562,4,0.8 F,2,136262,136562,1,0 P,0,136262,136562,A C,0,136262,,14,130,146
Sprite,Foreground,Centre,"sb/glow.png",0,0 S,2,136441,137008,4,0.8 F,2,136441,137008,1,0 P,0,136441,137008,A C,0,136441,,10,173,177 M,0,136441,136530,516,356,509.9533,322.2285 M,0,136530,136619,509.9533,322.2285,521.8268,289.3777 M,0,136619,136708,521.8268,289.3777,517.4191,255.2454
Sprite,Foreground,Centre,"sb/glow.png",0,0 S,2,136798,137276,4,0.8 F,2,136798,137276,1,0 P,0,136798,137276,A C,0,136798,,10,173,177 M,0,136798,136887,496,216,468.847,195.1751 M,0,136887,136976,468.847,195.1751,434.6277,195.1447
Sprite,Foreground,Centre,"sb/glow.png",360,244 S,2,137155,137455,4,0.8 F,2,137155,137455,1,0 P,0,137155,137455,A C,0,137155,,10,173,177
Sprite,Foreground,Centre,"sb/glow.png",360,244 S,2,137334,137634,4,0.8 F,2,137334,137634,1,0 P,0,137334,137634,A C,0,137334,,10,173,177
Sprite,Foreground,Centre,"sb/glow.png",0,0 S,2,137512,137990,4,0.8 F,2,137512,137990,1,0 P,0,137512,137990,A C,0,137512,,10,173,177 M,0,137512,137601,292,304,264.8469,324.8249 M,0,137601,137690,264.8469,324.8249,230.6277,324.8553
//Storyboard Sound Samples

[TimingPoints]
12,714.285714285714,4,2,1,40,1,0
727,714.285714285714,4,2,1,50,1,0
727,-55.5555555555556,4,2,1,50,0,0
11441,-55.5555555555556,4,2,3,50,0,0
12155,-62.5,4,2,1,45,0,0
23584,-55.5555555555556,4,2,1,55,0,0
35012,-55.5555555555556,4,2,1,60,0,0
54655,-55.5555555555556,4,2,1,40,0,0
55012,-90.9090909090909,4,2,1,30,0,0
57155,-90.9090909090909,4,2,2,40,0,0
57334,-90.9090909090909,4,2,1,40,0,0
57512,-90.9090909090909,4,2,1,40,0,0
57869,-50,4,2,1,70,0,1
80726,-50,4,2,1,40,0,0
103584,-62.5,4,2,1,40,0,0
112155,-62.5,4,2,3,25,0,0
113584,-62.5,4,2,1,40,0,0
115012,-50,4,2,1,70,0,1
137869,-50,4,2,4,60,0,0

[Colours]
Combo1 : 222,58,63
Combo2 : 192,50,64
Combo3 : 112,135,158
Combo4 : 112,145,169
Combo5 : 20,109,143
Combo6 : 14,130,146
Combo7 : 10,173,177
Combo8 : 57,185,196

[HitObjects]
60,80,12,5,8,0:0:0:0:
60,80,190,1,8,0:0:0:0:
108,140,369,1,0,1:0:0:0:
232,32,727,6,0,P|260:12|300:16,1,63,4|0,1:2|2:0,2:0:0:0:
336,80,1084,2,0,P|364:100|404:96,1,63,2|0,0:0|2:0,2:0:0:0:
464,60,1441,1,8,0:0:0:0:
464,60,1619,2,0,L|492:196,1,126,2|0,0:0|1:2,2:0:0:0:
440,248,2155,6,0,L|424:312,1,63,2|0,1:2|2:0,2:0:0:0:
484,364,2512,1,0,1:0:0:0:
352,264,2869,2,0,P|320:264|292:280,1,63,10|0,0:0|2:0,2:0:0:0:
244,344,3226,2,0,B|180:356|200:280|140:292,1,126,2|0,0:0|1:2,2:0:0:0:
4,380,3941,6,0,L|20:312,1,63,2|0,0:0|2:0,2:0:0:0:
64,252,4298,1,8,0:0:0:0:
64,252,4476,2,0,L|48:184,1,63,2|0,0:0|2:0,2:0:0:0:
28,116,4834,5,0,1:2:0:0:
28,116,5012,2,0,P|64:64|124:68,1,126,2|0,1:2|1:2,2:0:0:0:
228,188,5726,1,8,0:0:0:0:
228,188,5905,1,0,1:0:0:0:
284,248,6084,2,0,L|352:228,1,63,4|0,1:3|2:0,2:0:0:0:
444,184,6441,6,0,P|447:153|427:129,1,63,0|0,1:0|2:0,2:0:0:0:
465,56,6798,2,0,P|439:38|408:43,1,63,2|0,0:0|2:0,2:0:0:0:
349,100,7155,1,8,0:0:0:0:
349,100,7334,2,0,B|285:112|305:36|245:48,1,126,2|0,0:0|1:2,2:0:0:0:
180,96,7869,6,0,L|112:80,1,63,2|0,1:2|2:0,2:0:0:0:
52,36,8226,1,0,1:0:0:0:
108,196,8584,1,10,0:0:0:0:
108,196,8762,1,0,1:0:0:0:
60,264,8941,2,0,P|119:279|184:296,1,126,2|0,1:2|1:0,2:0:0:0:
332,360,9655,6,0,L|404:340,1,63,2|0,0:0|2:0,2:0:0:0:
444,280,10012,1,8,0:0:0:0:
444,280,10191,2,0,L|428:216,1,63,2|0,0:0|2:0,2:0:0:0:
408,140,10548,5,0,1:2:0:0:
408,140,10726,2,0,B|344:128|364:204|304:192,1,126,2|0,1:2|1:0,2:0:0:0:
188,84,11441,1,10,3:2:0:0:
188,84,11619,1,8,3:0:0:0:
128,140,11798,2,0,L|144:208,1,63,12|0,3:0|2:0,2:0:0:0:
240,256,12155,6,0,P|268:304|232:360,1,112,2|2,1:2|0:0,2:0:0:0:
168,364,12691,1,2,0:0:0:0:
168,364,12869,2,0,L|104:344,1,56,10|0,0:0|2:0,2:0:0:0:
56,292,13226,2,0,L|76:228,1,56,2|0,0:0|1:0,2:0:0:0:
136,192,13584,5,0,1:0:0:0:
28,80,13941,1,4,1:3:0:0:
172,20,14298,2,0,P|204:20|228:40,1,56,8|0,0:0|2:0,2:0:0:0:
276,92,14655,2,0,P|308:92|332:72,1,56,4|0,0:3|2:0,2:0:0:0:
396,40,15012,6,0,B|428:68|428:68|404:136,1,112,2|0,1:2|2:0,2:0:0:0:
352,192,15548,1,2,0:0:0:0:
352,192,15726,2,0,L|368:248,1,56,10|0,0:0|2:0,2:0:0:0:
432,292,16084,2,0,L|416:348,1,56,2|0,0:0|1:0,2:0:0:0:
344,372,16441,6,0,B|288:376|304:320|244:324,1,112,2|0,1:2|1:0,2:0:0:0:
96,360,17155,2,0,L|112:300,1,56,10|0,0:0|1:0,2:0:0:0:
160,244,17512,1,2,1:2:0:0:
296,164,17869,6,0,B|268:108|320:108|296:56,1,112,2|0,1:2|2:0,2:0:0:0:
232,20,18405,1,2,0:0:0:0:
232,20,18584,2,0,L|176:40,1,56,10|0,0:0|2:0,2:0:0:0:
132,104,18941,2,0,L|79:85,1,56,2|0,0:0|1:0,2:0:0:0:
20,36,19298,5,0,1:0:0:0:
80,180,19655,1,4,1:3:0:0:
12,320,20012,2,0,L|72:340,1,56,8|0,0:0|1:0,2:0:0:0:
124,284,20369,2,0,L|184:264,1,56,4|2,1:3|0:0,2:0:0:0:
240,312,20726,6,0,B|296:324|280:252|340:264,1,112,2|0,1:2|2:0,2:0:0:0:
412,288,21262,1,2,0:0:0:0:
412,288,21441,2,0,P|424:260|416:228,1,56,10|0,0:0|2:0,2:0:0:0:
368,176,21798,2,0,P|356:148|364:116,1,56,2|2,0:0|1:2,2:0:0:0:
400,56,22155,6,0,P|349:42|292:28,1,112,2|0,1:2|1:0,2:0:0:0:
184,144,22869,2,0,L|120:128,1,56,10|8,0:0|0:0,2:0:0:0:
56,156,23226,1,0,2:0:0:0:
176,44,23584,6,0,B|240:28|216:112|286:96,1,126,2|2,1:2|0:0,2:0:0:0:
352,64,24119,1,2,0:0:0:0:
352,64,24298,2,0,L|368:128,1,63,10|0,0:0|2:0,2:0:0:0:
424,184,24655,2,0,L|408:248,1,63,2|0,0:0|1:0,2:0:0:0:
368,316,25012,6,0,P|330:318|304:292,1,63,0|0,1:0|2:0,2:0:0:0:
256,244,25369,1,4,1:3:0:0:
164,108,25726,2,0,P|126:106|100:132,1,63,8|0,0:0|2:0,2:0:0:0:
52,180,26084,2,0,P|50:217|76:244,1,63,4|0,0:3|2:0,2:0:0:0:
116,300,26441,6,0,P|174:312|240:328,1,126,2|0,1:2|2:0,2:0:0:0:
312,364,26976,1,2,0:0:0:0:
312,364,27155,2,0,L|380:344,1,63,10|0,0:0|2:0,2:0:0:0:
428,288,27512,2,0,L|408:224,1,63,0|2,2:0|1:2,2:0:0:0:
436,148,27869,6,0,B|384:116|384:116|346:168,1,126,2|0,1:2|1:2,2:0:0:0:
252,304,28584,2,0,L|184:284,1,63,10|0,0:0|1:2,2:0:0:0:
136,236,28941,1,0,1:2:0:0:
136,236,29119,1,2,0:0:0:0:
95,164,29298,6,0,P|126:111|186:110,1,126,2|2,1:2|0:0,2:0:0:0:
252,160,29834,1,2,0:0:0:0:
252,160,30012,2,0,P|280:180|316:176,1,63,10|0,0:0|2:0,2:0:0:0:
368,124,30369,2,0,P|396:104|432:108,1,63,2|0,0:0|1:0,2:0:0:0:
488,156,30726,6,0,L|472:228,1,63,0|0,1:0|2:0,2:0:0:0:
452,296,31084,1,4,1:3:0:0:
304,364,31441,2,0,L|240:344,1,63,8|0,0:0|1:0,2:0:0:0:
188,284,31798,2,0,L|127:302,1,63,4|2,1:3|0:0,2:0:0:0:
56,340,32155,6,0,B|24:276|84:276|56:210,1,126,2|0,1:2|2:0,2:0:0:0:
32,140,32691,1,2,0:0:0:0:
32,140,32869,2,0,P|48:116|88:108,1,63,10|0,0:0|2:0,2:0:0:0:
96,24,33226,2,0,P|124:25|151:56,1,63,0|2,2:0|1:2,2:0:0:0:
168,128,33584,6,0,L|228:108,1,63,2|0,1:2|2:0,2:0:0:0:
292,56,33941,2,0,L|352:76,1,63,0|2,1:0|0:0,2:0:0:0:
412,132,34298,1,8,0:0:0:0:
412,132,34476,1,8,0:0:0:0:
460,196,34655,2,0,L|440:264,1,63,2|0,0:0|2:0,2:0:0:0:
368,339,35012,6,0,P|343:358|312:357,1,63,4|2,1:2|0:0,2:0:0:0:
252,300,35369,2,0,P|227:281|196:282,1,63,2|2,0:0|0:0,2:0:0:0:
124,324,35726,2,0,L|104:260,1,63,10|2,0:0|0:0,2:0:0:0:
48,204,36084,1,2,0:0:0:0:
48,204,36262,1,2,1:2:0:0:
100,140,36441,6,0,B|164:120|148:196|212:176,1,126,2|0,1:2|1:0,2:0:0:0:
368,136,37155,2,0,L|388:204,1,63,10|0,0:0|2:0,2:0:0:0:
456,236,37512,2,0,L|473:175,1,63,2|0,0:0|2:0,2:0:0:0:
496,96,37869,6,0,P|472:68|444:60,1,63,2|2,1:2|0:0,2:0:0:0:
384,8,38226,2,0,P|347:14|326:35,1,63,2|2,0:0|0:0,2:0:0:0:
276,96,38584,2,0,P|219:83|144:68,1,126,10|2,0:0|0:0,2:0:0:0:
76,80,39119,5,2,1:2:0:0:
76,80,39298,2,0,L|92:144,1,63,2|0,1:2|2:0,2:0:0:0:
152,196,39655,2,0,L|136:260,1,63,0|0,1:0|2:0,2:0:0:0:
72,308,40012,1,10,0:0:0:0:
72,308,40191,1,0,1:2:0:0:
140,356,40369,1,2,1:2:0:0:
268,252,40726,6,0,B|340:236|312:304|384:288,1,126,2|2,1:2|0:0,2:0:0:0:
448,248,41262,1,2,0:0:0:0:
448,248,41441,2,0,P|464:216|448:180,1,63,10|2,0:0|0:0,2:0:0:0:
416,120,41798,1,2,0:0:0:0:
416,120,41976,1,2,1:2:0:0:
352,68,42155,6,0,L|292:88,1,63,2|0,1:2|2:0,2:0:0:0:
224,132,42512,2,0,L|164:112,1,63,2|0,1:2|2:0,2:0:0:0:
88,80,42869,1,10,0:0:0:0:
88,80,43048,1,0,1:2:0:0:
28,136,43226,1,2,1:2:0:0:
144,252,43584,6,0,B|196:288|196:288|244:236,1,126,2|2,1:2|0:0,2:0:0:0:
284,172,44119,1,2,0:0:0:0:
284,172,44298,2,0,P|312:148|340:148,1,63,10|2,0:0|0:0,2:0:0:0:
408,184,44655,2,0,P|432:212|432:240,1,63,2|2,0:0|1:2,2:0:0:0:
416,316,45012,6,0,L|352:336,1,63,2|0,1:2|2:0,2:0:0:0:
284,372,45369,2,0,L|223:353,1,63,2|0,1:2|2:0,2:0:0:0:
160,304,45726,1,8,0:0:0:0:
160,304,45905,1,8,0:0:0:0:
92,352,46084,1,4,0:3:0:0:
8,212,46441,6,0,P|0:184|8:152,1,63,0|2,1:0|0:0,2:0:0:0:
68,96,46798,2,0,P|96:88|128:96,1,63,2|2,0:0|0:0,2:0:0:0:
200,136,47155,2,0,L|260:119,1,63,10|2,0:0|0:0,2:0:0:0:
336,84,47512,1,2,0:0:0:0:
336,84,47691,1,2,1:2:0:0:
404,128,47869,6,0,B|440:160|440:160|408:236,1,126,2|0,1:2|1:2,2:0:0:0:
312,364,48584,2,0,L|248:344,1,63,10|0,0:0|2:0,2:0:0:0:
196,284,48941,2,0,L|136:304,1,63,2|0,0:0|2:0,2:0:0:0:
64,344,49298,6,0,L|44:280,1,63,2|2,1:2|0:0,2:0:0:0:
8,212,49655,2,0,L|28:148,1,63,2|2,0:0|0:0,2:0:0:0:
84,92,50012,2,0,B|148:72|132:148|196:128,1,126,10|2,0:0|0:0,2:0:0:0:
268,96,50548,5,2,1:2:0:0:
268,96,50726,2,0,P|292:76|328:76,1,63,2|0,1:2|2:0,2:0:0:0:
388,124,51084,2,0,P|408:148|408:184,1,63,0|0,1:0|2:0,2:0:0:0:
368,252,51441,1,10,0:0:0:0:
368,252,51619,1,0,1:2:0:0:
300,204,51798,1,2,1:2:0:0:
164,292,52155,6,0,P|178:226|192:164,1,126,2|2,1:2|0:0,2:0:0:0:
208,88,52691,1,2,0:0:0:0:
208,88,52869,2,0,L|144:72,1,63,10|2,0:0|0:0,2:0:0:0:
72,56,53226,1,2,0:0:0:0:
72,56,53405,1,2,1:2:0:0:
12,112,53584,6,0,P|4:144|16:176,1,63,2|0,1:2|2:0,2:0:0:0:
84,212,53941,2,0,P|92:244|80:276,1,63,2|0,1:2|2:0,2:0:0:0:
32,336,54298,1,10,0:0:0:0:
32,336,54476,1,0,1:2:0:0:
104,372,54655,1,2,1:2:0:0:
216,256,55012,22,0,B|176:268|136:220|164:128|256:108|364:196|264:268|348:336|420:288,1,385,2|2,0:0|0:0,2:0:0:0:
504,160,57155,1,10,0:0:0:0:
504,160,57334,1,8,0:0:0:0:
448,100,57512,1,0,1:2:0:0:
288,184,57869,6,0,L|220:164,1,70,6|0,1:2|2:0,2:0:0:0:
188,132,58137,2,0,L|120:152,1,70,2|0,2:0|2:0,2:0:0:0:
80,168,58405,1,2,0:0:0:0:
16,232,58584,2,0,P|3:264|15:297,1,70,10|0,0:0|2:0,2:0:0:0:
84,364,58941,1,2,0:0:0:0:
84,364,59119,1,0,1:0:0:0:
152,304,59298,6,0,P|192:300|224:324,1,70,0|0,1:0|2:0,2:0:0:0:
296,368,59655,1,4,0:3:0:0:
296,368,59834,1,0,2:0:0:0:
344,292,60012,2,0,L|324:224,1,70,8|0,0:0|2:0,2:0:0:0:
256,164,60369,2,0,L|276:96,1,70,4|0,0:3|2:0,2:0:0:0:
340,32,60726,6,0,P|368:12|404:16,1,70,2|0,1:2|2:0,2:0:0:0:
444,32,60994,2,0,L|460:108,1,70,2|0,0:0|2:0,2:0:0:0:
468,144,61262,1,2,0:0:0:0:
400,204,61441,2,0,L|416:280,1,70,10|0,0:0|2:0,2:0:0:0:
464,356,61798,1,2,0:0:0:0:
464,356,61976,1,0,1:0:0:0:
372,344,62155,6,0,L|304:364,1,70,2|0,1:2|2:0,2:0:0:0:
260,372,62423,2,0,L|192:352,1,70,2|0,0:0|0:0,2:0:0:0:
148,336,62691,1,2,0:0:0:0:
92,272,62869,1,10,0:0:0:0:
92,272,63048,1,0,1:0:0:0:
20,328,63226,2,0,L|0:256,1,70,2|0,1:2|2:0,2:0:0:0:
12,168,63584,6,0,P|36:144|76:144,1,70,2|0,1:2|2:0,2:0:0:0:
104,172,63851,2,0,P|128:196|162:198,1,70,2|0,0:0|2:0,2:0:0:0:
200,176,64119,1,2,0:0:0:0:
284,144,64298,2,0,L|356:168,1,70,10|0,0:0|2:0,2:0:0:0:
412,240,64655,1,2,0:0:0:0:
412,240,64834,1,0,1:0:0:0:
436,152,65012,6,0,P|444:112|428:84,1,70,0|0,1:0|2:0,2:0:0:0:
504,32,65369,2,0,P|473:5|441:4,1,70,4|0,0:3|2:0,2:0:0:0:
368,44,65726,1,8,0:0:0:0:
368,44,65905,1,0,1:0:0:0:
280,16,66084,2,0,L|208:36,1,70,0|2,1:0|0:0,2:0:0:0:
156,108,66441,6,0,B|104:112|120:56|68:60,1,105,2|2,1:2|0:0,2:0:0:0:
28,76,66798,1,0,2:0:0:0:
28,76,66976,1,2,0:0:0:0:
4,164,67155,2,0,L|24:248,1,70,10|0,0:0|2:0,2:0:0:0:
48,268,67423,2,0,L|68:352,1,70,2|0,0:0|2:0,2:0:0:0:
76,380,67691,1,2,1:2:0:0:
164,356,67869,6,0,P|217:357|248:312,1,105,2|2,1:2|0:0,2:0:0:0:
268,280,68226,2,0,P|305:279|332:304,1,70,0|2,1:0|0:0,2:0:0:0:
392,372,68584,1,10,0:0:0:0:
392,372,68762,1,8,0:0:0:0:
460,308,68941,2,0,L|440:240,1,70,0|2,2:0|0:0,2:0:0:0:
348,156,69298,6,0,P|312:156|284:184,1,70,2|0,1:2|2:0,2:0:0:0:
260,216,69566,2,0,P|233:237|199:237,1,70,2|0,2:0|2:0,2:0:0:0:
164,208,69834,1,2,0:0:0:0:
100,144,70012,2,0,L|120:76,1,70,10|0,0:0|2:0,2:0:0:0:
192,20,70369,1,2,0:0:0:0:
192,20,70548,1,0,1:0:0:0:
268,72,70726,6,0,P|308:76|340:44,1,70,0|0,1:0|2:0,2:0:0:0:
400,0,71084,1,4,0:3:0:0:
512,144,71441,2,0,L|492:212,1,70,8|0,0:0|2:0,2:0:0:0:
400,212,71798,2,0,L|420:280,1,70,4|0,0:3|2:0,2:0:0:0:
404,368,72155,6,0,L|328:348,1,70,2|0,1:2|2:0,2:0:0:0:
304,316,72423,2,0,L|236:333,1,70,2|0,0:0|2:0,2:0:0:0:
192,348,72691,1,2,0:0:0:0:
104,372,72869,2,0,P|64:364|48:340,1,70,10|0,0:0|2:0,2:0:0:0:
20,260,73226,1,0,2:0:0:0:
20,260,73405,1,2,1:2:0:0:
76,188,73584,6,0,L|144:168,1,70,2|0,1:2|2:0,2:0:0:0:
176,140,73851,2,0,L|244:160,1,70,2|0,0:0|0:0,2:0:0:0:
288,176,74119,1,2,0:0:0:0:
372,220,74298,1,10,0:0:0:0:
372,220,74476,1,0,1:2:0:0:
432,152,74655,2,0,P|450:122|441:89,1,70,0|2,1:2|0:0,2:0:0:0:
388,16,75012,6,0,P|348:12|312:44,1,70,2|0,1:2|2:0,2:0:0:0:
296,64,75280,2,0,P|256:68|220:36,1,70,2|0,2:0|2:0,2:0:0:0:
196,28,75548,1,2,0:0:0:0:
104,24,75726,2,0,L|80:100,1,70,10|0,0:0|2:0,2:0:0:0:
32,168,76084,1,2,0:0:0:0:
32,168,76262,1,0,1:0:0:0:
104,220,76441,6,0,L|180:244,1,70,0|0,1:0|2:0,2:0:0:0:
248,292,76798,2,0,L|314:270,1,70,4|0,0:3|2:0,2:0:0:0:
384,212,77155,1,8,0:0:0:0:
384,212,77334,1,0,1:0:0:0:
460,260,77512,2,0,L|478:192,1,70,0|2,1:0|0:0,2:0:0:0:
476,100,77869,6,0,P|452:52|396:52,1,105,2|2,1:2|0:0,2:0:0:0:
368,68,78226,1,0,2:0:0:0:
368,68,78405,1,2,0:0:0:0:
292,120,78584,2,0,L|208:100,1,70,10|0,0:0|2:0,2:0:0:0:
196,84,78851,2,0,L|112:64,1,70,2|0,0:0|2:0,2:0:0:0:
84,56,79119,1,2,1:2:0:0:
12,0,79298,6,0,P|-12:44|12:100,1,105,2|2,1:2|0:0,2:0:0:0:
44,120,79655,2,0,L|24:188,1,70,0|2,1:0|0:0,2:0:0:0:
32,284,80012,1,8,0:0:0:0:
32,284,80191,1,8,0:0:0:0:
88,356,80369,1,2,0:0:0:0:
208,280,80726,5,2,0:0:0:0:
208,280,103584,6,0,P|313:308|428:340,1,224,2|2,0:0|0:0,2:0:0:0:
504,204,104655,1,2,0:0:0:0:
504,204,105012,2,0,L|449:189,1,56,2|0,0:0|2:0,2:0:0:0:
392,136,105369,2,0,L|337:121,1,56,2|0,0:0|2:0,2:0:0:0:
288,60,105726,2,0,P|256:48|200:144,1,168,2|0,0:0|2:0,2:0:0:0:
192,220,106441,6,0,B|144:176|68:220|124:264|52:316|8:280,1,224,2|2,0:0|0:0,2:0:0:0:
20,124,107512,1,2,0:0:0:0:
20,124,107869,2,0,P|40:100|72:96,1,56,2|0,0:0|2:0,2:0:0:0:
92,20,108226,2,0,P|122:25|142:51,1,56,2|0,0:0|2:0,2:0:0:0:
156,120,108584,2,0,P|234:98|320:76,1,168,2|0,0:0|2:0,2:0:0:0:
380,24,109298,6,0,B|336:72|380:144|424:92|476:160|436:208,1,224,2|2,0:0|0:0,2:0:0:0:
360,340,110369,1,2,0:0:0:0:
360,340,110726,2,0,L|304:324,1,56,2|0,0:0|2:0,2:0:0:0:
248,272,111084,2,0,L|192:288,1,56,2|0,0:0|2:0,2:0:0:0:
128,328,111441,2,0,B|84:284|84:284|128:188,1,168,2|0,0:0|2:0,2:0:0:0:
168,120,112155,1,2,0:0:0:0:
168,120,113584,6,0,L|284:156,1,112,2|2,0:0|0:0,2:0:0:0:
404,244,114298,2,0,P|460:244|480:144,1,168,2|0,0:0|2:0,2:0:0:0:
404,56,115012,6,0,L|336:76,1,70,6|0,1:2|2:0,2:0:0:0:
300,104,115280,2,0,L|232:84,1,70,2|0,2:0|2:0,2:0:0:0:
192,64,115548,1,2,0:0:0:0:
108,28,115726,2,0,P|72:24|40:48,1,70,10|0,0:0|2:0,2:0:0:0:
20,132,116084,1,2,0:0:0:0:
20,132,116262,1,0,1:0:0:0:
16,224,116441,6,0,L|36:300,1,70,0|0,1:0|2:0,2:0:0:0:
112,348,116798,1,4,1:3:0:0:
112,348,116976,1,0,2:0:0:0:
168,276,117155,2,0,P|194:252|228:249,1,70,8|0,0:0|1:0,2:0:0:0:
300,304,117512,2,0,P|326:328|360:331,1,70,4|0,1:3|2:0,2:0:0:0:
444,300,117869,6,0,L|424:232,1,70,2|0,1:2|2:0,2:0:0:0:
400,192,118137,2,0,L|420:124,1,70,2|0,0:0|2:0,2:0:0:0:
436,84,118405,1,2,0:0:0:0:
376,16,118584,2,0,L|304:36,1,70,10|0,0:0|2:0,2:0:0:0:
252,108,118941,1,2,0:0:0:0:
252,108,119119,1,0,1:0:0:0:
192,40,119298,6,0,P|160:25|118:36,1,70,2|0,1:2|2:0,2:0:0:0:
88,52,119566,2,0,P|73:83|84:125,1,70,2|0,0:0|0:0,2:0:0:0:
104,156,119834,1,2,0:0:0:0:
96,248,120012,1,10,0:0:0:0:
96,248,120191,1,0,1:0:0:0:
172,296,120369,2,0,L|244:276,1,70,2|0,1:2|2:0,2:0:0:0:
308,216,120726,6,0,P|340:200|376:208,1,70,2|0,1:2|2:0,2:0:0:0:
408,236,120994,2,0,P|424:268|416:304,1,70,2|0,0:0|2:0,2:0:0:0:
388,336,121262,1,2,0:0:0:0:
304,372,121441,2,0,L|236:356,1,70,10|0,0:0|2:0,2:0:0:0:
160,316,121798,1,2,0:0:0:0:
160,316,121976,1,0,1:0:0:0:
72,336,122155,6,0,L|88:268,1,70,0|0,1:0|2:0,2:0:0:0:
96,176,122512,2,0,L|80:108,1,70,4|0,0:3|2:0,2:0:0:0:
128,32,122869,1,8,0:0:0:0:
128,32,123048,1,0,1:0:0:0:
200,84,123226,2,0,P|236:92|267:65,1,70,4|2,1:3|0:0,2:0:0:0:
336,24,123584,6,0,P|380:20|412:68,1,105,2|2,1:2|0:0,2:0:0:0:
432,112,123941,1,0,2:0:0:0:
432,112,124119,1,2,0:0:0:0:
420,204,124298,2,0,L|336:224,1,70,10|0,0:0|2:0,2:0:0:0:
316,248,124566,2,0,L|232:267,1,70,2|0,0:0|2:0,2:0:0:0:
212,292,124834,1,2,1:2:0:0:
124,276,125012,6,0,B|72:272|88:328|36:324,1,105,2|2,1:2|0:0,2:0:0:0:
8,288,125369,2,0,P|-8:257|-1:224,1,70,0|2,1:0|0:0,2:0:0:0:
72,168,125726,1,10,0:0:0:0:
72,168,125905,1,0,1:0:0:0:
36,84,126084,2,0,L|108:64,1,70,0|2,1:0|0:0,2:0:0:0:
224,28,126441,6,0,P|260:28|288:56,1,70,2|0,1:2|2:0,2:0:0:0:
304,92,126709,2,0,P|340:92|368:64,1,70,2|0,2:0|2:0,2:0:0:0:
392,36,126976,1,2,0:0:0:0:
480,12,127155,2,0,L|500:80,1,70,10|0,0:0|2:0,2:0:0:0:
472,168,127512,1,2,0:0:0:0:
472,168,127691,1,0,1:0:0:0:
420,244,127869,6,0,L|332:268,1,70,0|0,1:0|2:0,2:0:0:0:
272,236,128226,1,4,0:3:0:0:
112,324,128584,2,0,P|78:329|47:313,1,70,8|0,0:0|1:0,2:0:0:0:
16,228,128941,2,0,P|10:194|26:163,1,70,4|0,1:3|2:0,2:0:0:0:
104,116,129298,6,0,L|180:96,1,70,2|0,1:2|2:0,2:0:0:0:
204,68,129566,2,0,L|272:85,1,70,2|0,0:0|2:0,2:0:0:0:
316,96,129834,1,2,0:0:0:0:
400,128,130012,2,0,P|420:160|416:200,1,70,10|0,0:0|2:0,2:0:0:0:
380,276,130369,1,0,2:0:0:0:
380,276,130548,1,2,1:2:0:0:
312,336,130726,6,0,L|244:312,1,70,2|0,1:2|2:0,2:0:0:0:
212,280,130994,2,0,L|144:304,1,70,2|0,0:0|0:0,2:0:0:0:
104,324,131262,1,2,0:0:0:0:
20,304,131441,1,10,0:0:0:0:
20,304,131619,1,0,1:2:0:0:
4,216,131798,2,0,L|20:140,1,70,0|2,1:2|0:0,2:0:0:0:
68,72,132155,6,0,P|108:70|142:103,1,70,2|0,1:2|2:0,2:0:0:0:
152,128,132423,2,0,P|191:134|229:104,1,70,2|0,2:0|2:0,2:0:0:0:
248,88,132691,1,2,0:0:0:0:
324,40,132869,2,0,P|360:20|396:32,1,70,10|0,0:0|2:0,2:0:0:0:
460,92,133226,1,2,0:0:0:0:
460,92,133405,1,0,1:0:0:0:
468,184,133584,6,0,L|444:260,1,70,0|0,1:0|2:0,2:0:0:0:
376,308,133941,2,0,L|308:280,1,70,4|0,1:3|2:0,2:0:0:0:
244,228,134298,1,8,0:0:0:0:
244,228,134476,1,0,1:0:0:0:
172,172,134655,2,0,L|104:200,1,70,4|2,1:3|0:0,2:0:0:0:
28,248,135012,6,0,B|0:292|0:292|36:340,1,105,2|2,1:2|0:0,2:0:0:0:
68,372,135369,1,0,2:0:0:0:
68,372,135548,1,2,0:0:0:0:
160,356,135726,2,0,L|244:336,1,70,10|0,0:0|2:0,2:0:0:0:
260,308,135994,2,0,L|344:288,1,70,2|0,0:0|2:0,2:0:0:0:
368,268,136262,1,2,1:2:0:0:
452,300,136441,6,0,B|428:252|476:248|452:196,1,105,2|2,1:2|0:0,2:0:0:0:
432,160,136798,2,0,P|408:140|368:140,1,70,0|2,1:0|0:0,2:0:0:0:
296,188,137155,1,8,0:0:0:0:
296,188,137334,1,0,1:2:0:0:
228,248,137512,2,0,P|204:268|164:268,1,70,2|0,1:2|2:0,2:0:0:0:
108,216,137869,5,6,0:0:0:0:
