osu file format v14

[General]
AudioFilename: audio.mp3
AudioLeadIn: 0
PreviewTime:57066
Countdown: 0
SampleSet: Soft
StackLeniency: 0.3
Mode: 0
LetterboxInBreaks: 0
WidescreenStoryboard: 1

[Editor]
Bookmarks: 57869
DistanceSpacing: 0.8
BeatDivisor: 4
GridSize: 32
TimelineZoom: 1.810001

[Metadata]
Title:telepatia
TitleUnicode:telepatía
Artist:Kali Uchis
ArtistUnicode:Kali Uchis
Creator:-Magic-
Version:Crissa's Normal
Source:
Tags:spanish español english romantic chill Sin Miedo del amor y otros demonios Indie Pop Crissa Eula- [-Evil-] Evil Pepekcz Kyutei Anya Melfissa Anya_Melfissa erisu lanzhu mayuzumi fuyuko
BeatmapID:3183386
BeatmapSetID:1552269

[Difficulty]
HPDrainRate:4
CircleSize:3.2
OverallDifficulty:5
ApproachRate:5.4
SliderMultiplier:2.6
SliderTickRate:1

[Events]
//Background and Video events
0,0,"quien-lo-diria.jpg",0,0
//Break Periods
2,80926,102445
//Storyboard Layer 0 (Background)
//Storyboard Layer 1 (Fail)
//Storyboard Layer 2 (Pass)
//Storyboard Layer 3 (Foreground)
Sprite,Foreground,Centre,"sb/circle.png",0,0 S,2,115012,115747,0.5,0.1 F,2,115012,115747,1,0 P,0,115012,115747,A C,0,115012,,57,185,196 M,0,115012,115101,492,88,523.9454,88.59921 M,0,115101,115190,523.9454,88.59921,549.3974,107.8778 M,0,115190,115279,549.3974,107.8778,558.6144,138.4253 M,0,115279,115369,558.6144,138.4253,549.3974,107.8778 M,0,115369,115458,549.3974,107.8778,523.9454,88.59921 M,0,115458,115547,523.9454,88.59921,492,88
Sprite,Foreground,Centre,"sb/circle.png",0,0 S,2,115726,116283,0.5,0.1 F,2,115726,116283,1,0 P,0,115726,116283,A C,0,115726,,57,185,196 M,0,115726,115815,445,110,416.1802,95.0155 M,0,115815,115904,416.1802,95.0155,385.8822,83.30742 M,0,115904,115993,385.8822,83.30742,354.4773,75.01889 M,0,115993,116083,354.4773,75.01889,322.3498,70.25121
Sprite,Foreground,Centre,"sb/circle.png",274,80 S,2,116262,116462,0.5,0.1 F,2,116262,116462,1,0 P,0,116262,116462,A C,0,116262,,57,185,196
Sprite,Foreground,Centre,"sb/circle.png",0,0 S,2,116441,116998,0.5,0.1 F,2,116441,116998,1,0 P,0,116441,116998,A C,0,116441,,57,185,196 M,0,116441,116530,274,80,256.4294,106.5125 M,0,116530,116619,256.4294,106.5125,256.6193,138.1236 M,0,116619,116708,256.6193,138.1236,274.9027,163.9217 M,0,116708,116798,274.9027,163.9217,304.6852,174.5812
Sprite,Foreground,Centre,"sb/circle.png",405,199 S,2,117155,117355,0.5,0.1 F,2,117155,117355,1,0 P,0,117155,117355,A C,0,117155,,57,185,196
Sprite,Foreground,Centre,"sb/circle.png",446,230 S,2,117334,117534,0.5,0.1 F,2,117334,117534,1,0 P,0,117334,117534,A C,0,117334,,57,185,196
Sprite,Foreground,Centre,"sb/circle.png",446,281 S,2,117512,117712,0.5,0.1 F,2,117512,117712,1,0 P,0,117512,117712,A C,0,117512,,57,185,196
Sprite,Foreground,Centre,"sb/circle.png",0,0 S,2,117869,118604,0.5,0.1 F,2,117869,118604,1,0 P,0,117869,118604,A C,0,117869,,222,58,63 M,0,117869,117958,374,356,341.9102,351.4082 M,0,117958,118047,341.9102,351.4082,311.9104,339.1306 M,0,118047,118136,311.9104,339.1306,285.8116,319.9091 M,0,118136,118226,285.8116,319.9091,311.9104,339.1306 M,0,118226,118315,311.9104,339.1306,341.9102,351.4082 M,0,118315,118404,341.9102,351.4082,374,356
Sprite,Foreground,Centre,"sb/circle.png",0,0 S,2,118584,119141,0.5,0.1 F,2,118584,119141,1,0 P,0,118584,119141,A C,0,118584,,222,58,63 M,0,118584,118673,400,401,431.7552,398.7605 M,0,118673,118762,431.7552,398.7605,456.982,379.6497 M,0,118762,118851,456.982,379.6497,467.1073,349.6512 M,0,118851,118941,467.1073,349.6512,458.613,319.131
Sprite,Foreground,Centre,"sb/circle.png",0,0 S,2,119298,120033,0.5,0.1 F,2,119298,120033,1,0 P,0,119298,120033,A C,0,119298,,222,58,63 M,0,119298,119387,390,240,371.3577,213.5538 M,0,119387,119476,371.3577,213.5538,360.4405,183.1382 M,0,119476,119565,360.4405,183.1382,358.2953,150.8936 M,0,119565,119655,358.2953,150.8936,360.4405,183.1382 M,0,119655,119744,360.4405,183.1382,371.3577,213.5538 M,0,119744,119833,371.3577,213.5538,390,240
Sprite,Foreground,Centre,"sb/circle.png",0,0 S,2,120012,120569,0.5,0.1 F,2,120012,120569,1,0 P,0,120012,120569,A C,0,120012,,222,58,63 M,0,120012,120101,385,291,410.0834,310.739 M,0,120101,120190,410.0834,310.739,441.5852,314.7479 M,0,120190,120279,441.5852,314.7479,470.4408,301.4673 M,0,120279,120369,470.4408,301.4673,487.897,274.9122
Sprite,Foreground,Centre,"sb/circle.png",0,0 S,2,120726,121461,0.5,0.1 F,2,120726,121461,1,0 P,0,120726,121461,A C,0,120726,,192,50,64 M,0,120726,120815,513,173,522.1893,141.9204 M,0,120815,120904,522.1893,141.9204,537.7369,113.5129 M,0,120904,120993,537.7369,113.5129,559.1169,89.18922 M,0,120993,121083,559.1169,89.18922,537.7369,113.5129 M,0,121083,121172,537.7369,113.5129,522.1893,141.9204 M,0,121172,121261,522.1893,141.9204,513,173
Sprite,Foreground,Centre,"sb/circle.png",0,0 S,2,121441,121998,0.5,0.1 F,2,121441,121998,1,0 P,0,121441,121998,A C,0,121441,,192,50,64 M,0,121441,121530,462,187,438.1908,164.9358 M,0,121530,121619,438.1908,164.9358,411.0731,147.0992 M,0,121619,121708,411.0731,147.0992,381.389,133.9772 M,0,121708,121798,381.389,133.9772,349.9506,125.9278
Sprite,Foreground,Centre,"sb/circle.png",308,155 S,2,121976,122176,0.5,0.1 F,2,121976,122176,1,0 P,0,121976,122176,A C,0,121976,,192,50,64
Sprite,Foreground,Centre,"sb/circle.png",0,0 S,2,122155,122712,0.5,0.1 F,2,122155,122712,1,0 P,0,122155,122712,A C,0,122155,,192,50,64 M,0,122155,122244,308,155,277.701,144.7804 M,0,122244,122333,277.701,144.7804,258.8306,118.9957 M,0,122333,122422,258.8306,118.9957,258.2537,87.07175 M,0,122422,122512,258.2537,87.07175,276.155,60.65967
Sprite,Foreground,Centre,"sb/circle.png",380,64 S,2,122869,123069,0.5,0.1 F,2,122869,123069,1,0 P,0,122869,123069,A C,0,122869,,192,50,64
Sprite,Foreground,Centre,"sb/circle.png",0,0 S,2,123226,123604,0.5,0.1 F,2,123226,123604,1,0 P,0,123226,123604,A C,0,123226,,192,50,64 M,0,123226,123315,454,135,469.4959,163.0195 M,0,123315,123404,469.4959,163.0195,469.9896,194.901
Sprite,Foreground,Centre,"sb/circle.png",0,0 S,2,123584,124319,0.5,0.1 F,2,123584,124319,1,0 P,0,123584,124319,A C,0,123584,,112,135,158 M,0,123584,123673,438,236,412.1492,216.4291 M,0,123673,123762,412.1492,216.4291,383.0555,202.1582 M,0,123762,123851,383.0555,202.1582,351.7142,193.8426 M,0,123851,123941,351.7142,193.8426,383.0555,202.1582 M,0,123941,124030,383.0555,202.1582,412.1492,216.4291 M,0,124030,124119,412.1492,216.4291,438,236
Sprite,Foreground,Centre,"sb/circle.png",0,0 S,2,124298,124855,0.5,0.1 F,2,124298,124855,1,0 P,0,124298,124855,A C,0,124298,,112,135,158 M,0,124298,124387,467,278,472.7074,309.3927 M,0,124387,124476,472.7074,309.3927,461.3736,339.0421 M,0,124476,124565,461.3736,339.0421,435.9562,358.0738 M,0,124565,124655,435.9562,358.0738,404.2874,360.6043
Sprite,Foreground,Centre,"sb/circle.png",0,0 S,2,125012,125747,0.5,0.1 F,2,125012,125747,1,0 P,0,125012,125747,A C,0,125012,,112,145,169 M,0,125012,125101,309,318,291.941,290.9402 M,0,125101,125190,291.941,290.9402,290.1073,259.1465 M,0,125190,125279,290.1073,259.1465,304.3718,230.6564 M,0,125279,125369,304.3718,230.6564,290.1073,259.1465 M,0,125369,125458,290.1073,259.1465,291.941,290.9402 M,0,125458,125547,291.941,290.9402,309,318
Sprite,Foreground,Centre,"sb/circle.png",0,0 S,2,125726,126283,0.5,0.1 F,2,125726,126283,1,0 P,0,125726,126283,A C,0,125726,,112,145,169 M,0,125726,125815,292,367,263.3276,381.3814 M,0,125815,125904,263.3276,381.3814,231.3865,378.7493 M,0,125904,125993,231.3865,378.7493,205.4987,359.8996 M,0,125993,126083,205.4987,359.8996,193.2064,330.3563
Sprite,Foreground,Centre,"sb/circle.png",0,0 S,2,126441,127176,0.5,0.1 F,2,126441,127176,1,0 P,0,126441,127176,A C,0,126441,,20,109,143 M,0,126441,126530,118,257,122.4928,225.3967 M,0,126530,126619,122.4928,225.3967,142.3945,200.6412 M,0,126619,126708,142.3945,200.6412,172.3662,190.0522 M,0,126708,126798,172.3662,190.0522,142.3945,200.6412 M,0,126798,126887,142.3945,200.6412,122.4928,225.3967 M,0,126887,126976,122.4928,225.3967,118,257
Sprite,Foreground,Centre,"sb/circle.png",0,0 S,2,127155,127712,0.5,0.1 F,2,127155,127712,1,0 P,0,127155,127712,A C,0,127155,,20,109,143 M,0,127155,127244,90,301,99.2513,331.6526 M,0,127244,127333,99.2513,331.6526,121.811,354.1812 M,0,127333,127422,121.811,354.1812,152.4927,362.8604 M,0,127422,127512,152.4927,362.8604,183.5192,355.4859
Sprite,Foreground,Centre,"sb/circle.png",222,320 S,2,127691,127891,0.5,0.1 F,2,127691,127891,1,0 P,0,127691,127891,A C,0,127691,,20,109,143
Sprite,Foreground,Centre,"sb/circle.png",0,0 S,2,127869,128426,0.5,0.1 F,2,127869,128426,1,0 P,0,127869,128426,A C,0,127869,,20,109,143 M,0,127869,127958,222,320,250.0315,303.675 M,0,127958,128047,250.0315,303.675,280.4523,292.4618 M,0,128047,128136,280.4523,292.4618,312.3916,286.8803 M,0,128136,128226,312.3916,286.8803,344.8167,287.1119
Sprite,Foreground,Centre,"sb/circle.png",410,367 S,2,128584,128784,0.5,0.1 F,2,128584,128784,1,0 P,0,128584,128784,A C,0,128584,,20,109,143
Sprite,Foreground,Centre,"sb/circle.png",459,352 S,2,128762,128962,0.5,0.1 F,2,128762,128962,1,0 P,0,128762,128962,A C,0,128762,,20,109,143
Sprite,Foreground,Centre,"sb/circle.png",470,301 S,2,128941,129141,0.5,0.1 F,2,128941,129141,1,0 P,0,128941,129141,A C,0,128941,,20,109,143
Sprite,Foreground,Centre,"sb/circle.png",0,0 S,2,129298,130033,0.5,0.1 F,2,129298,130033,1,0 P,0,129298,130033,A C,0,129298,,14,130,146 M,0,129298,129387,464,197,440.3465,174.9 M,0,129387,129476,440.3465,174.9,411.9548,159.4242 M,0,129476,129565,411.9548,159.4242,380.5273,151.7981 M,0,129565,129655,380.5273,151.7981,411.9548,159.4242 M,0,129655,129744,411.9548,159.4242,440.3465,174.9 M,0,129744,129833,440.3465,174.9,464,197
Sprite,Foreground,Centre,"sb/circle.png",0,0 S,2,130012,130569,0.5,0.1 F,2,130012,130569,1,0 P,0,130012,130569,A C,0,130012,,14,130,146 M,0,130012,130101,515,202,534.9562,177.0397 M,0,130101,130190,534.9562,177.0397,539.7118,145.5934 M,0,130190,130279,539.7118,145.5934,527.585,116.1898 M,0,130279,130369,527.585,116.1898,502.0393,97.23532
Sprite,Foreground,Centre,"sb/circle.png",0,0 S,2,130726,131461,0.5,0.1 F,2,130726,131461,1,0 P,0,130726,131461,A C,0,130726,,14,130,146 M,0,130726,130815,407,138,386.1733,162.7652 M,0,130815,130904,386.1733,162.7652,372.5263,192.0635 M,0,130904,130993,372.5263,192.0635,367.1102,223.9639 M,0,130993,131083,367.1102,223.9639,372.5263,192.0635 M,0,131083,131172,372.5263,192.0635,386.1733,162.7652 M,0,131172,131261,386.1733,162.7652,407,138
Sprite,Foreground,Centre,"sb/circle.png",0,0 S,2,131441,131998,0.5,0.1 F,2,131441,131998,1,0 P,0,131441,131998,A C,0,131441,,14,130,146 M,0,131441,131530,377,94,346.3563,84.63454 M,0,131530,131619,346.3563,84.63454,314.9749,90.44039 M,0,131619,131708,314.9749,90.44039,290.1201,110.4661 M,0,131708,131798,290.1201,110.4661,277.3866,139.8604
Sprite,Foreground,Centre,"sb/circle.png",0,0 S,2,132155,132890,0.5,0.1 F,2,132155,132890,1,0 P,0,132155,132890,A C,0,132155,,10,173,177 M,0,132155,132244,188,210,210.894,232.8917 M,0,132244,132333,210.894,232.8917,226.0938,261.468 M,0,132333,132422,226.0938,261.468,232.2764,293.2314 M,0,132422,132512,232.2764,293.2314,226.0938,261.468 M,0,132512,132601,226.0938,261.468,210.894,232.8917 M,0,132601,132690,210.894,232.8917,188,210
Sprite,Foreground,Centre,"sb/circle.png",0,0 S,2,132869,133426,0.5,0.1 F,2,132869,133426,1,0 P,0,132869,133426,A C,0,132869,,10,173,177 M,0,132869,132958,138,192,121.0462,164.9064 M,0,132958,133047,121.0462,164.9064,123.1006,133.0342 M,0,133047,133136,123.1006,133.0342,143.3648,108.3757 M,0,133136,133226,143.3648,108.3757,174.1935,100.1948
Sprite,Foreground,Centre,"sb/circle.png",230,110 S,2,133405,133605,0.5,0.1 F,2,133405,133605,1,0 P,0,133405,133605,A C,0,133405,,10,173,177
Sprite,Foreground,Centre,"sb/circle.png",0,0 S,2,133584,134141,0.5,0.1 F,2,133584,134141,1,0 P,0,133584,134141,A C,0,133584,,10,173,177 M,0,133584,133673,230,110,260.5158,121.1078 M,0,133673,133762,260.5158,121.1078,292.0797,128.714 M,0,133762,133851,292.0797,128.714,324.3136,132.6029 M,0,133851,133941,324.3136,132.6029,356.7816,132.722
Sprite,Foreground,Centre,"sb/circle.png",454,98 S,2,134298,134498,0.5,0.1 F,2,134298,134498,1,0 P,0,134298,134498,A C,0,134298,,10,173,177
Sprite,Foreground,Centre,"sb/circle.png",501,118 S,2,134476,134676,0.5,0.1 F,2,134476,134676,1,0 P,0,134476,134676,A C,0,134476,,10,173,177
Sprite,Foreground,Centre,"sb/circle.png",513,168 S,2,134655,134855,0.5,0.1 F,2,134655,134855,1,0 P,0,134655,134855,A C,0,134655,,10,173,177
Sprite,Foreground,Centre,"sb/circle.png",0,0 S,2,135012,135747,0.5,0.1 F,2,135012,135747,1,0 P,0,135012,135747,A C,0,135012,,57,185,196 M,0,135012,135101,457,255,444.1609,284.8171 M,0,135101,135190,444.1609,284.8171,436.265,316.3046 M,0,135190,135279,436.265,316.3046,433.5158,348.6488 M,0,135279,135369,433.5158,348.6488,436.265,316.3046 M,0,135369,135458,436.265,316.3046,444.1609,284.8171 M,0,135458,135547,444.1609,284.8171,457,255
Sprite,Foreground,Centre,"sb/circle.png",0,0 S,2,135726,136283,0.5,0.1 F,2,135726,136283,1,0 P,0,135726,136283,A C,0,135726,,57,185,196 M,0,135726,135815,432,208,405.9225,189.6519 M,0,135815,135904,405.9225,189.6519,374.263,187.7139 M,0,135904,135993,374.263,187.7139,346.5501,203.199 M,0,135993,136083,346.5501,203.199,331.5764,231.2372
Sprite,Foreground,Centre,"sb/circle.png",0,0 S,2,136441,137176,0.5,0.1 F,2,136441,137176,1,0 P,0,136441,137176,A C,0,136441,,57,185,196 M,0,136441,136530,277,320,293.1799,348.0624 M,0,136530,136619,293.1799,348.0624,315.2635,371.7242 M,0,136619,136708,315.2635,371.7242,342.2373,389.6631 M,0,136708,136798,342.2373,389.6631,315.2635,371.7242 M,0,136798,136887,315.2635,371.7242,293.1799,348.0624 M,0,136887,136976,293.1799,348.0624,277,320
Sprite,Foreground,Centre,"sb/circle.png",0,0 S,2,137155,137712,0.5,0.1 F,2,137155,137712,1,0 P,0,137155,137712,A C,0,137155,,57,185,196 M,0,137155,137244,252,274,220.3561,269.3969 M,0,137244,137333,220.3561,269.3969,190.6811,280.9071 M,0,137333,137422,190.6811,280.9071,170.9221,305.8638 M,0,137422,137512,170.9221,305.8638,166.5248,337.3942
Sprite,Foreground,Centre,"sb/glow.png",324,427 S,2,57155,57455,4,0.8 F,2,57155,57455,1,0 P,0,57155,57455,A C,0,57155,,192,50,64
Sprite,Foreground,Centre,"sb/glow.png",314,375 S,2,57334,57634,4,0.8 F,2,57334,57634,1,0 P,0,57334,57634,A C,0,57334,,192,50,64
Sprite,Foreground,Centre,"sb/glow.png",272,344 S,2,57512,57812,4,0.8 F,2,57512,57812,1,0 P,0,57512,57812,A C,0,57512,,192,50,64
Sprite,Foreground,Centre,"sb/glow.png",0,0 S,2,57869,58704,4,0.8 F,2,57869,58704,1,0 P,0,57869,58704,A C,0,57869,,112,135,158 M,0,57869,57958,214,257,223.4028,226.4935 M,0,57958,58047,223.4028,226.4935,246.958,205.1851 M,0,58047,58136,246.958,205.1851,278.2189,199.4653 M,0,58136,58226,278.2189,199.4653,246.958,205.1851 M,0,58226,58315,246.958,205.1851,223.4028,226.4935 M,0,58315,58404,223.4028,226.4935,214,257
Sprite,Foreground,Centre,"sb/glow.png",0,0 S,2,58584,59241,4,0.8 F,2,58584,59241,1,0 P,0,58584,59241,A C,0,58584,,112,135,158 M,0,58584,58673,176,292,143.997,288.9783 M,0,58673,58762,143.997,288.9783,117.3908,270.9808 M,0,58762,58851,117.3908,270.9808,102.6975,242.4417 M,0,58851,58941,102.6975,242.4417,103.5045,210.3736
Sprite,Foreground,Centre,"sb/glow.png",131,161 S,2,59119,59419,4,0.8 F,2,59119,59419,1,0 P,0,59119,59419,A C,0,59119,,112,135,158
Sprite,Foreground,Centre,"sb/glow.png",0,0 S,2,59298,60312,4,0.8 F,2,59298,60312,1,0 P,0,59298,60312,A C,0,59298,,112,135,158 M,0,59298,59387,131,161,163.2858,157.2747 M,0,59387,59476,163.2858,157.2747,195.5716,153.5494 M,0,59476,59565,195.5716,153.5494,227.8574,149.8242 M,0,59565,59655,227.8574,149.8242,252.2222,130.453 M,0,59655,59744,252.2222,130.453,280.5195,119.2255 M,0,59744,59833,280.5195,119.2255,312.8861,116.2831 M,0,59833,59923,312.8861,116.2831,345.2526,113.3407 M,0,59923,60012,345.2526,113.3407,377.6191,110.3983
Sprite,Foreground,Centre,"sb/glow.png",414,221 S,2,60369,60669,4,0.8 F,2,60369,60669,1,0 P,0,60369,60669,A C,0,60369,,112,135,158
Sprite,Foreground,Centre,"sb/glow.png",0,0 S,2,60726,61561,4,0.8 F,2,60726,61561,1,0 P,0,60726,61561,A C,0,60726,,112,145,169 M,0,60726,60815,518,168,548.8909,175.1693 M,0,60815,60904,548.8909,175.1693,569.7631,198.7972 M,0,60904,60993,569.7631,198.7972,572.5831,230.4063 M,0,60993,61083,572.5831,230.4063,569.7631,198.7972 M,0,61083,61172,569.7631,198.7972,548.8909,175.1693 M,0,61172,61261,548.8909,175.1693,518,168
Sprite,Foreground,Centre,"sb/glow.png",0,0 S,2,61441,62098,4,0.8 F,2,61441,62098,1,0 P,0,61441,62098,A C,0,61441,,112,145,169 M,0,61441,61530,477,135,445.7292,141.1516 M,0,61530,61619,445.7292,141.1516,422.7477,162.975 M,0,61619,61708,422.7477,162.975,415.591,193.8513 M,0,61708,61798,415.591,193.8513,426.2358,223.8795
Sprite,Foreground,Centre,"sb/glow.png",0,0 S,2,62155,62990,4,0.8 F,2,62155,62990,1,0 P,0,62155,62990,A C,0,62155,,112,145,169 M,0,62155,62244,461,321,487.6982,302.6152 M,0,62244,62333,487.6982,302.6152,517.5469,290.0324 M,0,62333,62422,517.5469,290.0324,549.3714,283.981 M,0,62422,62512,549.3714,283.981,517.5469,290.0324 M,0,62512,62601,517.5469,290.0324,487.6982,302.6152 M,0,62601,62690,487.6982,302.6152,461,321
Sprite,Foreground,Centre,"sb/glow.png",0,0 S,2,62869,63526,4,0.8 F,2,62869,63526,1,0 P,0,62869,63526,A C,0,62869,,112,145,169 M,0,62869,62958,426,360,400.5593,339.8445 M,0,62958,63047,400.5593,339.8445,372.4753,323.5966 M,0,63047,63136,372.4753,323.5966,342.2723,311.7414 M,0,63136,63226,342.2723,311.7414,310.632,304.5467
Sprite,Foreground,Centre,"sb/glow.png",0,0 S,2,63584,64419,4,0.8 F,2,63584,64419,1,0 P,0,63584,64419,A C,0,63584,,20,109,143 M,0,63584,63673,206,303,196.3061,334.0206 M,0,63673,63762,196.3061,334.0206,200.8956,361.8851 M,0,63762,63851,200.8956,361.8851,222.7574,385.9332 M,0,63851,63941,222.7574,385.9332,200.8956,361.8851 M,0,63941,64030,200.8956,361.8851,196.3061,334.0206 M,0,64030,64119,196.3061,334.0206,206,303
Sprite,Foreground,Centre,"sb/glow.png",0,0 S,2,64298,64955,4,0.8 F,2,64298,64955,1,0 P,0,64298,64955,A C,0,64298,,20,109,143 M,0,64298,64387,159,279,149.6612,247.8707 M,0,64387,64476,149.6612,247.8707,140.3224,216.7413 M,0,64476,64565,140.3224,216.7413,144.1434,188.4279 M,0,64565,64655,144.1434,188.4279,165.4034,163.8461
Sprite,Foreground,Centre,"sb/glow.png",213,140 S,2,64834,65134,4,0.8 F,2,64834,65134,1,0 P,0,64834,65134,A C,0,64834,,20,109,143
Sprite,Foreground,Centre,"sb/glow.png",0,0 S,2,65012,66026,4,0.8 F,2,65012,66026,1,0 P,0,65012,66026,A C,0,65012,,20,109,143 M,0,65012,65101,213,140,244.7276,142.6386 M,0,65101,65190,244.7276,142.6386,269.6667,162.1261 M,0,65190,65279,269.6667,162.1261,279.2802,192.2832 M,0,65279,65369,279.2802,192.2832,270.6468,222.9157 M,0,65369,65458,270.6468,222.9157,279.2802,192.2832 M,0,65458,65547,279.2802,192.2832,269.6667,162.1261 M,0,65547,65637,269.6667,162.1261,244.7276,142.6386 M,0,65637,65726,244.7276,142.6386,213,140
Sprite,Foreground,Centre,"sb/glow.png",161,149 S,2,65905,66205,4,0.8 F,2,65905,66205,1,0 P,0,65905,66205,A C,0,65905,,20,109,143
Sprite,Foreground,Centre,"sb/glow.png",114,124 S,2,66084,66384,4,0.8 F,2,66084,66384,1,0 P,0,66084,66384,A C,0,66084,,20,109,143
Sprite,Foreground,Centre,"sb/glow.png",0,0 S,2,66441,67276,4,0.8 F,2,66441,67276,1,0 P,0,66441,67276,A C,0,66441,,14,130,146 M,0,66441,66530,72,219,90.29517,245.8327 M,0,66530,66619,90.29517,245.8327,104.9592,274.8084 M,0,66619,66708,104.9592,274.8084,115.7454,305.4386 M,0,66708,66798,115.7454,305.4386,104.9592,274.8084 M,0,66798,66887,104.9592,274.8084,90.29517,245.8327 M,0,66887,66976,90.29517,245.8327,72,219
Sprite,Foreground,Centre,"sb/glow.png",0,0 S,2,67155,67812,4,0.8 F,2,67155,67812,1,0 P,0,67155,67812,A C,0,67155,,14,130,146 M,0,67155,67244,72,166,100.324,150.9136 M,0,67244,67333,100.324,150.9136,132.2791,149.7625 M,0,67333,67422,132.2791,149.7625,161.3171,163.1602 M,0,67422,67512,161.3171,163.1602,181.1853,188.2267
Sprite,Foreground,Centre,"sb/glow.png",0,0 S,2,67869,68704,4,0.8 F,2,67869,68704,1,0 P,0,67869,68704,A C,0,67869,,14,130,146 M,0,67869,67958,259,256,238.5672,281.1312 M,0,67958,68047,238.5672,281.1312,224.4733,310.2617 M,0,68047,68136,224.4733,310.2617,217.7138,341.9181 M,0,68136,68226,217.7138,341.9181,224.4733,310.2617 M,0,68226,68315,224.4733,310.2617,238.5672,281.1312 M,0,68315,68404,238.5672,281.1312,259,256
Sprite,Foreground,Centre,"sb/glow.png",309,240 S,2,68584,68884,4,0.8 F,2,68584,68884,1,0 P,0,68584,68884,A C,0,68584,,14,130,146
Sprite,Foreground,Centre,"sb/glow.png",339,198 S,2,68762,69062,4,0.8 F,2,68762,69062,1,0 P,0,68762,69062,A C,0,68762,,14,130,146
Sprite,Foreground,Centre,"sb/glow.png",331,146 S,2,68941,69241,4,0.8 F,2,68941,69241,1,0 P,0,68941,69241,A C,0,68941,,14,130,146
Sprite,Foreground,Centre,"sb/glow.png",0,0 S,2,69298,70133,4,0.8 F,2,69298,70133,1,0 P,0,69298,70133,A C,0,69298,,10,173,177 M,0,69298,69387,432,168,453.8113,144.907 M,0,69387,69476,453.8113,144.907,458.4687,113.6936 M,0,69476,69565,458.4687,113.6936,444.2283,85.31734 M,0,69565,69655,444.2283,85.31734,458.4687,113.6936 M,0,69655,69744,458.4687,113.6936,453.8113,144.907 M,0,69744,69833,453.8113,144.907,432,168
Sprite,Foreground,Centre,"sb/glow.png",0,0 S,2,70012,70669,4,0.8 F,2,70012,70669,1,0 P,0,70012,70669,A C,0,70012,,10,173,177 M,0,70012,70101,399,208,427.1537,223.4466 M,0,70101,70190,427.1537,223.4466,446.063,249.2725 M,0,70190,70279,446.063,249.2725,451.7968,280.7831 M,0,70279,70369,451.7968,280.7831,443.3605,311.775
Sprite,Foreground,Centre,"sb/glow.png",421,361 S,2,70548,70848,4,0.8 F,2,70548,70848,1,0 P,0,70548,70848,A C,0,70548,,10,173,177
Sprite,Foreground,Centre,"sb/glow.png",0,0 S,2,70726,71740,4,0.8 F,2,70726,71740,1,0 P,0,70726,71740,A C,0,70726,,10,173,177 M,0,70726,70815,421,361,418.2258,392.4919 M,0,70815,70904,418.2258,392.4919,435.3297,418.7935 M,0,70904,70993,435.3297,418.7935,465.2658,428.3022 M,0,70993,71083,465.2658,428.3022,494.7566,416.9003 M,0,71083,71172,494.7566,416.9003,465.2658,428.3022 M,0,71172,71261,465.2658,428.3022,435.3297,418.7935 M,0,71261,71350,435.3297,418.7935,418.2258,392.4919 M,0,71350,71440,418.2258,392.4919,421,361
Sprite,Foreground,Centre,"sb/glow.png",342,291 S,2,71798,72098,4,0.8 F,2,71798,72098,1,0 P,0,71798,72098,A C,0,71798,,10,173,177
Sprite,Foreground,Centre,"sb/glow.png",0,0 S,2,72155,72990,4,0.8 F,2,72155,72990,1,0 P,0,72155,72990,A C,0,72155,,57,185,196 M,0,72155,72244,321,392,296.6308,370.6247 M,0,72244,72333,296.6308,370.6247,267.7979,355.8207 M,0,72333,72422,267.7979,355.8207,236.234,348.4756 M,0,72422,72512,236.234,348.4756,267.7979,355.8207 M,0,72512,72601,267.7979,355.8207,296.6308,370.6247 M,0,72601,72690,296.6308,370.6247,321,392
Sprite,Foreground,Centre,"sb/glow.png",0,0 S,2,72869,73526,4,0.8 F,2,72869,73526,1,0 P,0,72869,73526,A C,0,72869,,57,185,196 M,0,72869,72958,367,415,398.2144,406.7979 M,0,72958,73047,398.2144,406.7979,423.7048,387.0184 M,0,73047,73136,423.7048,387.0184,439.3928,358.8354 M,0,73136,73226,439.3928,358.8354,442.7717,326.7667
Sprite,Foreground,Centre,"sb/glow.png",0,0 S,2,73584,74419,4,0.8 F,2,73584,74419,1,0 P,0,73584,74419,A C,0,73584,,57,185,196 M,0,73584,73673,386,239,359.5883,257.7703 M,0,73673,73762,359.5883,257.7703,329.713,270.2432 M,0,73762,73851,329.713,270.2432,297.783,275.5897 M,0,73851,73941,297.783,275.5897,329.713,270.2432 M,0,73941,74030,329.713,270.2432,359.5883,257.7703 M,0,74030,74119,359.5883,257.7703,386,239
Sprite,Foreground,Centre,"sb/glow.png",0,0 S,2,74298,74955,4,0.8 F,2,74298,74955,1,0 P,0,74298,74955,A C,0,74298,,57,185,196 M,0,74298,74387,425,205,420.0156,173.3452 M,0,74387,74476,420.0156,173.3452,401.2008,147.5574 M,0,74476,74565,401.2008,147.5574,372.4382,133.6593 M,0,74565,74655,372.4382,133.6593,340.486,134.9471
Sprite,Foreground,Centre,"sb/glow.png",0,0 S,2,75012,75847,4,0.8 F,2,75012,75847,1,0 P,0,75012,75847,A C,0,75012,,222,58,63 M,0,75012,75101,236,138,211.1899,117.0069 M,0,75101,75190,211.1899,117.0069,200.5007,91.5358 M,0,75190,75279,200.5007,91.5358,208.6788,60.08157 M,0,75279,75369,208.6788,60.08157,200.5007,91.5358 M,0,75369,75458,200.5007,91.5358,211.1899,117.0069 M,0,75458,75547,211.1899,117.0069,236,138
Sprite,Foreground,Centre,"sb/glow.png",0,0 S,2,75726,76383,4,0.8 F,2,75726,76383,1,0 P,0,75726,76383,A C,0,75726,,222,58,63 M,0,75726,75815,273,174,261.4143,204.3556 M,0,75815,75904,261.4143,204.3556,251.8563,235.4067 M,0,75904,75993,251.8563,235.4067,244.4352,267.0367 M,0,75993,76083,244.4352,267.0367,239.1234,299.0909
Sprite,Foreground,Centre,"sb/glow.png",243,355 S,2,76262,76562,4,0.8 F,2,76262,76562,1,0 P,0,76262,76562,A C,0,76262,,222,58,63
Sprite,Foreground,Centre,"sb/glow.png",0,0 S,2,76441,77098,4,0.8 F,2,76441,77098,1,0 P,0,76441,77098,A C,0,76441,,222,58,63 M,0,76441,76530,243,355,256.873,383.6525 M,0,76530,76619,256.873,383.6525,283.919,400.1061 M,0,76619,76708,283.919,400.1061,315.5815,398.6357 M,0,76708,76798,315.5815,398.6357,341.063,379.6862
Sprite,Foreground,Centre,"sb/glow.png",379,283 S,2,77155,77455,4,0.8 F,2,77155,77455,1,0 P,0,77155,77455,A C,0,77155,,222,58,63
Sprite,Foreground,Centre,"sb/glow.png",414,244 S,2,77334,77634,4,0.8 F,2,77334,77634,1,0 P,0,77334,77634,A C,0,77334,,222,58,63
Sprite,Foreground,Centre,"sb/glow.png",464,253 S,2,77512,77812,4,0.8 F,2,77512,77812,1,0 P,0,77512,77812,A C,0,77512,,222,58,63
Sprite,Foreground,Centre,"sb/glow.png",0,0 S,2,77869,78704,4,0.8 F,2,77869,78704,1,0 P,0,77869,78704,A C,0,77869,,192,50,64 M,0,77869,77958,556,173,560.2567,141.163 M,0,77958,78047,560.2567,141.163,548.2414,111.4047 M,0,78047,78136,548.2414,111.4047,523.1419,91.39703 M,0,78136,78226,523.1419,91.39703,548.2414,111.4047 M,0,78226,78315,548.2414,111.4047,560.2567,141.163 M,0,78315,78404,560.2567,141.163,556,173
Sprite,Foreground,Centre,"sb/glow.png",0,0 S,2,78584,79241,4,0.8 F,2,78584,79241,1,0 P,0,78584,79241,A C,0,78584,,192,50,64 M,0,78584,78673,565,224,534.8127,235.0844 M,0,78673,78762,534.8127,235.0844,513.6555,259.2955 M,0,78762,78851,513.6555,259.2955,506.7192,290.6859 M,0,78851,78941,506.7192,290.6859,515.6847,321.5608
Sprite,Foreground,Centre,"sb/glow.png",0,0 S,2,79298,80133,4,0.8 F,2,79298,80133,1,0 P,0,79298,80133,A C,0,79298,,192,50,64 M,0,79298,79387,438,391,418.1466,365.5608 M,0,79387,79476,418.1466,365.5608,391.0345,348.1789 M,0,79476,79565,391.0345,348.1789,359.602,341.1301 M,0,79565,79655,359.602,341.1301,391.0345,348.1789 M,0,79655,79744,391.0345,348.1789,418.1466,365.5608 M,0,79744,79833,418.1466,365.5608,438,391
Sprite,Foreground,Centre,"sb/glow.png",0,0 S,2,80012,80669,4,0.8 F,2,80012,80669,1,0 P,0,80012,80669,A C,0,80012,,192,50,64 M,0,80012,80101,483,416,504.1653,391.8195 M,0,80101,80190,504.1653,391.8195,513.4832,361.1673 M,0,80190,80279,513.4832,361.1673,508.9024,329.4392 M,0,80279,80369,508.9024,329.4392,491.2667,302.6335
Sprite,Foreground,Centre,"sb/glow.png",400,251 S,2,80726,81026,4,0.8 F,2,80726,81026,1,0 P,0,80726,81026,A C,0,80726,,112,135,158
Sprite,Foreground,Centre,"sb/circle.png",324,427 S,2,57155,57455,0.5,0.1 F,2,57155,57455,1,0 P,0,57155,57455,A C,0,57155,,192,50,64
Sprite,Foreground,Centre,"sb/circle.png",314,375 S,2,57334,57634,0.5,0.1 F,2,57334,57634,1,0 P,0,57334,57634,A C,0,57334,,192,50,64
Sprite,Foreground,Centre,"sb/circle.png",272,344 S,2,57512,57812,0.5,0.1 F,2,57512,57812,1,0 P,0,57512,57812,A C,0,57512,,192,50,64
Sprite,Foreground,Centre,"sb/circle.png",0,0 S,2,57869,58704,0.5,0.1 F,2,57869,58704,1,0 P,0,57869,58704,A C,0,57869,,112,135,158 M,0,57869,57958,214,257,223.4028,226.4935 M,0,57958,58047,223.4028,226.4935,246.958,205.1851 M,0,58047,58136,246.958,205.1851,278.2189,199.4653 M,0,58136,58226,278.2189,199.4653,246.958,205.1851 M,0,58226,58315,246.958,205.1851,223.4028,226.4935 M,0,58315,58404,223.4028,226.4935,214,257
Sprite,Foreground,Centre,"sb/circle.png",0,0 S,2,58584,59241,0.5,0.1 F,2,58584,59241,1,0 P,0,58584,59241,A C,0,58584,,112,135,158 M,0,58584,58673,176,292,143.997,288.9783 M,0,58673,58762,143.997,288.9783,117.3908,270.9808 M,0,58762,58851,117.3908,270.9808,102.6975,242.4417 M,0,58851,58941,102.6975,242.4417,103.5045,210.3736
Sprite,Foreground,Centre,"sb/circle.png",131,161 S,2,59119,59419,0.5,0.1 F,2,59119,59419,1,0 P,0,59119,59419,A C,0,59119,,112,135,158
Sprite,Foreground,Centre,"sb/circle.png",0,0 S,2,59298,60312,0.5,0.1 F,2,59298,60312,1,0 P,0,59298,60312,A C,0,59298,,112,135,158 M,0,59298,59387,131,161,163.2858,157.2747 M,0,59387,59476,163.2858,157.2747,195.5716,153.5494 M,0,59476,59565,195.5716,153.5494,227.8574,149.8242 M,0,59565,59655,227.8574,149.8242,252.2222,130.453 M,0,59655,59744,252.2222,130.453,280.5195,119.2255 M,0,59744,59833,280.5195,119.2255,312.8861,116.2831 M,0,59833,59923,312.8861,116.2831,345.2526,113.3407 M,0,59923,60012,345.2526,113.3407,377.6191,110.3983
Sprite,Foreground,Centre,"sb/circle.png",414,221 S,2,60369,60669,0.5,0.1 F,2,60369,60669,1,0 P,0,60369,60669,A C,0,60369,,112,135,158
Sprite,Foreground,Centre,"sb/circle.png",0,0 S,2,60726,61561,0.5,0.1 F,2,60726,61561,1,0 P,0,60726,61561,A C,0,60726,,112,145,169 M,0,60726,60815,518,168,548.8909,175.1693 M,0,60815,60904,548.8909,175.1693,569.7631,198.7972 M,0,60904,60993,569.7631,198.7972,572.5831,230.4063 M,0,60993,61083,572.5831,230.4063,569.7631,198.7972 M,0,61083,61172,569.7631,198.7972,548.8909,175.1693 M,0,61172,61261,548.8909,175.1693,518,168
Sprite,Foreground,Centre,"sb/circle.png",0,0 S,2,61441,62098,0.5,0.1 F,2,61441,62098,1,0 P,0,61441,62098,A C,0,61441,,112,145,169 M,0,61441,61530,477,135,445.7292,141.1516 M,0,61530,61619,445.7292,141.1516,422.7477,162.975 M,0,61619,61708,422.7477,162.975,415.591,193.8513 M,0,61708,61798,415.591,193.8513,426.2358,223.8795
Sprite,Foreground,Centre,"sb/circle.png",0,0 S,2,62155,62990,0.5,0.1 F,2,62155,62990,1,0 P,0,62155,62990,A C,0,62155,,112,145,169 M,0,62155,62244,461,321,487.6982,302.6152 M,0,62244,62333,487.6982,302.6152,517.5469,290.0324 M,0,62333,62422,517.5469,290.0324,549.3714,283.981 M,0,62422,62512,549.3714,283.981,517.5469,290.0324 M,0,62512,62601,517.5469,290.0324,487.6982,302.6152 M,0,62601,62690,487.6982,302.6152,461,321
Sprite,Foreground,Centre,"sb/circle.png",0,0 S,2,62869,63526,0.5,0.1 F,2,62869,63526,1,0 P,0,62869,63526,A C,0,62869,,112,145,169 M,0,62869,62958,426,360,400.5593,339.8445 M,0,62958,63047,400.5593,339.8445,372.4753,323.5966 M,0,63047,63136,372.4753,323.5966,342.2723,311.7414 M,0,63136,63226,342.2723,311.7414,310.632,304.5467
Sprite,Foreground,Centre,"sb/circle.png",0,0 S,2,63584,64419,0.5,0.1 F,2,63584,64419,1,0 P,0,63584,64419,A C,0,63584,,20,109,143 M,0,63584,63673,206,303,196.3061,334.0206 M,0,63673,63762,196.3061,334.0206,200.8956,361.8851 M,0,63762,63851,200.8956,361.8851,222.7574,385.9332 M,0,63851,63941,222.7574,385.9332,200.8956,361.8851 M,0,63941,64030,200.8956,361.8851,196.3061,334.0206 M,0,64030,64119,196.3061,334.0206,206,303
Sprite,Foreground,Centre,"sb/circle.png",0,0 S,2,64298,64955,0.5,0.1 F,2,64298,64955,1,0 P,0,64298,64955,A C,0,64298,,20,109,143 M,0,64298,64387,159,279,149.6612,247.8707 M,0,64387,64476,149.6612,247.8707,140.3224,216.7413 M,0,64476,64565,140.3224,216.7413,144.1434,188.4279 M,0,64565,64655,144.1434,188.4279,165.4034,163.8461
Sprite,Foreground,Centre,"sb/circle.png",213,140 S,2,64834,65134,0.5,0.1 F,2,64834,65134,1,0 P,0,64834,65134,A C,0,64834,,20,109,143
Sprite,Foreground,Centre,"sb/circle.png",0,0 S,2,65012,66026,0.5,0.1 F,2,65012,66026,1,0 P,0,65012,66026,A C,0,65012,,20,109,143 M,0,65012,65101,213,140,244.7276,142.6386 M,0,65101,65190,244.7276,142.6386,269.6667,162.1261 M,0,65190,65279,269.6667,162.1261,279.2802,192.2832 M,0,65279,65369,279.2802,192.2832,270.6468,222.9157 M,0,65369,65458,270.6468,222.9157,279.2802,192.2832 M,0,65458,65547,279.2802,192.2832,269.6667,162.1261 M,0,65547,65637,269.6667,162.1261,244.7276,142.6386 M,0,65637,65726,244.7276,142.6386,213,140
Sprite,Foreground,Centre,"sb/circle.png",161,149 S,2,65905,66205,0.5,0.1 F,2,65905,66205,1,0 P,0,65905,66205,A C,0,65905,,20,109,143
Sprite,Foreground,Centre,"sb/circle.png",114,124 S,2,66084,66384,0.5,0.1 F,2,66084,66384,1,0 P,0,66084,66384,A C,0,66084,,20,109,143
Sprite,Foreground,Centre,"sb/circle.png",0,0 S,2,66441,67276,0.5,0.1 F,2,66441,67276,1,0 P,0,66441,67276,A C,0,66441,,14,130,146 M,0,66441,66530,72,219,90.29517,245.8327 M,0,66530,66619,90.29517,245.8327,104.9592,274.8084 M,0,66619,66708,104.9592,274.8084,115.7454,305.4386 M,0,66708,66798,115.7454,305.4386,104.9592,274.8084 M,0,66798,66887,104.9592,274.8084,90.29517,245.8327 M,0,66887,66976,90.29517,245.8327,72,219
Sprite,Foreground,Centre,"sb/circle.png",0,0 S,2,67155,67812,0.5,0.1 F,2,67155,67812,1,0 P,0,67155,67812,A C,0,67155,,14,130,146 M,0,67155,67244,72,166,100.324,150.9136 M,0,67244,67333,100.324,150.9136,132.2791,149.7625 M,0,67333,67422,132.2791,149.7625,161.3171,163.1602 M,0,67422,67512,161.3171,163.1602,181.1853,188.2267
Sprite,Foreground,Centre,"sb/circle.png",0,0 S,2,67869,68704,0.5,0.1 F,2,67869,68704,1,0 P,0,67869,68704,A C,0,67869,,14,130,146 M,0,67869,67958,259,256,238.5672,281.1312 M,0,67958,68047,238.5672,281.1312,224.4733,310.2617 M,0,68047,68136,224.4733,310.2617,217.7138,341.9181 M,0,68136,68226,217.7138,341.9181,224.4733,310.2617 M,0,68226,68315,224.4733,310.2617,238.5672,281.1312 M,0,68315,68404,238.5672,281.1312,259,256
Sprite,Foreground,Centre,"sb/circle.png",309,240 S,2,68584,68884,0.5,0.1 F,2,68584,68884,1,0 P,0,68584,68884,A C,0,68584,,14,130,146
Sprite,Foreground,Centre,"sb/circle.png",339,198 S,2,68762,69062,0.5,0.1 F,2,68762,69062,1,0 P,0,68762,69062,A C,0,68762,,14,130,146
Sprite,Foreground,Centre,"sb/circle.png",331,146 S,2,68941,69241,0.5,0.1 F,2,68941,69241,1,0 P,0,68941,69241,A C,0,68941,,14,130,146
Sprite,Foreground,Centre,"sb/circle.png",0,0 S,2,69298,70133,0.5,0.1 F,2,69298,70133,1,0 P,0,69298,70133,A C,0,69298,,10,173,177 M,0,69298,69387,432,168,453.8113,144.907 M,0,69387,69476,453.8113,144.907,458.4687,113.6936 M,0,69476,69565,458.4687,113.6936,444.2283,85.31734 M,0,69565,69655,444.2283,85.31734,458.4687,113.6936 M,0,69655,69744,458.4687,113.6936,453.8113,144.907 M,0,69744,69833,453.8113,144.907,432,168
Sprite,Foreground,Centre,"sb/circle.png",0,0 S,2,70012,70669,0.5,0.1 F,2,70012,70669,1,0 P,0,70012,70669,A C,0,70012,,10,173,177 M,0,70012,70101,399,208,427.1537,223.4466 M,0,70101,70190,427.1537,223.4466,446.063,249.2725 M,0,70190,70279,446.063,249.2725,451.7968,280.7831 M,0,70279,70369,451.7968,280.7831,443.3605,311.775
Sprite,Foreground,Centre,"sb/circle.png",421,361 S,2,70548,70848,0.5,0.1 F,2,70548,70848,1,0 P,0,70548,70848,A C,0,70548,,10,173,177
Sprite,Foreground,Centre,"sb/circle.png",0,0 S,2,70726,71740,0.5,0.1 F,2,70726,71740,1,0 P,0,70726,71740,A C,0,70726,,10,173,177 M,0,70726,70815,421,361,418.2258,392.4919 M,0,70815,70904,418.2258,392.4919,435.3297,418.7935 M,0,70904,70993,435.3297,418.7935,465.2658,428.3022 M,0,70993,71083,465.2658,428.3022,494.7566,416.9003 M,0,71083,71172,494.7566,416.9003,465.2658,428.3022 M,0,71172,71261,465.2658,428.3022,435.3297,418.7935 M,0,71261,71350,435.3297,418.7935,418.2258,392.4919 M,0,71350,71440,418.2258,392.4919,421,361
Sprite,Foreground,Centre,"sb/circle.png",342,291 S,2,71798,72098,0.5,0.1 F,2,71798,72098,1,0 P,0,71798,72098,A C,0,71798,,10,173,177
Sprite,Foreground,Centre,"sb/circle.png",0,0 S,2,72155,72990,0.5,0.1 F,2,72155,72990,1,0 P,0,72155,72990,A C,0,72155,,57,185,196 M,0,72155,72244,321,392,296.6308,370.6247 M,0,72244,72333,296.6308,370.6247,267.7979,355.8207 M,0,72333,72422,267.7979,355.8207,236.234,348.4756 M,0,72422,72512,236.234,348.4756,267.7979,355.8207 M,0,72512,72601,267.7979,355.8207,296.6308,370.6247 M,0,72601,72690,296.6308,370.6247,321,392
Sprite,Foreground,Centre,"sb/circle.png",0,0 S,2,72869,73526,0.5,0.1 F,2,72869,73526,1,0 P,0,72869,73526,A C,0,72869,,57,185,196 M,0,72869,72958,367,415,398.2144,406.7979 M,0,72958,73047,398.2144,406.7979,423.7048,387.0184 M,0,73047,73136,423.7048,387.0184,439.3928,358.8354 M,0,73136,73226,439.3928,358.8354,442.7717,326.7667
Sprite,Foreground,Centre,"sb/circle.png",0,0 S,2,73584,74419,0.5,0.1 F,2,73584,74419,1,0 P,0,73584,74419,A C,0,73584,,57,185,196 M,0,73584,73673,386,239,359.5883,257.7703 M,0,73673,73762,359.5883,257.7703,329.713,270.2432 M,0,73762,73851,329.713,270.2432,297.783,275.5897 M,0,73851,73941,297.783,275.5897,329.713,270.2432 M,0,73941,74030,329.713,270.2432,359.5883,257.7703 M,0,74030,74119,359.5883,257.7703,386,239
Sprite,Foreground,Centre,"sb/circle.png",0,0 S,2,74298,74955,0.5,0.1 F,2,74298,74955,1,0 P,0,74298,74955,A C,0,74298,,57,185,196 M,0,74298,74387,425,205,420.0156,173.3452 M,0,74387,74476,420.0156,173.3452,401.2008,147.5574 M,0,74476,74565,401.2008,147.5574,372.4382,133.6593 M,0,74565,74655,372.4382,133.6593,340.486,134.9471
Sprite,Foreground,Centre,"sb/circle.png",0,0 S,2,75012,75847,0.5,0.1 F,2,75012,75847,1,0 P,0,75012,75847,A C,0,75012,,222,58,63 M,0,75012,75101,236,138,211.1899,117.0069 M,0,75101,75190,211.1899,117.0069,200.5007,91.5358 M,0,75190,75279,200.5007,91.5358,208.6788,60.08157 M,0,75279,75369,208.6788,60.08157,200.5007,91.5358 M,0,75369,75458,200.5007,91.5358,211.1899,117.0069 M,0,75458,75547,211.1899,117.0069,236,138
Sprite,Foreground,Centre,"sb/circle.png",0,0 S,2,75726,76383,0.5,0.1 F,2,75726,76383,1,0 P,0,75726,76383,A C,0,75726,,222,58,63 M,0,75726,75815,273,174,261.4143,204.3556 M,0,75815,75904,261.4143,204.3556,251.8563,235.4067 M,0,75904,75993,251.8563,235.4067,244.4352,267.0367 M,0,75993,76083,244.4352,267.0367,239.1234,299.0909
Sprite,Foreground,Centre,"sb/circle.png",243,355 S,2,76262,76562,0.5,0.1 F,2,76262,76562,1,0 P,0,76262,76562,A C,0,76262,,222,58,63
Sprite,Foreground,Centre,"sb/circle.png",0,0 S,2,76441,77098,0.5,0.1 F,2,76441,77098,1,0 P,0,76441,77098,A C,0,76441,,222,58,63 M,0,76441,76530,243,355,256.873,383.6525 M,0,76530,76619,256.873,383.6525,283.919,400.1061 M,0,76619,76708,283.919,400.1061,315.5815,398.6357 M,0,76708,76798,315.5815,398.6357,341.063,379.6862
Sprite,Foreground,Centre,"sb/circle.png",379,283 S,2,77155,77455,0.5,0.1 F,2,77155,77455,1,0 P,0,77155,77455,A C,0,77155,,222,58,63
Sprite,Foreground,Centre,"sb/circle.png",414,244 S,2,77334,77634,0.5,0.1 F,2,77334,77634,1,0 P,0,77334,77634,A C,0,77334,,222,58,63
Sprite,Foreground,Centre,"sb/circle.png",464,253 S,2,77512,77812,0.5,0.1 F,2,77512,77812,1,0 P,0,77512,77812,A C,0,77512,,222,58,63
Sprite,Foreground,Centre,"sb/circle.png",0,0 S,2,77869,78704,0.5,0.1 F,2,77869,78704,1,0 P,0,77869,78704,A C,0,77869,,192,50,64 M,0,77869,77958,556,173,560.2567,141.163 M,0,77958,78047,560.2567,141.163,548.2414,111.4047 M,0,78047,78136,548.2414,111.4047,523.1419,91.39703 M,0,78136,78226,523.1419,91.39703,548.2414,111.4047 M,0,78226,78315,548.2414,111.4047,560.2567,141.163 M,0,78315,78404,560.2567,141.163,556,173
Sprite,Foreground,Centre,"sb/circle.png",0,0 S,2,78584,79241,0.5,0.1 F,2,78584,79241,1,0 P,0,78584,79241,A C,0,78584,,192,50,64 M,0,78584,78673,565,224,534.8127,235.0844 M,0,78673,78762,534.8127,235.0844,513.6555,259.2955 M,0,78762,78851,513.6555,259.2955,506.7192,290.6859 M,0,78851,78941,506.7192,290.6859,515.6847,321.5608
Sprite,Foreground,Centre,"sb/circle.png",0,0 S,2,79298,80133,0.5,0.1 F,2,79298,80133,1,0 P,0,79298,80133,A C,0,79298,,192,50,64 M,0,79298,79387,438,391,418.1466,365.5608 M,0,79387,79476,418.1466,365.5608,391.0345,348.1789 M,0,79476,79565,391.0345,348.1789,359.602,341.1301 M,0,79565,79655,359.602,341.1301,391.0345,348.1789 M,0,79655,79744,391.0345,348.1789,418.1466,365.5608 M,0,79744,79833,418.1466,365.5608,438,391
Sprite,Foreground,Centre,"sb/circle.png",0,0 S,2,80012,80669,0.5,0.1 F,2,80012,80669,1,0 P,0,80012,80669,A C,0,80012,,192,50,64 M,0,80012,80101,483,416,504.1653,391.8195 M,0,80101,80190,504.1653,391.8195,513.4832,361.1673 M,0,80190,80279,513.4832,361.1673,508.9024,329.4392 M,0,80279,80369,508.9024,329.4392,491.2667,302.6335
Sprite,Foreground,Centre,"sb/circle.png",400,251 S,2,80726,81026,0.5,0.1 F,2,80726,81026,1,0 P,0,80726,81026,A C,0,80726,,112,135,158
Sprite,Foreground,Centre,"sb/glow.png",0,0 S,2,115012,115847,4,0.8 F,2,115012,115847,1,0 P,0,115012,115847,A C,0,115012,,57,185,196 M,0,115012,115101,492,88,523.9454,88.59921 M,0,115101,115190,523.9454,88.59921,549.3974,107.8778 M,0,115190,115279,549.3974,107.8778,558.6144,138.4253 M,0,115279,115369,558.6144,138.4253,549.3974,107.8778 M,0,115369,115458,549.3974,107.8778,523.9454,88.59921 M,0,115458,115547,523.9454,88.59921,492,88
Sprite,Foreground,Centre,"sb/glow.png",0,0 S,2,115726,116383,4,0.8 F,2,115726,116383,1,0 P,0,115726,116383,A C,0,115726,,57,185,196 M,0,115726,115815,445,110,416.1802,95.0155 M,0,115815,115904,416.1802,95.0155,385.8822,83.30742 M,0,115904,115993,385.8822,83.30742,354.4773,75.01889 M,0,115993,116083,354.4773,75.01889,322.3498,70.25121
Sprite,Foreground,Centre,"sb/glow.png",274,80 S,2,116262,116562,4,0.8 F,2,116262,116562,1,0 P,0,116262,116562,A C,0,116262,,57,185,196
Sprite,Foreground,Centre,"sb/glow.png",0,0 S,2,116441,117098,4,0.8 F,2,116441,117098,1,0 P,0,116441,117098,A C,0,116441,,57,185,196 M,0,116441,116530,274,80,256.4294,106.5125 M,0,116530,116619,256.4294,106.5125,256.6193,138.1236 M,0,116619,116708,256.6193,138.1236,274.9027,163.9217 M,0,116708,116798,274.9027,163.9217,304.6852,174.5812
Sprite,Foreground,Centre,"sb/glow.png",405,199 S,2,117155,117455,4,0.8 F,2,117155,117455,1,0 P,0,117155,117455,A C,0,117155,,57,185,196
Sprite,Foreground,Centre,"sb/glow.png",446,230 S,2,117334,117634,4,0.8 F,2,117334,117634,1,0 P,0,117334,117634,A C,0,117334,,57,185,196
Sprite,Foreground,Centre,"sb/glow.png",446,281 S,2,117512,117812,4,0.8 F,2,117512,117812,1,0 P,0,117512,117812,A C,0,117512,,57,185,196
Sprite,Foreground,Centre,"sb/glow.png",0,0 S,2,117869,118704,4,0.8 F,2,117869,118704,1,0 P,0,117869,118704,A C,0,117869,,222,58,63 M,0,117869,117958,374,356,341.9102,351.4082 M,0,117958,118047,341.9102,351.4082,311.9104,339.1306 M,0,118047,118136,311.9104,339.1306,285.8116,319.9091 M,0,118136,118226,285.8116,319.9091,311.9104,339.1306 M,0,118226,118315,311.9104,339.1306,341.9102,351.4082 M,0,118315,118404,341.9102,351.4082,374,356
Sprite,Foreground,Centre,"sb/glow.png",0,0 S,2,118584,119241,4,0.8 F,2,118584,119241,1,0 P,0,118584,119241,A C,0,118584,,222,58,63 M,0,118584,118673,400,401,431.7552,398.7605 M,0,118673,118762,431.7552,398.7605,456.982,379.6497 M,0,118762,118851,456.982,379.6497,467.1073,349.6512 M,0,118851,118941,467.1073,349.6512,458.613,319.131
Sprite,Foreground,Centre,"sb/glow.png",0,0 S,2,119298,120133,4,0.8 F,2,119298,120133,1,0 P,0,119298,120133,A C,0,119298,,222,58,63 M,0,119298,119387,390,240,371.3577,213.5538 M,0,119387,119476,371.3577,213.5538,360.4405,183.1382 M,0,119476,119565,360.4405,183.1382,358.2953,150.8936 M,0,119565,119655,358.2953,150.8936,360.4405,183.1382 M,0,119655,119744,360.4405,183.1382,371.3577,213.5538 M,0,119744,119833,371.3577,213.5538,390,240
Sprite,Foreground,Centre,"sb/glow.png",0,0 S,2,120012,120669,4,0.8 F,2,120012,120669,1,0 P,0,120012,120669,A C,0,120012,,222,58,63 M,0,120012,120101,385,291,410.0834,310.739 M,0,120101,120190,410.0834,310.739,441.5852,314.7479 M,0,120190,120279,441.5852,314.7479,470.4408,301.4673 M,0,120279,120369,470.4408,301.4673,487.897,274.9122
Sprite,Foreground,Centre,"sb/glow.png",0,0 S,2,120726,121561,4,0.8 F,2,120726,121561,1,0 P,0,120726,121561,A C,0,120726,,192,50,64 M,0,120726,120815,513,173,522.1893,141.9204 M,0,120815,120904,522.1893,141.9204,537.7369,113.5129 M,0,120904,120993,537.7369,113.5129,559.1169,89.18922 M,0,120993,121083,559.1169,89.18922,537.7369,113.5129 M,0,121083,121172,537.7369,113.5129,522.1893,141.9204 M,0,121172,121261,522.1893,141.9204,513,173
Sprite,Foreground,Centre,"sb/glow.png",0,0 S,2,121441,122098,4,0.8 F,2,121441,122098,1,0 P,0,121441,122098,A C,0,121441,,192,50,64 M,0,121441,121530,462,187,438.1908,164.9358 M,0,121530,121619,438.1908,164.9358,411.0731,147.0992 M,0,121619,121708,411.0731,147.0992,381.389,133.9772 M,0,121708,121798,381.389,133.9772,349.9506,125.9278
Sprite,Foreground,Centre,"sb/glow.png",308,155 S,2,121976,122276,4,0.8 F,2,121976,122276,1,0 P,0,121976,122276,A C,0,121976,,192,50,64
Sprite,Foreground,Centre,"sb/glow.png",0,0 S,2,122155,122812,4,0.8 F,2,122155,122812,1,0 P,0,122155,122812,A C,0,122155,,192,50,64 M,0,122155,122244,308,155,277.701,144.7804 M,0,122244,122333,277.701,144.7804,258.8306,118.9957 M,0,122333,122422,258.8306,118.9957,258.2537,87.07175 M,0,122422,122512,258.2537,87.07175,276.155,60.65967
Sprite,Foreground,Centre,"sb/glow.png",380,64 S,2,122869,123169,4,0.8 F,2,122869,123169,1,0 P,0,122869,123169,A C,0,122869,,192,50,64
Sprite,Foreground,Centre,"sb/glow.png",0,0 S,2,123226,123704,4,0.8 F,2,123226,123704,1,0 P,0,123226,123704,A C,0,123226,,192,50,64 M,0,123226,123315,454,135,469.4959,163.0195 M,0,123315,123404,469.4959,163.0195,469.9896,194.901
Sprite,Foreground,Centre,"sb/glow.png",0,0 S,2,123584,124419,4,0.8 F,2,123584,124419,1,0 P,0,123584,124419,A C,0,123584,,112,135,158 M,0,123584,123673,438,236,412.1492,216.4291 M,0,123673,123762,412.1492,216.4291,383.0555,202.1582 M,0,123762,123851,383.0555,202.1582,351.7142,193.8426 M,0,123851,123941,351.7142,193.8426,383.0555,202.1582 M,0,123941,124030,383.0555,202.1582,412.1492,216.4291 M,0,124030,124119,412.1492,216.4291,438,236
Sprite,Foreground,Centre,"sb/glow.png",0,0 S,2,124298,124955,4,0.8 F,2,124298,124955,1,0 P,0,124298,124955,A C,0,124298,,112,135,158 M,0,124298,124387,467,278,472.7074,309.3927 M,0,124387,124476,472.7074,309.3927,461.3736,339.0421 M,0,124476,124565,461.3736,339.0421,435.9562,358.0738 M,0,124565,124655,435.9562,358.0738,404.2874,360.6043
Sprite,Foreground,Centre,"sb/glow.png",0,0 S,2,125012,125847,4,0.8 F,2,125012,125847,1,0 P,0,125012,125847,A C,0,125012,,112,145,169 M,0,125012,125101,309,318,291.941,290.9402 M,0,125101,125190,291.941,290.9402,290.1073,259.1465 M,0,125190,125279,290.1073,259.1465,304.3718,230.6564 M,0,125279,125369,304.3718,230.6564,290.1073,259.1465 M,0,125369,125458,290.1073,259.1465,291.941,290.9402 M,0,125458,125547,291.941,290.9402,309,318
Sprite,Foreground,Centre,"sb/glow.png",0,0 S,2,125726,126383,4,0.8 F,2,125726,126383,1,0 P,0,125726,126383,A C,0,125726,,112,145,169 M,0,125726,125815,292,367,263.3276,381.3814 M,0,125815,125904,263.3276,381.3814,231.3865,378.7493 M,0,125904,125993,231.3865,378.7493,205.4987,359.8996 M,0,125993,126083,205.4987,359.8996,193.2064,330.3563
Sprite,Foreground,Centre,"sb/glow.png",0,0 S,2,126441,127276,4,0.8 F,2,126441,127276,1,0 P,0,126441,127276,A C,0,126441,,20,109,143 M,0,126441,126530,118,257,122.4928,225.3967 M,0,126530,126619,122.4928,225.3967,142.3945,200.6412 M,0,126619,126708,142.3945,200.6412,172.3662,190.0522 M,0,126708,126798,172.3662,190.0522,142.3945,200.6412 M,0,126798,126887,142.3945,200.6412,122.4928,225.3967 M,0,126887,126976,122.4928,225.3967,118,257
Sprite,Foreground,Centre,"sb/glow.png",0,0 S,2,127155,127812,4,0.8 F,2,127155,127812,1,0 P,0,127155,127812,A C,0,127155,,20,109,143 M,0,127155,127244,90,301,99.2513,331.6526 M,0,127244,127333,99.2513,331.6526,121.811,354.1812 M,0,127333,127422,121.811,354.1812,152.4927,362.8604 M,0,127422,127512,152.4927,362.8604,183.5192,355.4859
Sprite,Foreground,Centre,"sb/glow.png",222,320 S,2,127691,127991,4,0.8 F,2,127691,127991,1,0 P,0,127691,127991,A C,0,127691,,20,109,143
Sprite,Foreground,Centre,"sb/glow.png",0,0 S,2,127869,128526,4,0.8 F,2,127869,128526,1,0 P,0,127869,128526,A C,0,127869,,20,109,143 M,0,127869,127958,222,320,250.0315,303.675 M,0,127958,128047,250.0315,303.675,280.4523,292.4618 M,0,128047,128136,280.4523,292.4618,312.3916,286.8803 M,0,128136,128226,312.3916,286.8803,344.8167,287.1119
Sprite,Foreground,Centre,"sb/glow.png",410,367 S,2,128584,128884,4,0.8 F,2,128584,128884,1,0 P,0,128584,128884,A C,0,128584,,20,109,143
Sprite,Foreground,Centre,"sb/glow.png",459,352 S,2,128762,129062,4,0.8 F,2,128762,129062,1,0 P,0,128762,129062,A C,0,128762,,20,109,143
Sprite,Foreground,Centre,"sb/glow.png",470,301 S,2,128941,129241,4,0.8 F,2,128941,129241,1,0 P,0,128941,129241,A C,0,128941,,20,109,143
Sprite,Foreground,Centre,"sb/glow.png",0,0 S,2,129298,130133,4,0.8 F,2,129298,130133,1,0 P,0,129298,130133,A C,0,129298,,14,130,146 M,0,129298,129387,464,197,440.3465,174.9 M,0,129387,129476,440.3465,174.9,411.9548,159.4242 M,0,129476,129565,411.9548,159.4242,380.5273,151.7981 M,0,129565,129655,380.5273,151.7981,411.9548,159.4242 M,0,129655,129744,411.9548,159.4242,440.3465,174.9 M,0,129744,129833,440.3465,174.9,464,197
Sprite,Foreground,Centre,"sb/glow.png",0,0 S,2,130012,130669,4,0.8 F,2,130012,130669,1,0 P,0,130012,130669,A C,0,130012,,14,130,146 M,0,130012,130101,515,202,534.9562,177.0397 M,0,130101,130190,534.9562,177.0397,539.7118,145.5934 M,0,130190,130279,539.7118,145.5934,527.585,116.1898 M,0,130279,130369,527.585,116.1898,502.0393,97.23532
Sprite,Foreground,Centre,"sb/glow.png",0,0 S,2,130726,131561,4,0.8 F,2,130726,131561,1,0 P,0,130726,131561,A C,0,130726,,14,130,146 M,0,130726,130815,407,138,386.1733,162.7652 M,0,130815,130904,386.1733,162.7652,372.5263,192.0635 M,0,130904,130993,372.5263,192.0635,367.1102,223.9639 M,0,130993,131083,367.1102,223.9639,372.5263,192.0635 M,0,131083,131172,372.5263,192.0635,386.1733,162.7652 M,0,131172,131261,386.1733,162.7652,407,138
Sprite,Foreground,Centre,"sb/glow.png",0,0 S,2,131441,132098,4,0.8 F,2,131441,132098,1,0 P,0,131441,132098,A C,0,131441,,14,130,146 M,0,131441,131530,377,94,346.3563,84.63454 M,0,131530,131619,346.3563,84.63454,314.9749,90.44039 M,0,131619,131708,314.9749,90.44039,290.1201,110.4661 M,0,131708,131798,290.1201,110.4661,277.3866,139.8604
Sprite,Foreground,Centre,"sb/glow.png",0,0 S,2,132155,132990,4,0.8 F,2,132155,132990,1,0 P,0,132155,132990,A C,0,132155,,10,173,177 M,0,132155,132244,188,210,210.894,232.8917 M,0,132244,132333,210.894,232.8917,226.0938,261.468 M,0,132333,132422,226.0938,261.468,232.2764,293.2314 M,0,132422,132512,232.2764,293.2314,226.0938,261.468 M,0,132512,132601,226.0938,261.468,210.894,232.8917 M,0,132601,132690,210.894,232.8917,188,210
Sprite,Foreground,Centre,"sb/glow.png",0,0 S,2,132869,133526,4,0.8 F,2,132869,133526,1,0 P,0,132869,133526,A C,0,132869,,10,173,177 M,0,132869,132958,138,192,121.0462,164.9064 M,0,132958,133047,121.0462,164.9064,123.1006,133.0342 M,0,133047,133136,123.1006,133.0342,143.3648,108.3757 M,0,133136,133226,143.3648,108.3757,174.1935,100.1948
Sprite,Foreground,Centre,"sb/glow.png",230,110 S,2,133405,133705,4,0.8 F,2,133405,133705,1,0 P,0,133405,133705,A C,0,133405,,10,173,177
Sprite,Foreground,Centre,"sb/glow.png",0,0 S,2,133584,134241,4,0.8 F,2,133584,134241,1,0 P,0,133584,134241,A C,0,133584,,10,173,177 M,0,133584,133673,230,110,260.5158,121.1078 M,0,133673,133762,260.5158,121.1078,292.0797,128.714 M,0,133762,133851,292.0797,128.714,324.3136,132.6029 M,0,133851,133941,324.3136,132.6029,356.7816,132.722
Sprite,Foreground,Centre,"sb/glow.png",454,98 S,2,134298,134598,4,0.8 F,2,134298,134598,1,0 P,0,134298,134598,A C,0,134298,,10,173,177
Sprite,Foreground,Centre,"sb/glow.png",501,118 S,2,134476,134776,4,0.8 F,2,134476,134776,1,0 P,0,134476,134776,A C,0,134476,,10,173,177
Sprite,Foreground,Centre,"sb/glow.png",513,168 S,2,134655,134955,4,0.8 F,2,134655,134955,1,0 P,0,134655,134955,A C,0,134655,,10,173,177
Sprite,Foreground,Centre,"sb/glow.png",0,0 S,2,135012,135847,4,0.8 F,2,135012,135847,1,0 P,0,135012,135847,A C,0,135012,,57,185,196 M,0,135012,135101,457,255,444.1609,284.8171 M,0,135101,135190,444.1609,284.8171,436.265,316.3046 M,0,135190,135279,436.265,316.3046,433.5158,348.6488 M,0,135279,135369,433.5158,348.6488,436.265,316.3046 M,0,135369,135458,436.265,316.3046,444.1609,284.8171 M,0,135458,135547,444.1609,284.8171,457,255
Sprite,Foreground,Centre,"sb/glow.png",0,0 S,2,135726,136383,4,0.8 F,2,135726,136383,1,0 P,0,135726,136383,A C,0,135726,,57,185,196 M,0,135726,135815,432,208,405.9225,189.6519 M,0,135815,135904,405.9225,189.6519,374.263,187.7139 M,0,135904,135993,374.263,187.7139,346.5501,203.199 M,0,135993,136083,346.5501,203.199,331.5764,231.2372
Sprite,Foreground,Centre,"sb/glow.png",0,0 S,2,136441,137276,4,0.8 F,2,136441,137276,1,0 P,0,136441,137276,A C,0,136441,,57,185,196 M,0,136441,136530,277,320,293.1799,348.0624 M,0,136530,136619,293.1799,348.0624,315.2635,371.7242 M,0,136619,136708,315.2635,371.7242,342.2373,389.6631 M,0,136708,136798,342.2373,389.6631,315.2635,371.7242 M,0,136798,136887,315.2635,371.7242,293.1799,348.0624 M,0,136887,136976,293.1799,348.0624,277,320
Sprite,Foreground,Centre,"sb/glow.png",0,0 S,2,137155,137812,4,0.8 F,2,137155,137812,1,0 P,0,137155,137812,A C,0,137155,,57,185,196 M,0,137155,137244,252,274,220.3561,269.3969 M,0,137244,137333,220.3561,269.3969,190.6811,280.9071 M,0,137333,137422,190.6811,280.9071,170.9221,305.8638 M,0,137422,137512,170.9221,305.8638,166.5248,337.3942
//Storyboard Sound Samples
Sample,112155,0,"soft-hitwhistle3.wav",25

[TimingPoints]
12,714.285714285714,4,2,1,40,1,0
727,714.285714285714,4,2,1,50,1,0
11441,-100,4,2,3,50,0,0
12155,-100,4,2,1,45,0,0
23584,-100,4,2,1,55,0,0
35012,-100,4,2,1,60,0,0
54655,-100,4,2,1,40,0,0
55012,-100,4,2,1,30,0,0
57155,-100,4,2,2,40,0,0
57334,-100,4,2,1,40,0,0
57512,-100,4,2,1,40,0,0
57869,-100,4,2,1,70,0,0
80726,-100,4,2,1,40,0,0
103584,-111.111111111111,4,2,1,40,0,0
114298,-111.111111111111,4,2,1,40,0,0
115012,-100,4,2,1,70,0,0
137869,-100,4,2,4,60,0,0

[Colours]
Combo1 : 222,58,63
Combo2 : 192,50,64
Combo3 : 112,135,158
Combo4 : 112,145,169
Combo5 : 20,109,143
Combo6 : 14,130,146
Combo7 : 10,173,177
Combo8 : 57,185,196

[HitObjects]
79,241,12,5,8,0:0:0:0:
134,246,190,1,8,0:0:0:0:
159,296,369,1,0,1:0:0:0:
268,269,727,6,0,B|277:235|252:206|248:209|220:193|227:148,2,130,4|2|8,1:2|0:0|0:0,2:0:0:0:
269,314,1619,2,0,P|311:264|391:276,1,130,2|0,0:0|1:2,2:0:0:0:
403,296,2155,1,2,1:2:0:0:
423,115,2869,6,0,P|392:63|317:75,2,130,10|2|0,0:0|0:0|1:2,2:0:0:0:
456,199,3941,2,0,P|379:214|349:277,1,130,2|8,0:0|0:0,2:0:0:0:
347,298,4476,2,0,P|278:259|214:288,1,130,2|0,0:0|1:2,2:0:0:0:
202,307,5012,1,2,1:2:0:0:
84,168,5726,5,8,0:0:0:0:
103,209,5905,1,0,1:0:0:0:
146,221,6084,1,4,1:3:0:0:
225,177,6441,5,0,1:0:0:0:
304,133,6798,2,0,P|375:168|371:217,1,130,2|8,0:0|0:0,2:0:0:0:
404,244,7334,2,0,P|359:297|297:300,1,130,2|0,0:0|1:2,2:0:0:0:
264,276,7869,1,2,1:2:0:0:
86,317,8584,5,10,0:0:0:0:
168,354,8941,2,0,P|176:279|189:206,1,130,2|0,1:2|1:0,2:0:0:0:
251,163,9655,2,0,P|260:94|206:77,1,130,2|8,0:0|0:0,2:0:0:0:
179,44,10191,2,0,P|111:80|107:133,1,130,2|0,0:0|1:2,2:0:0:0:
123,168,10726,1,2,1:2:0:0:
250,297,11441,2,0,P|279:283|318:270,2,65,10|8|12,3:2|3:0|3:0,2:0:0:0:
179,353,12155,6,0,B|122:321|139:256|143:257|158:208|124:177,1,195,2|2,1:2|0:0,2:0:0:0:
79,179,12869,2,0,L|50:45,2,130,10|2|0,0:0|0:0|1:0,2:0:0:0:
153,231,13941,1,4,1:3:0:0:
227,179,14298,1,8,0:0:0:0:
314,202,14655,1,4,0:3:0:0:
390,152,15012,6,0,B|341:189|367:263|371:261|384:303|355:333,1,195,2|2,1:2|0:0,2:0:0:0:
343,377,15726,2,0,P|292:335|226:336,1,130,10|2,0:0|0:0,2:0:0:0:
159,277,16441,2,0,P|126:316|78:313,2,97.5,2|2|2,1:2|0:0|0:0,2:0:0:0:
198,254,17155,2,0,P|172:178|99:179,1,130,10|2,0:0|1:2,2:0:0:0:
68,101,17869,6,0,L|44:-7,2,97.5,2|2|2,1:2|0:0|0:0,2:0:0:0:
30,127,18584,2,0,B|17:159|35:193|41:190|69:215|55:255,1,130,10|2,0:0|0:0,2:0:0:0:
75,337,19298,2,0,P|149:297|205:278,2,130,0|4|8,1:0|1:3|0:0,2:0:0:0:
153,383,20369,1,4,1:3:0:0:
238,351,20726,6,0,P|287:349|336:384,2,97.5,2|2|2,1:2|0:0|0:0,2:0:0:0:
203,321,21441,2,0,P|199:266|262:236,1,130,10|2,0:0|0:0,2:0:0:0:
349,226,22155,2,0,P|369:187|325:138,2,97.5,2|2|2,1:2|0:0|0:0,2:0:0:0:
329,267,22869,2,0,L|348:330,2,65,10|8|0,0:0|0:0|2:0,2:0:0:0:
420,269,23584,6,0,P|475:198|422:119,1,195,2|2,1:2|0:0,2:0:0:0:
404,78,24298,2,0,B|362:64|334:96|338:96|320:122|285:119,1,130,10|2,0:0|0:0,2:0:0:0:
218,179,25012,2,0,P|179:123|118:105,2,130,0|4|8,1:0|1:3|0:0,2:0:0:0:
201,268,26084,1,4,0:3:0:0:
244,348,26441,6,0,P|296:344|340:378,2,97.5,2|2|2,1:2|0:0|0:0,2:0:0:0:
202,367,27155,2,0,P|126:341|127:290,1,130,10|0,0:0|2:0,2:0:0:0:
167,222,27869,2,0,P|170:170|121:130,2,97.5,2|2|2,1:2|0:0|0:0,2:0:0:0:
189,261,28584,2,0,P|256:263|285:195,1,130,10|0,0:0|1:2,2:0:0:0:
336,138,29298,6,0,L|230:106,2,97.5,2|2|2,1:2|2:0|0:0,2:0:0:0:
361,175,30012,2,0,P|392:119|462:117,2,130,10|2|0,0:0|0:0|1:0,2:0:0:0:
387,262,31084,1,4,1:3:0:0:
416,347,31441,1,8,0:0:0:0:
330,379,31798,1,4,1:3:0:0:
301,292,32155,6,0,P|262:263|204:275,2,97.5,2|2|2,1:2|0:0|0:0,2:0:0:0:
345,281,32869,2,0,P|357:212|297:171,1,130,10|0,0:0|2:0,2:0:0:0:
233,137,33584,6,0,P|200:156|187:228,2,97.5,2|2|2,1:2|0:0|0:0,2:0:0:0:
251,95,34298,2,0,P|183:56|122:87,1,130,8|2,0:0|0:0,2:0:0:0:
54,106,35012,6,0,P|72:134|87:192,1,65,4|2,1:2|0:0,2:0:0:0:
85,206,35369,1,2,0:0:0:0:
43,301,35726,1,10,0:0:0:0:
94,310,35905,1,2,0:0:0:0:
129,347,36084,1,2,0:0:0:0:
174,253,36441,6,0,P|222:193|279:176,1,130,2|0,1:2|1:0,2:0:0:0:
342,251,37155,2,0,P|394:225|372:167,1,130,10|2,0:0|0:0,2:0:0:0:
270,176,37869,5,2,1:2:0:0:
234,137,38048,1,2,0:0:0:0:
246,86,38226,1,2,0:0:0:0:
331,27,38584,1,10,0:0:0:0:
373,56,38762,1,2,0:0:0:0:
424,63,38941,1,2,0:0:0:0:
491,141,39298,2,0,P|434:153|381:225,1,130,2|0,1:2|1:0,2:0:0:0:
378,308,40012,2,0,B|335:317|315:282|319:280|295:252|255:259,1,130,10|2,0:0|1:2,2:0:0:0:
171,305,40726,6,0,P|152:277|118:246,2,65,2|2|2,1:2|0:0|0:0,2:0:0:0:
241,382,41441,2,0,P|268:364|321:350,2,65,10|2|2,0:0|0:0|0:0,2:0:0:0:
253,278,42155,2,0,P|263:199|254:128,1,130,2|2,1:2|1:2,2:0:0:0:
211,56,42869,1,10,0:0:0:0:
110,31,43226,1,2,1:2:0:0:
17,79,43584,6,0,P|4:110|6:155,2,65,2|2|2,1:2|0:0|0:0,2:0:0:0:
98,143,44298,2,0,P|112:169|157:200,2,65,10|2|2,0:0|0:0|0:0,2:0:0:0:
200,123,45012,2,0,P|273:122|323:72,2,130,2|2|8,1:2|1:2|0:0,2:0:0:0:
164,93,45905,1,8,0:0:0:0:
164,93,46084,1,4,0:3:0:0:
87,163,46441,6,0,B|78:194|102:220|105:216|130:242|123:283,2,130,0|2|10,1:0|0:0|0:0,2:0:0:0:
7,96,47512,1,2,0:0:0:0:
20,45,47691,1,2,1:2:0:0:
68,27,47869,2,0,B|105:15|105:15|171:38|167:98|162:98|147:166|213:188,1,260,2|10,1:2|0:0,2:0:0:0:
306,139,48941,1,2,0:0:0:0:
396,189,49298,6,0,P|411:222|409:276,2,65,2|2|2,1:2|0:0|0:0,2:0:0:0:
393,85,50012,2,0,P|422:84|480:110,2,65,10|2|2,0:0|0:0|0:0,2:0:0:0:
306,139,50726,2,0,B|237:174|193:104|196:102|155:34|69:68,1,260,2|10,1:2|0:0,2:0:0:0:
12,148,51798,1,2,1:2:0:0:
60,239,52155,5,2,1:2:0:0:
112,241,52334,1,2,0:0:0:0:
144,200,52512,1,2,0:0:0:0:
243,231,52869,1,10,0:0:0:0:
280,194,53048,1,2,0:0:0:0:
331,196,53226,1,2,0:0:0:0:
403,271,53584,2,0,P|436:192|478:151,1,130,2|2,1:2|1:2,2:0:0:0:
472,56,54298,2,0,P|405:90|342:98,1,130,10|2,0:0|1:2,2:0:0:0:
270,33,55012,5,2,0:0:0:0:
260,371,57155,5,10,0:0:0:0:
250,319,57334,1,8,0:0:0:0:
208,288,57512,1,0,1:2:0:0:
150,201,57869,6,0,P|166:161|233:148,2,97.5,6|2|2,1:2|2:0|0:0,2:0:0:0:
112,236,58584,2,0,P|50:211|54:128,1,130,10|2,0:0|0:0,2:0:0:0:
67,105,59119,1,0,1:0:0:0:
67,105,59298,2,0,B|171:93|171:93|197:65|197:65|318:54,1,260,0|8,1:0|0:0,2:0:0:0:
350,165,60369,1,4,0:3:0:0:
454,112,60726,6,0,P|496:127|507:180,2,97.5,2|2|2,1:2|0:0|0:0,2:0:0:0:
413,79,61441,2,0,P|356:111|363:169,1,130,10|2,0:0|0:0,2:0:0:0:
397,265,62155,2,0,P|439:239|513:228,2,97.5,2|2|2,1:2|0:0|0:0,2:0:0:0:
362,304,62869,2,0,P|301:264|235:247,1,130,10|2,0:0|1:2,2:0:0:0:
142,247,63584,6,0,B|127:295|127:295|167:339,2,97.5,2|2|2,1:2|0:0|0:0,2:0:0:0:
95,223,64298,2,0,B|71:143|71:143|103:106,1,130,10|2,0:0|0:0,2:0:0:0:
149,84,64834,1,0,1:0:0:0:
149,84,65012,2,0,P|207:107|206:168,2,130,0|4|8,1:0|0:3|0:0,2:0:0:0:
97,93,65905,1,0,1:0:0:0:
50,68,66084,1,0,1:0:0:0:
8,163,66441,6,0,P|32:200|57:272,2,97.5,2|2|2,1:2|0:0|0:0,2:0:0:0:
8,110,67155,2,0,P|89:101|124:158,1,130,10|0,0:0|2:0,2:0:0:0:
195,200,67869,2,0,P|168:236|153:299,2,97.5,2|2|2,1:2|0:0|0:0,2:0:0:0:
245,184,68584,1,10,0:0:0:0:
275,142,68762,1,8,0:0:0:0:
267,90,68941,1,0,2:0:0:0:
368,112,69298,6,0,P|393:83|379:28,2,97.5,2|2|2,1:2|2:0|0:0,2:0:0:0:
335,152,70012,2,0,P|382:192|377:260,1,130,10|2,0:0|0:0,2:0:0:0:
357,305,70548,1,0,1:0:0:0:
357,305,70726,2,0,P|386:371|434:358,2,130,0|4|8,1:0|0:3|0:0,2:0:0:0:
278,235,71798,1,4,0:3:0:0:
257,336,72155,6,0,P|220:307|149:292,2,97.5,2|2|2,1:2|0:0|0:0,2:0:0:0:
303,359,72869,2,0,P|353:338|370:241,1,130,10|0,0:0|2:0,2:0:0:0:
322,183,73584,2,0,P|290:205|225:220,2,97.5,2|2|2,1:2|0:0|0:0,2:0:0:0:
361,149,74298,2,0,P|323:82|257:88,1,130,10|0,0:0|1:2,2:0:0:0:
172,82,75012,6,0,B|133:49|133:49|146:-1,2,97.5,2|0|2,1:2|2:0|0:0,2:0:0:0:
209,118,75726,2,0,P|189:175|175:244,1,130,10|2,0:0|0:0,2:0:0:0:
179,299,76262,1,0,1:0:0:0:
179,299,76441,2,0,P|227:346|284:312,1,130,0|4,1:0|0:3,2:0:0:0:
315,227,77155,1,8,0:0:0:0:
350,188,77334,1,0,1:0:0:0:
400,197,77512,1,0,1:0:0:0:
492,117,77869,6,0,P|495:78|453:33,2,97.5,2|2|2,1:2|0:0|0:0,2:0:0:0:
501,168,78584,2,0,P|446:212|456:272,1,130,10|2,0:0|2:0,2:0:0:0:
374,335,79298,2,0,P|344:301|276:286,2,97.5,2|2|2,1:2|0:0|0:0,2:0:0:0:
419,360,80012,2,0,P|450:304|417:238,1,130,8|2,0:0|0:0,2:0:0:0:
336,195,80726,5,2,0:0:0:0:
85,94,103584,6,0,P|105:118|123:160,1,58.4999982147217,2|2,0:0|0:0,2:0:0:0:
128,181,103941,1,2,0:0:0:0:
208,196,104298,2,0,P|193:264|156:298,1,116.999996429443,2|2,0:0|0:0,2:0:0:0:
125,314,104834,1,2,0:0:0:0:
125,314,105012,2,0,P|67:292|83:236,2,116.999996429443,2|2|2,0:0|0:0|0:0,2:0:0:0:
279,368,106441,5,2,0:0:0:0:
303,335,106619,1,2,0:0:0:0:
343,331,106798,1,2,0:0:0:0:
417,297,107155,2,0,P|432:230|393:204,1,116.999996429443,2|2,0:0|0:0,2:0:0:0:
369,186,107691,1,2,0:0:0:0:
369,186,107869,2,0,P|318:215|259:227,2,116.999996429443,2|2|2,0:0|0:0|0:0,2:0:0:0:
475,61,109298,5,2,0:0:0:0:
460,22,109476,1,2,0:0:0:0:
419,19,109655,1,2,0:0:0:0:
360,75,110012,1,2,0:0:0:0:
280,93,110369,2,0,P|250:74|213:64,1,58.4999982147217,2|2,0:0|0:0,2:0:0:0:
187,63,110726,1,2,0:0:0:0:
152,137,111084,1,2,0:0:0:0:
117,211,111441,2,0,B|112:236|137:261|142:258|166:280|159:317,1,116.999996429443,2|0,0:0|2:0,2:0:0:0:
475,358,113584,5,2,0:0:0:0:
409,308,113941,1,2,0:0:0:0:
375,233,114298,1,2,0:0:0:0:
428,32,115012,6,0,P|474:40|489:105,2,97.5,6|2|2,1:2|2:0|0:0,2:0:0:0:
381,54,115726,2,0,P|321:27|236:13,1,130,10|2,0:0|0:0,2:0:0:0:
210,24,116262,1,0,1:0:0:0:
210,24,116441,2,0,P|210:108|274:109,1,130,0|4,1:0|1:3,2:0:0:0:
341,143,117155,1,8,0:0:0:0:
382,174,117334,1,0,1:0:0:0:
382,225,117512,1,4,1:3:0:0:
310,300,117869,6,0,P|270:293|206:246,2,97.5,2|2|2,1:2|0:0|0:0,2:0:0:0:
336,345,118584,2,0,P|400:312|388:254,1,130,10|2,0:0|0:0,2:0:0:0:
326,184,119298,2,0,P|301:144|295:86,2,97.5,2|2|2,1:2|0:0|0:0,2:0:0:0:
321,235,120012,2,0,P|390:256|427:200,1,130,10|2,0:0|1:2,2:0:0:0:
449,117,120726,6,0,P|464:73|502:27,2,97.5,2|2|2,1:2|0:0|0:0,2:0:0:0:
398,131,121441,2,0,P|335:85|272:68,1,130,10|2,0:0|0:0,2:0:0:0:
244,99,121976,1,0,1:0:0:0:
244,99,122155,2,0,P|192:48|225:-3,1,130,0|4,1:0|0:3,2:0:0:0:
316,8,122869,1,8,0:0:0:0:
390,79,123226,2,0,P|407:111|395:163,1,65,4|2,1:3|0:0,2:0:0:0:
374,180,123584,6,0,P|341:156|282:137,2,97.5,2|2|2,1:2|0:0|0:0,2:0:0:0:
403,222,124298,2,0,P|393:289|322:298,1,130,10|0,0:0|2:0,2:0:0:0:
245,262,125012,6,0,P|225:225|255:162,2,97.5,2|2|2,1:2|0:0|0:0,2:0:0:0:
228,311,125726,2,0,P|159:319|129:260,1,130,10|0,0:0|1:0,2:0:0:0:
54,201,126441,6,0,P|61:163|120:134,2,97.5,2|2|2,1:2|2:0|0:0,2:0:0:0:
26,245,127155,2,0,P|60:300|140:283,1,130,10|2,0:0|0:0,2:0:0:0:
158,264,127691,1,0,1:0:0:0:
158,264,127869,2,0,P|231:233|309:236,1,130,0|4,1:0|0:3,2:0:0:0:
346,311,128584,1,8,0:0:0:0:
395,296,128762,1,0,1:0:0:0:
406,245,128941,1,4,1:3:0:0:
400,141,129298,6,0,P|368:113|297:95,2,97.5,2|2|2,1:2|0:0|0:0,2:0:0:0:
451,146,130012,2,0,P|473:76|429:38,1,130,10|0,0:0|2:0,2:0:0:0:
343,82,130726,2,0,P|317:115|303:172,2,97.5,2|2|2,1:2|0:0|0:0,2:0:0:0:
313,38,131441,2,0,P|233:46|213:86,1,130,10|0,0:0|1:2,2:0:0:0:
124,154,132155,6,0,P|153:186|167:260,2,97.5,2|2|2,1:2|2:0|0:0,2:0:0:0:
74,136,132869,2,0,P|69:61|125:47,1,130,10|2,0:0|0:0,2:0:0:0:
166,54,133405,1,0,1:0:0:0:
166,54,133584,2,0,P|229:73|320:74,1,130,0|4,1:0|1:3,2:0:0:0:
390,42,134298,1,8,0:0:0:0:
437,62,134476,1,0,1:0:0:0:
449,112,134655,1,4,1:3:0:0:
393,199,135012,6,0,P|377:239|370:308,2,97.5,2|2|2,1:2|0:0|0:0,2:0:0:0:
368,152,135726,2,0,P|295:137|266:188,1,130,10|0,0:0|2:0,2:0:0:0:
213,264,136441,2,0,P|236:301|283:336,2,97.5,2|2|2,1:2|0:0|0:0,2:0:0:0:
188,218,137155,2,0,P|117:233|104:291,1,130,8|2,0:0|1:2,2:0:0:0:
151,373,137869,5,6,0:0:0:0:
