osu file format v14

[General]
AudioFilename: mp3desu.mp3
AudioLeadIn: 0
PreviewTime: 45760
Countdown: 0
SampleSet: Normal
StackLeniency: 0.7
Mode: 0
LetterboxInBreaks: 0
WidescreenStoryboard: 1

[Editor]
Bookmarks: 115277,160070,187380
DistanceSpacing: 1
BeatDivisor: 4
GridSize: 32
TimelineZoom: 1.7

[Metadata]
Title:No Good Magia (Start the Witch)
TitleUnicode:No Good Magia (Start the Witch)
Artist:Kalafina x The Prodigy
ArtistUnicode:Kalafina x The Prodigy
Creator:Okoratu
Version:Walpurgisnacht
Source:魔法少女まどか☆マギカ
Tags:Start the Dance mahou shoujo Puella Magi Madoka Magica kajiura yuki Okorin Kite Melwoine Walpurgisnacht crn caren_sk
BeatmapID:2067859
BeatmapSetID:988552

[Difficulty]
HPDrainRate:6
CircleSize:4
OverallDifficulty:8
ApproachRate:9
SliderMultiplier:3.2
SliderTickRate:2

[Events]
//Background and Video events
0,0,"BG.jpg",0,0
//Break Periods
2,44408,45263
2,72546,80022
2,107305,108160
2,140408,161125
2,214994,215731
//Storyboard Layer 0 (Background)
//Storyboard Layer 1 (Fail)
//Storyboard Layer 2 (Pass)
//Storyboard Layer 3 (Foreground)
//Storyboard Layer 4 (Overlay)
//Storyboard Sound Samples

[TimingPoints]
1174,413.793103448276,4,1,1,40,1,0
1174,-133.333333333333,4,1,1,40,0,0
4794,-133.333333333333,4,1,1,25,0,0
4898,-133.333333333333,4,1,1,40,0,0
5105,-133.333333333333,4,1,1,25,0,0
5518,-133.333333333333,4,1,1,40,0,0
5829,-133.333333333333,4,1,1,25,0,0
5932,-133.333333333333,4,1,1,40,0,0
6421,-133.333333333333,4,1,1,25,0,0
6553,-133.333333333333,4,1,1,40,0,0
6863,-133.333333333333,4,1,1,25,0,0
6967,-133.333333333333,4,1,1,40,0,0
8105,-133.333333333333,4,1,1,25,0,0
8208,-133.333333333333,4,1,1,40,0,0
8415,-133.333333333333,4,1,1,25,0,0
8829,-133.333333333333,4,1,1,40,0,0
9139,-133.333333333333,4,1,1,25,0,0
9242,-133.333333333333,4,1,1,40,0,0
9760,-133.333333333333,4,1,1,25,0,0
9863,-133.333333333333,4,1,1,40,0,0
10174,-133.333333333333,4,1,1,25,0,0
10225,-133.333333333333,4,1,1,45,0,0
11725,-133.333333333333,4,1,1,15,0,0
11932,-133.333333333333,4,1,1,40,0,0
14932,-133.333333333333,4,1,1,25,0,0
15242,-133.333333333333,4,1,1,40,0,0
16898,-133.333333333333,4,1,1,47,0,0
17311,-133.333333333333,4,1,1,40,0,0
17725,-100,4,1,1,40,0,0
22691,-100,4,1,1,35,0,0
23415,-100,4,1,1,20,0,0
24346,-100,4,1,1,45,0,0
29311,-100,4,1,1,35,0,0
30139,-100,4,1,1,48,0,0
30553,-100,4,1,1,50,0,0
30967,-100,4,1,1,40,0,0
40898,-100,4,1,1,33,0,0
41725,-100,4,1,1,35,0,0
42553,-100,4,1,1,40,0,0
43380,-100,4,1,1,50,0,0
45863,-80,4,1,1,50,0,1
58070,-80,4,1,1,50,0,1
59105,-80,4,1,1,50,0,1
72346,-80,4,1,1,40,0,0
72353,-133.333333333333,4,1,1,5,0,0
80622,-133.333333333333,4,1,1,30,0,0
85587,-100,4,1,1,30,0,0
87242,-100,4,1,1,40,0,0
108760,-80,4,1,1,50,0,1
120967,-80,4,1,1,50,0,1
122001,-80,4,1,1,50,0,1
135242,-80,4,1,1,40,0,0
136898,-80,4,1,1,5,0,0
140208,-80,4,1,1,30,0,0
161725,-80,4,1,1,55,0,0
188208,-80,4,1,1,38,0,0
214794,-80,4,1,1,5,0,0
216331,413.793103448276,4,1,1,55,1,1
216331,-66.6666666666667,4,1,1,55,0,1
242813,-80,4,1,1,55,0,0

[Colours]
Combo1 : 177,162,148
Combo2 : 34,95,149
Combo3 : 186,80,186
Combo4 : 46,150,105
Combo5 : 167,35,38

[HitObjects]
214,213,4484,6,0,B|243:192|282:174|346:197,1,120.000004577637,4|2,0:2|0:2,0:0:0:0:
451,318,4898,2,0,B|408:338|361:335|324:312,1,120.000004577637,8|0,0:0|0:0,0:0:0:0:
334,318,5208,1,0,0:0:0:0:
334,318,5311,1,0,0:0:0:0:
363,92,5518,2,0,B|400:134|407:158|412:223,1,120.000004577637,0|8,0:0|0:0,0:0:0:0:
429,227,5829,2,0,L|304:212,1,120.000004577637
224,157,6139,6,0,B|274:204|279:278|243:340,1,180.000006866455
212,358,6553,2,0,L|186:213,1,120.000004577637,0|8,0:0|0:0,0:0:0:0:
238,33,6967,1,0,0:0:0:0:
81,180,7174,1,2,0:2:0:0:
81,180,7277,1,0,0:0:0:0:
203,103,7484,1,2,0:2:0:0:
203,103,7587,1,0,0:0:0:0:
306,265,7794,6,0,B|321:283|342:299|389:303,1,60.0000022888184
359,136,8001,2,0,L|353:50,1,60.0000022888184
244,191,8208,1,0,0:0:0:0:
244,191,8311,2,0,B|188:226|128:225|56:192,1,180.000006866455,0|8,0:0|0:0,0:0:0:0:
270,344,8829,2,0,B|316:364|356:368|416:369,1,120.000004577637,0|8,0:0|0:0,0:0:0:0:
429,199,9139,2,0,L|438:329,1,120.000004577637
481,344,9449,5,0,0:0:0:0:
342,253,9656,1,0,0:0:0:0:
252,141,9863,1,0,0:0:0:0:
252,141,9967,1,0,0:0:0:0:
252,141,10070,2,0,L|184:152,1,60.0000022888184
336,108,10277,1,0,0:0:0:0:
199,60,10484,1,4,0:2:0:0:
199,60,10587,1,0,0:0:0:0:
271,256,10794,1,0,0:0:0:0:
271,256,10898,1,2,0:2:0:0:
11,261,11105,5,6,0:0:0:0:
38,222,11208,1,0,0:0:0:0:
88,213,11311,1,2,0:2:0:0:
207,125,11518,2,0,B|176:191|175:223|203:332,1,180.000006866455
220,323,11932,1,8,0:0:0:0:
391,167,12139,2,0,B|337:175|312:184|267:207,1,120.000004577637,0|8,0:0|0:0,0:0:0:0:
428,229,12449,2,0,L|438:72,1,120.000004577637
366,42,12760,1,0,0:0:0:0:
366,42,12967,1,0,0:0:0:0:
104,144,13174,5,2,0:0:0:0:
326,223,13380,1,0,0:0:0:0:
144,71,13587,2,0,B|189:98|192:141|171:198,1,120.000004577637,10|0,0:0|0:0,0:0:0:0:
178,175,13898,1,0,0:0:0:0:
178,175,14001,1,0,0:0:0:0:
214,16,14208,1,0,0:0:0:0:
431,127,14415,6,0,L|511:156,1,60.0000022888184,2|0,0:2|0:0,0:0:0:0:
334,181,14622,2,0,L|326:255,1,60.0000022888184,2|0,0:2|0:0,0:0:0:0:
436,301,14829,1,0,0:0:0:0:
436,301,14932,2,0,B|407:243|402:198|440:106,1,180.000006866455,0|8,0:0|0:0,0:0:0:0:
248,126,15449,2,0,L|265:306,2,180.000006866455
156,338,16277,2,0,B|135:355|98:373|59:361,1,60.0000022888184
94,142,16484,2,2,B|114:133|139:120|161:73,1,60.0000022888184,2|0,0:2|0:2,0:2:0:0:
238,185,16691,2,0,L|249:259,1,60.0000022888184
171,292,16898,1,0,0:0:0:0:
147,199,17002,1,0,0:0:0:0:
284,121,17105,1,4,0:2:0:0:
284,121,17725,6,0,B|216:110|149:167|169:238,1,160,2|0,0:2|0:0,0:0:0:0:
382,210,18036,1,0,0:0:0:0:
382,210,18139,2,0,B|380:147|378:119|362:42,1,160,10|0,0:2|0:0,0:0:0:0:
174,46,18449,1,0,0:0:0:0:
208,146,18553,2,0,L|296:117,1,80,0|2,0:0|0:2,0:0:0:0:
66,124,18760,2,0,L|81:211,1,80
104,331,18967,2,0,L|208:305,1,80,8|0,0:0|0:0,0:0:0:0:
208,146,19174,2,0,L|311:154,1,80
226,250,19380,6,0,L|142:244,2,80,4|0|0,0:0|0:0|0:0,0:0:0:0:
299,288,19691,1,0,0:0:0:0:
299,288,19794,2,0,L|313:380,1,80,10|0,0:2|0:0,0:0:0:0:
406,185,20001,1,0,0:0:0:0:
406,185,20105,1,2,0:0:0:0:
406,185,20208,2,0,L|321:195,1,80,2|0,0:2|0:2,0:0:0:0:
244,58,20415,2,0,L|357:93,1,80
226,182,20622,2,0,L|246:277,1,80,10|0,0:2|0:0,0:0:0:0:
80,373,20829,2,0,L|98:275,1,80
52,70,21036,6,0,B|18:124|25:167|54:232,1,160,6|0,0:0|0:0,0:0:0:0:
143,118,21346,1,0,0:0:0:0:
143,118,21449,2,0,L|241:107,1,80,8|2,0:0|0:2,0:0:0:0:
305,41,21656,2,0,B|293:74|293:96|298:129,1,80
263,261,21863,2,0,L|374:273,1,80,2|0,0:2|0:0,0:0:0:0:
484,159,22070,2,0,L|374:168,1,80
226,92,22277,1,8,0:0:0:0:
247,182,22380,2,0,L|266:277,1,80
124,359,22587,1,0,0:0:0:0:
124,359,22691,6,0,B|156:302|157:243|117:185,1,160,2|0,0:2|2:0,0:0:0:0:
17,186,23001,1,2,2:2:0:0:
17,186,23105,2,0,B|16:236|60:264|60:264|51:352,1,160
352,93,23518,1,0,0:0:0:0:
215,229,23725,1,0,0:0:0:0:
330,245,23932,1,0,0:0:0:0:
259,48,24139,1,0,0:0:0:0:
352,93,24346,6,0,B|280:61|210:94|173:146,1,160,6|0,0:0|0:0,0:0:0:0:
72,302,24656,1,0,0:0:0:0:
127,233,24760,2,0,B|145:181|136:129|93:68,1,160,10|8,0:2|0:0,0:0:0:0:
0,94,25070,1,0,0:0:0:0:
0,94,25174,2,0,L|12:177,2,80,2|0|0,0:2|0:0|0:0,0:0:0:0:
114,0,25484,1,0,0:0:0:0:
114,0,25587,2,0,B|136:6|171:21|178:78,1,80,10|0,0:2|0:0,0:0:0:0:
194,166,25794,2,0,B|216:165|233:166|286:140,1,80,8|0,0:0|0:0,0:0:0:0:
379,61,26001,6,0,B|356:94|353:135|357:165,1,80
328,343,26208,2,0,L|441:355,1,80,2|0,0:2|0:0,0:0:0:0:
459,261,26415,2,0,L|374:253,1,80,10|0,0:2|0:0,0:0:0:0:
269,147,26622,2,0,L|291:270,1,80,2|0,0:0|0:0,0:0:0:0:
213,321,26829,1,0,0:0:0:0:
213,321,26932,2,0,L|91:301,2,80,2|0|0,0:2|0:0|0:0,0:0:0:0:
368,260,27242,2,0,L|384:340,1,80,10|0,0:2|0:0,0:0:0:0:
428,154,27449,2,0,L|330:118,1,80,8|0,0:0|0:0,0:0:0:0:
165,30,27656,6,0,B|219:54|232:107|221:169,1,160,6|0,0:2|0:0,0:0:0:0:
65,332,27967,1,2,0:2:0:0:
99,246,28070,2,0,L|193:226,1,80,8|0,0:0|0:0,0:0:0:0:
261,336,28277,2,0,L|253:235,1,80,2|0,0:2|0:0,0:0:0:0:
363,153,28484,1,0,0:0:0:0:
363,153,28587,1,2,0:0:0:0:
363,153,28691,2,0,L|358:257,1,80,2|0,0:2|0:0,0:0:0:0:
440,91,28898,2,0,L|346:57,1,80,10|0,0:2|0:0,0:0:0:0:
203,69,29105,2,0,L|195:206,1,80,8|0,0:0|0:0,0:0:0:0:
212,270,29311,6,0,B|215:211|190:169|106:162,1,160,2|0,0:2|0:0,0:0:0:0:
129,350,29622,1,10,0:2:0:0:
129,350,29725,2,0,L|226:338,1,80,8|0,0:0|0:0,0:0:0:0:
307,288,29932,1,2,0:2:0:0:
73,187,30139,6,0,L|50:44,1,80,8|0,0:0|0:0,0:0:0:0:
192,73,30346,1,0,0:0:0:0:
180,167,30449,2,0,L|166:290,1,80,8|0,0:0|0:0,0:0:0:0:
203,359,30656,1,0,0:0:0:0:
291,290,30760,2,0,L|405:270,1,80,8|0,0:0|0:0,0:0:0:0:
187,87,30967,5,4,0:2:0:0:
452,68,31174,1,0,0:0:0:0:
452,68,31277,1,2,0:2:0:0:
452,68,31380,1,0,0:0:0:0:
455,197,31587,1,8,0:0:0:0:
278,59,31794,2,0,B|242:138|177:177|60:174,1,240,2|0,0:0|0:0,0:0:0:0:
64,211,32208,2,0,L|77:92,1,80,2|0,0:2|0:0,0:0:0:0:
139,260,32415,2,0,L|126:364,1,80,2|0,0:2|0:0,0:0:0:0:
43,367,32622,5,0,0:0:0:0:
257,197,32829,1,0,0:0:0:0:
257,197,32932,1,2,0:2:0:0:
257,197,33036,1,0,0:0:0:0:
281,348,33242,1,8,0:0:0:0:
179,140,33449,1,2,0:2:0:0:
179,140,33553,1,2,0:2:0:0:
179,140,33656,1,0,0:0:0:0:
188,333,33863,1,0,0:0:0:0:
412,295,34070,1,0,0:0:0:0:
256,27,34277,6,0,B|295:104|282:182|205:265,1,240,6|0,0:0|0:0,0:0:0:0:
192,259,34691,1,0,0:0:0:0:
351,150,34898,1,8,0:0:0:0:
129,99,35105,6,0,B|90:176|103:254|180:337,1,240,2|0,0:0|0:0,0:0:0:0:
193,331,35519,1,8,0:0:0:0:
367,208,35726,1,10,0:2:0:0:
209,184,35932,5,0,0:0:0:0:
243,189,36036,1,0,0:0:0:0:
265,214,36139,1,2,0:2:0:0:
270,241,36242,1,2,0:2:0:0:
257,271,36346,1,8,0:0:0:0:
406,181,36553,1,0,0:0:0:0:
328,54,36760,1,2,0:2:0:0:
328,54,36863,1,2,0:2:0:0:
328,54,36967,1,0,0:0:0:0:
331,338,37174,2,0,B|392:271|402:175|353:55,1,240,6|0,0:2|0:0,0:0:0:0:
411,98,37587,6,0,L|256:73,1,80,6|0,0:2|0:0,0:0:0:0:
172,187,37794,1,0,0:0:0:0:
172,187,37898,1,0,0:0:0:0:
172,187,38001,1,10,0:2:0:0:
238,42,38208,1,0,0:0:0:0:
232,283,38415,2,0,B|181:240|98:202|8:275,1,240,2|0,0:0|0:0,0:0:0:0:
22,321,38829,5,2,0:2:0:0:
119,158,39036,1,0,0:0:0:0:
119,158,39139,1,0,0:0:0:0:
119,158,39242,1,8,0:0:0:0:
184,362,39449,1,0,0:0:0:0:
125,259,39656,2,0,B|208:232|208:232|276:280,1,160,2|8,0:2|0:0,0:0:0:0:
425,344,40070,1,0,0:0:0:0:
425,344,40174,1,2,0:2:0:0:
425,344,40277,2,0,L|394:247,1,80
328,171,40484,2,0,L|228:184,1,80,2|0,0:2|0:0,0:0:0:0:
218,27,40691,2,0,L|256:137,1,80,2|0,0:2|0:0,0:0:0:0:
276,258,40898,6,0,B|231:169|89:178|88:317,1,240,6|0,0:0|0:0,0:0:0:0:
126,367,41311,1,10,0:2:0:0:
401,128,41518,1,8,0:0:0:0:
374,230,41725,1,2,0:2:0:0:
374,230,41829,1,2,0:2:0:0:
374,230,41932,1,0,0:0:0:0:
333,30,42139,1,8,0:0:0:0:
154,206,42346,1,2,0:2:0:0:
428,78,42553,6,0,L|338:117,1,80,2|0,0:0|0:0,0:0:0:0:
84,78,42760,1,0,0:0:0:0:
84,78,42863,2,0,L|174:117,1,80,2|8,0:2|0:2,0:0:0:0:
256,114,43070,1,0,0:0:0:0:
256,114,43174,2,0,L|257:0,1,80,2|0,0:2|0:0,0:0:0:0:
126,261,43380,6,0,B|174:231|255:226|317:299,1,160,10|0,0:0|0:0,0:0:0:0:
434,348,43691,2,0,L|426:250,1,80,2|0,0:2|0:0,0:0:0:0:
467,67,43898,1,0,0:0:0:0:
467,67,44001,2,0,B|462:102|448:127|412:136,1,80,2|0,0:2|0:0,0:0:0:0:
257,352,44208,5,4,0:0:0:0:
257,352,45863,6,0,B|214:373|166:364|152:341,1,100,6|0,0:0|0:0,0:0:0:0:
42,149,46070,2,0,L|159:156,1,100,2|0,0:2|0:0,0:0:0:0:
321,191,46277,1,10,0:2:0:0:
380,122,46380,1,0,0:2:0:0:
292,65,46484,2,0,L|185:71,1,100
95,242,46691,2,0,B|74:261|62:303|77:350,2,100,2|2|0,0:2|0:2|0:2,0:0:0:0:
215,186,47001,1,0,0:0:0:0:
215,186,47105,2,0,B|233:221|234:265|208:335,1,100,10|0,0:2|0:0,0:0:0:0:
140,374,47311,2,0,B|274:360|273:360,1,100,8|0,0:0|0:0,0:0:0:0:
365,218,47518,6,2,B|308:245|308:245|346:394,1,200,6|0,0:0|0:0,0:0:0:0:
455,236,47829,1,0,0:0:0:0:
455,236,47932,2,0,L|474:113,1,100,8|0,0:0|0:0,0:0:0:0:
470,30,48139,2,0,L|357:65,1,100,8|0,0:0|0:0,0:0:0:0:
210,27,48346,2,0,L|239:152,1,100,8|0,0:2|0:0,0:0:0:0:
228,287,48553,2,0,L|333:248,1,100,8|0,0:0|0:0,0:0:0:0:
210,27,48760,2,0,B|137:25|89:100|140:187,1,200,2|0,0:0|0:0,0:0:0:0:
52,243,49070,1,2,0:2:0:0:
52,243,49174,6,0,L|183:265,1,100,6|0,0:0|0:0,0:0:0:0:
356,289,49380,1,0,0:0:0:0:
406,208,49484,1,0,0:0:0:0:
325,162,49587,2,0,L|217:185,1,100,10|0,0:2|0:0,0:0:0:0:
187,348,49794,2,0,B|213:349|258:345|269:278,1,100
133,81,50001,2,0,L|151:187,2,100,2|2|0,0:2|0:2|0:2,0:0:0:0:
230,26,50311,1,0,0:0:0:0:
230,26,50415,2,0,B|269:5|318:21|352:82,1,100,8|0,0:0|0:0,0:0:0:0:
362,343,50622,2,0,L|382:213,1,100,8|0,0:0|0:0,0:0:0:0:
449,151,50829,6,0,B|386:110|301:140|280:219,1,200,6|0,0:0|0:0,0:0:0:0:
71,325,51139,1,0,0:0:0:0:
122,240,51242,2,0,B|153:214|182:211|240:237,1,100,10|0,0:2|0:0,0:0:0:0:
364,335,51449,1,2,0:0:0:0:
364,335,51553,1,0,0:0:0:0:
364,335,51656,2,0,L|349:192,1,100,10|0,0:2|0:0,0:0:0:0:
122,240,51863,2,0,L|-5:253,1,100,8|0,0:0|0:0,0:0:0:0:
134,68,52070,1,2,0:2:0:0:
141,78,52174,1,2,0:2:0:0:
148,88,52277,1,0,0:2:0:0:
155,98,52380,1,0,0:0:0:0:
162,108,52484,6,0,B|122:141|78:139|50:135,1,100,6|0,0:0|0:0,0:0:0:0:
150,0,52691,2,0,B|206:7|227:22|269:69,1,100
352,273,52898,2,0,L|297:408,2,100,2|0|8,0:0|0:0|0:0,0:0:0:0:
256,187,53208,1,0,0:0:0:0:
160,273,53311,2,0,L|215:408,2,100,2|0|8,0:0|0:0|0:0,0:0:0:0:
165,130,53622,1,0,0:0:0:0:
165,130,53725,2,0,B|140:83|115:69|86:56,1,100,2|0,0:2|0:0,0:0:0:0:
0,228,53932,2,0,B|35:246|63:252|116:233,1,100,2|0,0:2|0:0,0:0:0:0:
328,89,54139,5,6,0:0:0:0:
261,148,54242,1,0,0:0:0:0:
261,238,54346,1,2,0:2:0:0:
297,320,54449,1,2,0:2:0:0:
386,338,54553,1,8,0:0:0:0:
136,52,54760,2,0,L|303:21,1,100,8|0,0:0|0:0,0:0:0:0:
448,147,54967,2,0,L|335:165,1,100,8|2,0:0|0:2,0:0:0:0:
44,353,55174,2,0,L|36:249,1,100,10|0,0:2|0:0,0:0:0:0:
154,187,55380,2,0,B|162:254|165:328|129:417,1,200,14|0,0:0|0:0,0:0:0:0:
297,231,55691,1,0,0:0:0:0:
297,231,55794,6,0,B|339:212|379:217|434:246,1,100,6|0,0:2|0:0,0:0:0:0:
382,384,56001,2,0,B|350:374|321:325|352:272,1,100,2|0,0:2|0:0,0:0:0:0:
201,133,56208,2,0,B|291:79|317:161|411:102,1,200,10|0,0:2|0:0,0:0:0:0:
209,44,56518,1,0,0:0:0:0:
113,116,56622,2,0,B|48:178|85:287|206:288,1,200,2|8,0:2|0:0,0:0:0:0:
261,207,56932,1,0,0:0:0:0:
261,207,57036,2,0,B|242:180|184:166|141:208,1,100,10|0,0:2|0:0,0:0:0:0:
308,30,57242,2,0,L|320:137,1,100,10|0,0:2|0:0,0:0:0:0:
367,356,57449,5,6,0:0:0:0:
367,356,57553,2,0,B|380:304|369:269|336:246,2,100,0|0|2,0:0|0:0|0:2,0:0:0:0:
284,318,57863,2,0,B|251:311|212:314|169:332,1,100,10|0,0:2|0:0,0:0:0:0:
84,125,58070,2,0,L|204:151,1,100,10|0,0:0|0:0,0:0:0:0:
329,47,58277,2,0,L|367:158,1,100,8|0,0:0|0:0,0:0:0:0:
186,326,58484,2,0,L|64:337,1,100,10|0,0:2|0:0,0:0:0:0:
74,213,58691,1,10,0:0:0:0:
154,213,58794,1,0,0:0:0:0:
252,214,58898,1,2,0:2:0:0:
367,213,59001,1,2,0:2:0:0:
409,309,59105,6,0,B|400:346|355:380|288:370,1,100,14|0,0:0|0:0,0:0:0:0:
475,151,59311,2,0,L|359:165,1,100
185,110,59518,2,0,B|273:128|300:182|286:276,2,200,10|0|10,0:2|0:0|0:2,0:0:0:0:
87,249,60036,1,2,0:2:0:0:
87,249,60139,2,0,B|120:241|158:248|183:290,1,100,8|0,0:0|0:0,0:0:0:0:
185,110,60346,2,0,L|61:145,1,100,10|0,0:2|0:0,0:0:0:0:
274,355,60553,2,0,L|295:235,1,100,2|0,0:2|0:0,0:0:0:0:
409,178,60760,6,0,B|423:205|432:226|431:292,2,100,6|0|0,0:0|0:0|0:0,0:0:0:0:
322,55,61070,1,0,0:0:0:0:
311,163,61174,2,0,B|293:188|257:210|192:204,1,100,10|0,0:2|0:0,0:0:0:0:
94,106,61380,2,0,B|137:92|170:93|208:118,1,100,2|0,0:2|0:0,0:0:0:0:
322,55,61587,2,0,B|286:31|260:27|199:30,1,100,10|0,0:2|0:0,0:0:0:0:
13,215,61794,2,0,L|124:213,1,100,10|0,0:2|0:0,0:0:0:0:
388,333,62001,1,10,0:0:0:0:
387,242,62105,1,0,0:0:0:0:
296,206,62208,1,10,0:2:0:0:
225,273,62311,1,0,0:0:0:0:
123,292,62415,6,0,L|8:295,1,100,14|0,0:0|0:0,0:0:0:0:
194,54,62622,2,0,L|191:169,1,100,2|0,0:2|0:0,0:0:0:0:
207,347,62829,2,0,B|215:332|235:281|239:190|160:116,1,200,2|8,0:2|0:0,0:0:0:0:
111,249,63139,1,0,0:0:0:0:
207,347,63242,2,0,B|293:365|341:330|377:257,1,200,2|8,0:2|0:0,0:0:0:0:
467,198,63553,1,0,0:0:0:0:
467,198,63656,2,0,B|426:197|384:184|355:142,1,100,2|0,0:2|0:0,0:0:0:0:
271,70,63863,2,0,B|286:117|284:137|279:178,1,100,2|0,0:2|0:0,0:0:0:0:
291,359,64070,5,10,0:0:0:0:
298,349,64174,1,0,0:0:0:0:
305,339,64277,1,0,0:0:0:0:
312,329,64380,1,2,0:2:0:0:
319,319,64484,1,10,0:2:0:0:
326,309,64587,1,0,0:0:0:0:
333,299,64691,2,0,B|382:302|406:312|423:334,1,100,8|0,0:2|0:0,0:0:0:0:
382,158,64898,2,0,L|276:175,1,100,8|2,0:0|0:2,0:0:0:0:
148,13,65105,2,0,B|177:11|212:27|232:60,1,100,8|0,0:0|0:0,0:0:0:0:
200,252,65311,1,8,0:0:0:0:
209,162,65415,1,0,0:0:0:0:
135,117,65518,1,2,0:2:0:0:
66,169,65622,1,2,0:2:0:0:
80,252,65725,6,0,B|96:278|118:297|159:323,1,100,6|0,0:0|0:0,0:0:0:0:
57,75,65932,2,0,B|85:46|113:29|167:24|166:24,1,100,10|0,0:2|0:0,0:0:0:0:
359,164,66139,2,2,B|246:109|192:225|33:156,1,300,10|0,0:0|0:0,0:0:0:0:
402,101,66553,6,0,B|438:120|449:164|414:206,1,100,2|0,0:2|0:0,0:0:0:0:
226,338,66760,2,0,B|215:302|235:251|299:254,1,100,8|0,0:0|0:0,0:0:0:0:
224,62,66967,2,0,L|111:93,1,100,2|0,0:2|0:0,0:0:0:0:
34,244,67174,1,0,0:0:0:0:
110,201,67277,1,2,0:2:0:0:
139,287,67380,6,0,B|164:309|191:317|235:319,1,100,6|0,0:0|0:0,0:0:0:0:
354,162,67587,2,0,B|324:158|287:175|262:196,1,100,8|0,0:2|0:0,0:0:0:0:
84,378,67794,2,2,B|44:290|58:183|118:71,1,300,10|0,0:0|0:0,0:0:0:0:
194,223,68208,6,0,B|193:280|179:303|161:335,2,100,8|2|0,0:0|0:2|0:0,0:0:0:0:
272,342,68518,1,0,0:0:0:0:
272,342,68622,2,0,L|396:314,1,100,8|0,0:0|0:0,0:0:0:0:
423,182,68829,2,0,B|381:169|342:173|314:205,1,100,8|0,0:0|0:0,0:0:0:0:
326,28,69036,6,2,B|334:85|372:96|372:96|306:139|337:230,1,200,6|0,0:0|0:0,0:0:0:0:
446,362,69346,2,0,L|420:255,1,100,2|8,0:2|0:0,0:0:0:0:
258,259,69553,1,0,0:0:0:0:
258,259,69656,2,0,B|271:222|300:193|365:184,1,100,10|0,0:2|0:0,0:0:0:0:
462,15,69863,2,2,B|486:90|465:149|402:195,2,200,2|8|2,0:0|0:0|0:2,0:0:0:0:
396,64,70380,1,2,0:2:0:0:
318,86,70484,1,0,0:0:0:0:
246,64,70587,1,0,0:0:0:0:
173,29,70691,6,2,B|157:125|182:159|229:225,1,200,6|0,0:0|0:0,0:0:0:0:
309,319,71001,2,0,B|291:291|242:275|183:313,1,100,2|8,0:2|0:0,0:0:0:0:
51,259,71208,1,0,0:0:0:0:
51,259,71311,2,0,L|86:365,1,100,8|0,0:0|0:0,0:0:0:0:
61,163,71518,2,0,B|94:189|132:195|177:167,1,100,2|2,0:1|0:2,0:0:0:0:
209,26,71725,2,0,B|233:59|236:92|206:150,1,100
273,352,71932,1,10,0:2:0:0:
345,314,72036,1,0,0:0:0:0:
366,228,72139,1,2,0:2:0:0:
313,159,72242,1,2,0:2:0:0:
277,242,72346,5,6,0:2:0:0:
132,158,80622,6,0,B|240:128|301:236|239:316,2,240.000009155274,6|2|0,0:2|0:2|0:0,0:0:0:0:
132,158,81656,1,2,0:2:0:0:
173,338,81863,1,0,0:0:0:0:
178,237,82070,6,0,B|217:162|215:108|196:37,1,180.000006866455,2|0,0:2|0:0,0:0:0:0:
184,35,82484,1,0,0:0:0:0:
26,187,82691,2,0,B|46:139|111:116|150:169,2,120.000004577637,2|0|0,0:2|0:0|0:0,0:0:0:0:
303,77,83311,2,0,B|343:84|382:119|379:186,1,120.000004577637,2|0,0:2|0:0,0:0:0:0:
352,276,83725,1,8,0:0:0:0:
188,9,83932,6,0,L|221:266,2,240.000009155274,12|2|0,0:0|0:2|0:0,0:0:0:0:
138,294,84967,2,0,B|192:279|240:314|232:362,1,120.000004577637,2|0,0:2|0:0,0:0:0:0:
130,133,85380,1,0,0:2:0:0:
345,178,85587,6,0,B|406:233|389:356|277:383,2,240,2|0|0,0:2|0:0|0:0,0:0:0:0:
82,66,86415,5,2,0:2:0:0:
256,156,86725,1,0,0:0:0:0:
430,66,87036,1,0,0:0:0:0:
256,156,87242,6,0,L|247:237,1,80,14|0,0:0|0:0,0:0:0:0:
136,349,87449,1,0,0:0:0:0:
136,349,87553,1,0,0:0:0:0:
136,349,87656,2,0,L|120:247,1,80,10|0,0:2|0:0,0:0:0:0:
158,150,87863,2,0,L|51:168,1,80,2|0,0:2|0:0,0:0:0:0:
189,58,88070,2,0,B|214:84|233:102|298:98,1,80,2|2,0:2|0:2,0:0:0:0:
465,128,88277,2,0,B|428:133|404:168|408:223,1,80
315,326,88484,2,0,B|294:340|256:347|205:311,1,80,8|0,0:0|0:0,0:0:0:0:
407,288,88691,2,0,L|430:380,1,80
259,171,88898,6,0,L|270:252,2,80,8|0|0,0:2|0:0|0:0,0:0:0:0:
184,72,89208,1,0,0:0:0:0:
184,72,89311,2,0,L|93:99,1,80,10|0,0:2|0:0,0:0:0:0:
125,193,89518,2,0,L|137:288,1,80
28,357,89725,1,2,0:2:0:0:
28,357,89829,2,0,L|128:339,1,80,2|0,0:2|0:0,0:0:0:0:
307,242,90036,1,0,0:0:0:0:
271,340,90139,2,0,B|257:331|229:322|184:324,1,80,10|0,0:2|0:0,0:0:0:0:
122,175,90346,2,0,B|140:222|142:253|135:292,1,80,8|0,0:0|0:0,0:0:0:0:
248,118,90553,6,0,L|168:108,1,80,6|0,0:2|0:0,0:0:0:0:
34,26,90760,2,0,L|60:125,1,80,2|0,0:2|0:0,0:0:0:0:
265,39,90967,2,0,L|348:50,1,80,8|0,0:0|0:0,0:0:0:0:
414,213,91174,1,0,0:2:0:0:
414,213,91277,1,2,0:2:0:0:
414,213,91380,2,0,L|443:104,1,80,2|0,0:2|0:0,0:0:0:0:
299,248,91587,2,0,L|316:341,1,80,2|0,0:2|0:0,0:0:0:0:
168,108,91794,2,0,L|154:21,1,80,8|0,0:0|0:0,0:0:0:0:
37,280,92001,2,0,L|26:365,1,80,8|0,0:0|0:0,0:0:0:0:
43,144,92208,6,0,B|72:152|107:187|120:222,1,80,10|0,0:2|0:0,0:0:0:0:
120,299,92415,1,0,0:0:0:0:
210,195,92518,2,0,B|221:228|225:256|222:304,1,80,10|0,0:2|0:0,0:0:0:0:
191,371,92725,1,0,0:0:0:0:
304,301,92829,2,0,L|402:287,1,80,10|0,0:2|0:0,0:0:0:0:
454,186,93036,5,8,0:0:0:0:
367,199,93139,1,0,0:0:0:0:
293,151,93242,1,0,0:0:0:0:
270,65,93346,5,8,0:0:0:0:
191,26,93449,1,0,0:0:0:0:
107,55,93553,1,0,0:0:0:0:
55,136,93656,5,10,0:2:0:0:
75,145,93760,1,0,0:0:0:0:
72,123,93863,1,14,0:2:0:0:
126,334,94070,1,0,0:0:0:0:
126,334,94174,1,0,0:0:0:0:
126,334,94277,1,2,0:2:0:0:
113,171,94484,1,0,0:0:0:0:
246,293,94691,5,0,0:0:0:0:
246,293,94794,2,0,B|264:236|266:191|249:130,1,160,2|0,0:2|0:0,0:0:0:0:
210,115,95105,1,2,0:2:0:0:
424,218,95311,1,0,0:0:0:0:
360,96,95518,1,8,0:0:0:0:
342,348,95725,1,0,0:0:0:0:
449,282,95932,6,0,B|370:217|260:227|215:378,1,240,2|0,0:0|0:0,0:0:0:0:
228,362,96346,1,0,0:0:0:0:
351,334,96553,1,8,0:0:0:0:
174,192,96760,1,0,0:0:0:0:
101,339,96967,1,0,0:0:0:0:
101,339,97070,1,2,0:2:0:0:
101,339,97174,6,0,B|160:298|192:195|100:122,1,240,6|0,0:0|0:0,0:0:0:0:
71,148,97587,1,2,0:2:0:0:
233,308,97794,1,8,0:0:0:0:
101,45,98001,6,0,B|160:86|192:189|100:262,1,240,2|0,0:0|0:0,0:0:0:0:
71,236,98414,1,2,0:2:0:0:
233,76,98621,1,8,0:0:0:0:
233,76,98725,1,0,0:0:0:0:
233,76,98829,2,0,L|246:176,1,80
240,313,99036,2,0,B|213:322|182:318|138:299,1,80,2|0,0:2|0:0,0:0:0:0:
324,250,99242,2,0,B|374:219|430:208|496:234,1,160,8|0,0:0|0:0,0:0:0:0:
346,43,99656,1,0,0:0:0:0:
346,43,99760,1,2,0:2:0:0:
346,43,99863,2,0,L|369:169,1,80,2|0,0:2|0:0,0:0:0:0:
311,369,100070,2,0,B|381:303|356:188|242:161,1,240,6|0,0:2|0:0,0:0:0:0:
246,148,100484,5,6,0:2:0:0:
439,188,100691,1,0,0:0:0:0:
439,188,100794,1,0,0:0:0:0:
439,188,100898,1,2,0:2:0:0:
251,277,101105,1,0,0:0:0:0:
303,65,101311,1,0,0:0:0:0:
303,65,101415,2,0,B|223:64|177:95|135:122,1,160,2|0,0:2|0:0,0:0:0:0:
95,194,101725,1,2,0:2:0:0:
265,183,101932,1,2,0:2:0:0:
21,33,102139,5,0,0:0:0:0:
50,54,102242,1,0,0:0:0:0:
65,88,102346,1,2,0:2:0:0:
66,121,102449,1,2,0:2:0:0:
40,149,102553,1,8,0:0:0:0:
40,149,102760,1,8,0:0:0:0:
147,73,102967,2,0,L|236:67,1,80,2|0,0:2|0:0,0:0:0:0:
324,202,103174,2,0,L|288:115,1,80,2|0,0:2|0:0,0:0:0:0:
193,234,103380,2,0,L|177:338,1,80,8|0,0:0|0:0,0:0:0:0:
147,73,103587,2,0,L|34:45,1,80,8|0,0:0|0:0,0:0:0:0:
285,292,103794,6,0,B|342:222|466:253|483:359,1,240,6|0,0:0|0:0,0:0:0:0:
463,368,104208,1,0,0:0:0:0:
391,140,104415,1,0,0:0:0:0:
342,350,104622,1,0,0:0:0:0:
342,350,104725,1,2,0:2:0:0:
342,350,104829,1,2,0:2:0:0:
109,124,105036,1,0,0:0:0:0:
304,218,105242,1,2,0:2:0:0:
129,30,105449,6,0,L|16:57,1,80,10|0,0:0|0:0,0:0:0:0:
255,152,105656,1,0,0:0:0:0:
255,152,105760,1,2,0:2:0:0:
255,152,105863,2,0,L|255:47,1,80,10|0,0:2|0:0,0:0:0:0:
366,277,106070,2,0,L|479:250,1,80,10|0,0:2|0:0,0:0:0:0:
434,103,106277,6,0,L|346:124,1,80,10|0,0:0|0:0,0:0:0:0:
84,232,106484,1,0,0:0:0:0:
84,232,106587,2,0,L|192:251,1,80,10|0,0:2|0:0,0:0:0:0:
255,72,106794,1,0,0:0:0:0:
255,72,106898,2,0,L|255:152,1,80,14|0,0:2|0:0,0:0:0:0:
255,353,107105,5,4,0:2:0:0:
255,353,108760,6,0,B|271:318|249:267|195:264,1,100,6|0,0:0|0:0,0:0:0:0:
109,247,108967,1,2,0:2:0:0:
88,153,109070,1,0,0:0:0:0:
191,131,109174,2,0,L|316:118,1,100,10|0,0:2|0:0,0:0:0:0:
190,32,109380,2,0,L|91:24,1,100
263,197,109587,1,2,0:2:0:0:
263,197,109691,2,0,B|233:183|207:157|185:116,1,100,2|0,0:2|0:0,0:0:0:0:
399,87,109898,1,0,0:0:0:0:
399,87,110001,2,0,L|392:199,1,100,10|0,0:2|0:0,0:0:0:0:
427,366,110208,2,0,L|405:221,1,100,8|0,0:0|0:0,0:0:0:0:
484,129,110415,6,0,B|493:184|493:184|469:252,2,100,6|2|0,0:0|0:2|0:0,0:0:0:0:
341,303,110725,1,0,0:0:0:0:
341,303,110829,2,0,L|226:289,1,100,10|0,0:2|0:0,0:0:0:0:
264,182,111036,2,0,L|278:56,1,100,10|0,0:2|0:0,0:0:0:0:
89,134,111242,2,0,B|132:134|173:150|177:206,1,100,2|0,0:2|0:0,0:0:0:0:
381,58,111449,2,0,B|381:100|372:127|335:170,1,100,8|0,0:0|0:0,0:0:0:0:
84,322,111656,2,0,B|86:295|105:249|160:244,1,100,2|0,0:2|0:0,0:0:0:0:
264,182,111863,1,2,0:2:0:0:
340,245,111967,1,0,0:2:0:0:
289,334,112070,6,0,L|190:337,1,100,6|0,0:2|0:0,0:0:0:0:
439,242,112277,2,0,B|460:212|465:176|449:125,1,100,2|0,0:2|0:0,0:0:0:0:
345,33,112484,2,0,B|365:73|378:112|381:165,2,100,8|2|10,0:2|0:2|0:2,0:0:0:0:
207,72,112794,1,0,0:0:0:0:
207,72,112898,2,0,B|206:118|214:171|225:206,1,100,2|2,0:2|0:2,0:0:0:0:
305,292,113105,2,0,B|274:262|230:237|162:262,1,100
123,160,113311,2,0,B|188:170|237:173|341:175,1,200,10|8,0:2|0:0,0:0:0:0:
412,260,113622,1,0,0:0:0:0:
412,260,113725,6,0,B|422:187|426:122|429:21,1,200,6|0,0:0|0:0,0:0:0:0:
196,32,114036,1,0,0:0:0:0:
196,32,114139,2,0,L|83:44,1,100,10|0,1:2|0:0,0:0:0:0:
173,235,114346,2,0,L|178:355,1,100,10|0,0:2|0:0,0:0:0:0:
374,297,114553,2,0,L|367:182,1,100,10|2,0:2|0:2,0:0:0:0:
268,15,114760,2,0,L|367:26,1,100,8|0,0:0|0:0,0:0:0:0:
273,280,114967,1,0,0:0:0:0:
258,186,115070,1,0,0:0:0:0:
312,114,115174,1,10,0:2:0:0:
404,101,115277,1,8,0:0:0:0:
468,164,115380,6,0,B|480:198|487:227|446:300,1,100,6|0,0:2|0:0,0:0:0:0:
374,22,115587,2,0,B|338:8|285:10|239:41,1,100,2|0,0:2|0:0,0:0:0:0:
182,163,115794,2,0,B|211:211|211:211|204:283,2,100,10|2|0,0:0|0:2|0:0,0:0:0:0:
80,87,116105,1,0,0:0:0:0:
34,209,116208,2,0,B|33:265|33:265|76:323,2,100,10|2|0,0:0|0:2|0:0,0:0:0:0:
80,87,116518,1,0,0:0:0:0:
109,192,116622,2,0,L|141:312,1,100,10|0,0:2|0:0,0:0:0:0:
263,32,116829,2,0,L|365:48,1,100,2|0,0:2|0:0,0:0:0:0:
455,286,117036,5,2,0:0:0:0:
449,177,117139,1,0,0:0:0:0:
355,121,117242,1,2,0:2:0:0:
254,166,117346,1,2,0:2:0:0:
231,273,117449,1,10,0:2:0:0:
71,122,117656,2,0,B|106:113|143:116|176:179,1,100,10|0,0:2|0:0,0:0:0:0:
251,346,117863,2,0,B|216:355|179:352|146:289,1,100,10|0,0:2|0:0,0:0:0:0:
360,146,118070,2,0,B|395:137|432:140|465:203,1,100,10|0,0:2|0:0,0:0:0:0:
354,357,118277,1,10,0:0:0:0:
371,245,118380,2,0,B|407:179|316:96|250:139,1,200,2|2,0:2|0:2,0:0:0:0:
78,253,118691,6,0,L|232:226,1,100,6|0,0:2|0:0,0:0:0:0:
261,134,118898,2,0,L|144:151,1,100
254,384,119105,2,0,B|318:329|319:248|266:189,1,200,10|0,0:2|0:0,0:0:0:0:
413,87,119415,1,2,0:2:0:0:
331,107,119518,2,0,B|235:122|235:122|180:97|117:118,1,200,10|0,0:0|0:0,0:0:0:0:
51,224,119829,1,0,0:0:0:0:
51,224,119932,2,0,L|177:209,1,100,10|0,0:2|0:0,0:0:0:0:
400,215,120139,2,0,B|398:249|397:273|390:344,1,100,8|0,0:0|0:0,0:0:0:0:
308,384,120346,6,0,B|320:327|326:238|332:137,1,200,10|0,0:0|0:0,0:0:0:0:
320,76,120656,1,2,0:2:0:0:
255,191,120760,1,10,0:2:0:0:
257,14,120967,5,4,0:2:0:0:
27,190,121174,1,6,0:2:0:0:
257,370,121380,1,8,0:0:0:0:
485,190,121587,1,8,0:0:0:0:
416,135,121691,1,2,0:2:0:0:
325,157,121794,1,10,0:2:0:0:
289,239,121898,1,0,0:0:0:0:
345,314,122001,6,0,L|475:309,1,100,6|0,0:0|0:0,0:0:0:0:
374,70,122208,2,0,L|259:86,1,100,2|0,0:2|0:0,0:0:0:0:
148,172,122415,2,0,B|194:236|152:306|152:306|161:398,1,200,10|0,0:2|0:0,0:0:0:0:
152,90,122725,1,0,0:0:0:0:
152,90,122829,2,0,B|110:89|66:115|71:180,2,100,2|2|0,0:2|0:2|0:0,0:0:0:0:
295,49,123139,1,0,0:0:0:0:
295,49,123242,2,0,L|309:170,1,100,10|0,0:2|0:0,0:0:0:0:
233,293,123449,2,0,L|87:302,1,100,2|0,0:2|0:0,0:0:0:0:
133,20,123656,6,0,B|198:111|85:134|175:261,2,200,6|0|10,0:0|0:0|0:2,0:0:0:0:
58,242,124174,1,0,0:0:0:0:
58,242,124277,2,0,B|76:282|111:305|160:299,1,100,10|0,0:2|0:0,0:0:0:0:
275,71,124484,2,0,B|291:115|270:153|234:190,1,100,10|2,0:2|0:2,0:0:0:0:
231,354,124691,2,0,B|243:304|271:283|343:281,1,100,8|0,0:2|0:0,0:0:0:0:
406,72,124898,1,6,0:0:0:0:
338,172,125001,2,0,B|386:215|502:198|509:96,1,200,2|2,0:2|0:2,0:0:0:0:
193,35,125311,6,0,B|220:63|228:125|174:158|174:158|179:205|145:260,1,200,6|0,0:0|0:0,0:0:0:0:
319,35,125622,1,0,0:0:0:0:
319,35,125725,2,0,B|292:63|284:125|338:158|338:158|333:205|367:260,1,200,10|0,0:2|0:0,0:0:0:0:
224,318,126036,1,0,0:0:0:0:
224,318,126139,2,0,B|260:298|274:263|257:223,1,100,2|2,0:2|0:2,0:0:0:0:
146,65,126346,1,8,0:0:0:0:
146,65,126449,1,0,0:0:0:0:
146,65,126553,2,0,B|183:92|221:101|274:90,1,100,2|0,0:2|0:0,0:0:0:0:
454,38,126760,2,0,B|479:81|473:123|423:163|424:161,1,100,2|0,0:2|0:0,0:0:0:0:
406,302,126967,6,0,B|412:175|362:86|253:4,1,300,6|0,0:0|0:0,0:0:0:0:
167,229,127380,2,0,B|196:230|239:204|238:153,1,100,10|0,0:2|0:0,0:0:0:0:
204,6,127587,2,0,L|165:144,1,100,8|0,0:0|0:0,0:0:0:0:
67,219,127794,2,0,L|206:232,1,100,10|2,0:2|0:2,0:0:0:0:
407,130,128001,2,0,B|366:126|337:150|315:223,1,100,8|0,0:0|0:0,0:0:0:0:
339,360,128208,2,0,B|363:325|359:287|316:227,1,100,8|0,0:0|0:0,0:0:0:0:
357,0,128415,1,2,0:2:0:0:
343,92,128518,1,2,0:2:0:0:
330,182,128622,6,0,L|214:178,1,100,6|0,0:0|0:0,0:0:0:0:
170,27,128829,2,0,L|143:165,1,100
39,367,129036,2,2,B|83:329|74:227|53:146,1,200,10|0,0:2|0:0,0:0:0:0:
193,250,129346,1,0,0:0:0:0:
193,250,129449,2,0,B|249:241|302:279|306:296,1,100,2|2,0:2|0:2,0:0:0:0:
390,121,129656,2,0,B|370:151|358:183|380:253,1,100,8|0,0:0|0:0,0:0:0:0:
426,348,129863,1,8,0:0:0:0:
426,348,129967,1,0,0:0:0:0:
426,348,130070,2,0,L|443:232,1,100,10|0,0:2|0:0,0:0:0:0:
485,63,130277,6,0,B|450:38|401:33|374:44,1,100,6|0,0:1|0:0,0:0:0:0:
224,152,130484,2,0,B|273:137|303:108|317:78,1,100,2|0,0:2|0:0,0:0:0:0:
105,78,130691,2,2,B|153:115|164:215|143:294,1,200,10|0,0:0|0:0,0:0:0:0:
41,358,131001,1,2,0:2:0:0:
41,358,131105,2,0,L|66:240,1,100,2|0,0:2|0:0,0:0:0:0:
249,276,131311,2,0,L|265:383,1,100,2|0,0:2|0:0,0:0:0:0:
438,367,131518,2,0,L|463:249,1,100,10|0,0:2|0:0,0:0:0:0:
266,177,131725,2,0,L|246:288,1,100,0|2,0:0|0:2,0:0:0:0:
263,374,131932,6,2,B|295:277|290:207|242:139,1,200,6|0,0:0|0:0,0:0:0:0:
164,373,132242,2,0,B|221:387|261:380|292:359,1,100,2|8,0:2|0:0,0:0:0:0:
323,90,132449,1,0,0:0:0:0:
251,16,132553,2,0,B|224:39|211:67|229:122,1,100,2|0,0:2|0:0,0:0:0:0:
166,330,132760,6,2,B|181:230|130:110|6:42,1,300,2|0,0:0|0:0,0:0:0:0:
19,234,133174,1,2,0:2:0:0:
19,234,133277,1,2,0:2:0:0:
19,234,133380,2,0,B|80:239|103:224|164:197,1,100,8|0,0:2|0:0,0:0:0:0:
250,175,133587,6,0,B|299:151|346:146|391:168,1,100,6|0,0:0|0:0,0:0:0:0:
436,344,133794,1,2,0:2:0:0:
436,344,133898,2,0,B|382:302|365:268|361:246,1,100,2|0,0:0|0:0,0:0:0:0:
425,2,134105,1,2,0:2:0:0:
425,2,134208,2,0,B|371:44|354:78|350:100,1,100,10|0,0:2|0:0,0:0:0:0:
207,266,134415,2,0,B|260:272|289:261|308:226,1,100,2|0,0:2|0:0,0:0:0:0:
243,29,134622,2,0,B|254:68|205:74|221:157,1,100,0|2,0:0|0:2,0:0:0:0:
0,195,134829,1,8,0:0:0:0:
47,106,134932,1,0,0:0:0:0:
140,131,135036,1,8,0:0:0:0:
132,233,135139,1,8,0:0:0:0:
40,291,135242,5,6,0:0:0:0:
256,192,135346,12,4,140208,0:0:0:0:
155,323,161725,6,0,B|165:216|162:163|160:93,1,200,6|0,0:0|0:0,0:0:0:0:
160,123,162036,1,0,0:0:0:0:
160,123,162139,1,10,0:2:0:0:
367,327,162346,2,0,B|439:336|494:297|514:193,1,200,2|0,0:0|0:0,0:0:0:0:
335,16,162760,1,0,0:0:0:0:
335,16,162967,2,0,B|411:59|431:119|420:209,1,200,10|8,0:0|0:0,0:0:0:0:
238,351,163380,5,0,0:0:0:0:
254,277,163484,1,0,0:0:0:0:
318,244,163587,1,0,0:0:0:0:
380,354,163794,1,8,0:0:0:0:
382,164,164001,1,8,0:0:0:0:
247,1,164208,6,0,B|215:29|200:103|253:209,1,200,2|0,0:0|0:0,0:0:0:0:
243,379,164622,2,0,B|274:350|289:276|236:170,1,200,10|8,0:0|0:0,0:0:0:0:
477,120,165036,6,0,B|407:44|286:33|290:190|239:262|115:201,1,400,4|8,0:0|0:0,0:0:0:0:
0,22,165656,2,0,B|70:0|149:42|151:119,2,200,2|0|0,0:0|0:0|0:0,0:0:0:0:
89,209,166277,1,10,0:0:0:0:
103,248,166380,1,0,0:0:0:0:
94,283,166484,1,8,0:0:0:0:
277,123,166691,6,0,B|282:158|270:189|252:235,1,100,2|0,0:2|0:0,0:0:0:0:
203,225,166898,2,0,B|196:257|208:305|244:355,1,100,2|0,0:2|0:0,0:0:0:0:
357,353,167105,2,0,B|356:278|422:240|422:240|465:286|544:235,1,200,8|0,0:0|0:0,0:0:0:0:
225,32,167518,6,0,B|236:69|245:160|200:231,1,200,2|0,0:0|0:0,0:0:0:0:
69,348,167932,1,10,0:0:0:0:
69,348,168036,2,0,B|77:276|142:216|212:227,1,200,2|0,0:2|0:0,0:0:0:0:
314,290,168346,6,0,B|264:184|301:90|380:17|491:68,1,300,4|0,0:0|0:0,0:0:0:0:
413,54,168760,1,8,0:0:0:0:
69,348,168967,2,0,B|117:303|101:201|45:168,1,200,2|0,0:0|0:0,0:0:0:0:
49,171,169277,1,2,0:2:0:0:
49,171,169380,1,0,0:2:0:0:
197,261,169587,1,10,0:0:0:0:
249,17,169794,1,8,0:0:0:0:
159,156,170001,6,0,B|273:217|379:173|382:65|382:65|442:98|511:60,1,400,2|8,0:0|0:0,0:0:0:0:
501,263,170622,1,8,0:0:0:0:
501,263,170725,1,0,0:0:0:0:
501,263,170829,6,0,B|376:211|348:226|271:294,1,200,2|0,0:0|0:0,0:0:0:0:
22,340,171242,2,0,B|147:392|175:377|252:309,1,200,10|8,0:0|0:0,0:0:0:0:
233,261,171553,1,2,0:2:0:0:
233,261,171656,6,0,B|166:173|123:282|27:172,2,200,2|2|8,0:0|0:2|0:0,0:0:0:0:
7,26,172277,2,0,B|75:58|106:161|19:237,1,200,2|2,0:0|0:2,0:0:0:0:
113,357,172691,1,0,0:0:0:0:
286,173,172898,2,0,B|353:127|458:126|496:151,1,200,10|8,0:0|0:0,0:0:0:0:
125,283,173311,5,0,0:2:0:0:
368,73,173518,1,2,0:2:0:0:
311,308,173725,1,8,0:0:0:0:
282,185,173932,1,0,0:0:0:0:
282,185,174036,1,2,0:2:0:0:
282,185,174139,6,0,B|236:189|189:209|174:259,1,100,2|0,0:0|0:0,0:0:0:0:
155,352,174346,2,0,B|199:335|230:313|236:263,1,100,2|0,0:2|0:0,0:0:0:0:
76,230,174553,2,0,B|32:247|1:269|-5:319,1,100,10|0,0:0|0:0,0:0:0:0:
68,363,174760,1,2,0:2:0:0:
68,363,174863,1,0,0:0:0:0:
68,363,174967,6,0,B|98:315|104:215|57:133,1,200,6|0,0:0|0:0,0:0:0:0:
35,48,175277,1,0,0:0:0:0:
35,48,175380,2,0,B|64:72|95:80|144:68,1,100,10|0,0:2|0:0,0:0:0:0:
371,167,175587,6,0,L|468:192,1,100,10|0,0:0|0:0,0:0:0:0:
269,112,175794,2,0,L|290:-27,1,100,2|0,0:0|0:0,0:0:0:0:
292,282,176001,2,0,B|338:284|359:275|414:257,1,100,2|0,0:0|0:0,0:0:0:0:
459,45,176208,2,0,B|413:43|392:52|337:70,1,100,10|0,0:0|0:0,0:0:0:0:
94,154,176415,2,0,B|160:152|202:170|202:170,1,100,2|0,0:0|0:0,0:0:0:0:
270,379,176622,6,0,L|296:263,1,100,10|0,0:0|0:0,0:0:0:0:
361,134,176829,1,2,0:2:0:0:
423,272,176932,2,0,B|447:322|513:343|513:343,1,100,2|10,0:0|0:2,0:0:0:0:
512,186,177139,1,0,0:0:0:0:
512,186,177242,2,2,B|460:176|403:191|351:237|351:237|316:163|282:188|260:177|260:177|264:121|247:105|247:105|201:108|181:121|181:121|169:73|77:42|46:109,1,600,2|8,0:0|0:0,0:0:0:0:
34,351,178070,1,0,0:0:0:0:
92,282,178174,1,2,0:2:0:0:
172,325,178277,6,0,L|287:333,1,100,6|2,0:0|0:2,0:0:0:0:
365,336,178484,2,0,L|345:196,1,100,2|0,0:2|0:0,0:0:0:0:
391,40,178691,1,10,0:0:0:0:
407,123,178794,1,2,0:2:0:0:
330,167,178898,2,0,L|185:188,1,100,10|0,0:2|0:0,0:0:0:0:
42,103,179105,2,0,L|51:238,1,100,2|0,0:2|0:0,0:0:0:0:
48,325,179311,1,8,0:0:0:0:
125,286,179415,1,0,0:0:0:0:
202,329,179518,1,2,0:2:0:0:
269,276,179622,1,2,0:2:0:0:
269,276,179725,2,0,L|373:266,1,100,8|0,0:0|0:0,0:0:0:0:
435,136,179932,6,0,B|365:129|322:81|284:2,1,200,10|0,0:0|0:0,0:0:0:0:
297,188,180242,1,0,0:2:0:0:
297,188,180346,2,0,B|263:222|255:261|261:309,1,100,10|0,0:2|0:0,0:0:0:0:
290,13,180553,2,0,B|258:82|215:130|145:137,2,200,2|2|0,0:0|0:2|0:2,0:0:0:0:
121,223,181174,1,0,0:0:0:0:
121,223,181277,1,2,0:2:0:0:
121,223,181380,2,0,B|134:282|134:315|132:350,1,100,2|0,0:2|0:0,0:0:0:0:
396,266,181587,6,0,B|434:234|451:220|511:226,1,100,2|0,0:0|0:0,0:0:0:0:
377,63,181794,2,0,B|342:106|296:106|268:101,1,100,0|0,0:2|0:0,0:0:0:0:
104,69,182001,1,10,0:2:0:0:
67,154,182105,1,0,0:0:0:0:
121,223,182208,2,0,B|131:240|178:268|240:272,1,100,10|0,0:2|0:0,0:0:0:0:
469,360,182415,2,0,B|452:322|426:292|406:280,1,100,0|2,0:2|0:2,0:0:0:0:
284,71,182622,2,0,B|237:64|197:70|160:84,1,100
236,352,182829,2,0,B|282:320|301:289|307:234,1,100,10|0,0:2|0:2,0:0:0:0:
25,65,183036,2,0,B|32:106|48:142|71:175,1,100,10|0,0:2|0:0,0:0:0:0:
111,340,183242,6,0,B|77:321|29:315|-17:332,1,100,2|0,0:0|0:0,0:0:0:0:
191,168,183449,2,0,B|256:191|286:178|295:172,1,100,0|0,0:2|0:0,0:0:0:0:
476,121,183656,1,10,0:2:0:0:
503,200,183760,1,0,0:0:0:0:
472,277,183863,2,0,B|418:261|382:254|339:261,1,100,2|0,0:2|0:0,0:0:0:0:
84,211,184070,2,0,B|53:279|20:315|15:315,1,100,0|0,0:0|0:2,0:0:0:0:
171,39,184277,2,0,B|221:8|265:-1|280:1,1,100,10|0,0:2|0:0,0:0:0:0:
253,308,184484,2,0,B|310:325|343:351|354:371,1,100,10|0,0:2|0:0,0:0:0:0:
437,110,184691,2,0,B|477:146|489:171|493:212,1,100,10|0,0:0|0:0,0:0:0:0:
151,340,184898,6,0,B|143:292|143:270|161:228,1,100,2|0,0:0|0:0,0:0:0:0:
344,20,185105,1,0,0:0:0:0:
370,139,185208,2,0,B|394:194|380:240|379:290,1,100,10|0,0:0|0:0,0:0:0:0:
62,254,185415,1,0,0:0:0:0:
110,139,185518,2,0,B|150:126|216:112|214:128,1,100,10|0,0:0|0:0,0:0:0:0:
404,358,185725,1,0,0:0:0:0:
382,237,185829,2,0,B|356:205|332:197|268:198,1,100,10|0,0:0|0:0,0:0:0:0:
50,359,186036,1,0,0:0:0:0:
162,313,186139,2,0,B|179:274|179:241|173:178,1,100,10|0,0:0|0:0,0:0:0:0:
322,87,186346,2,0,B|289:123|254:135|213:133,1,100,2|0,0:0|0:0,0:0:0:0:
82,53,186553,5,0,0:0:0:0:
34,107,186656,1,0,0:0:0:0:
45,180,186760,1,0,0:0:0:0:
108,227,186863,1,2,0:2:0:0:
187,214,186967,1,10,0:2:0:0:
242,156,187070,1,0,0:0:0:0:
318,208,187174,1,4,0:2:0:0:
341,294,187277,1,2,0:2:0:0:
283,358,187380,1,6,0:0:0:0:
402,197,187587,1,8,0:0:0:0:
294,28,187794,1,8,0:0:0:0:
102,19,188001,1,2,0:2:0:0:
102,19,188105,1,2,0:2:0:0:
102,19,188208,6,0,B|108:123|79:179|-9:208,1,200,6|0,0:2|0:0,0:0:0:0:
18,239,188518,1,0,0:0:0:0:
46,264,188622,2,0,B|110:221|160:231|263:250|262:250,1,200,8|0,0:0|0:0,0:0:0:0:
356,359,189036,1,0,0:0:0:0:
356,359,189139,2,0,L|384:140,1,200,2|0,0:2|0:0,0:0:0:0:
406,79,189449,2,0,B|332:112|266:94|184:64,1,200,10|0,0:2|0:0,0:0:0:0:
59,26,189863,5,0,0:0:0:0:
114,271,190070,2,0,B|119:229|101:112|-27:137,1,200,2|8,0:2|0:0,0:0:0:0:
41,353,190484,1,0,0:0:0:0:
41,353,190587,1,0,0:0:0:0:
41,353,190691,2,0,B|105:313|216:317|240:326,1,200,2|0,0:2|0:0,0:0:0:0:
281,348,191001,2,0,B|230:259|227:176|236:125,1,200,2|0,0:2|0:0,0:0:0:0:
269,117,191311,2,0,B|288:124|399:128|463:88,1,200,2|6,0:2|0:2,0:0:0:0:
435,262,191725,5,8,0:0:0:0:
435,262,191829,1,0,0:0:0:0:
435,262,191932,1,8,0:0:0:0:
289,23,192139,1,0,0:0:0:0:
281,192,192346,2,0,B|219:247|179:248|74:229,1,200,2|0,0:2|0:0,0:0:0:0:
74,193,192656,1,0,0:0:0:0:
100,154,192760,2,0,B|142:75|63:-7|-11:12,1,200,8|0,0:0|0:0,0:0:0:0:
14,265,193174,6,0,B|173:214|168:295|346:237,2,300,2|2|2,0:2|0:0|0:2,0:0:0:0:
243,133,194001,2,0,B|330:103|410:132|472:179,1,200,2|0,0:2|0:0,0:0:0:0:
465,345,194415,1,8,0:0:0:0:
465,345,194518,1,2,0:2:0:0:
465,345,194622,2,0,B|421:303|415:268|424:220,1,100,2|0,0:2|0:0,0:0:0:0:
487,77,194829,5,6,0:2:0:0:
500,221,195036,1,0,0:0:0:0:
364,47,195242,1,10,0:2:0:0:
203,155,195449,1,0,0:0:0:0:
331,243,195656,1,0,0:0:0:0:
221,68,195863,1,8,0:0:0:0:
142,261,196070,1,10,0:2:0:0:
77,50,196277,6,0,B|34:85|33:161|61:238,1,200,2|0,0:2|0:0,0:0:0:0:
41,345,196587,1,0,0:0:0:0:
41,345,196691,2,0,B|124:346|195:321|215:269,1,200,0|10,0:0|0:2,0:0:0:0:
347,164,197105,1,0,0:0:0:0:
347,164,197208,1,2,0:2:0:0:
347,164,197311,1,0,0:0:0:0:
411,276,197518,1,0,0:0:0:0:
430,95,197725,2,0,B|401:67|359:57|333:73,1,100,10|0,0:2|0:0,0:0:0:0:
234,38,197932,2,0,L|263:168,1,100,2|0,0:2|0:0,0:0:0:0:
273,268,198139,6,0,B|237:213|177:194|83:191,1,200,6|0,0:2|0:0,0:0:0:0:
56,222,198449,1,0,0:0:0:0:
67,272,198553,2,0,B|103:327|163:346|257:349,1,200,8|0,0:0|0:0,0:0:0:0:
404,376,198967,1,0,0:0:0:0:
404,376,199070,2,0,B|378:288|396:212|440:146,1,200,2|0,0:2|0:0,0:0:0:0:
408,91,199380,2,0,B|339:103|298:49|298:49|133:48,1,200,8|0,0:0|0:0,0:0:0:0:
21,60,199794,6,0,B|82:88|89:145|198:137,1,200,2|0,0:2|0:0,0:0:0:0:
233,121,200105,1,2,0:2:0:0:
218,154,200208,2,0,B|184:209|187:263|245:338,1,200,8|0,0:0|0:0,0:0:0:0:
280,313,200518,1,0,0:0:0:0:
315,307,200622,2,0,B|424:299|431:356|492:384,1,200,10|8,0:2|0:0,0:0:0:0:
442,28,201036,2,0,B|439:127|336:200|190:145,1,300,6|0,0:2|0:0,0:0:0:0:
217,153,201449,5,6,0:2:0:0:
19,77,201656,1,0,0:0:0:0:
165,25,201863,1,10,0:2:0:0:
81,214,202070,1,8,0:0:0:0:
81,214,202174,1,2,0:2:0:0:
81,214,202277,1,8,0:0:0:0:
263,88,202484,1,0,0:0:0:0:
151,331,202691,1,8,0:0:0:0:
252,177,202898,6,0,B|336:144|434:163|486:202,1,200,2|0,0:2|0:0,0:0:0:0:
442,376,203311,1,0,0:0:0:0:
442,376,203415,1,2,0:2:0:0:
442,376,203518,2,0,B|421:298|422:254|453:160,1,200,2|0,0:2|0:0,0:0:0:0:
496,39,203932,1,0,0:0:0:0:
496,39,204036,2,0,B|377:44|340:75|319:145,1,200,2|0,0:2|0:0,0:0:0:0:
311,202,204346,2,0,L|81:176,1,200,10|0,0:2|0:0,0:0:0:0:
112,179,204656,1,0,0:0:0:0:
112,179,204760,5,6,0:2:0:0:
6,29,204967,2,0,B|28:62|30:77|36:125,1,100,2|0,0:0|0:0,0:0:0:0:
25,202,205174,1,10,0:2:0:0:
128,80,205380,1,0,0:0:0:0:
136,294,205587,1,0,0:0:0:0:
136,294,205691,1,2,0:2:0:0:
351,304,205898,1,2,0:2:0:0:
351,304,206001,1,8,0:0:0:0:
421,41,206208,6,0,B|358:63|332:153|400:243,2,200,2|0|2,0:2|0:0|0:2,0:0:0:0:
487,193,206829,1,8,0:0:0:0:
273,223,207036,1,0,0:0:0:0:
273,223,207139,1,0,0:0:0:0:
273,223,207242,2,0,B|152:234|156:240|139:262,1,100,10|0,0:2|0:0,0:0:0:0:
2,331,207449,1,0,0:0:0:0:
2,331,207553,2,0,L|21:222,1,100,10|0,0:2|0:0,0:0:0:0:
27,79,207760,1,0,0:0:0:0:
27,79,207863,2,0,B|70:63|123:93|119:152,1,100,10|0,0:2|0:0,0:0:0:0:
173,236,208070,6,0,B|187:137|290:85|398:93|398:93|386:156|467:202,1,400,6|8,0:2|0:0,0:0:0:0:
407,300,208691,1,8,0:0:0:0:
407,300,208794,1,2,0:2:0:0:
407,300,208898,2,0,B|397:255|359:229|312:239,1,100
281,307,209105,2,0,B|257:332|220:340|170:320,1,100
98,361,209311,2,0,B|162:234|88:119|-23:113,1,300,10|0,0:2|0:0,0:0:0:0:
0,213,209725,6,0,B|92:243|156:146|223:202,1,200,2|0,0:2|0:0,0:0:0:0:
224,214,210036,1,0,0:0:0:0:
263,211,210139,2,0,B|247:137|274:82|384:43,1,200,10|0,0:2|0:0,0:0:0:0:
485,203,210553,2,0,B|454:188|417:184|365:185,1,100,2|0,0:2|0:0,0:0:0:0:
330,271,210760,2,0,B|347:333|343:368|334:389,1,100,2|0,0:2|0:0,0:0:0:0:
217,328,210967,2,0,B|208:301|205:245|212:186,1,100,10|0,0:2|0:0,0:0:0:0:
280,145,211174,1,0,0:0:0:0:
280,145,211277,1,2,0:2:0:0:
280,145,211380,6,0,B|224:84|149:81|80:117,1,200,6|0,0:2|0:0,0:0:0:0:
75,146,211691,1,2,0:2:0:0:
106,179,211794,2,0,B|120:236|44:341|-57:270,1,200,10|0,0:2|0:0,0:0:0:0:
36,30,212208,2,0,B|88:23|115:26|152:43,1,100,2|0,0:2|0:0,0:0:0:0:
201,123,212415,2,0,B|231:128|282:117|322:65,1,100,2|0,0:2|0:0,0:0:0:0:
451,24,212622,2,0,B|398:44|393:67|381:128,1,100,10|0,0:2|0:0,0:0:0:0:
300,230,212829,2,0,L|429:214,1,100
487,123,213036,6,0,B|452:97|391:81|286:94,1,200,2|0,0:2|0:0,0:0:0:0:
207,64,213346,1,6,0:2:0:0:
207,64,213449,2,0,B|219:100|217:134|222:196,1,100,10|0,0:2|0:0,0:0:0:0:
129,227,213656,2,0,L|119:115,1,100,2|0,0:2|0:0,0:0:0:0:
300,230,213863,2,0,L|274:337,1,100
150,380,214070,1,0,0:0:0:0:
150,380,214174,1,2,0:2:0:0:
150,380,214277,2,0,B|156:324|197:283|230:271,1,100,10|0,0:2|0:0,0:0:0:0:
292,106,214484,2,0,B|242:109|227:130|213:181,1,100,8|0,0:0|0:0,0:0:0:0:
51,366,214691,6,2,B|176:383|175:383,1,100,4|0,0:2|0:0,0:2:0:0:
101,106,216331,6,0,B|146:92|202:107|223:146,1,120.000004577637,6|0,0:0|0:0,0:0:0:0:
268,227,216538,1,0,0:0:0:0:
187,300,216641,1,2,0:2:0:0:
114,226,216745,2,0,B|71:210|41:208|-6:232,1,120.000004577637,10|0,0:2|0:0,0:0:0:0:
274,311,216952,2,0,B|309:316|362:303|379:250,1,120.000004577637,2|0,0:2|0:0,0:0:0:0:
476,191,217159,1,10,0:2:0:0:
476,191,217262,2,0,B|455:240|459:284|478:341,1,120.000004577637,2|0,0:2|0:0,0:0:0:0:
412,90,217469,1,0,0:0:0:0:
412,90,217572,2,0,B|361:74|313:73|279:85,1,120.000004577637,10|0,0:2|0:0,0:0:0:0:
194,84,217779,1,10,0:2:0:0:
231,181,217883,1,0,0:0:0:0:
222,283,217986,6,0,B|164:306|31:308|-9:213,1,240.000009155274,14|0,0:0|0:0,0:0:0:0:
18,127,218296,1,0,0:0:0:0:
18,127,218400,2,0,B|73:113|111:115|154:152,1,120.000004577637,10|0,0:2|0:0,0:0:0:0:
269,42,218607,2,0,L|246:197,1,120.000004577637,10|0,0:2|0:0,0:0:0:0:
306,366,218814,2,0,L|326:227,1,120.000004577637,10|0,0:2|0:0,0:0:0:0:
406,149,219021,2,0,B|461:141|507:160|525:197,1,120.000004577637,10|0,0:2|0:0,0:0:0:0:
228,266,219227,2,0,B|183:246|147:193|154:130,1,120.000004577637,10|0,0:0|0:0,0:0:0:0:
125,76,219434,1,0,0:0:0:0:
24,90,219538,1,2,0:2:0:0:
11,189,219641,6,0,B|124:228|34:295|182:347,1,240.000009155274,6|0,0:0|0:0,0:0:0:0:
319,357,219952,1,2,0:2:0:0:
319,357,220055,2,0,B|265:229|347:244|291:103,1,240.000009155274,10|0,0:2|0:0,0:0:0:0:
123,67,220365,1,0,0:0:0:0:
123,67,220469,2,0,B|192:100|223:200|176:303,1,240.000009155274,8|2,0:0|0:2,0:0:0:0:
110,353,220779,1,0,0:0:0:0:
110,353,220883,2,0,B|149:367|189:373|242:358,1,120.000004577637,10|0,0:2|0:0,0:0:0:0:
508,288,221090,2,0,B|464:274|430:279|383:299,1,120.000004577637,10|0,0:2|0:0,0:0:0:0:
308,352,221296,5,6,0:0:0:0:
315,258,221400,1,0,0:0:0:0:
259,182,221503,1,2,0:2:0:0:
170,161,221607,1,2,0:2:0:0:
82,212,221710,2,0,B|87:258|91:279|98:350,1,120.000004577637,8|0,0:0|0:0,0:0:0:0:
186,279,221917,2,0,B|180:227|176:204|164:130,1,120.000004577637,10|0,0:2|0:0,0:0:0:0:
168,23,222124,2,0,B|226:13|282:41|297:68,1,120.000004577637,8|0,0:0|0:0,0:0:0:0:
464,260,222331,2,0,B|437:279|391:283|341:260,1,120.000004577637,8|0,0:0|0:0,0:0:0:0:
254,154,222538,2,0,B|399:121|399:121|442:122|470:152|462:182,1,240.000009155274,10|0,0:0|0:0,0:0:0:0:
290,338,222848,1,2,0:2:0:0:
290,338,222952,6,0,B|261:274|261:274|279:201,1,120.000004577637
354,265,223159,1,0,0:0:0:0:
354,265,223262,1,2,0:2:0:0:
354,265,223365,2,0,B|256:244|242:302|79:282,1,240.000009155274,10|2,0:0|0:2,0:0:0:0:
48,208,223676,1,0,0:0:0:0:
97,103,223779,2,0,B|135:117|160:167|139:218,2,120.000004577637,10|2|0,0:0|0:2|0:0,0:0:0:0:
9,19,224090,1,0,0:0:0:0:
9,19,224193,2,0,L|29:140,1,120.000004577637,10|0,0:2|0:0,0:0:0:0:
144,202,224400,2,0,L|129:338,1,120.000004577637,10|0,0:2|0:0,0:0:0:0:
39,347,224607,5,6,0:0:0:0:
44,243,224710,1,0,0:0:0:0:
129,167,224814,1,2,0:2:0:0:
248,159,224917,1,2,0:2:0:0:
328,243,225021,1,8,0:0:0:0:
431,34,225227,2,0,B|386:32|350:50|329:103,1,120.000004577637,10|0,0:2|0:0,0:0:0:0:
114,5,225434,2,0,B|112:50|130:86|183:107,1,120.000004577637,10|2,0:2|0:2,0:0:0:0:
92,316,225641,2,0,B|137:318|173:300|194:247,1,120.000004577637,8|0,0:2|0:0,0:0:0:0:
411,350,225848,2,0,B|413:305|395:269|342:247,1,120.000004577637,10|0,0:0|0:0,0:0:0:0:
261,189,226055,1,8,0:0:0:0:
261,189,226159,1,2,0:2:0:0:
261,189,226262,6,0,B|150:211|90:207|18:177,1,240.000009155274,6|0,0:2|0:0,0:0:0:0:
101,88,226572,1,2,0:2:0:0:
101,88,226676,2,0,B|83:155|87:250|97:335,2,240.000009155274,8|0|8,0:0|0:0|0:0,0:0:0:0:
242,46,227193,1,2,0:2:0:0:
242,46,227296,2,0,B|283:60|338:61|377:65,1,120.000004577637,2|0,0:2|0:0,0:0:0:0:
450,162,227503,2,0,L|433:303,1,120.000004577637,8|0,0:0|0:0,0:0:0:0:
336,378,227710,2,0,L|324:212,1,120.000004577637,8|0,0:0|0:0,0:0:0:0:
265,144,227917,5,14,0:0:0:0:
170,132,228021,1,0,0:0:0:0:
97,191,228124,1,2,0:2:0:0:
82,284,228227,1,2,0:2:0:0:
148,355,228331,1,8,0:0:0:0:
239,344,228434,1,2,0:2:0:0:
256,253,228538,2,0,B|228:215|194:206|144:204,1,120.000004577637,12|0,0:2|0:0,0:0:0:0:
15,87,228745,2,0,B|96:70|117:43|149:11,1,120.000004577637,8|0,0:0|0:0,0:0:0:0:
401,68,228952,2,0,B|333:81|292:108|259:143,1,120.000004577637
46,192,229159,1,8,0:0:0:0:
147,195,229262,1,2,0:2:0:0:
256,197,229365,1,2,0:2:0:0:
369,196,229469,1,0,0:0:0:0:
481,196,229572,6,0,L|386:302,1,120.000004577637,6|0,0:0|0:0,0:0:0:0:
223,328,229779,2,0,L|308:222,1,120.000004577637,2|0,0:2|0:0,0:0:0:0:
348,66,229986,2,0,B|401:76|410:100|426:149,2,120.000004577637,8|2|0,0:0|0:2|0:0,0:0:0:0:
256,27,230296,1,0,0:0:0:0:
232,137,230400,2,0,B|210:205|86:254|-18:171,1,240.000009155274,10|0,0:2|0:0,0:0:0:0:
34,77,230710,1,0,0:0:0:0:
34,77,230814,2,0,B|87:72|120:98|152:143,1,120.000004577637,8|0,0:0|0:0,0:0:0:0:
223,328,231021,2,0,L|242:175,1,120.000004577637,10|0,0:2|0:0,0:0:0:0:
368,124,231227,6,0,B|314:226|402:246|335:378,2,240.000009155274,6|0|0,0:0|0:0|0:0,0:0:0:0:
242,214,231745,1,2,0:2:0:0:
242,214,231848,2,0,B|184:207|140:216|108:238,1,120.000004577637,8|0,0:0|0:0,0:0:0:0:
45,363,232055,2,0,B|54:329|40:274|24:227,1,120.000004577637,10|2,0:2|0:2,0:0:0:0:
47,71,232262,2,0,L|190:94,1,120.000004577637,8|0,0:0|0:0,0:0:0:0:
360,233,232469,2,0,L|217:210,1,120.000004577637,10|0,0:0|0:0,0:0:0:0:
247,118,232676,1,0,0:0:0:0:
312,43,232779,1,2,0:2:0:0:
412,59,232883,6,0,B|445:107|436:147|420:200,1,120.000004577637,6|0,0:0|0:0,0:0:0:0:
375,350,233090,2,0,B|361:325|355:270|361:203,1,120.000004577637,2|0,0:0|0:0,0:0:0:0:
247,118,233296,2,0,B|185:88|59:101|8:128,1,240.000009155274,10|0,0:2|0:0,0:0:0:0:
44,247,233607,1,0,0:0:0:0:
44,247,233710,2,0,B|53:285|52:334|11:367,2,120.000004577637,10|2|0,0:2|0:2|0:0,0:0:0:0:
145,202,234021,1,0,0:0:0:0:
145,202,234124,2,0,B|199:228|223:229|276:225,1,120.000004577637,8|0,0:0|0:0,0:0:0:0:
369,146,234331,2,0,B|319:125|271:128|212:132,1,120.000004577637,8|0,0:0|0:0,0:0:0:0:
189,297,234538,5,6,0:0:0:0:
271,371,234642,1,2,0:2:0:0:
380,367,234745,1,2,0:2:0:0:
458,288,234849,1,0,0:0:0:0:
438,179,234952,1,8,0:0:0:0:
112,22,235159,2,0,L|181:119,1,120.000004577637,10|0,0:0|0:0,0:0:0:0:
400,22,235365,2,0,L|331:119,1,120.000004577637,10|0,0:2|0:0,0:0:0:0:
400,362,235572,2,0,L|331:265,1,120.000004577637,10|0,0:2|0:0,0:0:0:0:
112,362,235779,2,0,L|181:265,1,120.000004577637,10|0,0:0|0:0,0:0:0:0:
259,94,235986,1,2,0:2:0:0:
259,94,236090,1,2,0:2:0:0:
259,94,236193,6,0,B|281:177|279:246|257:311,1,120.000004577637,6|0,0:2|0:0,0:0:0:0:
436,355,236400,2,0,B|418:313|370:280|317:283,1,120.000004577637,2|0,0:2|0:0,0:0:0:0:
88,331,236607,2,0,B|162:340|258:301|280:190,1,240.000009155274,10|0,0:0|0:0,0:0:0:0:
154,196,236917,1,0,0:2:0:0:
154,196,237021,2,0,B|131:221|71:227|12:195,1,120.000004577637,10|2,0:2|0:2,0:0:0:0:
12,35,237227,2,0,B|42:15|102:21|125:46,1,120.000004577637
274,212,237434,2,2,B|311:161|319:46|193:6,1,240.000009155274,10|0,0:0|0:0,0:0:0:0:
154,196,237745,1,2,0:2:0:0:
155,194,237848,6,0,B|138:245|148:289|190:332,1,120.000004577637,14|0,0:2|0:0,0:0:0:0:
292,347,238055,2,0,B|361:312|398:311|438:314,1,120.000004577637
503,201,238262,2,2,B|416:153|378:177|269:213,1,240.000009155274,10|8,0:0|0:0,0:0:0:0:
144,248,238572,1,0,0:0:0:0:
144,248,238676,2,0,L|172:96,1,120.000004577637,6|0,0:2|0:0,0:0:0:0:
43,53,238883,2,0,L|68:196,1,120.000004577637,8|0,0:0|0:0,0:0:0:0:
85,321,239090,1,10,0:2:0:0:
169,275,239193,1,0,0:0:0:0:
206,187,239296,1,2,0:2:0:0:
256,104,239400,1,2,0:2:0:0:
339,56,239503,6,0,B|368:27|419:18|451:54,1,120.000004577637,6|0,0:0|0:0,0:0:0:0:
465,213,239710,1,0,0:0:0:0:
465,213,239814,2,0,L|344:202,1,120.000004577637,2|8,0:0|0:0,0:0:0:0:
246,294,240021,1,0,0:0:0:0:
246,294,240124,2,0,B|275:323|326:332|358:296,1,120.000004577637,2|0,0:2|0:0,0:0:0:0:
238,135,240331,2,0,L|94:197,1,120.000004577637,10|0,0:2|0:0,0:0:0:0:
8,111,240538,2,0,L|159:52,1,120.000004577637,2|0,0:2|0:0,0:0:0:0:
318,76,240745,2,0,B|342:122|330:169|304:230,1,120.000004577637,8|0,0:0|0:0,0:0:0:0:
56,300,240952,2,0,B|32:254|44:207|70:146,1,120.000004577637,2|2,0:2|0:2,0:0:0:0:
331,301,241159,6,0,L|471:338,1,120.000004577637,6|0,0:0|0:0,0:0:0:0:
506,136,241365,1,2,0:2:0:0:
506,136,241469,2,0,L|383:177,1,120.000004577637,2|8,0:2|0:0,0:0:0:0:
103,102,241676,1,0,0:0:0:0:
103,102,241780,2,0,L|226:61,1,120.000004577637,2|2,0:2|0:2,0:0:0:0:
154,275,241986,2,0,B|122:283|44:256|40:183,1,120.000004577637,10|0,0:0|0:0,0:0:0:0:
329,195,242193,2,0,B|386:197|434:227|450:281,1,120.000004577637,8|0,0:0|0:0,0:0:0:0:
305,37,242400,1,8,0:0:0:0:
267,142,242503,1,0,0:0:0:0:
229,248,242607,1,2,0:2:0:0:
186,352,242710,1,2,0:2:0:0:
291,324,242814,5,14,0:0:0:0:
256,192,242917,12,4,249434,0:0:0:0:
