osu file format v14

[General]
AudioFilename: mp3desu.mp3
AudioLeadIn: 0
PreviewTime: 45760
Countdown: 0
SampleSet: Normal
StackLeniency: 0.7
Mode: 0
LetterboxInBreaks: 0
WidescreenStoryboard: 1

[Editor]
Bookmarks: 17725,115277,160070,187380
DistanceSpacing: 0.1
BeatDivisor: 4
GridSize: 32
TimelineZoom: 1.7

[Metadata]
Title:No Good Magia (Start the Witch)
TitleUnicode:No Good Magia (Start the Witch)
Artist:Kalafina x The Prodigy
ArtistUnicode:Kalafina x The Prodigy
Creator:Okoratu
Version:Normal
Source:魔法少女まどか☆マギカ
Tags:Start the Dance mahou shoujo Puella Magi Madoka Magica kajiura yuki Okorin Kite Melwoine Walpurgisnacht crn caren_sk
BeatmapID:2142881
BeatmapSetID:988552

[Difficulty]
HPDrainRate:5
CircleSize:3
OverallDifficulty:5
ApproachRate:6.2
SliderMultiplier:1.1
SliderTickRate:1

[Events]
//Background and Video events
0,0,"BG.jpg",0,0
//Break Periods
2,72546,79602
2,80822,82912
2,84132,86222
2,140408,160705
//Storyboard Layer 0 (Background)
//Storyboard Layer 1 (Fail)
//Storyboard Layer 2 (Pass)
//Storyboard Layer 3 (Foreground)
//Storyboard Layer 4 (Overlay)
//Storyboard Sound Samples

[TimingPoints]
1174,413.793103448276,4,1,1,40,1,0
5828,-100,4,1,1,25,0,0
5932,-100,4,1,1,40,0,0
8415,-100,4,1,1,25,0,0
8828,-100,4,1,1,40,0,0
9139,-100,4,1,1,25,0,0
9242,-100,4,1,1,40,0,0
10484,-100,4,1,1,45,0,0
11518,-100,4,1,1,45,0,0
11725,-100,4,1,1,15,0,0
12138,-100,4,1,1,40,0,0
17104,-100,4,1,1,47,0,0
17105,-62.5,4,1,1,40,0,0
17208,-62.5,4,1,1,5,0,0
17725,-100,4,1,1,40,0,0
22691,-100,4,1,1,35,0,0
23518,-100,4,1,1,20,0,0
24346,-100,4,1,1,45,0,0
29311,-100,4,1,1,35,0,0
30139,-100,4,1,1,48,0,0
30759,-100,4,1,1,50,0,0
30967,-100,4,1,1,40,0,0
40898,-100,4,1,1,33,0,0
41725,-100,4,1,1,35,0,0
42553,-100,4,1,1,40,0,0
43380,-100,4,1,1,50,0,0
45863,-83.3333333333333,4,1,1,50,0,1
58070,-83.3333333333333,4,1,1,50,0,1
59105,-83.3333333333333,4,1,1,50,0,1
72346,-83.3333333333333,4,1,1,40,0,0
72353,-100,4,1,1,5,0,0
80622,-100,4,1,1,30,0,0
87242,-100,4,1,1,40,0,0
108760,-83.3333333333333,4,1,1,50,0,1
120967,-83.3333333333333,4,1,1,50,0,1
122001,-83.3333333333333,4,1,1,50,0,1
135242,-100,4,1,1,40,0,0
136898,-100,4,1,1,5,0,0
140208,-100,4,1,1,30,0,0
161725,-100,4,1,1,55,0,0
188208,-100,4,1,1,38,0,0
189242,-100,4,1,1,40,0,0
189449,-100,4,1,1,38,0,0
191104,-100,4,1,1,40,0,0
191518,-100,4,1,1,38,0,0
193587,-100,4,1,1,40,0,0
194001,-100,4,1,1,38,0,0
216331,413.793103448276,4,1,1,55,1,1
216331,-76.9230769230769,4,1,1,55,0,1
242813,-100,4,1,1,55,0,0

[Colours]
Combo1 : 177,162,148
Combo2 : 34,95,149
Combo3 : 186,80,186
Combo4 : 46,150,105
Combo5 : 167,35,38

[HitObjects]
51,66,4484,6,0,P|97:98|168:94,1,110,4|8,0:2|0:0,0:0:0:0:
399,26,5518,2,0,L|388:119,2,82.5
280,60,6553,1,0,0:0:0:0:
411,250,7174,6,0,L|507:245,2,82.5,2|2|0,0:2|0:2|0:0,0:0:0:0:
253,245,8208,2,0,P|193:232|87:263,1,165
44,358,9139,2,0,L|139:352,1,82.5
251,363,9863,1,0,0:0:0:0:
215,130,10484,5,4,0:2:0:0:
456,248,11105,1,6,0:0:0:0:
452,124,11518,2,0,P|431:93|307:84,1,165
273,172,12449,2,0,L|172:176,1,82.5
94,256,13174,1,2,0:0:0:0:
247,28,13794,2,0,P|283:54|294:105,2,82.5,0|0|2,0:0|0:0|0:2,0:0:0:0:
111,27,14829,5,0,0:0:0:0:
238,283,15449,2,0,P|249:327|247:373,1,82.5
131,367,16070,2,0,B|106:242|209:212|166:84,1,275,0|4,0:0|0:2,0:0:0:0:
430,55,17725,5,2,0:2:0:0:
471,185,18139,1,10,0:2:0:0:
388,311,18553,2,0,P|348:266|283:263,1,110,0|8,0:0|0:0,0:0:0:0:
244,321,19174,6,0,L|126:335,1,110
47,352,19794,1,10,0:2:0:0:
81,227,20208,1,2,0:2:0:0:
27,115,20622,1,10,0:2:0:0:
146,42,21036,6,0,P|147:134|154:266,1,220,6|2,0:0|0:2,0:0:0:0:
248,345,22277,1,8,0:0:0:0:
348,267,22691,2,0,P|406:250|440:248,2,82.5,2|2|0,0:2|2:2|0:0,0:0:0:0:
256,259,23518,2,0,L|279:91,1,165
347,23,24346,5,6,0:0:0:0:
488,59,24760,1,10,0:2:0:0:
389,163,25174,2,0,L|376:296,1,110,2|10,0:2|0:2,0:0:0:0:
371,360,25794,6,0,P|306:344|207:338,1,165,8|10,0:0|0:2,0:0:0:0:
81,358,26829,2,0,P|94:277|94:232,1,110,0|10,0:0|0:2,0:0:0:0:
45,111,27656,2,0,L|32:33,2,55,6|0|8,0:2|0:0|0:0,0:0:0:0:
149,191,28484,1,0,0:0:0:0:
231,89,28898,1,10,0:2:0:0:
305,202,29311,6,0,P|318:239|343:283,2,82.5,2|10|2,0:2|0:2|0:2,0:0:0:0:
307,100,30139,2,0,P|320:63|345:19,2,82.5,8|8|8,0:0|0:0|0:0,0:0:0:0:
386,154,30967,5,4,0:2:0:0:
465,263,31380,1,0,0:0:0:0:
361,357,31794,1,2,0:0:0:0:
257,194,32208,5,2,0:2:0:0:
200,321,32622,1,0,0:0:0:0:
81,264,33036,2,0,L|88:152,2,110,0|2|0,0:0|0:2|0:0,0:0:0:0:
151,351,34277,6,0,P|195:320|200:197,1,165,6|8,0:0|0:0,0:0:0:0:
192,125,35105,2,0,L|376:137,1,165,2|10,0:0|0:2,0:0:0:0:
499,148,36139,1,2,0:2:0:0:
415,57,36553,2,0,L|395:-11,2,55,0|2|0,0:0|0:2|0:0,0:0:0:0:
354,130,37174,6,0,L|227:106,1,110,6|6,0:2|0:2,0:0:0:0:
111,76,38001,1,10,0:2:0:0:
151,208,38415,1,2,0:0:0:0:
110,362,38829,5,2,0:2:0:0:
236,277,39242,1,8,0:0:0:0:
354,364,39656,2,0,L|470:378,2,110,2|0|2,0:2|0:0|0:2,0:0:0:0:
333,236,40898,6,0,P|340:177|386:124,1,110,6|10,0:0|0:2,0:0:0:0:
419,62,41518,1,8,0:0:0:0:
419,62,41725,2,0,L|296:44,1,110,2|8,0:2|0:0,0:0:0:0:
182,111,42553,6,0,L|192:219,2,82.5,2|2|2,0:0|0:2|0:2,0:0:0:0:
148,24,43380,2,0,P|84:30|55:171,1,220,10|4,0:0|0:0,0:0:0:0:
44,356,45863,5,6,0:0:0:0:
114,239,46277,1,10,0:2:0:0:
220,333,46691,2,0,P|278:350|356:300,1,131.99999597168,2|10,0:2|0:2,0:0:0:0:
392,250,47311,1,8,0:0:0:0:
392,250,47518,6,2,L|369:112,2,131.99999597168,6|8|8,0:0|0:0|0:2,0:0:0:0:
473,368,48760,1,2,0:0:0:0:
497,231,49174,6,0,L|505:89,1,131.99999597168,6|10,0:0|0:2,0:0:0:0:
385,50,50001,2,0,L|377:192,1,131.99999597168,2|8,0:2|0:0,0:0:0:0:
296,284,50829,5,6,0:0:0:0:
264,159,51242,1,10,0:2:0:0:
158,263,51656,1,10,0:2:0:0:
128,179,51863,1,8,0:0:0:0:
96,93,52070,1,2,0:2:0:0:
242,33,52484,6,0,P|297:41|317:122,1,131.99999597168,6|2,0:0|0:0,0:0:0:0:
322,233,53311,2,0,L|167:213,1,131.99999597168,2|2,0:0|0:2,0:0:0:0:
111,256,53932,1,2,0:2:0:0:
111,256,54139,6,0,P|127:184|60:58,1,197.99999395752,6|8,0:0|0:0,0:0:0:0:
12,16,54967,1,8,0:0:0:0:
34,187,55380,1,14,0:0:0:0:
53,362,55794,6,0,L|186:341,2,131.99999597168,6|10|2,0:2|0:2|0:2,0:0:0:0:
132,240,57036,1,10,0:2:0:0:
276,339,57449,6,0,B|342:360|376:276|491:303,1,197.99999395752,6|10,0:0|0:0,0:0:0:0:
440,210,58277,2,0,L|421:60,1,131.99999597168,8|10,0:0|0:0,0:0:0:0:
295,18,59105,5,14,0:0:0:0:
313,156,59518,1,10,0:2:0:0:
249,280,59932,2,0,L|96:271,1,131.99999597168,10|10,0:2|0:2,0:0:0:0:
26,303,60553,1,2,0:2:0:0:
26,303,60760,6,0,P|41:242|39:157,1,131.99999597168,6|10,0:0|0:2,0:0:0:0:
9,16,61587,1,10,0:2:0:0:
89,67,61794,1,10,0:2:0:0:
171,24,62001,2,0,L|310:19,1,131.99999597168,10|14,0:0|0:0,0:0:0:0:
413,102,62829,5,2,0:2:0:0:
311,190,63242,2,0,P|284:242|285:325,1,131.99999597168,2|2,0:2|0:2,0:0:0:0:
373,353,63863,1,2,0:2:0:0:
373,353,64070,6,0,L|405:136,1,197.99999395752,10|8,0:0|0:2,0:0:0:0:
448,81,64898,1,8,0:0:0:0:
301,158,65311,1,8,0:0:0:0:
161,272,65725,6,0,L|168:195,1,65.9999979858399,6|10,0:0|0:2,0:0:0:0:
182,114,66139,2,2,P|149:73|57:75,1,131.99999597168,10|2,0:0|0:2,0:0:0:0:
11,131,66760,1,8,0:0:0:0:
56,212,66967,1,2,0:2:0:0:
280,160,67380,6,0,L|367:148,1,65.9999979858399,6|8,0:0|0:2,0:0:0:0:
421,101,67794,2,2,L|428:246,1,131.99999597168,10|8,0:0|0:0,0:0:0:0:
433,327,68415,1,0,0:0:0:0:
347,282,68622,1,8,0:0:0:0:
191,328,69036,6,0,L|83:348,2,98.9999969787599,6|2|10,0:0|0:2|0:2,0:0:0:0:
234,246,69863,2,2,P|260:159|254:101,1,131.99999597168,2|2,0:0|0:2,0:0:0:0:
141,37,70691,6,2,P|99:43|33:21,2,98.9999969787599,6|2|8,0:0|0:2|0:0,0:0:0:0:
240,19,71518,1,2,0:1:0:0:
250,151,71932,1,10,0:2:0:0:
387,91,72346,5,6,0:2:0:0:
253,194,80622,5,6,0:2:0:0:
253,194,83932,5,12,0:0:0:0:
82,65,87242,5,14,0:0:0:0:
147,166,87656,1,10,0:2:0:0:
259,90,88070,2,0,P|329:73|370:94,1,110,2|8,0:2|0:0,0:0:0:0:
414,158,88691,6,0,L|401:281,1,110
389,361,89311,1,10,0:2:0:0:
277,267,89725,1,2,0:2:0:0:
169,339,90139,1,10,0:2:0:0:
129,211,90553,6,0,P|126:116|17:51,1,220,6|2,0:2|0:2,0:0:0:0:
15,179,91794,1,8,0:0:0:0:
81,313,92208,6,0,P|123:335|164:335,2,82.5,10|10|10,0:2|0:2|0:2,0:0:0:0:
115,223,93036,2,0,L|136:135,2,82.5,8|8|10,0:0|0:0|0:2,0:0:0:0:
188,283,93863,6,0,B|303:270|273:326|413:320,1,220,14|0,0:2|0:0,0:0:0:0:
480,229,95105,1,2,0:2:0:0:
401,123,95518,1,8,0:0:0:0:
487,28,95932,1,2,0:0:0:0:
332,30,96346,6,0,L|206:34,1,110
129,37,96967,1,0,0:0:0:0:
129,37,97174,2,0,P|154:83|143:154,1,110,6|2,0:0|0:2,0:0:0:0:
43,225,98001,2,0,P|32:276|51:345,1,110,2|2,0:0|0:2,0:0:0:0:
124,364,98622,6,0,P|171:343|247:344,2,110,8|2|0,0:0|0:2|0:0,0:0:0:0:
109,262,99656,1,0,0:0:0:0:
239,197,100070,1,6,0:2:0:0:
347,304,100484,5,6,0:2:0:0:
469,197,100898,1,2,0:2:0:0:
371,103,101311,1,0,0:0:0:0:
204,15,101725,5,2,0:2:0:0:
241,166,102139,1,0,0:0:0:0:
271,315,102553,1,8,0:0:0:0:
132,350,102967,2,0,P|87:338|75:219,1,165,2|8,0:2|0:0,0:0:0:0:
51,145,103794,6,0,L|183:162,1,110,6|0,0:0|0:0,0:0:0:0:
237,110,104415,1,0,0:0:0:0:
237,110,104622,2,0,L|359:121,1,110
469,203,105449,6,0,L|485:81,1,110,10|10,0:0|0:2,0:0:0:0:
346,119,106277,2,0,P|337:166|339:200,2,82.5,10|10|14,0:0|0:2|0:2,0:0:0:0:
277,55,107105,1,4,0:2:0:0:
70,53,108760,5,6,0:0:0:0:
135,185,109174,2,0,P|149:247|140:345,1,131.99999597168,10|2,0:2|0:2,0:0:0:0:
8,353,110001,2,0,L|20:259,1,65.9999979858399,10|8,0:2|0:0,0:0:0:0:
4,197,110415,6,0,L|27:40,1,131.99999597168,6|10,0:0|0:2,0:0:0:0:
166,17,111242,1,2,0:2:0:0:
201,158,111656,1,2,0:2:0:0:
313,64,112070,6,0,P|358:37|434:45,1,131.99999597168,6|8,0:2|0:2,0:0:0:0:
489,165,112898,2,0,L|466:303,1,131.99999597168,2|10,0:2|0:2,0:0:0:0:
318,350,113725,5,6,0:0:0:0:
309,213,114139,1,10,1:2:0:0:
152,169,114553,1,10,0:2:0:0:
150,259,114760,1,8,0:0:0:0:
145,348,114967,1,0,0:0:0:0:
1,249,115380,5,6,0:2:0:0:
40,103,115794,1,10,0:0:0:0:
173,169,116208,2,0,P|228:181|305:177,1,131.99999597168,10|10,0:0|0:2,0:0:0:0:
371,120,116829,1,2,0:2:0:0:
371,120,117036,6,0,P|363:210|361:327,1,197.99999395752,2|10,0:0|0:2,0:0:0:0:
441,358,117863,1,10,0:2:0:0:
473,204,118277,1,10,0:0:0:0:
394,66,118691,6,0,L|235:81,1,131.99999597168,6|10,0:2|0:2,0:0:0:0:
107,86,119518,1,10,0:0:0:0:
59,218,119932,1,10,0:2:0:0:
128,276,120139,1,8,0:0:0:0:
210,230,120346,6,0,L|362:221,1,131.99999597168,10|10,0:0|0:2,0:0:0:0:
391,143,120967,2,0,P|353:97|209:117,1,197.99999395752,4|8,0:2|0:0,0:0:0:0:
117,218,122001,5,6,0:0:0:0:
40,88,122415,1,10,0:2:0:0:
5,251,122829,2,0,P|31:299|127:318,1,131.99999597168,2|10,0:2|0:2,0:0:0:0:
180,284,123449,1,2,0:2:0:0:
180,284,123656,6,0,L|311:296,1,131.99999597168,6|10,0:0|0:2,0:0:0:0:
464,332,124484,1,10,0:2:0:0:
489,239,124691,1,8,0:2:0:0:
416,173,124898,1,6,0:0:0:0:
264,219,125311,6,0,L|119:228,1,131.99999597168,6|10,0:0|0:2,0:0:0:0:
42,119,126139,2,0,L|187:110,1,131.99999597168,2|2,0:2|0:2,0:0:0:0:
240,47,126760,1,2,0:2:0:0:
240,47,126967,6,0,P|297:36|423:110,1,197.99999395752,6|8,0:0|0:0,0:0:0:0:
372,179,127794,2,0,L|365:324,1,131.99999597168,10|8,0:2|0:0,0:0:0:0:
494,329,128622,6,0,L|504:237,1,65.9999979858399,6|0,0:0|0:0,0:0:0:0:
503,166,129036,2,2,L|368:179,1,131.99999597168,10|2,0:2|0:2,0:0:0:0:
285,207,129656,1,8,0:0:0:0:
299,112,129863,1,8,0:0:0:0:
140,74,130277,6,0,L|130:5,2,65.9999979858399,6|2|10,0:1|0:2|0:0,0:0:0:0:
43,196,131105,1,2,0:2:0:0:
60,283,131311,1,2,0:2:0:0:
74,373,131518,1,10,0:2:0:0:
217,302,131932,6,0,P|269:298|318:321,2,98.9999969787599,6|2|2,0:0|0:2|0:2,0:0:0:0:
132,328,132760,2,2,P|124:281|162:177,1,131.99999597168,2|2,0:0|0:2,0:0:0:0:
282,107,133587,6,0,P|294:72|292:5,2,98.9999969787599,6|2|10,0:0|0:0|0:2,0:0:0:0:
226,182,134415,1,2,0:2:0:0:
276,315,134829,1,8,0:0:0:0:
405,234,135242,5,6,0:0:0:0:
256,192,135346,12,4,140208,0:0:0:0:
141,122,161725,6,0,P|151:172|129:239,1,110,6|10,0:0|0:2,0:0:0:0:
57,268,162346,2,0,L|38:87,2,165,2|10|0,0:0|0:0|0:0,0:0:0:0:
302,350,164208,1,2,0:0:0:0:
416,268,164622,1,10,0:0:0:0:
327,164,165036,6,0,L|193:182,1,110,4|8,0:0|0:0,0:0:0:0:
162,100,165656,2,0,L|344:80,2,165,2|10|2,0:0|0:0|0:2,0:0:0:0:
52,323,167518,1,2,0:0:0:0:
153,232,167932,1,10,0:0:0:0:
246,336,168346,6,0,P|300:351|366:331,1,110,4|8,0:0|0:0,0:0:0:0:
441,329,168967,2,0,P|422:259|429:205,1,110,2|0,0:0|0:2,0:0:0:0:
495,171,169587,2,0,P|490:129|326:108,1,220,10|8,0:0|0:0,0:0:0:0:
269,196,170829,1,2,0:0:0:0:
197,66,171242,1,10,0:0:0:0:
86,144,171656,6,0,L|102:274,1,110,2|8,0:0|0:0,0:0:0:0:
71,346,172277,2,0,L|194:330,1,110,2|0,0:0|0:0,0:0:0:0:
265,363,172898,2,0,P|265:305|306:134,1,220,10|8,0:0|0:0,0:0:0:0:
436,73,174139,1,2,0:0:0:0:
296,16,174553,1,10,0:0:0:0:
226,162,174967,6,0,B|166:212|166:212|113:138,1,165,6|10,0:0|0:0,0:0:0:0:
76,53,175794,2,0,L|200:42,1,110,2|10,0:0|0:0,0:0:0:0:
346,89,176622,2,0,L|329:182,1,82.5,10|2,0:0|0:0,0:0:0:0:
350,279,177242,2,2,P|324:248|147:265,1,220,2|0,0:0|0:0,0:0:0:0:
76,301,178277,5,6,0:0:0:0:
35,156,178691,1,10,0:0:0:0:
145,69,179105,2,0,L|267:82,1,110,2|2,0:2|0:2,0:0:0:0:
354,186,179932,2,0,P|328:228|326:307,1,110,10|10,0:0|0:2,0:0:0:0:
414,312,180553,2,0,L|453:141,1,165,2|0,0:0|0:0,0:0:0:0:
379,42,181587,6,0,L|318:24,2,55,2|2|10,0:0|0:2|0:2,0:0:0:0:
265,113,182415,2,0,P|274:165|273:229,1,110,2|8,0:2|0:0,0:0:0:0:
221,308,183036,1,10,0:2:0:0:
221,308,183242,6,0,L|160:295,2,55,2|2|10,0:0|0:2|0:2,0:0:0:0:
351,343,184070,1,0,0:0:0:0:
450,249,184484,1,10,0:2:0:0:
351,143,184898,6,0,P|251:156|250:156,1,82.5,2|10,0:0|0:0,0:0:0:0:
178,73,185518,2,0,P|122:61|83:58,2,82.5,10|10|10,0:0|0:0|0:0,0:0:0:0:
128,154,186346,2,0,B|170:241|113:247|142:328,1,165,2|10,0:0|0:2,0:0:0:0:
242,221,187380,2,0,L|416:240,1,165,6|2,0:0|0:2,0:0:0:0:
476,298,188208,6,0,L|497:186,1,110,6|8,0:2|0:0,0:0:0:0:
381,102,189036,2,0,L|391:40,2,55,0|0|10,0:0|0:0|0:2,0:0:0:0:
306,206,189863,5,0,0:0:0:0:
224,94,190277,1,8,0:0:0:0:
130,217,190691,2,0,P|76:229|13:214,1,110,2|0,0:2|0:0,0:0:0:0:
43,69,191518,6,0,P|203:60|241:113,2,220,6|2|2,0:2|0:2|0:2,0:0:0:0:
9,206,193587,1,0,0:0:0:0:
111,292,194001,2,0,L|297:276,1,165,2|2,0:2|0:2,0:0:0:0:
355,231,194829,5,6,0:2:0:0:
422,347,195242,1,10,0:2:0:0:
504,231,195656,2,0,P|509:186|480:105,1,110,0|10,0:0|0:2,0:0:0:0:
456,42,196277,2,0,L|340:58,1,110,2|0,0:2|0:0,0:0:0:0:
223,46,197105,2,0,P|239:113|236:223,1,165,0|10,0:0|0:2,0:0:0:0:
146,333,198139,5,6,0:2:0:0:
43,232,198553,1,8,0:0:0:0:
146,112,198967,2,0,L|378:122,2,220,0|2|10,0:0|0:2|0:2,0:0:0:0:
20,39,201036,1,6,0:2:0:0:
54,188,201449,6,0,P|66:234|63:304,1,110,6|10,0:2|0:2,0:0:0:0:
173,373,202277,2,0,L|203:190,1,165,8|2,0:0|0:2,0:0:0:0:
156,94,203311,2,0,B|231:116|242:67|335:90,1,165
435,161,204346,1,10,0:2:0:0:
350,282,204760,6,0,L|345:352,2,55,6|2|10,0:2|0:0|0:2,0:0:0:0:
275,169,205587,1,0,0:0:0:0:
184,309,206001,2,0,P|138:326|56:323,1,110,8|0,0:0|0:0,0:0:0:0:
17,207,206829,1,8,0:0:0:0:
130,134,207242,2,0,L|220:141,2,82.5,10|10|10,0:2|0:2|0:2,0:0:0:0:
70,68,208070,6,0,B|149:38|329:90|185:219|321:303|409:276,1,440,6|2,0:2|0:2,0:0:0:0:
489,165,210139,2,0,L|478:49,2,110,10|2|10,0:2|0:2|0:2,0:0:0:0:
497,303,211380,6,0,P|457:273|393:268,1,110,6|10,0:2|0:2,0:0:0:0:
281,349,212208,1,2,0:2:0:0:
257,193,212622,1,10,0:2:0:0:
171,57,213036,6,0,P|125:54|66:115,1,110,2|10,0:2|0:2,0:0:0:0:
22,232,213863,2,0,L|201:203,1,165,0|8,0:0|0:0,0:0:0:0:
248,138,214691,1,4,0:2:0:0:
406,345,216331,6,0,L|419:257,1,71.4999967269899,6|0,0:0|0:0,0:0:0:0:
489,207,216745,2,0,P|500:116|453:60,1,142.99999345398,10|10,0:2|0:2,0:0:0:0:
322,24,217572,1,10,0:2:0:0:
282,108,217779,1,10,0:2:0:0:
202,62,217986,6,0,L|33:47,1,142.99999345398,14|10,0:0|0:2,0:0:0:0:
17,130,218607,1,10,0:2:0:0:
17,130,218814,2,0,B|49:197|10:286,1,142.99999345398,10|10,0:2|0:0,0:0:0:0:
155,358,219641,5,6,0:0:0:0:
224,235,220055,1,10,0:2:0:0:
334,350,220469,2,0,L|502:370,1,142.99999345398,8|10,0:0|0:2,0:0:0:0:
511,277,221090,1,10,0:2:0:0:
448,208,221296,5,6,0:0:0:0:
489,60,221710,1,8,0:0:0:0:
321,28,222124,1,8,0:0:0:0:
299,111,222331,1,8,0:0:0:0:
281,195,222538,1,10,0:0:0:0:
151,67,222952,6,0,P|103:54|27:103,1,142.99999345398,0|10,0:0|0:0,0:0:0:0:
11,262,223779,1,10,0:0:0:0:
148,193,224193,1,10,0:2:0:0:
160,281,224400,1,10,0:2:0:0:
236,342,224607,6,0,P|242:223|254:113,1,214.49999018097,6|10,0:0|0:2,0:0:0:0:
319,67,225434,2,0,P|360:68|403:61,2,71.4999967269899,10|8|10,0:2|0:2|0:0,0:0:0:0:
158,24,226262,5,6,0:2:0:0:
103,101,226469,1,0,0:0:0:0:
164,172,226676,2,0,P|179:237|169:324,1,142.99999345398,8|8,0:0|0:0,0:0:0:0:
19,354,227503,2,0,L|31:270,1,71.4999967269899,8|8,0:0|0:0,0:0:0:0:
5,189,227917,6,0,P|107:219|245:217,1,214.49999018097,14|12,0:0|0:2,0:0:0:0:
293,169,228745,2,0,P|342:147|445:148,1,142.99999345398,8|8,0:0|0:0,0:0:0:0:
491,333,229572,5,6,0:0:0:0:
382,246,229986,1,8,0:0:0:0:
254,342,230400,2,0,L|92:325,1,142.99999345398,10|8,0:2|0:0,0:0:0:0:
15,341,231021,1,10,0:2:0:0:
15,341,231227,6,0,P|25:261|7:117,1,214.49999018097,6|8,0:0|0:0,0:0:0:0:
40,44,232055,1,10,0:2:0:0:
154,169,232469,1,10,0:0:0:0:
282,55,232883,6,0,P|325:50|363:54,1,71.4999967269899,6|2,0:0|0:0,0:0:0:0:
451,33,233296,1,10,0:2:0:0:
431,184,233710,1,10,0:2:0:0:
384,354,234124,1,8,0:0:0:0:
320,283,234331,1,8,0:0:0:0:
256,357,234538,6,0,P|190:344|100:348,1,142.99999345398,6|8,0:0|0:0,0:0:0:0:
26,354,235159,1,10,0:0:0:0:
26,354,235365,2,0,L|45:191,1,142.99999345398,10|10,0:2|0:0,0:0:0:0:
22,59,236193,6,0,L|126:55,1,71.4999967269899,6|2,0:2|0:2,0:0:0:0:
185,28,236607,1,10,0:0:0:0:
166,203,237021,1,10,0:2:0:0:
263,189,237227,1,0,0:0:0:0:
363,171,237434,1,10,0:0:0:0:
458,278,237848,6,0,L|445:364,1,71.4999967269899,14|0,0:2|0:0,0:0:0:0:
353,370,238262,1,10,0:0:0:0:
281,211,238676,1,6,0:2:0:0:
186,198,238883,1,8,0:0:0:0:
107,257,239090,1,10,0:2:0:0:
69,110,239503,6,0,P|66:60|15:4,2,107.249995090485,6|2|2,0:0|0:0|0:2,0:0:0:0:
96,204,240331,2,2,B|180:224|198:152|326:187,1,214.49999018097,10|2,0:2|0:2,0:0:0:0:
373,253,241159,6,0,L|359:372,2,107.249995090485,6|2|2,0:0|0:2|0:2,0:0:0:0:
465,217,241986,1,10,0:0:0:0:
375,79,242400,1,8,0:0:0:0:
255,192,242814,5,14,0:0:0:0:
256,192,242917,12,4,249434,0:0:0:0:
