osu file format v14

[General]
AudioFilename: mp3desu.mp3
AudioLeadIn: 0
PreviewTime: 45760
Countdown: 0
SampleSet: Normal
StackLeniency: 0.7
Mode: 0
LetterboxInBreaks: 0
WidescreenStoryboard: 1

[Editor]
Bookmarks: 17725,115277,160070,187380
DistanceSpacing: 1.1
BeatDivisor: 4
GridSize: 32
TimelineZoom: 1.7

[Metadata]
Title:No Good Magia (Start the Witch)
TitleUnicode:No Good Magia (Start the Witch)
Artist:Kalafina x The Prodigy
ArtistUnicode:Kalafina x The Prodigy
Creator:Okoratu
Version:Hard
Source:魔法少女まどか☆マギカ
Tags:Start the Dance mahou shoujo Puella Magi Madoka Magica kajiura yuki Okorin Kite Melwoine Walpurgisnacht crn caren_sk
BeatmapID:2140601
BeatmapSetID:988552

[Difficulty]
HPDrainRate:6
CircleSize:3.5
OverallDifficulty:6
ApproachRate:8
SliderMultiplier:1.4
SliderTickRate:2

[Events]
//Background and Video events
0,0,"BG.jpg",0,0
//Break Periods
2,44408,45113
2,72546,79872
2,107304,108010
2,140408,160975
2,214890,215581
//Storyboard Layer 0 (Background)
//Storyboard Layer 1 (Fail)
//Storyboard Layer 2 (Pass)
//Storyboard Layer 3 (Foreground)
//Storyboard Layer 4 (Overlay)
//Storyboard Sound Samples

[TimingPoints]
1174,413.793103448276,4,1,1,40,1,0
5105,-100,4,1,1,25,0,0
5518,-100,4,1,1,40,0,0
5828,-100,4,1,1,25,0,0
5932,-100,4,1,1,40,0,0
8415,-100,4,1,1,25,0,0
8829,-100,4,1,1,40,0,0
9139,-100,4,1,1,25,0,0
9449,-100,4,1,1,40,0,0
10276,-100,4,1,1,45,0,0
11001,-100,4,1,1,40,0,0
11105,-100,4,1,1,45,0,0
11518,-100,4,1,1,45,0,0
11725,-100,4,1,1,15,0,0
11931,-100,4,1,1,40,0,0
16898,-100,4,1,1,47,0,0
17105,-62.5,4,1,1,47,0,0
17208,-62.5,4,1,1,5,0,0
17725,-100,4,1,1,40,0,0
22691,-100,4,1,1,35,0,0
23518,-100,4,1,1,20,0,0
24346,-100,4,1,1,45,0,0
29311,-100,4,1,1,35,0,0
30139,-100,4,1,1,48,0,0
30759,-100,4,1,1,50,0,0
30967,-100,4,1,1,40,0,0
40898,-100,4,1,1,33,0,0
41725,-100,4,1,1,35,0,0
42553,-100,4,1,1,40,0,0
43380,-100,4,1,1,50,0,0
45863,-83.3333333333333,4,1,1,50,0,1
50932,-83.3333333333333,4,1,1,40,0,1
51035,-83.3333333333333,4,1,1,50,0,1
58070,-83.3333333333333,4,1,1,50,0,1
59105,-83.3333333333333,4,1,1,50,0,1
59828,-83.3333333333333,4,1,1,40,0,1
59932,-83.3333333333333,4,1,1,50,0,1
72346,-83.3333333333333,4,1,1,40,0,0
72353,-100,4,1,1,5,0,0
80622,-100,4,1,1,30,0,0
87242,-100,4,1,1,40,0,0
96138,-100,4,1,1,35,0,0
96346,-100,4,1,1,40,0,0
100276,-100,4,1,1,35,0,0
100484,-100,4,1,1,40,0,0
108760,-83.3333333333333,4,1,1,50,0,1
120967,-83.3333333333333,4,1,1,50,0,1
122001,-83.3333333333333,4,1,1,50,0,1
123966,-83.3333333333333,4,1,1,40,0,1
124070,-83.3333333333333,4,1,1,50,0,1
135242,-100,4,1,1,40,0,0
136898,-100,4,1,1,5,0,0
140208,-100,4,1,1,30,0,0
161725,-100,4,1,1,55,0,0
166586,-100,4,1,1,40,0,0
166691,-100,4,1,1,55,0,0
173621,-100,4,1,1,40,0,0
173724,-100,4,1,1,55,0,0
188208,-100,4,1,1,38,0,0
189242,-100,4,1,1,40,0,0
189449,-100,4,1,1,38,0,0
191105,-100,4,1,1,40,0,0
191208,-100,4,1,1,38,0,0
193587,-100,4,1,1,40,0,0
194001,-100,4,1,1,38,0,0
199174,-100,4,1,1,40,0,0
199380,-100,4,1,1,38,0,0
199690,-100,4,1,1,40,0,0
199794,-100,4,1,1,38,0,0
201242,-100,4,1,1,40,0,0
201449,-100,4,1,1,38,0,0
204139,-100,4,1,1,40,0,0
204346,-100,4,1,1,38,0,0
205484,-100,4,1,1,40,0,0
205587,-100,4,1,1,38,0,0
205793,-100,4,1,1,40,0,0
206001,-100,4,1,1,38,0,0
216331,413.793103448276,4,1,1,55,1,1
216331,-76.9230769230769,4,1,1,55,0,1
226986,-76.9230769230769,4,1,1,40,0,1
227090,-76.9230769230769,4,1,1,55,0,1
242813,-100,4,1,1,55,0,0

[Colours]
Combo1 : 177,162,148
Combo2 : 34,95,149
Combo3 : 186,80,186
Combo4 : 46,150,105
Combo5 : 167,35,38

[HitObjects]
201,49,4484,6,0,L|366:66,1,140,4|8,0:2|0:0,0:0:0:0:
411,117,5105,1,0,0:0:0:0:
318,239,5518,2,0,P|301:349|299:372,2,105
465,120,6553,2,0,B|370:142|329:68|238:89,1,210,0|2,0:0|0:2,0:0:0:0:
100,137,7484,1,2,0:2:0:0:
181,310,7794,6,0,L|196:162,2,140,0|0|8,0:0|0:0|0:0,0:0:0:0:
83,362,8829,2,0,P|70:306|85:233,1,105
28,103,9449,2,0,L|172:116,1,140
261,57,10070,2,0,L|267:138,1,70
306,238,10484,2,0,P|306:197|371:71,1,175,4|0,0:2|0:0,0:0:0:0:
375,69,11105,6,0,L|475:77,1,70,6|2,0:0|0:2,0:0:0:0:
493,155,11518,2,0,P|451:169|417:278,1,140,0|8,0:0|0:0,0:0:0:0:
439,337,12139,1,0,0:0:0:0:
320,199,12449,1,0,0:0:0:0:
239,361,12760,6,0,L|85:363,1,140,0|2,0:0|0:0,0:0:0:0:
46,291,13380,1,0,0:0:0:0:
46,291,13587,2,0,P|81:248|90:216,1,70,10|0,0:0|0:0,0:0:0:0:
164,49,14105,1,0,0:0:0:0:
35,133,14415,6,0,P|81:141|196:124,2,140,2|0|8,0:2|0:0|0:0,0:0:0:0:
63,48,15449,1,0,0:0:0:0:
114,239,15760,1,0,0:0:0:0:
252,112,16070,6,0,P|302:110|343:129,1,70
395,300,16484,2,2,P|342:285|323:259,1,70,2|0,0:2|0:0,0:2:0:0:
498,139,16898,1,0,0:0:0:0:
480,228,17105,5,4,0:2:0:0:
480,228,17725,6,0,P|421:207|355:212,1,105,2|0,0:2|0:0,0:0:0:0:
371,230,18139,2,0,L|299:232,1,70,10|0,0:2|0:0,0:0:0:0:
209,277,18553,1,0,0:0:0:0:
208,179,18760,1,0,0:0:0:0:
72,178,18967,1,8,0:0:0:0:
141,241,19174,6,0,P|153:169|142:74,1,140
153,8,19794,1,10,0:2:0:0:
51,34,20001,1,0,0:0:0:0:
51,34,20105,1,2,0:0:0:0:
51,34,20208,2,0,L|41:116,1,70,2|0,0:2|0:0,0:0:0:0:
111,263,20622,2,0,L|124:179,1,70,10|0,0:2|0:0,0:0:0:0:
303,155,21036,5,6,0:0:0:0:
242,225,21242,1,0,0:0:0:0:
326,272,21449,2,0,L|411:267,1,70,8|0,0:0|0:0,0:0:0:0:
242,225,21863,2,0,L|149:234,1,70,2|0,0:2|0:0,0:0:0:0:
135,365,22277,2,0,L|220:355,1,70,8|0,0:0|0:0,0:0:0:0:
413,343,22691,5,2,0:2:0:0:
255,66,23105,1,0,0:0:0:0:
99,343,23518,1,0,0:0:0:0:
181,278,23725,1,0,0:0:0:0:
198,177,23932,1,0,0:0:0:0:
160,86,24139,1,0,0:0:0:0:
160,86,24346,6,0,P|217:99|289:98,1,105,6|0,0:0|0:0,0:0:0:0:
263,100,24760,2,0,L|245:14,1,70,10|8,0:2|0:0,0:0:0:0:
371,22,25174,2,0,L|413:26,2,35,2|0|0,0:2|0:0|0:0,0:0:0:0:
348,131,25587,2,0,L|336:220,1,70,10|8,0:2|0:0,0:0:0:0:
381,312,26001,5,0,0:0:0:0:
470,240,26208,1,2,0:2:0:0:
470,240,26311,1,0,0:0:0:0:
470,240,26415,2,0,P|475:192|473:161,1,70,10|2,0:2|0:0,0:0:0:0:
424,60,26829,1,0,0:0:0:0:
387,152,27036,1,0,0:0:0:0:
288,81,27242,1,10,0:2:0:0:
304,237,27449,1,8,0:0:0:0:
267,161,27656,6,0,L|100:153,1,140,6|8,0:2|0:0,0:0:0:0:
101,263,28277,1,2,0:2:0:0:
101,263,28380,1,0,0:0:0:0:
101,263,28484,2,0,L|183:268,1,70,0|2,0:0|0:2,0:0:0:0:
286,222,28898,2,0,P|284:259|292:297,1,70,10|8,0:2|0:0,0:0:0:0:
373,365,29311,6,0,B|376:321|376:321|423:258,2,105,2|10|2,0:2|0:2|0:2,0:0:0:0:
512,228,30139,2,0,B|509:272|509:272|462:335,2,105,8|8|8,0:0|0:0|0:0,0:0:0:0:
476,138,30967,6,0,P|438:153|397:154,1,70,4|0,0:2|0:0,0:0:0:0:
280,53,31380,2,0,P|333:68|373:93,1,70,0|8,0:0|0:0,0:0:0:0:
254,191,31794,1,2,0:0:0:0:
44,32,32208,5,2,0:2:0:0:
95,117,32415,1,2,0:2:0:0:
90,212,32622,1,0,0:0:0:0:
187,97,32829,1,0,0:0:0:0:
180,186,33036,6,0,P|227:182|332:192,1,140,0|2,0:0|0:2,0:0:0:0:
401,261,33656,1,0,0:0:0:0:
413,151,33863,1,0,0:0:0:0:
493,247,34070,1,0,0:0:0:0:
413,151,34277,6,0,P|413:94|441:-18,1,140,6|0,0:0|0:0,0:0:0:0:
496,109,34898,1,8,0:0:0:0:
319,84,35105,2,0,P|327:141|324:232,1,140,2|8,0:0|0:0,0:0:0:0:
269,299,35725,2,0,L|191:282,1,70,10|0,0:2|0:0,0:0:0:0:
238,185,36139,2,0,L|160:168,1,70,2|8,0:2|0:0,0:0:0:0:
0,185,36553,5,0,0:0:0:0:
36,68,36760,1,2,0:2:0:0:
147,100,36967,1,0,0:0:0:0:
116,222,37174,1,6,0:2:0:0:
210,370,37587,5,6,0:2:0:0:
242,219,37794,1,0,0:0:0:0:
269,311,38001,1,10,0:2:0:0:
269,123,38208,1,0,0:0:0:0:
186,292,38415,1,2,0:0:0:0:
81,42,38829,5,2,0:2:0:0:
189,96,39036,1,0,0:0:0:0:
298,33,39242,1,8,0:0:0:0:
361,146,39449,1,0,0:0:0:0:
251,208,39656,1,2,0:2:0:0:
482,72,40070,6,0,L|470:157,1,70
491,316,40484,2,0,P|454:299|402:299,1,70,2|2,0:2|0:2,0:0:0:0:
273,353,40898,2,0,P|309:323|323:244,1,105,6|0,0:0|0:0,0:0:0:0:
326,268,41311,2,0,L|313:183,1,70,10|8,0:2|0:0,0:0:0:0:
256,88,41725,2,0,P|248:169|234:232,1,140,2|8,0:2|0:0,0:0:0:0:
143,283,42346,1,2,0:2:0:0:
143,283,42553,6,0,B|71:277|71:277|34:294,2,105,2|2|2,0:0|0:2|0:2,0:0:0:0:
332,347,43380,2,0,B|404:353|404:353|441:336,1,105,10|2,0:0|0:2,0:0:0:0:
259,101,44001,1,2,0:2:0:0:
255,190,44208,5,4,0:0:0:0:
71,95,45863,6,0,L|173:86,1,83.9999974365235,6|2,0:0|0:2,0:0:0:0:
279,70,46277,2,0,P|253:111|264:254,1,167.999994873047,10|2,0:2|0:2,0:0:0:0:
374,353,46898,1,0,0:2:0:0:
421,249,47105,2,0,L|325:244,1,83.9999974365235,10|8,0:2|0:0,0:0:0:0:
232,143,47518,6,2,L|396:151,1,125.999996154785,6|0,0:0|0:0,0:0:0:0:
399,123,47932,1,8,0:0:0:0:
317,48,48139,1,8,0:0:0:0:
201,65,48346,1,8,0:2:0:0:
295,225,48553,1,8,0:0:0:0:
286,123,48760,1,2,0:0:0:0:
193,298,49174,6,0,P|141:308|86:271,1,83.9999974365235,6|0,0:0|0:0,0:0:0:0:
50,195,49587,2,0,L|206:213,1,125.999996154785,10|0,0:2|0:0,0:0:0:0:
202,217,50001,2,0,L|195:117,1,83.9999974365235,2|0,0:2|0:2,0:0:0:0:
102,9,50415,1,8,0:0:0:0:
71,129,50622,1,8,0:0:0:0:
191,45,50829,6,0,L|245:51,2,41.9999987182618,6|0|0,0:0|0:0|0:0,0:0:0:0:
256,148,51242,1,10,0:2:0:0:
326,98,51449,1,2,0:0:0:0:
393,210,51656,1,10,0:2:0:0:
496,117,51863,1,8,0:0:0:0:
510,294,52070,1,2,0:2:0:0:
258,68,52484,6,0,L|162:77,1,83.9999974365235,6|0,0:0|0:0,0:0:0:0:
42,182,52898,2,0,L|145:193,1,83.9999974365235,2|8,0:0|0:0,0:0:0:0:
125,190,53208,1,0,0:0:0:0:
125,190,53311,2,0,P|99:252|101:297,1,83.9999974365235,2|8,0:0|0:0,0:0:0:0:
168,361,53725,1,2,0:2:0:0:
221,222,53932,1,2,0:2:0:0:
377,322,54139,6,0,P|286:312|199:297,1,167.999994873047,6|8,0:0|0:0,0:0:0:0:
74,169,54760,1,8,0:0:0:0:
221,222,54967,1,8,0:0:0:0:
343,99,55174,1,10,0:2:0:0:
408,256,55380,1,14,0:0:0:0:
109,30,55794,6,0,P|123:77|126:132,1,83.9999974365235,6|2,0:2|0:2,0:0:0:0:
276,71,56208,2,0,P|259:160|256:186,1,83.9999974365235,10|0,0:2|0:0,0:0:0:0:
169,312,56622,2,0,P|211:264|295:248,1,125.999996154785,2|0,0:2|0:0,0:0:0:0:
289,280,57036,2,0,L|389:303,1,83.9999974365235,10|10,0:2|0:2,0:0:0:0:
484,138,57449,6,0,B|406:171|397:111|308:140,1,167.999994873047,6|10,0:0|0:2,0:0:0:0:
208,81,58070,1,10,0:0:0:0:
208,81,58277,1,8,0:0:0:0:
250,219,58484,1,10,0:2:0:0:
250,219,58691,1,10,0:0:0:0:
22,363,59105,6,0,L|43:249,1,83.9999974365235,14|0,0:0|0:0,0:0:0:0:
7,153,59518,2,0,P|79:170|163:180,1,125.999996154785,10|0,0:2|0:0,0:0:0:0:
146,159,59932,2,0,P|190:162|236:172,1,83.9999974365235,10|8,0:2|0:0,0:0:0:0:
312,284,60346,1,10,0:2:0:0:
312,284,60449,1,0,0:0:0:0:
312,284,60553,1,2,0:2:0:0:
341,164,60760,6,0,P|358:122|449:106,1,125.999996154785,6|0,0:0|0:0,0:0:0:0:
461,114,61174,2,0,L|441:212,1,83.9999974365235,10|2,0:2|0:2,0:0:0:0:
354,356,61587,2,0,L|370:273,1,83.9999974365235,10|10,0:2|0:2,0:0:0:0:
306,104,62001,1,10,0:0:0:0:
281,211,62208,1,10,0:2:0:0:
190,94,62415,6,0,P|135:83|81:86,1,83.9999974365235,14|2,0:0|0:2,0:0:0:0:
280,15,62829,2,0,P|327:29|372:30,1,83.9999974365235,2|8,0:2|0:0,0:0:0:0:
436,169,63242,2,0,P|399:194|379:239,1,83.9999974365235,2|8,0:2|0:0,0:0:0:0:
281,348,63656,1,2,0:2:0:0:
251,191,63863,1,2,0:2:0:0:
302,267,64070,6,0,B|242:281|242:281|216:267|216:267|141:284,1,167.999994873047,10|10,0:0|0:2,0:0:0:0:
36,364,64691,1,8,0:2:0:0:
9,221,64898,1,8,0:0:0:0:
99,107,65105,1,8,0:0:0:0:
238,121,65311,1,8,0:0:0:0:
453,358,65725,6,0,P|456:292|466:237,1,83.9999974365235,6|10,0:0|0:2,0:0:0:0:
386,149,66139,2,2,P|386:206|372:301,1,125.999996154785,10|0,0:0|0:0,0:0:0:0:
371,288,66553,2,0,L|265:265,1,83.9999974365235,2|8,0:2|0:0,0:0:0:0:
122,180,66967,1,2,0:2:0:0:
122,180,67380,6,0,L|232:177,1,83.9999974365235,6|8,0:0|0:2,0:0:0:0:
193,66,67794,2,2,L|35:71,1,125.999996154785,10|0,0:0|0:0,0:0:0:0:
24,49,68208,2,0,L|37:143,1,83.9999974365235,8|0,0:0|0:0,0:0:0:0:
19,278,68622,1,8,0:0:0:0:
121,212,68829,1,8,0:0:0:0:
121,212,68932,1,0,0:0:0:0:
121,212,69036,6,0,P|183:198|254:202,2,125.999996154785,6|2|10,0:0|0:2|0:2,0:0:0:0:
138,337,69863,2,2,P|217:366|361:287,1,251.999992309571,2|0,0:0|0:0,0:0:0:0:
322,174,70691,6,2,L|308:29,1,125.999996154785,6|2,0:0|0:2,0:0:0:0:
470,217,71311,1,8,0:0:0:0:
406,316,71518,2,0,L|261:290,1,125.999996154785,2|0,0:1|0:0,0:0:0:0:
244,312,71932,2,0,L|262:214,1,83.9999974365235,10|2,0:2|0:2,0:0:0:0:
186,82,72346,5,6,0:2:0:0:
52,66,80622,5,6,0:2:0:0:
52,66,81036,1,2,0:2:0:0:
139,138,81656,1,2,0:2:0:0:
139,138,82070,1,2,0:2:0:0:
465,66,82691,5,2,0:2:0:0:
386,145,83311,1,2,0:2:0:0:
386,145,83518,2,0,L|393:231,1,70,0|8,0:0|0:0,0:0:0:0:
448,322,83932,5,12,0:0:0:0:
448,322,84346,1,2,0:2:0:0:
258,233,84967,1,2,0:2:0:0:
151,306,85380,1,0,0:2:0:0:
151,306,85587,6,0,L|170:194,1,105,2|0,0:2|0:0,0:0:0:0:
85,83,86208,1,0,0:0:0:0:
85,83,86415,2,0,L|96:195,2,105,2|0|0,0:2|0:0|0:0,0:0:0:0:
179,29,87242,6,0,P|235:45|336:32,2,140,14|10|2,0:0|0:2|0:2,0:0:0:0:
81,38,88277,1,0,0:0:0:0:
110,135,88484,1,8,0:0:0:0:
110,135,88587,1,0,0:0:0:0:
110,135,88691,2,0,L|124:212,1,70,0|8,0:0|0:2,0:0:0:0:
108,329,89105,5,0,0:0:0:0:
202,279,89311,1,10,0:2:0:0:
300,330,89518,1,0,0:0:0:0:
356,227,89725,2,0,L|345:147,1,70,2|0,0:2|0:0,0:0:0:0:
481,59,90139,2,0,P|437:67|393:63,1,70,10|8,0:2|0:0,0:0:0:0:
251,37,90553,5,6,0:2:0:0:
220,149,90760,2,0,L|208:197,2,35,2|0|8,0:2|0:0|0:0,0:0:0:0:
103,78,91174,1,0,0:2:0:0:
130,189,91380,1,2,0:2:0:0:
35,148,91587,1,2,0:2:0:0:
221,142,91794,1,8,0:0:0:0:
199,246,92001,1,8,0:0:0:0:
221,142,92208,6,0,P|274:124|338:115,2,105,10|10|10,0:2|0:2|0:2,0:0:0:0:
143,256,93036,2,0,P|90:274|26:283,2,105,8|8|10,0:0|0:0|0:2,0:0:0:0:
219,143,93863,6,0,L|232:238,1,70,14|0,0:2|0:0,0:0:0:0:
244,353,94277,2,0,L|297:297,1,70,2|0,0:2|0:0,0:0:0:0:
415,223,94691,1,0,0:0:0:0:
415,223,95105,6,0,L|323:218,1,70,2|0,0:2|0:0,0:0:0:0:
224,104,95518,1,8,0:0:0:0:
241,216,95725,1,0,0:0:0:0:
333,101,95932,2,0,P|331:34|324:8,1,70,2|0,0:0|0:0,0:0:0:0:
224,104,96346,2,0,L|138:114,1,70,0|8,0:0|0:0,0:0:0:0:
56,220,96760,2,0,L|134:210,1,70
220,291,97174,6,0,P|274:302|371:294,1,140,6|2,0:0|0:2,0:0:0:0:
417,130,97794,1,8,0:0:0:0:
485,227,98001,2,0,P|431:216|334:224,1,140,2|2,0:0|0:2,0:0:0:0:
229,274,98622,2,0,P|244:223|251:135,2,140,8|2|0,0:0|0:2|0:0,0:0:0:0:
160,180,99656,1,0,0:0:0:0:
321,251,99863,1,2,0:2:0:0:
201,350,100070,2,0,L|129:345,1,70,6|0,0:2|0:0,0:0:0:0:
22,245,100484,6,0,L|110:252,1,70,6|0,0:2|0:0,0:0:0:0:
185,134,100898,2,0,L|279:139,1,70,2|0,0:2|0:0,0:0:0:0:
367,270,101311,1,0,0:0:0:0:
367,270,101725,6,0,P|384:233|384:185,1,70,2|2,0:2|0:2,0:0:0:0:
310,70,102139,1,0,0:0:0:0:
297,191,102346,1,2,0:2:0:0:
310,70,102553,1,8,0:0:0:0:
204,360,102967,5,2,0:2:0:0:
151,254,103174,1,2,0:2:0:0:
223,153,103380,1,8,0:0:0:0:
281,264,103587,1,8,0:0:0:0:
374,352,103794,2,0,P|372:293|385:197,1,140,6|0,0:0|0:0,0:0:0:0:
465,147,104415,1,0,0:0:0:0:
322,60,104622,2,0,P|284:75|174:90,1,140
55,57,105242,1,2,0:2:0:0:
55,57,105449,6,0,B|76:122|76:122|58:162,1,105,10|2,0:0|0:2,0:0:0:0:
41,343,106070,1,10,0:2:0:0:
41,343,106277,2,0,B|70:300|70:300|140:284,1,105,10|10,0:0|0:2,0:0:0:0:
257,94,106898,2,0,L|353:102,1,70,14|4,0:2|0:2,0:0:0:0:
459,358,108760,5,6,0:0:0:0:
453,248,108967,1,2,0:2:0:0:
350,311,109174,2,0,L|249:319,1,83.9999974365235,10|0,0:2|0:0,0:0:0:0:
116,224,109587,2,0,L|245:218,1,125.999996154785,2|0,0:2|0:0,0:0:0:0:
290,208,110001,1,10,0:2:0:0:
197,128,110208,1,8,0:0:0:0:
180,314,110415,6,0,L|66:318,1,83.9999974365235,6|0,0:0|0:0,0:0:0:0:
21,238,110829,1,10,0:2:0:0:
21,238,110932,1,0,0:0:0:0:
21,238,111036,1,10,0:2:0:0:
136,183,111242,2,0,P|164:132|166:86,1,83.9999974365235,2|8,0:2|0:0,0:0:0:0:
50,24,111656,2,0,L|64:109,1,83.9999974365235,2|2,0:2|0:2,0:0:0:0:
46,276,112070,6,0,L|142:267,1,83.9999974365235,6|2,0:2|0:2,0:0:0:0:
220,182,112484,2,0,L|316:192,1,83.9999974365235,8|10,0:2|0:2,0:0:0:0:
303,190,112794,1,0,0:0:0:0:
303,190,112898,2,0,P|302:137|314:86,1,83.9999974365235,2|0,0:2|0:0,0:0:0:0:
417,275,113311,2,0,P|418:328|406:379,1,83.9999974365235,10|8,0:2|0:0,0:0:0:0:
392,190,113725,6,0,P|397:130|439:48,1,125.999996154785,6|0,0:0|0:0,0:0:0:0:
422,70,114139,2,0,L|505:81,1,83.9999974365235,10|10,1:2|0:2,0:0:0:0:
348,24,114553,2,0,L|245:12,1,83.9999974365235,10|8,0:2|0:0,0:0:0:0:
167,53,114967,1,0,0:0:0:0:
41,336,115380,5,6,0:2:0:0:
97,251,115587,1,2,0:2:0:0:
159,332,115794,2,0,L|298:349,1,125.999996154785,10|0,0:0|0:0,0:0:0:0:
284,347,116208,2,0,L|385:362,1,83.9999974365235,10|0,0:0|0:0,0:0:0:0:
501,369,116622,1,10,0:2:0:0:
497,216,116829,1,2,0:2:0:0:
391,275,117036,6,0,P|336:275|221:215,1,167.999994873047,2|10,0:0|0:2,0:0:0:0:
71,201,117656,1,10,0:2:0:0:
162,91,117863,1,10,0:2:0:0:
167,181,118070,1,8,0:0:0:0:
126,0,118277,1,10,0:0:0:0:
42,324,118691,6,0,P|95:317|148:325,1,83.9999974365235,6|0,0:2|0:0,0:0:0:0:
247,378,119105,2,0,L|259:216,1,125.999996154785,10|2,0:2|0:2,0:0:0:0:
278,207,119518,2,0,L|166:196,1,83.9999974365235,10|0,0:0|0:0,0:0:0:0:
61,100,119932,2,0,L|171:112,1,83.9999974365235,10|8,0:2|0:0,0:0:0:0:
244,42,120346,6,0,P|321:62|420:56,1,167.999994873047,10|10,0:0|0:2,0:0:0:0:
485,174,120967,1,4,0:2:0:0:
485,174,121070,1,0,0:0:0:0:
485,174,121174,1,6,0:2:0:0:
357,182,121380,1,8,0:0:0:0:
426,314,121587,1,8,0:0:0:0:
223,187,122001,6,0,P|168:181|102:185,1,83.9999974365235,6|2,0:0|0:2,0:0:0:0:
95,104,122415,2,0,P|110:154|126:283,1,167.999994873047,10|2,0:2|0:2,0:0:0:0:
125,268,122932,1,2,0:2:0:0:
125,268,123036,1,0,0:0:0:0:
229,170,123242,2,0,P|266:123|298:105,1,83.9999974365235,10|2,0:2|0:2,0:0:0:0:
461,210,123656,6,0,P|401:158|396:100,1,125.999996154785,6|0,0:0|0:0,0:0:0:0:
386,98,124070,2,0,L|416:9,1,83.9999974365235,10|10,0:2|0:2,0:0:0:0:
295,130,124484,2,0,L|251:237,1,83.9999974365235,10|8,0:2|0:2,0:0:0:0:
124,323,124898,2,0,L|182:184,1,125.999996154785,6|2,0:0|0:2,0:0:0:0:
159,164,125311,6,0,L|67:187,1,83.9999974365235,6|0,0:0|0:0,0:0:0:0:
237,283,125725,2,0,L|206:367,1,83.9999974365235,10|0,0:2|0:0,0:0:0:0:
285,170,126139,2,0,P|375:178|454:150,1,167.999994873047,2|2,0:2|0:2,0:0:0:0:
461,279,126760,1,2,0:2:0:0:
355,98,126967,6,0,P|373:216|369:297,1,167.999994873047,6|10,0:0|0:2,0:0:0:0:
246,340,127587,1,8,0:0:0:0:
267,187,127794,1,10,0:2:0:0:
106,161,128001,1,8,0:0:0:0:
87,325,128208,1,8,0:0:0:0:
47,69,128622,6,0,L|146:58,1,83.9999974365235,6|0,0:0|0:0,0:0:0:0:
256,17,129036,2,2,P|236:61|230:148,1,125.999996154785,10|0,0:2|0:0,0:0:0:0:
253,154,129449,2,0,P|274:194|286:255,1,83.9999974365235,2|8,0:2|0:0,0:0:0:0:
173,356,129863,1,8,0:0:0:0:
173,356,130277,6,0,L|184:265,1,83.9999974365235,6|2,0:1|0:2,0:0:0:0:
91,203,130691,2,2,P|149:187|196:108,1,125.999996154785,10|2,0:0|0:2,0:0:0:0:
192,105,131105,2,0,L|288:123,1,83.9999974365235,2|2,0:2|0:2,0:0:0:0:
361,236,131518,1,10,0:2:0:0:
361,236,131932,6,0,P|361:172|370:91,2,125.999996154785,6|2|2,0:0|0:2|0:2,0:0:0:0:
426,352,132760,2,2,P|397:303|217:258,1,251.999992309571,2|8,0:0|0:2,0:0:0:0:
120,320,133587,6,0,L|102:190,1,125.999996154785,6|2,0:0|0:0,0:0:0:0:
19,58,134208,1,10,0:2:0:0:
19,58,134415,2,0,L|168:50,1,125.999996154785,2|2,0:2|0:2,0:0:0:0:
159,43,134829,2,0,L|170:148,1,83.9999974365235,8|8,0:0|0:0,0:0:0:0:
91,307,135242,5,6,0:0:0:0:
256,192,135346,12,4,140208,0:0:0:0:
64,115,161725,6,0,P|96:78|191:85,1,140,6|10,0:0|0:2,0:0:0:0:
231,169,162346,2,0,P|242:86|262:13,1,140,2|0,0:0|0:0,0:0:0:0:
140,160,162967,2,0,P|152:239|157:324,2,140,10|0|8,0:0|0:0|0:0,0:0:0:0:
132,67,164001,1,8,0:0:0:0:
132,67,164208,2,0,L|53:79,1,70,2|0,0:0|0:0,0:0:0:0:
232,127,164622,2,0,L|320:142,1,70,10|8,0:0|0:0,0:0:0:0:
401,80,165036,6,0,P|366:128|347:237,1,140,4|8,0:0|0:0,0:0:0:0:
389,336,165656,2,0,P|338:287|253:295,1,140,2|0,0:0|0:0,0:0:0:0:
173,343,166277,1,10,0:0:0:0:
173,343,166380,2,0,L|186:248,1,70
182,237,166691,6,0,P|128:255|31:239,1,140,2|8,0:2|0:0,0:0:0:0:
47,97,167311,1,0,0:0:0:0:
47,97,167518,2,0,P|64:148|69:187,1,70,2|0,0:0|0:0,0:0:0:0:
210,136,167932,2,0,P|198:194|180:239,1,105,10|0,0:0|0:0,0:0:0:0:
173,266,168346,6,0,P|204:235|319:223,1,140,4|8,0:0|0:0,0:0:0:0:
367,344,168967,2,0,L|386:188,1,140,2|0,0:0|0:2,0:0:0:0:
412,109,169587,2,0,L|314:98,1,70,10|8,0:0|0:0,0:0:0:0:
237,24,170001,6,0,P|264:70|228:152,1,140,2|8,0:0|0:0,0:0:0:0:
143,218,170622,1,8,0:0:0:0:
143,218,170829,2,0,P|161:129|161:128,1,70,2|0,0:0|0:0,0:0:0:0:
41,88,171242,2,0,P|51:140|60:169,1,70,10|8,0:0|0:0,0:0:0:0:
33,296,171656,6,0,L|110:287,1,70,2|2,0:0|0:2,0:0:0:0:
236,351,172070,1,8,0:0:0:0:
192,250,172277,2,0,P|203:193|281:152,1,140,2|0,0:0|0:0,0:0:0:0:
391,94,172898,2,0,P|332:68|304:67,1,70,10|8,0:0|0:0,0:0:0:0:
342,188,173311,5,0,0:2:0:0:
439,175,173518,2,0,L|487:169,2,35,2|0|8,0:2|0:0|0:0,0:0:0:0:
397,270,173932,1,0,0:0:0:0:
376,114,174139,2,0,P|350:71|318:49,1,70,2|2,0:0|0:2,0:0:0:0:
208,192,174553,2,0,P|245:219|269:227,1,70,10|2,0:0|0:2,0:0:0:0:
237,79,174967,6,0,B|186:94|186:94|82:83,1,140,6|10,0:0|0:2,0:0:0:0:
15,41,175587,2,0,L|21:127,1,70,10|2,0:0|0:0,0:0:0:0:
0,224,176001,1,2,0:0:0:0:
0,224,176208,2,0,L|85:213,1,70,10|2,0:0|0:0,0:0:0:0:
204,150,176622,5,10,0:0:0:0:
142,337,176932,1,2,0:0:0:0:
108,53,177242,2,2,B|181:98|181:98|286:89|286:89|375:137,1,280,2|0,0:0|0:0,0:0:0:0:
364,131,178174,1,2,0:2:0:0:
364,131,178277,2,0,L|372:226,1,70,6|2,0:0|0:2,0:0:0:0:
330,288,178691,2,0,L|285:272,2,35,10|2|10,0:0|0:2|0:2,0:0:0:0:
439,335,179105,1,2,0:2:0:0:
454,229,179311,1,8,0:0:0:0:
454,229,179415,1,0,0:0:0:0:
454,229,179518,2,0,L|460:173,3,35,2|2|8|0,0:2|0:2|0:0|0:0,0:0:0:0:
453,142,179932,6,0,B|391:164|391:164|311:130,1,140,10|10,0:0|0:2,0:0:0:0:
222,60,180553,2,0,B|241:200|241:200|99:253,1,280,2|2,0:0|0:2,0:0:0:0:
137,103,181587,5,2,0:0:0:0:
137,103,181794,1,2,0:2:0:0:
97,16,182001,2,0,L|26:12,1,70,10|10,0:2|0:2,0:0:0:0:
69,168,182415,2,0,P|112:187|191:185,1,105,2|0,0:2|0:0,0:0:0:0:
188,201,182829,2,0,L|260:163,1,70,8|10,0:0|0:2,0:0:0:0:
375,103,183242,5,2,0:0:0:0:
375,103,183449,1,2,0:2:0:0:
415,16,183656,2,0,L|486:12,1,70,10|2,0:2|0:2,0:0:0:0:
443,168,184070,2,0,P|399:187|320:185,1,105
324,201,184484,2,0,L|251:163,1,70,10|10,0:2|0:0,0:0:0:0:
256,149,184794,1,0,0:0:0:0:
256,149,184898,5,2,0:0:0:0:
117,51,185208,1,10,0:0:0:0:
57,294,185518,1,10,0:0:0:0:
256,149,185829,1,10,0:0:0:0:
455,294,186139,2,0,L|468:219,1,70,10|2,0:0|0:0,0:0:0:0:
452,187,186449,1,0,0:0:0:0:
452,187,186553,6,0,L|395:193,3,35,0|0|0|2,0:0|0:0|0:0|0:2,0:0:0:0:
440,108,186967,2,0,L|434:61,3,35,10|0|4|2,0:2|0:0|0:2|0:2,0:0:0:0:
351,128,187380,2,0,B|239:107|267:173|125:146,1,210,6|2,0:0|0:2,0:0:0:0:
55,99,188208,6,0,P|81:150|70:262,2,140,6|8|0,0:2|0:0|0:0,0:0:0:0:
123,22,189242,1,0,0:0:0:0:
123,22,189449,2,0,L|289:42,1,140,10|0,0:2|0:0,0:0:0:0:
243,239,190277,6,0,P|289:219|403:227,1,140,8|2,0:0|0:2,0:0:0:0:
498,237,190898,1,0,0:0:0:0:
459,343,191105,1,0,0:0:0:0:
459,343,191208,2,0,L|332:324,1,105,0|6,0:0|0:2,0:0:0:0:
31,267,191932,5,8,0:0:0:0:
31,267,192346,1,2,0:2:0:0:
77,169,192553,1,0,0:0:0:0:
163,241,192760,2,0,L|256:258,1,70,8|0,0:0|0:0,0:0:0:0:
314,332,193174,6,0,P|295:278|316:166,2,140,2|0|2,0:2|0:0|0:2,0:0:0:0:
423,373,194208,1,0,0:0:0:0:
397,251,194415,2,0,B|403:210|428:167|428:166,1,70,8|2,0:0|0:2,0:0:0:0:
293,56,194829,6,0,P|324:102|329:194,1,140,6|10,0:2|0:2,0:0:0:0:
331,184,195656,2,0,L|341:279,1,70,0|8,0:0|0:0,0:0:0:0:
245,338,196070,1,10,0:2:0:0:
245,338,196277,6,0,L|95:324,2,140,2|0|0,0:2|0:0|0:0,0:0:0:0:
372,341,197311,1,0,0:0:0:0:
295,259,197518,1,0,0:0:0:0:
399,197,197725,2,0,L|485:191,1,70,10|2,0:2|0:2,0:0:0:0:
462,101,198139,6,0,P|427:68|354:74,1,105,6|0,0:2|0:0,0:0:0:0:
337,86,198553,2,0,P|295:97|258:94,1,70,8|0,0:0|0:0,0:0:0:0:
156,61,198967,1,0,0:0:0:0:
156,61,199174,1,0,0:0:0:0:
104,160,199380,2,0,L|116:278,1,105,8|0,0:0|0:0,0:0:0:0:
101,307,199794,5,2,0:2:0:0:
364,249,200208,1,8,0:0:0:0:
364,249,200622,2,0,L|373:175,1,70,10|8,0:2|0:0,0:0:0:0:
297,84,201036,2,0,L|285:179,1,70,6|0,0:2|0:0,0:0:0:0:
274,277,201449,6,0,P|246:233|160:235,1,140,6|10,0:2|0:2,0:0:0:0:
164,231,202277,2,0,L|69:237,1,70,8|0,0:0|0:0,0:0:0:0:
25,331,202691,1,8,0:0:0:0:
25,331,202898,1,2,0:2:0:0:
16,206,203105,6,0,P|18:135|11:44,2,140,0|2|0,0:0|0:2|0:0,0:0:0:0:
104,270,204139,1,0,0:0:0:0:
207,172,204346,1,10,0:2:0:0:
104,177,204553,1,0,0:0:0:0:
201,266,204760,6,0,L|286:283,1,70,6|2,0:2|0:0,0:0:0:0:
381,363,205174,2,0,P|371:315|383:241,1,105,10|0,0:2|0:0,0:0:0:0:
413,235,205587,2,0,L|424:147,1,70
491,70,206001,2,0,L|395:59,1,70,8|2,0:0|0:2,0:0:0:0:
316,18,206415,6,0,P|275:36|160:26,1,140,0|8,0:0|0:0,0:0:0:0:
80,17,207036,1,0,0:0:0:0:
80,17,207242,2,0,P|94:66|97:137,2,105,10|10|10,0:2|0:2|0:2,0:0:0:0:
8,137,208070,5,6,0:2:0:0:
239,302,208484,1,8,0:0:0:0:
8,137,208898,1,0,0:0:0:0:
111,107,209105,1,0,0:0:0:0:
86,223,209311,6,0,L|250:216,2,140,10|2|10,0:2|0:2|0:2,0:0:0:0:
161,121,210346,1,0,0:0:0:0:
161,121,210553,2,0,L|246:114,1,70,2|2,0:2|0:2,0:0:0:0:
346,75,210967,2,0,B|326:124|334:190,1,105,10|2,0:2|0:2,0:0:0:0:
352,215,211380,6,0,L|346:312,1,70,6|0,0:2|0:0,0:0:0:0:
457,363,211794,1,10,0:2:0:0:
457,363,212208,1,2,0:2:0:0:
421,251,212415,1,2,0:2:0:0:
325,340,212622,2,0,L|241:349,1,70,10|0,0:2|0:0,0:0:0:0:
137,369,213036,6,0,P|147:318|143:243,1,105,2|6,0:2|0:2,0:0:0:0:
101,232,213449,2,0,L|97:146,1,70,10|2,0:2|0:2,0:0:0:0:
58,30,213863,1,0,0:0:0:0:
161,88,214070,1,0,0:0:0:0:
249,14,214277,1,10,0:2:0:0:
273,156,214484,2,0,L|361:163,1,70,8|4,0:0|0:2,0:0:0:0:
76,37,216331,6,0,P|74:93|81:152,1,90.9999958343508,6|0,0:0|0:0,0:0:0:0:
67,303,216745,2,0,P|91:249|103:202,1,90.9999958343508,10|2,0:2|0:2,0:0:0:0:
164,117,217159,2,0,L|281:128,1,90.9999958343508,10|0,0:2|0:0,0:0:0:0:
352,161,217572,1,10,0:2:0:0:
485,149,217779,1,10,0:2:0:0:
421,85,217986,6,0,P|440:198|443:245,1,136.499993751526,14|0,0:0|0:0,0:0:0:0:
463,254,218400,2,0,L|375:234,1,90.9999958343508,10|10,0:2|0:2,0:0:0:0:
266,174,218814,1,10,0:2:0:0:
277,323,219021,1,10,0:2:0:0:
277,323,219124,1,0,0:0:0:0:
277,323,219227,1,10,0:0:0:0:
62,115,219641,6,0,P|100:90|158:92,1,90.9999958343508,6|0,0:0|0:0,0:0:0:0:
171,117,219952,1,2,0:2:0:0:
171,117,220055,2,0,L|160:217,1,90.9999958343508,10|0,0:2|0:0,0:0:0:0:
68,361,220469,2,0,P|51:311|51:226,1,136.499993751526,8|0,0:0|0:0,0:0:0:0:
41,206,220883,2,0,L|159:228,1,90.9999958343508,10|10,0:2|0:2,0:0:0:0:
231,323,221296,6,0,P|300:298|386:301,1,136.499993751526,6|2,0:0|0:2,0:0:0:0:
395,327,221710,1,8,0:0:0:0:
490,287,221917,1,10,0:2:0:0:
387,180,222124,1,8,0:0:0:0:
464,90,222331,1,8,0:0:0:0:
491,201,222538,1,10,0:0:0:0:
282,59,222952,6,0,L|171:68,1,90.9999958343508
182,88,223261,1,2,0:2:0:0:
182,88,223365,2,0,L|78:98,1,90.9999958343508,10|2,0:0|0:2,0:0:0:0:
46,213,223779,2,0,L|205:191,1,136.499993751526,10|0,0:0|0:0,0:0:0:0:
232,207,224193,1,10,0:2:0:0:
280,338,224400,1,10,0:2:0:0:
322,157,224607,6,0,P|317:233|410:314,1,181.999991668702,6|8,0:0|0:0,0:0:0:0:
510,297,225227,1,10,0:2:0:0:
453,127,225434,1,10,0:2:0:0:
497,209,225641,2,0,L|388:217,1,90.9999958343508,8|10,0:2|0:0,0:0:0:0:
321,136,226055,1,8,0:0:0:0:
321,136,226159,1,2,0:2:0:0:
321,136,226262,6,0,L|220:143,1,90.9999958343508,6|0,0:2|0:0,0:0:0:0:
61,32,226676,2,0,P|126:58|125:144,1,136.499993751526,8|0,0:0|0:0,0:0:0:0:
138,117,227090,2,0,L|113:232,1,90.9999958343508,8|2,0:0|0:2,0:0:0:0:
44,349,227503,1,8,0:0:0:0:
141,290,227710,1,8,0:0:0:0:
231,366,227917,6,0,P|289:350|437:347,1,181.999991668702,14|8,0:0|0:0,0:0:0:0:
501,229,228538,1,12,0:2:0:0:
362,252,228745,1,8,0:0:0:0:
293,137,228952,1,0,0:0:0:0:
429,113,229159,1,8,0:0:0:0:
116,32,229572,6,0,P|141:106|145:142,1,90.9999958343508,6|2,0:0|0:2,0:0:0:0:
24,279,229986,2,0,P|27:215|54:137,1,136.499993751526,8|0,0:0|0:0,0:0:0:0:
49,146,230400,2,0,L|141:217,1,90.9999958343508,10|0,0:2|0:0,0:0:0:0:
288,186,230814,1,8,0:0:0:0:
222,270,231021,1,10,0:2:0:0:
222,270,231124,1,0,0:0:0:0:
222,270,231227,6,0,P|207:198|216:80,1,181.999991668702,6|0,0:0|0:0,0:0:0:0:
338,43,231848,1,8,0:0:0:0:
338,43,232055,2,0,L|444:73,1,90.9999958343508,10|8,0:2|0:0,0:0:0:0:
398,263,232469,2,0,L|277:275,1,90.9999958343508,10|0,0:0|0:0,0:0:0:0:
166,219,232883,5,6,0:0:0:0:
229,319,233090,1,2,0:0:0:0:
247,208,233296,2,0,P|244:147|211:69,1,136.499993751526,10|0,0:2|0:0,0:0:0:0:
207,66,233710,2,0,P|161:83|99:85,1,90.9999958343508,10|0,0:2|0:0,0:0:0:0:
24,183,234124,1,8,0:0:0:0:
37,50,234331,1,8,0:0:0:0:
125,192,234538,6,0,B|202:209|343:197,1,181.999991668702,6|8,0:0|0:0,0:0:0:0:
437,237,235159,1,10,0:0:0:0:
494,122,235365,1,10,0:2:0:0:
437,237,235572,1,10,0:2:0:0:
411,47,235779,1,10,0:0:0:0:
271,346,236193,6,0,P|200:325|145:321,1,90.9999958343508,6|2,0:2|0:2,0:0:0:0:
58,350,236607,2,0,P|82:292|78:203,1,136.499993751526,10|0,0:0|0:2,0:0:0:0:
45,187,237021,1,10,0:2:0:0:
114,88,237227,1,0,0:0:0:0:
203,179,237434,1,10,0:0:0:0:
203,179,237848,6,0,L|218:285,1,90.9999958343508,14|0,0:2|0:0,0:0:0:0:
298,363,238262,2,2,P|301:292|312:224,1,136.499993751526,10|0,0:0|0:0,0:0:0:0:
350,201,238676,1,6,0:2:0:0:
272,104,238883,1,8,0:0:0:0:
371,37,239090,2,0,L|465:51,1,90.9999958343508,10|2,0:2|0:2,0:0:0:0:
487,172,239503,6,0,P|465:233|453:333,2,136.499993751526,6|2|2,0:0|0:0|0:2,0:0:0:0:
377,347,240331,2,2,P|348:258|186:227,1,272.999987503052,10|2,0:2|0:2,0:0:0:0:
89,335,241159,6,0,L|74:181,1,136.499993751526,6|2,0:0|0:2,0:0:0:0:
4,48,241779,1,2,0:2:0:0:
4,48,241986,2,0,L|106:36,1,90.9999958343508,10|8,0:0|0:0,0:0:0:0:
316,79,242400,2,0,L|192:97,1,90.9999958343508,8|2,0:0|0:2,0:0:0:0:
68,160,242814,5,14,0:0:0:0:
256,192,242917,12,4,249434,0:0:0:0:
