osu file format v14

[General]
AudioFilename: mp3desu.mp3
AudioLeadIn: 0
PreviewTime: 45760
Countdown: 0
SampleSet: Normal
StackLeniency: 0.7
Mode: 0
LetterboxInBreaks: 0
WidescreenStoryboard: 1

[Editor]
Bookmarks: 115277,160070,167932,187380,229572
DistanceSpacing: 0.8
BeatDivisor: 4
GridSize: 32
TimelineZoom: 1.7

[Metadata]
Title:No Good Magia (Start the Witch)
TitleUnicode:No Good Magia (Start the Witch)
Artist:Kalafina x The Prodigy
ArtistUnicode:Kalafina x The Prodigy
Creator:Okoratu
Version:Collab Extra
Source:魔法少女まどか☆マギカ
Tags:Start the Dance mahou shoujo Puella Magi Madoka Magica kajiura yuki Okorin Kite Melwoine Walpurgisnacht crn caren_sk
BeatmapID:2177100
BeatmapSetID:988552

[Difficulty]
HPDrainRate:6
CircleSize:4
OverallDifficulty:8
ApproachRate:9
SliderMultiplier:2.7
SliderTickRate:2

[Events]
//Background and Video events
0,0,"BG.jpg",0,0
//Break Periods
2,72546,80022
2,140408,161125
2,214994,215731
//Storyboard Layer 0 (Background)
//Storyboard Layer 1 (Fail)
//Storyboard Layer 2 (Pass)
//Storyboard Layer 3 (Foreground)
Sprite,Foreground,Centre,"SB\okoratu.png",100,420 F,1,3656,4484,0,1 MX,1,3656,4484,80,100 S,0,3656,249434,0.6 F,1,17105,,0 F,1,17725,,1 F,1,30139,30967,1,0 MX,2,30139,30967,100,120 F,1,45036,45864,0,1 MX,1,45036,45864,80,100 F,1,58070,59104,1,0 MX,1,58070,59104,100,125 MX,1,80622,,100 F,5,80622,87242,0.5,1 F,1,107932,108760,1,0 MX,2,107932,108760,100,120 F,1,120967,122001,0,1 MX,1,120967,122001,75,100 F,1,174139,174967,1,0 MX,2,174139,174967,100,120 F,1,187380,188208,0,1 MX,1,187380,188208,80,100 F,1,214691,,0 F,1,228537,229571,0,1 MX,1,228537,229571,75,100 F,5,242813,249434,1,0
Sprite,Foreground,Centre,"SB\melwoine.png",540,75 F,1,30139,30967,0,1 MX,1,30139,30967,520,540 S,0,30139,249434,0.6 F,1,45036,45864,1,0 MX,2,45036,45864,540,560 F,1,58070,59104,0,1 MX,1,58070,59104,515,540 F,1,72346,78967,1,0 F,5,80622,87242,0.5,1 F,0,87242,,0 F,1,107932,108760,0,1 MX,1,107932,108760,520,540 F,1,120967,122001,1,0 MX,1,120967,122001,540,565 F,1,174139,174967,0,1 MX,2,174139,174967,520,540 F,1,187380,188208,1,0 MX,2,187380,188208,540,560 F,1,216331,,1 MX,1,216331,,540 F,1,228537,229571,1,0 MX,1,228537,229571,540,565
//Storyboard Layer 4 (Overlay)
//Storyboard Sound Samples

[TimingPoints]
1174,413.793103448276,4,1,1,40,1,0
1174,-133.333333333333,4,1,1,40,0,0
4794,-133.333333333333,4,1,1,25,0,0
4898,-133.333333333333,4,1,1,40,0,0
5104,-133.333333333333,4,1,1,25,0,0
5105,-133.333333333333,4,1,1,25,0,0
5518,-133.333333333333,4,1,1,40,0,0
5829,-133.333333333333,4,1,1,25,0,0
5932,-133.333333333333,4,1,1,40,0,0
6421,-133.333333333333,4,1,1,25,0,0
6553,-133.333333333333,4,1,1,40,0,0
6863,-133.333333333333,4,1,1,25,0,0
6966,-133.333333333333,4,1,1,40,0,0
6967,-133.333333333333,4,1,1,40,0,0
8105,-133.333333333333,4,1,1,25,0,0
8208,-133.333333333333,4,1,1,40,0,0
8415,-133.333333333333,4,1,1,25,0,0
8828,-133.333333333333,4,1,1,40,0,0
8829,-133.333333333333,4,1,1,40,0,0
9139,-133.333333333333,4,1,1,25,0,0
9242,-133.333333333333,4,1,1,40,0,0
9760,-133.333333333333,4,1,1,25,0,0
9863,-133.333333333333,4,1,1,40,0,0
10174,-133.333333333333,4,1,1,25,0,0
10225,-133.333333333333,4,1,1,45,0,0
11725,-133.333333333333,4,1,1,15,0,0
11932,-133.333333333333,4,1,1,40,0,0
14932,-133.333333333333,4,1,1,25,0,0
15242,-133.333333333333,4,1,1,40,0,0
16898,-133.333333333333,4,1,1,47,0,0
17311,-133.333333333333,4,1,1,40,0,0
17725,-100,4,1,1,40,0,0
22691,-100,4,1,1,35,0,0
23415,-100,4,1,1,20,0,0
24346,-100,4,1,1,45,0,0
29311,-100,4,1,1,35,0,0
30139,-100,4,1,1,48,0,0
30552,-100,4,1,1,50,0,0
30553,-100,4,1,1,50,0,0
30967,-100,4,1,1,40,0,0
40898,-100,4,1,1,33,0,0
41725,-100,4,1,1,35,0,0
42553,-100,4,1,1,40,0,0
43380,-100,4,1,1,50,0,0
45863,-80,4,1,1,50,0,1
58070,-80,4,1,1,50,0,1
59105,-80,4,1,1,50,0,1
72346,-80,4,1,1,40,0,0
72353,-133.333333333333,4,1,1,5,0,0
80622,-133.333333333333,4,1,1,30,0,0
85587,-100,4,1,1,30,0,0
87242,-100,4,1,1,40,0,0
108760,-80,4,1,1,50,0,1
120967,-80,4,1,1,50,0,1
122001,-80,4,1,1,50,0,1
135242,-80,4,1,1,40,0,0
136898,-80,4,1,1,5,0,0
140208,-80,4,1,1,30,0,0
161725,-80,4,1,1,55,0,0
188208,-80,4,1,1,38,0,0
214794,-80,4,1,1,5,0,0
216331,413.793103448276,4,1,1,55,1,1
216331,-66.6666666666667,4,1,1,55,0,1
242813,-80,4,1,1,55,0,0

[Colours]
Combo1 : 177,162,148
Combo2 : 34,95,149
Combo3 : 186,80,186
Combo4 : 46,150,105
Combo5 : 167,35,38

[HitObjects]
33,131,4484,6,0,B|66:82|113:56|185:53,1,151.875005793572,4|0,0:2|0:0,0:0:0:0:
231,176,4898,2,0,B|186:175|145:151|125:129,1,101.250003862381,8|0,0:0|0:0,0:0:0:0:
279,88,5311,1,0,0:0:0:0:
321,258,5518,1,0,0:0:0:0:
406,19,5829,1,0,0:0:0:0:
284,331,6139,6,0,B|237:318|199:318|172:324,1,101.250003862381
52,248,6553,2,0,B|106:254|150:249|180:238,2,101.250003862381,0|8|0,0:0|0:0|0:0,0:0:0:0:
140,108,7174,2,0,B|203:124|228:160|232:189,1,101.250003862381,2|0,0:2|0:0,0:0:0:0:
239,206,7484,2,0,L|256:71,1,101.250003862381,2|0,0:2|0:0,0:0:0:0:
292,67,7794,5,0,0:0:0:0:
292,67,8001,1,0,0:0:0:0:
340,233,8208,2,0,B|388:246|458:214|456:141,2,151.875005793572
198,183,9036,1,8,0:0:0:0:
198,183,9139,1,0,0:0:0:0:
268,328,9346,1,0,0:0:0:0:
268,328,9449,6,0,L|372:339,1,101.250003862381
512,225,9863,2,0,B|468:247|412:251|401:252,1,101.250003862381
222,207,10277,1,0,0:0:0:0:
151,362,10484,2,0,L|141:276,1,50.6250019311906,4|0,0:2|0:0,0:0:0:0:
59,243,10691,2,0,L|70:321,1,50.6250019311906
110,158,10898,2,0,L|98:89,1,50.6250019311906,2|0,0:2|0:0,0:0:0:0:
32,46,11105,5,6,0:0:0:0:
32,46,11208,1,0,0:0:0:0:
32,46,11311,1,2,0:2:0:0:
46,200,11518,2,0,B|104:229|169:209|206:172,1,151.875005793572
235,115,11932,1,8,0:0:0:0:
92,55,12139,1,0,0:0:0:0:
271,313,12449,1,0,0:0:0:0:
92,55,12760,6,0,B|149:47|175:51|204:68,1,101.250003862381
423,35,13174,2,0,B|382:73|372:98|377:142,1,101.250003862381,2|0,0:0|0:0,0:0:0:0:
362,352,13587,2,0,B|366:237|367:184|362:177,2,151.875005793572,10|0|0,0:0|0:0|0:0,0:0:0:0:
255,202,14415,5,2,0:2:0:0:
255,202,14622,1,2,0:2:0:0:
166,318,14829,2,0,B|105:349|66:346|35:331,1,101.250003862381
68,341,15139,1,0,0:0:0:0:
68,341,15242,1,8,0:0:0:0:
73,113,15449,2,0,B|104:170|105:205|94:245,1,101.250003862381
86,247,15760,2,0,L|-24:237,1,101.250003862381
175,194,16070,6,0,L|241:203,1,50.6250019311906
321,146,16277,1,0,0:0:0:0:
321,146,16380,1,0,0:0:0:0:
321,146,16484,2,2,L|310:213,1,50.6250019311906,2|0,0:2|0:2,0:2:0:0:
384,323,16691,2,0,L|390:273,1,50.6250019311906
506,107,16898,1,0,0:0:0:0:
491,195,17001,1,0,0:0:0:0:
473,283,17105,1,4,0:2:0:0:
473,283,17725,6,0,B|425:233|374:227|328:254,1,135,2|0,0:2|0:0,0:0:0:0:
278,310,18036,1,0,0:0:0:0:
278,310,18139,2,0,L|269:206,1,67.5,10|0,0:2|0:0,0:0:0:0:
331,113,18346,2,0,L|252:119,1,67.5
94,59,18553,1,0,0:0:0:0:
114,137,18656,1,2,0:2:0:0:
135,217,18760,1,0,0:0:0:0:
172,349,18967,1,8,0:0:0:0:
0,288,19174,1,0,0:0:0:0:
66,359,19380,6,0,B|94:296|83:226|8:147,1,202.5,4|0,0:0|0:0,0:0:0:0:
79,69,19794,2,0,L|176:98,1,67.5,10|0,0:2|0:0,0:0:0:0:
378,47,20001,2,0,L|287:74,1,67.5,0|2,0:0|0:0,0:0:0:0:
207,9,20208,2,0,L|228:112,1,67.5,2|0,0:2|0:2,0:0:0:0:
155,246,20415,2,0,L|200:172,1,67.5
353,167,20622,1,10,0:2:0:0:
353,167,20725,1,0,0:0:0:0:
353,167,20829,2,0,L|448:190,1,67.5
483,334,21036,6,0,L|404:313,1,67.5,6|0,0:0|0:0,0:0:0:0:
294,252,21242,1,0,0:0:0:0:
294,252,21346,1,0,0:0:0:0:
294,252,21449,2,0,L|303:333,1,67.5,8|2,0:0|0:2,0:0:0:0:
221,168,21656,2,0,L|207:60,1,67.5
108,42,21863,1,2,0:2:0:0:
185,262,22070,1,0,0:0:0:0:
421,137,22277,1,8,0:0:0:0:
324,328,22484,1,0,0:0:0:0:
194,179,22691,6,0,B|274:233|324:252|425:241,2,202.5,2|2|0,0:2|2:2|0:0,0:0:0:0:
135,333,23518,1,0,0:0:0:0:
68,293,23725,1,0,0:0:0:0:
137,252,23932,1,0,0:0:0:0:
135,333,24139,1,0,0:0:0:0:
82,28,24346,6,0,B|126:97|114:137|93:182,1,135,6|0,0:0|0:0,0:0:0:0:
188,251,24656,1,0,0:0:0:0:
188,251,24760,2,0,L|220:99,1,135,10|8,0:2|0:0,0:0:0:0:
323,74,25070,1,0,0:0:0:0:
323,74,25174,2,0,B|351:109|379:107|410:104,2,67.5,2|0|0,0:2|0:0|0:0,0:0:0:0:
214,24,25484,1,0,0:0:0:0:
214,24,25587,2,0,L|132:38,1,67.5,10|0,0:2|0:0,0:0:0:0:
300,170,25794,2,0,L|301:260,1,67.5,8|0,0:0|0:0,0:0:0:0:
370,363,26001,5,0,0:0:0:0:
473,200,26208,1,2,0:2:0:0:
473,200,26311,1,0,0:0:0:0:
473,200,26415,2,0,L|412:136,1,67.5,10|0,0:2|0:0,0:0:0:0:
340,16,26622,2,0,L|416:98,1,67.5,2|0,0:0|0:0,0:0:0:0:
352,192,26829,2,0,B|297:139|244:141|196:162,1,135
158,239,27139,1,0,0:0:0:0:
158,239,27242,2,0,L|82:252,1,67.5,10|0,0:2|0:0,0:0:0:0:
138,74,27449,2,0,L|163:170,1,67.5,8|0,0:0|0:0,0:0:0:0:
76,336,27656,6,0,B|78:260|62:200|49:177,1,135,6|0,0:2|0:0,0:0:0:0:
236,63,27967,1,2,0:2:0:0:
236,63,28070,2,0,B|234:139|250:199|263:222,1,135,8|2,0:0|0:2,0:0:0:0:
246,319,28380,1,0,0:0:0:0:
246,319,28484,2,0,L|346:305,1,67.5,0|2,0:0|0:0,0:0:0:0:
396,184,28691,2,0,L|357:269,1,67.5,2|0,0:2|0:0,0:0:0:0:
491,348,28898,1,10,0:2:0:0:
491,348,29001,2,0,B|494:274|486:209|485:209,1,135
476,92,29311,6,0,L|399:108,1,67.5,2|0,0:2|0:0,0:0:0:0:
274,60,29518,1,0,0:0:0:0:
274,60,29622,2,0,L|306:147,1,67.5,10|8,0:2|0:0,0:0:0:0:
262,264,29829,1,0,0:0:0:0:
262,264,29932,2,0,B|277:318|273:356|268:370,1,67.5,2|0,0:2|0:0,0:0:0:0:
32,173,30139,6,0,B|88:194|108:227|110:228,1,67.5,8|0,0:0|0:0,0:0:0:0:
136,367,30346,1,0,0:0:0:0:
136,367,30449,2,0,B|121:313|126:270|129:263,1,67.5,8|0,0:0|0:0,0:0:0:0:
157,75,30656,1,0,0:0:0:0:
203,137,30760,1,8,0:0:0:0:
217,215,30863,1,0,0:0:0:0:
195,290,30967,5,4,0:2:0:0:
284,138,31174,1,0,0:0:0:0:
284,138,31277,1,2,0:2:0:0:
284,138,31380,1,0,0:0:0:0:
371,193,31587,1,8,0:0:0:0:
149,185,31794,2,0,B|72:181|23:122|29:42,1,202.5,2|0,0:0|0:0,0:0:0:0:
112,2,32208,1,2,0:2:0:0:
0,221,32415,1,2,0:2:0:0:
197,60,32622,6,0,L|202:138,1,67.5
201,326,32829,1,0,0:0:0:0:
201,326,32932,1,2,0:2:0:0:
201,326,33036,2,0,B|143:311|101:333|76:378,1,135,0|8,0:0|0:0,0:0:0:0:
199,205,33449,1,2,0:2:0:0:
197,60,33656,1,0,0:0:0:0:
302,279,33863,2,0,B|388:313|456:269|470:190,1,202.5
455,99,34277,6,0,L|365:135,1,67.5,6|0,0:0|0:0,0:0:0:0:
282,162,34484,1,0,0:0:0:0:
282,162,34587,1,0,0:0:0:0:
282,162,34691,1,0,0:0:0:0:
302,76,34898,1,8,0:0:0:0:
209,107,35105,1,2,0:0:0:0:
209,107,35208,2,0,L|139:98,1,67.5
248,344,35518,2,0,B|255:285|215:241|152:251,1,135,8|10,0:0|0:2,0:0:0:0:
0,305,35932,6,0,L|17:209,1,67.5
37,72,36139,1,2,0:2:0:0:
139,173,36346,1,8,0:0:0:0:
92,295,36553,1,0,0:0:0:0:
92,295,36656,1,0,0:0:0:0:
92,295,36760,1,2,0:2:0:0:
0,163,36967,1,0,0:0:0:0:
143,54,37174,2,0,B|212:66|276:96|331:149,1,202.5,6|0,0:2|0:0,0:0:0:0:
389,244,37587,5,6,0:2:0:0:
389,244,37691,1,0,0:0:0:0:
389,244,37794,1,0,0:0:0:0:
207,303,38001,2,0,L|302:313,1,67.5,10|0,0:2|0:0,0:0:0:0:
382,336,38208,1,0,0:0:0:0:
236,211,38415,6,0,B|222:135|241:73|302:32,1,202.5,2|0,0:0|0:0,0:0:0:0:
339,147,38829,2,0,L|406:159,1,67.5,2|0,0:2|0:0,0:0:0:0:
512,259,39036,2,0,L|430:245,1,67.5
267,350,39242,1,8,0:0:0:0:
295,363,39346,1,0,0:0:0:0:
337,365,39449,1,0,0:0:0:0:
371,351,39553,1,0,0:0:0:0:
395,319,39656,6,0,B|353:242|301:212|218:209,1,202.5,2|0,0:2|0:0,0:0:0:0:
126,214,40070,1,0,0:0:0:0:
285,132,40277,1,0,0:0:0:0:
91,137,40484,1,2,0:2:0:0:
61,131,40587,1,0,0:0:0:0:
35,127,40691,1,2,0:2:0:0:
275,26,40898,6,0,B|322:106|320:168|279:259,1,202.5,6|0,0:0|0:0,0:0:0:0:
261,305,41311,2,0,P|307:292|385:295,1,67.5,10|0,0:2|0:0,0:0:0:0:
505,333,41518,2,0,P|462:315|422:283,1,67.5,8|0,0:0|0:0,0:0:0:0:
379,131,41725,6,0,L|515:107,2,135,2|0|8,0:2|0:0|0:0,0:0:0:0:
179,256,42346,1,2,0:2:0:0:
259,118,42553,6,0,L|253:45,1,67.5,2|0,0:0|0:0,0:0:0:0:
333,256,42760,1,0,0:0:0:0:
333,256,42863,2,0,L|410:302,1,67.5,2|8,0:2|0:2,0:0:0:0:
179,256,43070,1,0,0:0:0:0:
179,256,43173,2,0,L|102:302,1,67.5,2|0,0:2|0:0,0:0:0:0:
332,162,43380,6,0,B|369:138|391:118|403:71|374:12,1,135,10|0,0:0|0:0,0:0:0:0:
236,8,43691,2,0,L|253:99,1,67.5,2|0,0:2|0:0,0:0:0:0:
255,258,43898,1,0,0:0:0:0:
255,258,44001,2,0,L|238:349,1,67.5,2|0,0:2|0:0,0:0:0:0:
124,373,44208,1,4,0:0:0:0:
349,199,44829,1,0,2:0:0:0:
345,166,44932,1,2,2:0:0:0:
343,118,45036,6,0,B|365:74|365:74|424:49|413:-32,1,135,2|0,0:2|2:0,0:0:0:0:
300,0,45346,2,0,B|255:95|255:95|206:116,1,135,2|0,1:2|2:1,0:0:0:0:
82,128,45656,2,0,L|90:195,1,67.5
99,357,45863,6,0,L|79:224,1,84.375,6|0,0:0|0:0,0:0:0:0:
264,161,46070,2,0,L|218:287,1,84.375,2|0,0:2|0:0,0:0:0:0:
201,384,46277,2,0,B|217:305|180:240|129:211,1,168.75,10|0,0:2|0:0,0:0:0:0:
143,93,46587,1,0,0:0:0:0:
147,98,46691,2,0,B|64:118|10:102|-8:17|-11:19,1,168.75,2|0,0:2|0:2,0:0:0:0:
198,19,47001,1,0,0:0:0:0:
198,19,47105,2,0,B|253:52|301:48|306:49,1,84.375,10|0,0:2|0:0,0:0:0:0:
355,182,47311,2,0,B|339:232|340:281|346:287,1,84.375,8|0,0:0|0:0,0:0:0:0:
262,365,47518,6,2,B|267:326|246:271|233:271,2,84.375,6|0|0,0:0|0:0|0:0,0:0:0:0:
273,136,47829,1,0,0:0:0:0:
273,136,47932,2,0,L|171:121,1,84.375,8|0,0:0|0:0,0:0:0:0:
63,73,48139,1,8,0:0:0:0:
63,73,48242,1,0,0:0:0:0:
63,73,48346,2,0,L|79:178,1,84.375,8|0,0:2|0:0,0:0:0:0:
11,351,48553,2,0,B|41:315|83:299|123:296,1,84.375,8|0,0:0|0:0,0:0:0:0:
201,148,48760,2,0,B|271:139|291:193|385:194,1,168.75,2|0,0:0|0:0,0:0:0:0:
337,360,49070,1,2,0:2:0:0:
337,360,49174,6,0,B|339:272|363:178|378:159,1,168.75,6|0,0:0|0:0,0:0:0:0:
455,77,49484,1,0,0:0:0:0:
455,77,49587,2,0,L|552:58,2,84.375,10|0|0,0:2|0:0|0:0,0:0:0:0:
464,243,49898,1,0,0:0:0:0:
464,243,50001,2,0,B|450:205|424:151|358:90,1,168.75,2|0,0:2|0:2,0:0:0:0:
244,46,50311,1,0,0:0:0:0:
244,46,50415,2,0,B|256:70|263:86|264:160,1,84.375,8|0,0:0|0:0,0:0:0:0:
307,309,50622,2,0,B|286:270|279:232|282:213,1,84.375,8|0,0:0|0:0,0:0:0:0:
149,14,50829,6,0,B|155:81|139:120|121:201,1,168.75,6|0,0:0|0:0,0:0:0:0:
99,279,51139,1,0,0:0:0:0:
99,279,51242,2,0,L|210:298,1,84.375,10|0,0:2|0:0,0:0:0:0:
238,23,51449,2,0,L|217:131,1,84.375,2|0,0:0|0:0,0:0:0:0:
296,296,51656,2,0,L|279:189,1,84.375,10|0,0:2|0:0,0:0:0:0:
405,282,51863,2,0,L|424:389,1,84.375,8|0,0:0|0:0,0:0:0:0:
388,115,52070,2,0,L|286:131,1,84.375,2|2,0:2|0:2,0:0:0:0:
129,173,52277,1,0,0:2:0:0:
129,173,52380,1,0,0:0:0:0:
129,173,52484,6,0,B|177:166|209:179|218:207,2,84.375,6|0|0,0:0|0:0|0:0,0:0:0:0:
7,161,52794,1,0,0:0:0:0:
19,282,52898,2,0,B|26:315|26:328|24:375,2,84.375,2|0|8,0:0|0:0|0:0,0:0:0:0:
7,161,53208,1,0,0:0:0:0:
93,253,53311,2,0,B|156:282|209:285|285:284,1,168.75,2|8,0:0|0:0,0:0:0:0:
324,179,53622,1,0,0:0:0:0:
324,179,53725,2,0,B|292:161|262:154|186:162,1,84.375,2|0,0:2|0:0,0:0:0:0:
379,343,53932,2,0,B|396:311|426:298|468:290,1,84.375,2|0,0:2|0:0,0:0:0:0:
495,86,54139,5,6,0:0:0:0:
423,117,54242,1,0,0:0:0:0:
351,88,54346,1,2,0:2:0:0:
319,20,54449,1,2,0:2:0:0:
241,10,54553,1,8,0:0:0:0:
39,172,54760,2,0,L|129:169,1,84.375,8|0,0:0|0:0,0:0:0:0:
348,289,54967,2,0,L|258:292,1,84.375,8|2,0:0|0:2,0:0:0:0:
248,96,55174,2,0,L|263:205,1,84.375,10|0,0:2|0:0,0:0:0:0:
140,380,55380,2,0,L|126:272,1,84.375,14|0,0:0|0:0,0:0:0:0:
343,209,55587,1,0,0:0:0:0:
343,209,55691,1,0,0:0:0:0:
343,209,55794,6,0,B|386:214|440:210|458:203,1,84.375,6|0,0:2|0:0,0:0:0:0:
496,83,56001,2,0,B|439:81|406:86|389:94,1,84.375,2|0,0:2|0:0,0:0:0:0:
292,40,56208,2,0,B|346:96|342:247|202:250,1,253.125,10|0,0:2|0:0,0:0:0:0:
153,272,56622,1,2,0:2:0:0:
153,272,56725,2,0,B|172:316|166:352|150:381,2,84.375,0|8|0,0:0|0:0|0:0,0:0:0:0:
45,280,57036,1,10,0:2:0:0:
261,335,57242,1,10,0:2:0:0:
202,81,57449,5,6,0:0:0:0:
137,124,57553,1,0,0:0:0:0:
153,201,57656,1,0,0:0:0:0:
224,229,57760,1,2,0:2:0:0:
288,182,57863,1,10,0:2:0:0:
256,8,58070,1,10,0:0:0:0:
491,187,58277,1,8,0:0:0:0:
256,376,58484,1,10,0:2:0:0:
21,187,58691,2,0,B|38:154|107:115|173:126,1,168.75,10|2,0:0|0:2,0:0:0:0:
258,229,59001,1,2,0:2:0:0:
258,229,59105,6,0,L|274:130,1,84.375,14|0,0:0|0:0,0:0:0:0:
302,11,59311,2,0,P|334:64|361:88,1,84.375
473,146,59518,2,2,B|481:206|426:274|361:273|324:248,1,168.75,10|0,0:2|0:0,0:0:0:0:
169,368,59829,1,0,0:0:0:0:
169,368,59932,2,0,L|190:278,1,84.375,10|2,0:2|0:2,0:0:0:0:
256,154,60139,2,0,L|221:68,1,84.375,8|0,0:0|0:0,0:0:0:0:
59,143,60346,1,10,0:2:0:0:
83,217,60449,1,0,0:0:0:0:
159,240,60553,1,2,0:2:0:0:
219,290,60656,1,0,0:0:0:0:
217,369,60760,6,0,P|166:375|102:284,1,168.75,6|0,0:0|0:0,0:0:0:0:
59,143,61070,1,0,0:0:0:0:
59,143,61174,2,0,B|84:160|118:161|141:154,1,84.375,10|0,0:2|0:0,0:0:0:0:
282,212,61380,2,0,B|309:198|327:169|332:145,1,84.375,2|0,0:2|0:0,0:0:0:0:
226,49,61587,2,0,L|236:140,1,84.375,10|0,0:2|0:0,0:0:0:0:
392,286,61794,2,0,L|390:159,1,84.375,10|0,0:2|0:0,0:0:0:0:
456,5,62001,2,0,B|464:51|496:78|503:167,1,168.75,10|10,0:0|0:2,0:0:0:0:
54,83,62415,6,0,L|136:99,1,84.375,14|0,0:0|0:0,0:0:0:0:
181,0,62622,1,2,0:2:0:0:
181,0,62725,1,0,0:0:0:0:
181,0,62829,2,0,B|164:76|160:171|173:194,1,168.75,2|8,0:2|0:0,0:0:0:0:
204,271,63139,1,0,0:0:0:0:
204,271,63242,2,0,B|206:332|131:372|78:343,1,168.75,2|8,0:2|0:0,0:0:0:0:
0,156,63553,1,0,0:0:0:0:
0,156,63656,2,0,B|23:196|33:203|82:221,1,84.375,2|0,0:2|0:0,0:0:0:0:
290,122,63863,2,0,L|192:116,1,84.375,2|0,0:2|0:0,0:0:0:0:
78,17,64070,5,10,0:0:0:0:
17,67,64174,1,0,0:0:0:0:
17,145,64277,1,0,0:0:0:0:
59,212,64380,1,2,0:2:0:0:
58,291,64484,2,0,P|48:337|13:381,1,84.375,10|0,0:2|0:0,0:0:0:0:
210,368,64691,6,0,B|209:331|204:303|180:265,1,84.375,8|0,0:2|0:0,0:0:0:0:
235,123,64898,2,0,P|211:174|172:206,1,84.375,8|2,0:0|0:2,0:0:0:0:
280,241,65105,2,0,B|302:247|330:241|361:226,1,84.375,8|0,0:0|0:0,0:0:0:0:
494,83,65311,2,0,L|477:-18,2,84.375,8|0|2,0:0|0:0|0:2,0:0:0:0:
463,202,65622,1,2,0:2:0:0:
463,202,65725,1,6,0:0:0:0:
278,249,65932,1,10,0:2:0:0:
136,76,66139,6,2,B|174:39|217:31|270:37|303:75,1,168.75,10|0,0:0|0:0,0:0:0:0:
376,219,66449,1,0,0:0:0:0:
376,219,66553,2,0,P|372:272|356:337,1,84.375,2|0,0:2|0:0,0:0:0:0:
124,314,66760,2,0,P|174:296|217:265,1,84.375,8|0,0:0|0:0,0:0:0:0:
160,104,66967,1,2,0:2:0:0:
160,104,67070,1,0,0:0:0:0:
160,104,67174,2,0,L|50:98,1,84.375,0|2,0:0|0:2,0:0:0:0:
272,0,67380,2,0,L|299:79,1,84.375,6|0,0:0|0:0,0:0:0:0:
344,331,67587,2,0,L|358:247,1,84.375,8|0,0:2|0:0,0:0:0:0:
383,57,67794,6,2,B|396:185|273:123|263:284,1,253.125,10|0,0:0|0:0,0:0:0:0:
239,348,68208,6,0,P|239:301|225:221,1,84.375,8|2,0:0|0:2,0:0:0:0:
51,148,68415,1,0,0:0:0:0:
51,148,68518,1,0,0:0:0:0:
51,148,68622,2,0,L|33:260,1,84.375,8|0,0:0|0:0,0:0:0:0:
86,352,68829,2,0,L|164:321,1,84.375,8|0,0:0|0:0,0:0:0:0:
140,40,69036,6,2,P|134:140|135:210,1,168.75,6|0,0:0|0:0,0:0:0:0:
243,143,69346,1,2,0:2:0:0:
243,143,69449,2,0,L|266:51,1,84.375,8|0,0:0|0:0,0:0:0:0:
348,121,69656,1,10,0:2:0:0:
382,192,69760,1,0,0:0:0:0:
348,263,69863,6,2,B|331:353|416:391|489:385|529:293,1,253.125,2|0,0:0|0:0,0:0:0:0:
462,195,70277,1,2,0:2:0:0:
382,192,70380,1,2,0:2:0:0:
332,254,70484,1,0,0:0:0:0:
284,318,70587,1,0,0:0:0:0:
205,337,70691,6,2,P|151:320|113:283,1,84.375,6|0,0:0|0:0,0:0:0:0:
75,197,70898,1,0,0:0:0:0:
75,197,71001,1,2,0:2:0:0:
75,197,71105,2,0,L|170:184,1,84.375,8|0,0:0|0:0,0:0:0:0:
151,35,71311,2,0,P|100:61|69:104,1,84.375,8|0,0:0|0:0,0:0:0:0:
158,185,71518,6,0,L|338:200,1,168.75,2|0,0:1|0:0,0:0:0:0:
451,199,71829,1,0,0:0:0:0:
479,125,71932,1,10,0:2:0:0:
436,57,72036,1,0,0:0:0:0:
357,53,72139,2,0,L|378:146,1,84.375,2|2,0:2|0:2,0:0:0:0:
348,324,72346,5,6,0:2:0:0:
155,58,80622,6,0,B|205:65|258:98|258:186|206:234,2,202.500007724762,6|2|0,0:2|0:2|0:0,0:0:0:0:
70,11,81656,2,0,B|70:69|71:101|67:128,1,101.250003862381,2|0,0:2|0:0,0:0:0:0:
29,212,82070,2,0,B|61:203|86:198|144:188,1,101.250003862381,2|0,0:2|0:0,0:0:0:0:
127,190,82691,6,0,B|158:240|161:290|102:349|49:340,1,202.500007724762,2|0,0:2|0:0,0:0:0:0:
38,173,83311,2,0,B|61:128|94:108|133:110,1,101.250003862381,2|0,0:2|0:0,0:0:0:0:
200,339,83725,1,8,0:0:0:0:
315,70,83932,6,0,B|286:154|287:196|286:282,2,202.500007724762,12|2|0,0:0|0:2|0:0,0:0:0:0:
373,293,84967,2,0,B|426:297|449:296|495:297,1,101.250003862381,2|0,0:2|0:0,0:0:0:0:
376,155,85380,1,0,0:2:0:0:
376,155,85587,6,0,B|385:233|310:291|230:270|201:238,2,202.5,2|0|0,0:2|0:0|0:0,0:0:0:0:
46,142,86415,5,2,0:2:0:0:
254,342,86725,1,0,0:0:0:0:
232,139,87036,1,0,0:0:0:0:
254,342,87242,6,0,B|339:342|361:283|363:230,1,135,14|0,0:0|0:0,0:0:0:0:
331,127,87553,1,0,0:0:0:0:
331,127,87656,2,0,L|346:208,1,67.5,10|0,0:2|0:0,0:0:0:0:
461,59,87863,2,0,L|353:27,1,67.5,2|0,0:2|0:0,0:0:0:0:
204,35,88070,1,2,0:2:0:0:
221,114,88174,1,2,0:2:0:0:
239,192,88277,1,0,0:0:0:0:
124,138,88484,1,8,0:0:0:0:
85,328,88691,1,0,0:0:0:0:
27,229,88898,5,8,0:2:0:0:
106,215,89001,1,0,0:0:0:0:
181,254,89105,1,0,0:0:0:0:
196,332,89208,1,0,0:0:0:0:
272,354,89311,2,0,L|350:328,1,67.5,10|0,0:2|0:0,0:0:0:0:
277,236,89518,2,0,L|250:122,1,67.5
100,108,89725,2,0,L|198:133,1,67.5,2|2,0:2|0:2,0:0:0:0:
380,43,89932,2,0,L|312:94,1,67.5
164,224,90139,2,0,L|86:203,1,67.5,10|0,0:2|0:0,0:0:0:0:
0,73,90346,2,0,L|15:153,1,67.5,8|0,0:0|0:0,0:0:0:0:
19,356,90553,6,0,B|33:312|93:291|155:300,1,135,6|2,0:2|0:2,0:0:0:0:
131,298,90863,1,0,0:0:0:0:
131,298,90967,1,8,0:0:0:0:
281,372,91174,1,0,0:2:0:0:
215,103,91380,1,2,0:2:0:0:
279,229,91587,1,2,0:2:0:0:
279,229,91691,1,0,0:0:0:0:
279,229,91794,1,8,0:0:0:0:
387,40,92001,1,8,0:0:0:0:
315,303,92208,6,0,L|326:407,2,67.5,10|0|0,0:2|0:0|0:0,0:0:0:0:
162,142,92518,2,0,L|154:52,2,67.5,10|0|0,0:2|0:0|0:0,0:0:0:0:
241,231,92829,1,10,0:2:0:0:
241,231,92932,1,0,0:0:0:0:
241,231,93036,6,0,L|128:268,1,67.5,8|0,0:0|0:0,0:0:0:0:
50,341,93242,1,0,0:0:0:0:
50,341,93346,2,0,L|58:247,1,67.5,8|0,0:0|0:0,0:0:0:0:
71,102,93553,1,0,0:0:0:0:
71,102,93657,2,0,L|104:175,1,67.5,10|0,0:2|0:0,0:0:0:0:
145,329,93863,5,14,0:2:0:0:
253,157,94070,1,0,0:0:0:0:
253,157,94174,1,0,0:0:0:0:
253,157,94277,1,2,0:2:0:0:
284,370,94484,1,0,0:0:0:0:
108,231,94691,2,0,L|188:259,1,67.5,0|2,0:0|0:2,0:0:0:0:
282,236,94898,2,0,L|358:261,1,67.5
418,361,95105,1,2,0:2:0:0:
418,361,95311,1,0,0:0:0:0:
459,117,95518,5,8,0:0:0:0:
459,117,95622,1,0,0:0:0:0:
459,117,95725,1,0,0:0:0:0:
459,117,95829,1,0,0:0:0:0:
459,117,95932,2,0,B|376:86|348:92|302:111,1,135,2|0,0:0|0:0,0:0:0:0:
92,233,96346,1,0,0:0:0:0:
92,233,96449,2,0,B|111:175|91:90|87:66,1,135
25,41,96760,2,0,L|21:145,1,67.5
199,202,96967,2,0,L|300:184,1,67.5,0|2,0:0|0:2,0:0:0:0:
376,103,97174,6,0,B|296:139|276:178|289:291,1,202.5,6|0,0:0|0:0,0:0:0:0:
366,318,97587,1,2,0:2:0:0:
366,318,97794,1,8,0:0:0:0:
136,103,98001,6,0,B|216:139|236:178|223:291,1,202.5,2|0,0:0|0:0,0:0:0:0:
146,318,98414,1,2,0:2:0:0:
68,196,98621,1,8,0:0:0:0:
68,196,98725,1,0,0:0:0:0:
68,196,98829,1,0,0:0:0:0:
40,312,99036,5,2,0:2:0:0:
165,189,99242,2,0,B|174:141|163:101|158:90,1,67.5,8|0,0:0|0:0,0:0:0:0:
184,282,99449,2,0,B|200:300|209:324|209:367,1,67.5
276,163,99656,2,0,B|260:145|251:121|251:78,1,67.5,0|2,0:0|0:2,0:0:0:0:
345,326,99863,2,0,L|442:344,1,67.5,2|0,0:2|0:0,0:0:0:0:
434,51,100070,2,0,B|457:119|456:173|449:263,1,202.5,6|0,0:2|0:0,0:0:0:0:
481,301,100484,5,6,0:2:0:0:
323,184,100691,1,0,0:0:0:0:
323,184,100794,1,0,0:0:0:0:
323,184,100898,1,2,0:2:0:0:
189,335,101105,1,0,0:0:0:0:
108,103,101311,2,0,B|117:125|119:164|121:202,1,67.5,0|2,0:0|0:2,0:0:0:0:
110,288,101518,2,0,B|103:315|86:345|67:363,1,67.5
30,207,101725,1,2,0:2:0:0:
222,258,101932,1,2,0:2:0:0:
321,28,102139,5,0,0:0:0:0:
172,96,102346,1,2,0:2:0:0:
172,96,102449,1,2,0:2:0:0:
172,96,102553,1,8,0:0:0:0:
235,209,102760,1,8,0:0:0:0:
132,23,102967,6,0,L|56:32,1,67.5,2|0,0:2|0:0,0:0:0:0:
282,133,103174,2,0,L|367:155,1,67.5,2|0,0:2|0:0,0:0:0:0:
98,253,103380,2,0,L|2:278,1,67.5,8|0,0:0|0:0,0:0:0:0:
306,329,103587,2,0,L|406:364,1,67.5,8|0,0:0|0:0,0:0:0:0:
509,191,103794,6,0,L|284:246,1,202.5,6|0,0:0|0:0,0:0:0:0:
262,229,104208,1,0,0:0:0:0:
262,229,104415,1,0,0:0:0:0:
302,86,104622,1,0,0:0:0:0:
302,86,104725,2,0,L|401:113,1,67.5,2|2,0:2|0:2,0:0:0:0:
435,295,104932,1,0,0:0:0:0:
435,295,105036,2,0,L|417:182,1,67.5
444,60,105242,2,0,B|446:118|426:154|422:163,1,67.5,2|0,0:2|0:0,0:0:0:0:
266,333,105449,6,0,B|292:277|282:221|250:168,1,135,10|0,0:0|0:0,0:0:0:0:
228,103,105760,2,0,L|141:146,1,67.5,2|10,0:2|0:2,0:0:0:0:
38,257,105967,1,0,0:0:0:0:
38,257,106070,2,0,L|138:292,1,67.5,10|0,0:2|0:0,0:0:0:0:
382,357,106277,6,0,B|372:292|372:248|376:178,1,135,10|0,0:0|0:0,0:0:0:0:
293,13,106587,2,0,B|303:78|303:122|299:192,1,135,10|0,0:2|0:0,0:0:0:0:
239,351,106898,2,0,B|242:319|256:293|288:249,1,67.5,14|0,0:2|0:0,0:0:0:0:
413,71,107105,1,4,0:2:0:0:
48,208,107725,5,0,2:0:0:0:
71,211,107829,1,0,2:0:0:0:
81,238,107932,6,0,B|119:256|119:256|161:243|161:243|180:264|225:261,1,135,2|0,0:2|2:0,0:0:0:0:
223,60,108242,2,0,B|196:95|196:95|217:203,1,135,2|0,0:2|2:0,0:0:0:0:
304,329,108553,2,0,L|284:256,1,67.5,2|0,0:2|0:0,0:0:0:0:
387,191,108760,6,0,L|507:209,1,84.375,6|0,0:0|0:0,0:0:0:0:
512,0,108967,2,0,L|477:105,1,84.375,2|0,0:2|0:0,0:0:0:0:
491,301,109174,2,0,B|495:268|472:210|418:179|352:194,1,168.75,10|0,0:2|0:0,0:0:0:0:
147,169,109484,1,0,0:0:0:0:
147,169,109587,2,0,B|160:123|167:108|173:58,1,84.375,2|2,0:2|0:2,0:0:0:0:
323,0,109794,2,0,B|321:46|321:61|332:104,1,84.375
378,257,110001,1,10,0:2:0:0:
308,224,110105,1,0,0:0:0:0:
239,256,110208,1,8,0:0:0:0:
177,299,110311,1,0,0:0:0:0:
100,299,110415,6,0,B|52:298|24:271|-3:222|43:155,1,168.75,6|0,0:0|0:0,0:0:0:0:
134,78,110725,1,0,0:0:0:0:
134,78,110829,2,0,B|85:82|71:88|19:89,1,84.375,10|0,0:2|0:0,0:0:0:0:
183,0,111036,2,0,L|226:113,1,84.375,10|0,0:2|0:0,0:0:0:0:
164,202,111242,6,0,L|283:166,1,84.375,2|0,0:2|0:0,0:0:0:0:
347,21,111449,2,0,B|317:60|311:72|299:111,1,84.375,8|0,0:0|0:0,0:0:0:0:
339,270,111656,1,2,0:2:0:0:
339,270,111760,1,0,0:0:0:0:
339,270,111863,2,0,B|292:288|279:296|209:308,1,84.375,2|0,0:2|0:2,0:0:0:0:
14,359,112070,6,0,B|36:323|67:306|125:310,1,84.375,6|0,0:2|0:0,0:0:0:0:
179,182,112277,2,0,B|221:183|251:201|276:253,1,84.375,2|0,0:2|0:0,0:0:0:0:
441,348,112484,2,0,B|441:281|420:240|431:173,1,168.75,8|10,0:2|0:2,0:0:0:0:
487,42,112794,1,0,0:0:0:0:
412,23,112898,1,2,0:2:0:0:
341,49,113001,1,2,0:2:0:0:
266,66,113105,2,0,B|222:65|206:62|151:52,1,84.375
0,6,113311,1,10,0:2:0:0:
0,6,113415,1,0,0:0:0:0:
0,6,113518,2,0,L|22:109,1,84.375,8|0,0:0|0:0,0:0:0:0:
110,210,113725,6,0,B|213:189|285:220|328:309,1,253.125,6|0,0:0|0:0,0:0:0:0:
458,375,114139,2,0,L|313:363,1,84.375,10|0,1:2|0:0,0:0:0:0:
86,370,114346,2,0,P|137:344|191:310,1,84.375,10|0,0:2|0:0,0:0:0:0:
305,79,114553,2,0,B|313:127|308:158|295:186,1,84.375,10|2,0:2|0:2,0:0:0:0:
110,210,114760,1,8,0:0:0:0:
44,170,114863,1,0,0:0:0:0:
22,96,114967,1,0,0:0:0:0:
63,32,115070,1,0,0:0:0:0:
136,10,115174,2,0,P|136:59|132:105,1,84.375,10|8,0:2|0:0,0:0:0:0:
187,267,115380,6,0,B|225:240|299:221|331:223,1,84.375,6|0,0:2|0:0,0:0:0:0:
436,269,115587,1,2,0:2:0:0:
436,269,115691,1,0,0:0:0:0:
436,269,115794,2,0,L|428:365,1,84.375,10|2,0:0|0:2,0:0:0:0:
248,373,116001,2,0,L|331:381,1,84.375
512,310,116208,2,0,B|522:280|521:221|489:180,1,84.375,10|2,0:0|0:2,0:0:0:0:
285,125,116415,2,0,B|289:167|281:190|268:228,1,84.375
177,73,116622,5,10,0:2:0:0:
245,39,116725,1,0,0:0:0:0:
322,42,116829,1,2,0:2:0:0:
387,80,116932,1,0,0:0:0:0:
462,94,117036,6,0,B|521:105|538:42|505:-2|470:-11|432:20,1,168.75,2|2,0:0|0:2,0:0:0:0:
285,125,117346,1,2,0:2:0:0:
285,125,117449,2,0,L|176:151,1,84.375,10|0,0:2|0:0,0:0:0:0:
40,129,117656,2,0,L|97:221,1,84.375,10|0,0:2|0:0,0:0:0:0:
201,272,117863,2,0,L|214:369,1,84.375,10|2,0:2|0:2,0:0:0:0:
20,384,118070,2,0,L|82:300,1,84.375,8|0,0:0|0:0,0:0:0:0:
318,272,118277,1,10,0:0:0:0:
318,272,118380,1,2,0:2:0:0:
318,272,118484,2,0,L|414:297,1,84.375,0|2,0:0|0:2,0:0:0:0:
401,202,118691,6,0,B|354:177|330:125|336:69|361:34,1,168.75,6|0,0:2|0:0,0:0:0:0:
484,279,119001,1,0,0:0:0:0:
484,279,119105,2,0,B|497:313|497:325|502:377,1,84.375,10|0,0:2|0:0,0:0:0:0:
449,119,119311,2,0,B|466:87|472:76|498:51,1,84.375,0|2,0:0|0:2,0:0:0:0:
288,197,119518,1,10,0:0:0:0:
288,197,119622,1,0,0:0:0:0:
288,197,119725,2,0,B|244:192|232:193|186:177,1,84.375
80,20,119932,1,10,0:2:0:0:
156,16,120036,1,0,0:0:0:0:
226,43,120139,1,8,0:0:0:0:
271,103,120242,1,0,0:0:0:0:
340,133,120346,2,0,P|380:143|514:109,1,168.75,10|0,0:0|0:0,0:0:0:0:
443,279,120656,1,2,0:2:0:0:
443,279,120760,2,0,L|435:376,1,84.375,10|0,0:2|0:0,0:0:0:0:
302,318,120967,6,0,L|173:298,1,84.375,4|0,0:2|0:0,0:0:0:0:
60,259,121174,2,0,L|189:239,1,84.375,6|0,0:2|0:0,0:0:0:0:
353,224,121380,2,0,L|274:172,1,84.375,8|0,0:0|0:0,0:0:0:0:
125,11,121587,2,0,B|73:94|184:132|199:212|109:281,1,253.125,8|0,0:0|0:0,0:0:0:0:
29,344,122001,6,0,P|53:266|48:204,1,84.375,6|0,0:0|0:0,0:0:0:0:
283,193,122208,1,2,0:2:0:0:
283,193,122311,1,0,0:0:0:0:
283,193,122415,2,0,L|394:202,1,84.375,10|0,0:2|0:0,0:0:0:0:
216,44,122622,2,0,L|197:161,1,84.375
254,278,122829,1,2,0:2:0:0:
254,278,122932,2,0,B|264:192|244:145|181:116,1,168.75,2|0,0:2|0:0,0:0:0:0:
127,363,123242,2,0,B|185:368|211:360|236:353,1,84.375,10|0,0:2|0:0,0:0:0:0:
346,247,123449,2,0,B|325:274|315:318|322:359,1,84.375,2|0,0:2|0:0,0:0:0:0:
476,361,123656,5,6,0:0:0:0:
507,287,123760,1,0,0:0:0:0:
481,208,123863,1,0,0:0:0:0:
469,127,123967,1,0,0:0:0:0:
503,54,124070,1,10,0:2:0:0:
299,189,124277,1,10,0:2:0:0:
60,136,124484,1,10,0:2:0:0:
247,315,124691,1,8,0:2:0:0:
189,20,124898,1,6,0:0:0:0:
189,20,125001,2,0,B|91:40|19:43|1:41,1,168.75,2|2,0:2|0:2,0:0:0:0:
266,107,125311,6,0,B|324:111|368:159|373:229,1,168.75,6|0,0:0|0:0,0:0:0:0:
243,370,125622,1,0,0:0:0:0:
243,370,125725,2,0,B|219:293|246:219|287:176,1,168.75,10|0,0:2|0:0,0:0:0:0:
27,122,126139,1,2,0:2:0:0:
27,122,126242,2,0,B|92:153|168:131|211:113,1,168.75,2|0,0:2|0:0,0:0:0:0:
289,115,126553,2,0,B|282:84|279:25|279:24,1,84.375,2|0,0:2|0:0,0:0:0:0:
409,191,126760,2,0,B|417:224|418:253|403:285,1,84.375,2|0,0:2|0:0,0:0:0:0:
392,60,126967,5,6,0:0:0:0:
381,141,127070,1,0,0:0:0:0:
322,198,127174,1,0,0:0:0:0:
244,224,127277,1,0,0:0:0:0:
210,295,127380,1,10,0:2:0:0:
38,80,127587,2,0,B|97:104|128:106|153:93,1,84.375,8|0,0:0|0:0,0:0:0:0:
289,39,127794,2,0,B|243:34|203:40|176:52,1,84.375,10|2,0:2|0:2,0:0:0:0:
97,263,128001,2,0,B|135:241|155:210|164:156,1,84.375,8|0,0:0|0:0,0:0:0:0:
402,43,128208,1,8,0:0:0:0:
399,127,128311,1,0,0:0:0:0:
440,199,128415,2,0,B|474:193|501:193|531:196,1,84.375,2|2,0:2|0:2,0:0:0:0:
308,72,128622,6,0,B|321:130|320:154|316:179,1,84.375,6|0,0:0|0:0,0:0:0:0:
204,353,128829,2,0,B|188:304|178:259|179:232,1,84.375
141,29,129036,2,2,B|195:119|161:224|17:243,1,253.125,10|0,0:2|0:0,0:0:0:0:
270,50,129449,2,0,L|375:42,1,84.375,2|2,0:2|0:2,0:0:0:0:
246,217,129656,2,0,L|142:224,1,84.375,8|0,0:0|0:0,0:0:0:0:
72,95,129863,2,0,B|14:132|15:226|80:240|79:240,1,168.75,8|10,0:0|0:2,0:0:0:0:
408,255,130277,6,0,B|339:250|307:269|298:282,1,84.375,6|0,0:1|0:0,0:0:0:0:
218,150,130484,2,0,B|271:154|305:144|328:135,1,84.375,2|0,0:2|0:0,0:0:0:0:
464,17,130691,2,2,B|404:83|398:161|409:256,1,253.125,10|2,0:0|0:2,0:0:0:0:
334,36,131105,2,0,L|242:56,1,84.375,2|0,0:2|0:0,0:0:0:0:
206,234,131311,2,0,L|223:127,1,84.375,2|0,0:2|0:0,0:0:0:0:
114,38,131518,1,10,0:2:0:0:
63,97,131622,1,0,0:0:0:0:
61,175,131725,1,0,0:0:0:0:
103,238,131829,1,2,0:2:0:0:
158,299,131932,6,2,B|120:338|57:347|-19:332,1,168.75,6|0,0:0|0:0,0:0:0:0:
223,229,132242,2,0,B|233:276|228:319|227:348,2,84.375,2|8|0,0:2|0:0|0:0,0:0:0:0:
267,113,132553,1,2,0:2:0:0:
267,113,132656,1,0,0:0:0:0:
267,113,132760,2,2,B|160:71|163:174|20:126,1,253.125,2|0,0:0|0:0,0:0:0:0:
93,42,133174,2,0,L|196:28,1,84.375,2|2,0:2|0:2,0:0:0:0:
226,199,133380,2,0,L|328:237,1,84.375,8|0,0:2|0:0,0:0:0:0:
418,353,133587,6,0,B|449:297|436:223|414:186,1,168.75,6|2,0:0|0:2,0:0:0:0:
259,13,133898,2,0,B|255:89|341:129|392:113,1,168.75,2|2,0:0|0:2,0:0:0:0:
134,159,134208,2,0,B|95:196|97:244|93:275,1,84.375,10|0,0:2|0:0,0:0:0:0:
106,332,134415,6,0,L|211:318,1,84.375,2|0,0:2|0:0,0:0:0:0:
328,249,134622,2,0,L|209:273,1,84.375,0|2,0:0|0:2,0:0:0:0:
225,90,134829,2,0,L|255:196,1,84.375,8|0,0:0|0:0,0:0:0:0:
433,337,135036,2,0,L|402:233,1,84.375,8|8,0:0|0:0,0:0:0:0:
478,38,135242,1,6,0:0:0:0:
256,192,135346,12,4,140208,0:0:0:0:
42,197,161725,6,0,B|50:131|166:62|262:127,1,253.125,6|0,0:0|0:0,0:0:0:0:
248,118,162139,1,10,0:2:0:0:
157,375,162346,2,0,B|165:288|151:230|134:190,2,168.75,2|0|0,0:0|0:0|0:0,0:0:0:0:
283,251,162967,1,10,0:0:0:0:
283,251,163070,1,0,0:0:0:0:
283,251,163174,2,0,L|382:270,1,84.375,8|0,0:0|0:0,0:0:0:0:
493,347,163380,6,0,B|448:266|325:255|266:357,1,253.125
234,363,163794,2,0,B|252:275|236:206|216:139,1,168.75,8|8,0:0|0:0,0:0:0:0:
29,69,164208,2,0,B|91:122|155:117|207:108,1,168.75,2|0,0:0|0:0,0:0:0:0:
465,107,164622,2,0,B|400:61|338:62|281:69,1,168.75,10|8,0:0|0:0,0:0:0:0:
76,275,165036,6,0,B|101:201|236:166|339:232|331:331,1,337.5,4|8,0:0|0:0,0:0:0:0:
173,352,165656,2,0,B|210:261|205:122|78:25,1,337.5,2|0,0:0|0:0,0:0:0:0:
53,149,166277,1,10,0:0:0:0:
53,149,166380,2,0,B|145:164|201:81|218:33,1,168.75
195,77,166691,6,0,L|306:103,1,84.375,2|0,0:2|0:0,0:0:0:0:
292,202,166898,2,0,L|379:222,2,84.375,2|0|8,0:2|0:0|0:0,0:0:0:0:
176,295,167311,1,0,0:0:0:0:
176,295,167518,2,0,B|128:217|51:190|-7:206,1,168.75,2|0,0:0|0:0,0:0:0:0:
336,89,167932,2,0,B|384:167|461:194|519:178,1,168.75,10|0,0:0|0:0,0:0:0:0:
231,187,168346,6,0,B|157:106|35:80|-33:95,1,253.125,4|0,0:0|0:0,0:0:0:0:
4,90,168760,1,8,0:0:0:0:
319,185,168967,2,0,L|341:360,2,168.75,2|0|0,0:0|0:0|0:2,0:0:0:0:
396,21,169587,2,0,L|416:170,1,84.375,10|0,0:0|0:0,0:0:0:0:
478,155,169794,2,0,L|457:247,1,84.375,8|0,0:0|0:0,0:0:0:0:
294,114,170001,5,2,0:0:0:0:
294,114,170105,1,0,0:0:0:0:
294,114,170208,1,0,0:0:0:0:
294,114,170311,1,0,0:0:0:0:
294,114,170415,1,8,0:0:0:0:
322,346,170622,1,8,0:0:0:0:
356,176,170829,2,0,B|349:264|283:295|157:308,1,253.125,2|0,0:0|0:0,0:0:0:0:
108,323,171242,2,0,B|142:227|125:125|79:42,1,253.125,10|2,0:0|0:2,0:0:0:0:
69,57,171656,6,0,B|24:149|21:235|28:276,2,168.75,2|2|8,0:0|0:2|0:0,0:0:0:0:
75,346,172277,2,0,B|140:309|158:363|254:344,1,168.75,2|2,0:0|0:2,0:0:0:0:
239,346,172587,1,0,0:0:0:0:
239,346,172691,1,0,0:0:0:0:
178,215,172898,1,10,0:0:0:0:
314,115,173105,1,8,0:0:0:0:
370,281,173311,6,0,B|443:315|532:276|508:188,1,168.75,0|2,0:2|0:2,0:0:0:0:
510,235,173622,1,0,0:0:0:0:
510,235,173725,1,8,0:0:0:0:
443,77,173932,1,0,0:0:0:0:
443,77,174139,2,0,L|279:143,1,168.75,2|2,0:0|0:2,0:0:0:0:
46,300,174553,2,0,B|97:328|116:332|166:316,1,84.375,10|0,0:0|0:0,0:0:0:0:
157,209,174760,2,0,B|204:157|212:107|207:96,1,84.375,2|0,0:2|0:0,0:0:0:0:
210,25,174967,6,0,B|360:42|241:149|311:217|423:122|454:261,1,337.5,6|10,0:0|0:2,0:0:0:0:
512,308,175587,2,0,P|463:328|421:365,1,84.375,10|0,0:0|0:0,0:0:0:0:
262,384,175794,2,0,P|292:352|318:308,1,84.375,2|0,0:0|0:0,0:0:0:0:
145,228,176001,2,0,P|173:268|208:298,1,84.375,2|0,0:0|0:0,0:0:0:0:
376,238,176208,1,10,0:0:0:0:
376,238,176311,1,0,0:0:0:0:
376,238,176415,2,0,L|363:143,1,84.375,2|0,0:0|0:0,0:0:0:0:
182,40,176622,6,0,B|237:69|264:134|241:189,1,168.75,10|2,0:0|0:2,0:0:0:0:
126,310,176932,1,2,0:0:0:0:
126,310,177036,2,0,B|139:265|144:250|146:210,1,84.375,10|0,0:2|0:0,0:0:0:0:
14,101,177242,2,2,B|34:141|81:166|136:162|197:115,1,168.75,2|0,0:0|0:0,0:0:0:0:
345,21,177553,1,0,0:0:0:0:
345,21,177656,2,0,B|375:51|389:67|396:103,1,84.375
350,208,177863,2,0,L|236:193,1,84.375,8|0,0:0|0:0,0:0:0:0:
77,234,178070,2,0,P|127:245|168:263,1,84.375,0|2,0:0|0:2,0:0:0:0:
331,330,178277,5,6,0:0:0:0:
282,272,178380,1,2,0:2:0:0:
267,197,178484,2,0,P|268:148|268:97,1,84.375,2|0,0:2|0:0,0:0:0:0:
142,0,178691,1,10,0:0:0:0:
202,45,178794,1,2,0:2:0:0:
185,119,178898,2,0,P|151:157|100:192,1,84.375,10|0,0:2|0:0,0:0:0:0:
0,314,179105,6,0,B|101:297|79:375|175:394,1,168.75,2|8,0:2|0:0,0:0:0:0:
269,360,179415,1,0,0:0:0:0:
269,360,179518,2,0,L|279:264,1,84.375,2|2,0:2|0:2,0:0:0:0:
352,156,179725,1,8,0:0:0:0:
352,156,179829,1,0,0:0:0:0:
352,156,179932,6,0,P|359:212|384:275,1,84.375,10|0,0:0|0:0,0:0:0:0:
496,334,180139,1,0,0:0:0:0:
421,321,180242,1,0,0:2:0:0:
353,355,180346,2,0,P|308:359|250:359,1,84.375,10|0,0:2|0:0,0:0:0:0:
115,277,180553,2,0,B|166:309|225:276|247:223|218:167,1,168.75,2|2,0:0|0:2,0:0:0:0:
266,43,180863,1,0,0:0:0:0:
266,43,180967,2,0,P|268:85|262:144,1,84.375,0|0,0:2|0:0,0:0:0:0:
99,197,181174,1,0,0:0:0:0:
149,140,181277,1,2,0:2:0:0:
149,64,181380,1,2,0:2:0:0:
84,23,181484,1,0,0:0:0:0:
18,61,181587,6,0,L|2:245,1,168.75,2|2,0:0|0:2,0:0:0:0:
331,163,182001,2,0,P|289:172|217:196,1,84.375,10|0,0:2|0:0,0:0:0:0:
90,290,182208,2,0,P|128:286|223:289,1,84.375,10|0,0:2|0:0,0:0:0:0:
439,320,182415,1,2,0:2:0:0:
374,359,182518,1,2,0:2:0:0:
297,357,182622,2,0,L|246:255,1,84.375
102,140,182829,1,8,0:0:0:0:
174,120,182932,1,2,0:2:0:0:
242,153,183036,2,0,L|366:186,1,84.375,10|0,0:2|0:0,0:0:0:0:
512,148,183242,6,0,B|473:149|452:159|426:181,1,84.375,2|0,0:0|0:0,0:0:0:0:
387,348,183449,2,0,B|386:323|392:301|416:270,1,84.375,2|0,0:2|0:0,0:0:0:0:
511,145,183656,2,0,B|449:166|376:153|314:103|319:14,1,253.125,10|0,0:2|0:0,0:0:0:0:
196,3,184070,1,0,0:0:0:0:
219,75,184174,1,2,0:2:0:0:
189,144,184277,2,0,L|91:169,1,84.375,10|0,0:2|0:0,0:0:0:0:
30,84,184484,2,0,L|25:179,1,84.375,10|0,0:2|0:0,0:0:0:0:
38,352,184691,2,0,B|76:338|76:338|104:355|174:340,1,84.375,10|0,0:0|0:0,0:0:0:0:
325,316,184898,6,0,B|290:249|222:227|191:255|191:255|155:265,1,168.75,2|0,0:0|0:0,0:0:0:0:
108,152,185208,2,0,B|159:138|188:180|289:116,1,168.75,10|0,0:0|0:0,0:0:0:0:
446,73,185518,2,0,B|381:92|385:149|385:149|347:208,1,168.75,10|0,0:0|0:0,0:0:0:0:
502,341,185829,2,0,B|537:299|484:209|404:239|386:285,1,168.75,10|0,0:0|0:0,0:0:0:0:
253,370,186139,2,0,B|256:325|214:344|247:228,1,84.375,10|0,0:0|0:0,0:0:0:0:
210,156,186346,2,0,L|237:57,1,84.375,2|0,0:0|0:0,0:0:0:0:
391,17,186553,5,0,0:0:0:0:
395,92,186656,1,0,0:0:0:0:
357,157,186760,1,0,0:0:0:0:
283,177,186863,1,2,0:2:0:0:
210,156,186967,1,10,0:2:0:0:
133,154,187070,1,0,0:0:0:0:
78,205,187174,1,4,0:2:0:0:
58,277,187277,1,2,0:2:0:0:
87,346,187380,6,0,B|170:407|221:301|264:225|369:263|416:356,1,337.5,6|8,0:0|0:0,0:0:0:0:
124,70,188001,2,0,L|136:194,1,84.375,2|2,0:2|0:2,0:0:0:0:
78,264,188208,6,0,B|122:190|109:89|19:13,1,253.125,6|0,0:2|0:0,0:0:0:0:
39,32,188622,1,8,0:0:0:0:
1,167,188829,1,0,0:0:0:0:
1,167,188932,1,0,0:0:0:0:
1,167,189036,1,0,0:0:0:0:
130,117,189242,1,0,0:0:0:0:
158,248,189449,2,0,B|210:303|285:302|353:279,1,168.75,10|0,0:2|0:0,0:0:0:0:
414,142,189863,1,0,0:0:0:0:
414,142,189967,1,0,0:0:0:0:
414,142,190070,1,2,0:2:0:0:
414,142,190174,1,0,0:0:0:0:
414,142,190277,6,0,B|401:217|441:258|424:333,1,168.75,8|0,0:0|0:0,0:0:0:0:
294,366,190691,2,0,B|275:262|205:225|155:233,1,168.75,2|0,0:2|0:0,0:0:0:0:
274,178,191001,2,0,L|100:221,1,168.75,2|0,0:2|0:0,0:0:0:0:
68,286,191311,2,0,B|54:199|75:120|135:79,1,168.75,2|6,0:2|0:2,0:0:0:0:
216,49,191725,5,8,0:0:0:0:
216,49,191829,1,0,0:0:0:0:
216,49,191932,1,8,0:0:0:0:
203,172,192139,1,0,0:0:0:0:
95,43,192346,2,0,B|57:115|61:174|79:212,2,168.75,2|0|8,0:2|0:0|0:0,0:0:0:0:
186,142,192967,1,0,0:0:0:0:
186,142,193070,1,0,0:0:0:0:
186,142,193174,6,0,P|232:196|239:214,1,84.375,2|0,0:2|0:0,0:0:0:0:
234,223,193380,2,0,L|349:200,1,84.375,0|2,0:0|0:0,0:0:0:0:
404,158,193587,2,0,B|369:256|392:317|396:360,1,168.75,0|2,0:0|0:2,0:0:0:0:
502,91,194001,2,0,B|445:38|313:56|281:144,1,253.125,2|0,0:2|0:0,0:0:0:0:
284,136,194415,2,0,L|296:244,1,84.375,8|2,0:0|0:2,0:0:0:0:
230,338,194622,1,2,0:2:0:0:
230,338,194725,1,0,0:0:0:0:
230,338,194829,5,6,0:2:0:0:
71,268,195036,1,0,0:0:0:0:
189,151,195242,1,10,0:2:0:0:
60,53,195449,1,0,0:0:0:0:
84,181,195656,2,0,L|281:216,1,168.75,0|8,0:0|0:0,0:0:0:0:
416,196,196070,1,10,0:2:0:0:
330,78,196277,1,2,0:2:0:0:
330,78,196380,1,0,0:0:0:0:
330,78,196484,6,0,B|343:189|337:235|329:268,2,168.75,0|0|10,0:0|0:0|0:2,0:0:0:0:
191,33,197105,1,0,0:0:0:0:
191,33,197208,1,2,0:2:0:0:
191,33,197311,1,0,0:0:0:0:
224,150,197518,1,0,0:0:0:0:
80,100,197725,1,10,0:2:0:0:
114,271,197932,1,2,0:2:0:0:
114,271,198036,1,0,0:0:0:0:
114,271,198139,6,0,B|170:251|218:264|276:302,1,168.75,6|0,0:2|0:0,0:0:0:0:
392,377,198553,2,0,B|434:302|429:200|357:113,1,253.125,8|0,0:0|0:0,0:0:0:0:
375,137,198967,1,0,0:0:0:0:
285,239,199174,1,0,0:0:0:0:
248,79,199380,2,0,L|133:60,1,84.375,8|0,0:0|0:0,0:0:0:0:
68,30,199587,2,0,L|91:146,1,84.375
195,153,199794,6,0,B|201:277|126:336|17:314,1,253.125,2|2,0:2|0:2,0:0:0:0:
20,353,200208,2,0,B|46:276|48:237|35:169,1,168.75,8|0,0:0|0:0,0:0:0:0:
134,47,200622,1,10,0:2:0:0:
155,188,200829,1,8,0:0:0:0:
335,102,201036,1,6,0:2:0:0:
335,102,201139,1,0,0:0:0:0:
335,102,201242,1,0,0:0:0:0:
335,102,201346,1,0,0:0:0:0:
335,102,201449,6,0,B|273:162|265:206|275:257,1,168.75,6|0,0:2|0:0,0:0:0:0:
364,384,201863,2,0,B|426:324|434:280|424:229,1,168.75,10|8,0:2|0:0,0:0:0:0:
476,102,202277,1,8,0:0:0:0:
374,174,202484,1,0,0:0:0:0:
295,46,202691,1,8,0:0:0:0:
328,278,202898,6,0,B|257:322|158:311|217:208|57:188|29:269,1,337.5,2|0,0:2|0:0,0:0:0:0:
115,371,203518,2,0,B|185:326|219:232|100:240|152:87|237:98,1,337.5,2|0,0:2|0:0,0:0:0:0:
356,139,204139,1,0,0:0:0:0:
254,194,204346,1,10,0:2:0:0:
252,17,204553,1,0,0:0:0:0:
252,17,204656,1,0,0:0:0:0:
252,17,204760,6,0,L|130:37,1,84.375,6|0,0:2|0:0,0:0:0:0:
85,154,204967,1,2,0:0:0:0:
79,24,205174,2,0,B|113:127|113:200|101:289,1,253.125,10|0,0:2|0:0,0:0:0:0:
102,273,205587,1,0,0:0:0:0:
243,207,205794,1,0,0:0:0:0:
243,207,205898,1,2,0:2:0:0:
243,207,206001,1,8,0:0:0:0:
264,340,206208,2,0,B|354:356|403:317|416:264,1,168.75,2|0,0:2|0:0,0:0:0:0:
429,106,206622,5,2,0:2:0:0:
429,106,206725,1,0,0:0:0:0:
429,106,206829,2,0,L|314:123,1,84.375,8|0,0:0|0:0,0:0:0:0:
240,27,207036,2,0,L|264:127,1,84.375
263,239,207242,2,0,P|192:153|109:166,1,168.75,10|0,0:2|0:0,0:0:0:0:
59,93,207553,2,0,L|67:216,1,84.375,10|0,0:2|0:0,0:0:0:0:
163,318,207760,1,0,0:0:0:0:
163,318,207863,2,0,L|79:335,1,84.375,10|0,0:2|0:0,0:0:0:0:
124,230,208070,6,0,B|242:212|336:280|330:360,1,253.125,6|0,0:2|0:0,0:0:0:0:
328,335,208484,1,8,0:0:0:0:
453,258,208691,1,8,0:0:0:0:
346,58,208898,1,0,0:0:0:0:
367,231,209105,1,0,0:0:0:0:
346,58,209311,2,0,B|264:75|214:79|159:66,1,168.75,10|0,0:2|0:0,0:0:0:0:
84,36,209622,1,0,0:0:0:0:
84,36,209725,6,0,B|102:94|101:137|95:147,1,84.375,2|0,0:2|0:0,0:0:0:0:
44,210,209932,2,0,B|35:248|38:284|52:324,1,84.375
128,379,210139,2,0,B|144:313|208:273|273:275,1,168.75,10|0,0:2|0:0,0:0:0:0:
429,147,210553,2,0,B|388:238|383:295|385:348,2,168.75,2|2|10,0:2|0:2|0:2,0:0:0:0:
341,39,211174,1,0,0:0:0:0:
341,39,211277,1,2,0:2:0:0:
341,39,211380,5,6,0:2:0:0:
280,153,211587,1,0,0:0:0:0:
104,62,211794,1,10,0:2:0:0:
227,44,212001,1,0,0:0:0:0:
108,211,212208,1,2,0:2:0:0:
108,211,212415,1,2,0:2:0:0:
39,102,212622,2,0,L|125:97,1,84.375,10|0,0:2|0:0,0:0:0:0:
222,176,212829,2,0,L|225:272,1,84.375
94,359,213036,5,2,0:2:0:0:
65,318,213139,1,0,0:0:0:0:
70,270,213242,1,0,0:0:0:0:
99,240,213346,1,6,0:2:0:0:
143,237,213449,1,10,0:2:0:0:
285,354,213656,1,2,0:2:0:0:
379,181,213863,2,0,B|396:152|406:102|403:73,1,84.375
286,17,214070,2,0,P|304:96|324:132,1,84.375,0|2,0:0|0:2,0:0:0:0:
307,269,214277,2,0,L|400:275,1,84.375,10|0,0:2|0:0,0:0:0:0:
279,179,214484,2,0,L|178:170,1,84.375,8|0,0:0|0:0,0:0:0:0:
28,90,214691,6,2,B|45:148|45:148|29:176,1,84.375,4|0,0:2|0:0,0:2:0:0:
219,179,216331,6,0,B|237:131|243:109|241:42,1,101.250003862381,6|0,0:0|0:0,0:0:0:0:
294,292,216537,2,0,B|329:316|362:327|426:330,1,101.250003862381,0|2,0:0|0:2,0:0:0:0:
504,165,216744,2,0,B|479:263|387:258|341:219,1,202.500007724762,10|2,0:2|0:2,0:0:0:0:
361,51,217055,1,0,0:0:0:0:
383,62,217158,2,0,P|398:103|415:159,1,101.250003862381,10|2,0:2|0:2,0:0:0:0:
219,179,217365,2,0,P|171:168|102:158,1,101.250003862381
0,306,217572,2,0,B|43:298|74:270|90:231,1,101.250003862381,10|0,0:2|0:0,0:0:0:0:
30,47,217779,2,0,L|40:169,1,101.250003862381,10|0,0:2|0:0,0:0:0:0:
154,303,217986,6,0,B|219:276|302:303|336:365,1,202.500007724762,14|0,0:0|0:0,0:0:0:0:
497,339,218296,1,0,0:0:0:0:
497,339,218399,2,0,P|441:331|387:314,1,101.250003862381,10|0,0:2|0:0,0:0:0:0:
229,214,218606,2,0,B|263:228|316:213|344:162,1,101.250003862381,10|0,0:2|0:0,0:0:0:0:
313,0,218813,2,0,B|270:-12|205:35|213:116|278:156,1,202.500007724762,10|10,0:2|0:2,0:0:0:0:
422,203,219124,1,0,0:0:0:0:
490,152,219227,2,0,B|507:120|506:75|448:20,1,101.250003862381,10|0,0:0|0:0,0:0:0:0:
357,118,219434,2,0,L|242:145,1,101.250003862381,0|2,0:0|0:2,0:0:0:0:
0,224,219641,6,0,P|82:239|160:282,1,101.250003862381,6|0,0:0|0:0,0:0:0:0:
194,330,219848,1,0,0:0:0:0:
194,330,219951,1,2,0:2:0:0:
194,330,220055,2,0,L|165:209,1,101.250003862381,10|0,0:2|0:0,0:0:0:0:
110,54,220262,1,0,0:0:0:0:
188,70,220365,1,0,0:0:0:0:
247,124,220468,2,0,B|292:138|312:137|351:122,1,101.250003862381,8|0,0:0|0:0,0:0:0:0:
123,152,220675,2,0,B|89:138|69:137|24:151,1,101.250003862381,2|0,0:2|0:0,0:0:0:0:
2,338,220882,2,0,B|19:296|37:279|68:261,1,101.250003862381,10|0,0:2|0:0,0:0:0:0:
278,318,221089,1,10,0:2:0:0:
230,384,221193,1,0,0:0:0:0:
196,310,221296,6,0,B|211:262|241:209|321:182|406:209,1,202.500007724762,6|2,0:0|0:2,0:0:0:0:
57,0,221710,2,0,B|68:46|76:84|71:159,1,101.250003862381,8|0,0:0|0:0,0:0:0:0:
260,202,221917,2,0,B|225:178|209:162|186:117,1,101.250003862381,10|0,0:2|0:0,0:0:0:0:
356,0,222124,2,0,P|346:108|347:206,1,202.500007724762,8|8,0:0|0:0,0:0:0:0:
415,313,222434,1,0,0:0:0:0:
415,313,222537,2,0,L|518:340,1,101.250003862381,10|0,0:0|0:0,0:0:0:0:
443,172,222744,2,0,L|324:208,1,101.250003862381,0|2,0:0|0:2,0:0:0:0:
160,299,222951,6,0,B|211:303|235:295|285:268,1,101.250003862381
351,185,223158,2,0,B|379:142|385:118|386:61,1,101.250003862381,0|2,0:0|0:2,0:0:0:0:
173,29,223365,2,0,B|233:65|260:128|259:206,1,202.500007724762,10|2,0:0|0:2,0:0:0:0:
77,245,223675,1,0,0:0:0:0:
77,245,223779,2,0,B|99:210|108:175|100:126,1,101.250003862381,10|2,0:0|0:2,0:0:0:0:
92,361,223986,2,0,L|218:391,1,101.250003862381
394,294,224193,1,10,0:2:0:0:
324,253,224296,1,0,0:0:0:0:
250,285,224399,2,0,L|132:290,1,101.250003862381,10|0,0:2|0:0,0:0:0:0:
394,294,224606,5,6,0:0:0:0:
463,251,224710,1,0,0:0:0:0:
473,171,224813,1,2,0:2:0:0:
419,109,224917,1,2,0:2:0:0:
338,103,225020,2,0,L|259:186,1,101.250003862381,8|0,0:0|0:0,0:0:0:0:
171,123,225227,6,0,L|146:-5,1,101.250003862381,10|0,0:2|0:0,0:0:0:0:
0,156,225434,2,0,L|90:202,1,101.250003862381,10|2,0:2|0:2,0:0:0:0:
107,317,225641,2,0,L|-19:407,1,101.250003862381,8|0,0:2|0:0,0:0:0:0:
185,241,225848,2,0,B|361:207|319:331|413:343|489:306,1,303.750011587143,10|2,0:0|0:2,0:0:0:0:
495,155,226262,6,0,B|454:168|432:187|409:234,1,101.250003862381,6|0,0:2|0:0,0:0:0:0:
187,357,226468,2,0,B|205:330|211:301|201:259,1,101.250003862381,0|2,0:0|0:2,0:0:0:0:
190,64,226675,2,0,B|201:142|297:183|385:135,1,202.500007724762,8|0,0:0|0:0,0:0:0:0:
400,38,226986,1,0,0:0:0:0:
400,38,227089,2,0,L|269:64,1,101.250003862381,8|2,0:0|0:2,0:0:0:0:
87,73,227296,2,0,B|109:116|117:147|119:207,1,101.250003862381,2|0,0:2|0:0,0:0:0:0:
298,297,227503,1,8,0:0:0:0:
238,242,227606,1,0,0:0:0:0:
157,233,227710,1,8,0:0:0:0:
91,280,227813,1,0,0:0:0:0:
11,298,227917,6,0,P|2:247|-2:187,1,101.250003862381,14|0,0:0|0:0,0:0:0:0:
0,102,228124,2,0,P|13:52|35:-4,1,101.250003862381,2|2,0:2|0:2,0:0:0:0:
134,151,228331,2,0,L|272:166,1,101.250003862381,8|2,0:0|0:2,0:0:0:0:
419,67,228537,1,12,0:2:0:0:
343,37,228641,1,0,0:0:0:0:
281,88,228744,2,0,B|301:128|320:154|361:184,1,101.250003862381,8|0,0:0|0:0,0:0:0:0:
442,323,228951,2,0,B|417:297|392:285|346:279,1,101.250003862381
44,208,229158,1,8,0:0:0:0:
128,194,229262,1,2,0:2:0:0:
192,249,229365,1,2,0:2:0:0:
199,330,229468,1,0,0:0:0:0:
128,373,229572,6,0,B|82:347|66:282|72:234,1,101.250003862381,6|0,0:0|0:0,0:0:0:0:
31,44,229779,2,0,B|53:84|61:117|72:188,1,101.250003862381,2|0,0:2|0:0,0:0:0:0:
222,148,229986,2,0,B|257:74|261:39|264:14,2,101.250003862381,8|2|0,0:0|0:2|0:0,0:0:0:0:
197,252,230296,1,0,0:0:0:0:
197,252,230399,1,10,0:2:0:0:
197,252,230503,2,0,B|282:234|292:301|417:291,1,202.500007724762
478,220,230813,2,0,B|410:162|378:156|342:171,1,101.250003862381,8|0,0:0|0:0,0:0:0:0:
364,377,231020,2,0,B|433:372|496:336|499:301,1,101.250003862381,10|0,0:2|0:0,0:0:0:0:
397,46,231227,6,0,B|382:137|319:200|203:185|136:83,1,303.750011587143,6|0,0:0|0:0,0:0:0:0:
107,40,231641,1,0,0:0:0:0:
32,318,231848,2,0,L|174:326,1,101.250003862381,8|0,0:0|0:0,0:0:0:0:
254,250,232055,2,0,L|115:240,1,101.250003862381,10|2,0:2|0:2,0:0:0:0:
291,158,232262,2,0,L|424:167,1,101.250003862381,8|0,0:0|0:0,0:0:0:0:
506,86,232468,2,0,L|379:78,1,101.250003862381,10|0,0:0|0:0,0:0:0:0:
230,13,232675,1,0,0:0:0:0:
177,74,232779,1,2,0:2:0:0:
214,144,232882,6,0,B|234:202|233:257|224:302,1,101.250003862381,6|0,0:0|0:0,0:0:0:0:
357,367,233089,2,0,B|350:307|366:254|396:225,1,101.250003862381,2|0,0:0|0:0,0:0:0:0:
123,194,233296,2,0,B|98:234|68:261|23:272,2,101.250003862381,10|0|0,0:2|0:0|0:0,0:0:0:0:
148,60,233606,1,0,0:0:0:0:
273,97,233710,2,0,B|334:103|386:82|422:52,2,101.250003862381,10|2|0,0:2|0:2|0:0,0:0:0:0:
148,60,234020,1,0,0:0:0:0:
204,154,234124,2,0,B|227:212|226:279|219:321,1,101.250003862381,8|0,0:0|0:0,0:0:0:0:
44,362,234331,2,0,B|37:313|45:256|72:209,1,101.250003862381,8|0,0:0|0:0,0:0:0:0:
23,43,234537,5,6,0:0:0:0:
85,95,234641,1,2,0:2:0:0:
160,61,234744,1,2,0:2:0:0:
237,23,234848,1,0,0:0:0:0:
303,74,234951,1,8,0:0:0:0:
109,338,235158,2,0,L|215:232,1,101.250003862381,10|0,0:0|0:0,0:0:0:0:
403,338,235365,2,0,L|297:232,1,101.250003862381,10|0,0:2|0:0,0:0:0:0:
403,46,235572,2,0,L|297:152,1,101.250003862381,10|0,0:2|0:0,0:0:0:0:
109,46,235779,2,0,L|215:152,1,101.250003862381,10|0,0:0|0:0,0:0:0:0:
261,299,235986,1,2,0:2:0:0:
261,299,236089,1,2,0:2:0:0:
261,299,236193,6,0,B|286:241|268:202|249:170,1,101.250003862381,6|0,0:2|0:0,0:0:0:0:
253,15,236399,2,0,B|278:72|260:111|241:143,1,101.250003862381,2|0,0:2|0:0,0:0:0:0:
160,348,236606,2,0,B|82:373|7:332|5:245,1,202.500007724762,10|0,0:0|0:0,0:0:0:0:
3,46,236917,1,0,0:2:0:0:
3,46,237020,2,0,L|130:76,1,101.250003862381,10|2,0:2|0:2,0:0:0:0:
200,235,237227,2,0,L|305:259,1,101.250003862381
484,28,237434,2,2,B|436:94|451:172|490:252,1,202.500007724762,10|0,0:0|0:0,0:0:0:0:
383,348,237744,1,2,0:2:0:0:
383,348,237848,6,0,L|253:366,1,101.250003862381,14|0,0:2|0:0,0:0:0:0:
108,329,238055,2,0,L|82:203,1,101.250003862381
194,0,238262,2,2,B|290:26|297:105|274:183,1,202.500007724762,10|8,0:0|0:0,0:0:0:0:
203,365,238572,1,0,0:0:0:0:
203,365,238675,2,0,L|68:315,1,101.250003862381,6|0,0:2|0:0,0:0:0:0:
17,210,238882,2,0,L|117:170,1,101.250003862381,8|0,0:0|0:0,0:0:0:0:
350,230,239089,2,0,L|182:311,1,101.250003862381,10|0,0:2|0:0,0:0:0:0:
29,61,239296,1,2,0:2:0:0:
29,61,239399,1,2,0:2:0:0:
29,61,239503,6,0,B|124:75|168:139|169:225,1,202.500007724762,6|0,0:0|0:0,0:0:0:0:
55,325,239813,2,0,L|61:187,1,101.250003862381,2|8,0:0|0:0,0:0:0:0:
243,103,240020,1,0,0:0:0:0:
243,103,240124,2,0,L|240:223,1,101.250003862381,2|0,0:2|0:0,0:0:0:0:
164,274,240331,1,10,0:2:0:0:
164,274,240434,2,0,B|149:184|193:105|296:87,1,202.500007724762
273,244,240744,2,0,L|409:282,1,101.250003862381,8|0,0:0|0:0,0:0:0:0:
178,8,240951,2,0,L|41:48,1,101.250003862381,2|2,0:2|0:2,0:0:0:0:
388,198,241158,6,0,B|462:136|441:35|417:-10,1,202.500007724762,6|2,0:0|0:2,0:0:0:0:
306,142,241468,2,0,L|322:262,1,101.250003862381,2|8,0:2|0:0,0:0:0:0:
202,364,241675,1,0,0:0:0:0:
202,364,241779,2,0,L|191:234,1,101.250003862381,2|2,0:2|0:2,0:0:0:0:
178,7,241986,2,0,B|205:104|200:162|198:194,1,101.250003862381,10|0,0:0|0:0,0:0:0:0:
65,340,242193,2,0,B|39:264|53:209|67:191,1,101.250003862381,8|0,0:0|0:0,0:0:0:0:
349,131,242399,1,8,0:0:0:0:
359,212,242503,1,0,0:0:0:0:
294,272,242606,2,0,L|181:262,1,101.250003862381,2|2,0:2|0:2,0:0:0:0:
384,36,242813,5,14,0:0:0:0:
256,192,242917,12,4,249434,0:0:0:0:
