osu file format v14

[General]
AudioFilename: audio.mp3
AudioLeadIn: 0
PreviewTime: 55250
Countdown: 0
SampleSet: None
StackLeniency: 0.2
Mode: 0
LetterboxInBreaks: 0
WidescreenStoryboard: 1

[Editor]
Bookmarks: 87500
DistanceSpacing: 1.6
BeatDivisor: 4
GridSize: 8
TimelineZoom: 2.7

[Metadata]
Title:to the beginning (TV-Size)
TitleUnicode:to the beginning (TV-Size)
Artist:Kalafina
ArtistUnicode:Kalafina
Creator:Sylvarus
Version:Overmapped
Source:Fate/Zero 2nd Season
Tags:Fate/Zero, Fate, Zero, 2nd season, to the beginning, kalafina, saber, anime, op
BeatmapID:1779878
BeatmapSetID:851455

[Difficulty]
HPDrainRate:5
CircleSize:3.5
OverallDifficulty:5
ApproachRate:9.3
SliderMultiplier:2
SliderTickRate:1

[Events]
//Background and Video events
0,0,"bg.jpg",0,0
//Break Periods
//Storyboard Layer 0 (Background)
//Storyboard Layer 1 (Fail)
//Storyboard Layer 2 (Pass)
//Storyboard Layer 3 (Foreground)
//Storyboard Sound Samples

[TimingPoints]
246,392.156862745098,4,2,0,100,1,0
246,-166.666666666667,4,2,0,100,0,0
6520,-100,4,2,0,100,0,0
8089,-80,4,2,0,100,0,0
33187,-133.333333333333,4,2,0,100,0,0
44167,-117.647058823529,4,2,0,100,0,0
52598,-80,4,2,0,100,0,0
55932,-66.6666666666667,4,2,0,100,0,1
85344,-500,4,2,0,100,0,0

[HitObjects]
65,100,246,6,0,P|125:87|186:101,1,119.999996337891
380,117,834,2,0,P|320:130|259:116,1,119.999996337891
315,20,1422,1,0,0:0:0:0:
315,20,1814,1,0,0:0:0:0:
217,252,2206,2,0,P|271:242|289:225,1,59.9999981689454
307,316,2598,2,0,P|348:280|355:256,1,59.9999981689454
416,326,2991,2,0,P|434:274|428:250,1,59.9999981689454
351,186,3383,5,0,0:0:0:0:
375,153,3579,1,0,0:0:0:0:
392,191,3775,1,0,0:0:0:0:
372,182,3971,2,0,P|333:194|237:183,1,119.999996337891
153,147,4559,1,0,0:0:0:0:
220,41,4951,6,0,P|140:22|82:48,1,119.999996337891
292,75,5736,2,0,P|372:94|430:68,1,119.999996337891
408,223,6520,5,0,0:0:0:0:
74,337,6814,1,0,0:0:0:0:
74,337,6912,2,0,P|64:279|69:232,1,100
111,29,7304,5,0,0:0:0:0:
166,2,7402,1,0,0:0:0:0:
225,17,7500,1,0,0:0:0:0:
260,67,7598,1,0,0:0:0:0:
254,128,7696,1,0,0:0:0:0:
247,188,7795,1,0,0:0:0:0:
282,239,7893,1,0,0:0:0:0:
342,254,7991,1,0,0:0:0:0:
397,227,8089,5,0,0:0:0:0:
336,16,8285,1,0,0:0:0:0:
199,344,8481,1,0,0:0:0:0:
46,174,8677,2,0,P|108:144|163:150,1,125
474,282,9069,2,0,P|412:312|357:306,1,125
162,149,9461,1,0,0:0:0:0:
265,215,9657,6,0,L|265:83,1,125
266,9,9951,1,0,0:0:0:0:
266,9,10049,1,0,0:0:0:0:
282,365,10246,2,0,P|353:321|398:154,1,250
181,56,10834,1,0,0:0:0:0:
390,130,11030,1,0,0:0:0:0:
96,334,11226,5,0,0:0:0:0:
52,146,11422,1,0,0:0:0:0:
97,351,11618,1,0,0:0:0:0:
163,128,11814,1,0,0:0:0:0:
98,366,12010,1,0,0:0:0:0:
296,177,12206,1,0,0:0:0:0:
52,84,12402,1,0,0:0:0:0:
250,273,12598,1,0,0:0:0:0:
52,84,12795,6,0,P|123:59|177:70,1,125
296,177,13089,1,0,0:0:0:0:
296,177,13187,2,0,P|367:202|421:191,1,125
374,28,13579,5,0,0:0:0:0:
302,357,13775,1,0,0:0:0:0:
18,6,13971,1,0,0:0:0:0:
90,335,14167,1,0,0:0:0:0:
234,13,14363,6,0,L|222:155,1,125
302,357,14657,1,0,0:0:0:0:
302,357,14755,2,0,L|312:232,1,125
331,18,15147,1,0,0:0:0:0:
439,201,15344,1,0,0:0:0:0:
243,117,15540,1,0,0:0:0:0:
452,69,15736,1,0,0:0:0:0:
139,317,15932,6,0,P|72:290|47:241,1,125
32,91,16226,1,0,0:0:0:0:
32,91,16324,2,0,P|99:118|124:167,1,125
139,317,16716,1,0,0:0:0:0:
284,246,16912,1,0,0:0:0:0:
176,209,17108,1,0,0:0:0:0:
247,354,17304,1,0,0:0:0:0:
32,91,17500,6,0,L|168:80,1,125
262,76,17795,1,0,0:0:0:0:
262,76,17893,1,0,0:0:0:0:
449,240,18089,6,0,B|450:291|450:291|420:359,1,125
92,359,18481,2,0,B|62:291|62:291|62:240,1,125
327,0,18873,6,0,B|357:68|357:68|356:128,1,125
160,220,19265,1,0,0:0:0:0:
352,152,19461,1,0,0:0:0:0:
205,76,19657,1,0,0:0:0:0:
125,374,19853,5,0,0:0:0:0:
451,153,20049,1,0,0:0:0:0:
56,139,20246,1,0,0:0:0:0:
367,382,20442,1,0,0:0:0:0:
259,3,20638,5,0,0:0:0:0:
461,28,21030,2,0,L|449:160,1,125
355,130,21422,2,0,L|366:262,1,125
461,232,21814,2,0,L|449:364,1,125
220,239,22206,5,0,0:0:0:0:
343,343,22402,1,0,0:0:0:0:
372,185,22598,2,0,P|341:114|282:70,1,125
271,159,22991,2,0,P|194:150|126:179,1,125
44,301,23383,1,0,0:0:0:0:
67,101,23579,1,0,0:0:0:0:
220,239,23775,6,0,B|337:250|337:250|481:231,1,250
386,71,24363,1,0,0:0:0:0:
442,160,24559,1,0,0:0:0:0:
337,164,24755,1,0,0:0:0:0:
391,71,24951,1,0,0:0:0:0:
439,164,25147,1,0,0:0:0:0:
334,159,25344,6,0,L|200:158,1,125
223,54,25736,2,0,L|106:120,1,125
101,252,26128,1,0,0:0:0:0:
30,59,26324,1,0,0:0:0:0:
293,181,26520,1,0,0:0:0:0:
82,255,26716,1,0,0:0:0:0:
302,297,26912,6,0,P|403:250|391:111,1,250
263,42,27500,1,0,0:0:0:0:
390,35,27696,1,0,0:0:0:0:
270,169,27893,1,0,0:0:0:0:
397,162,28089,1,0,0:0:0:0:
167,107,28285,1,0,0:0:0:0:
6,278,28481,6,0,P|112:341|235:334,1,250
340,226,29069,1,0,0:0:0:0:
443,255,29265,2,0,L|431:389,1,125
232,129,29657,1,0,0:0:0:0:
280,319,29853,1,0,0:0:0:0:
417,152,30049,6,0,B|423:58|440:22|440:22|374:51|302:43,1,250
108,21,30638,1,0,0:0:0:0:
197,119,30834,2,0,P|198:206|182:254,1,125
65,373,31226,1,0,0:0:0:0:
163,284,31422,2,0,P|250:283|298:299,1,125
512,326,31814,1,0,0:0:0:0:
512,326,32010,2,0,P|451:340|389:335,1,125
285,293,32304,1,0,0:0:0:0:
285,293,32402,5,0,0:0:0:0:
408,170,32598,1,0,0:0:0:0:
363,2,32795,1,0,0:0:0:0:
240,124,32991,1,0,0:0:0:0:
99,18,33187,6,0,P|73:76|76:168,1,150.000005722046
145,306,33775,1,0,0:0:0:0:
145,306,33971,2,0,P|160:253|155:219,1,75.0000028610231
249,237,34363,2,0,P|235:183|214:156,1,75.0000028610231
148,80,34755,6,0,P|197:39|286:18,1,150.000005722046
438,49,35343,1,0,0:0:0:0:
438,49,35539,2,0,P|390:77|356:81,1,75.0000028610231
398,168,35931,2,0,P|342:168|311:155,1,75.0000028610231
143,245,36324,6,0,B|172:336|172:336|251:311,1,150.000005722046
294,193,36912,1,0,0:0:0:0:
294,193,37108,2,0,L|223:221,1,75.0000028610231
212,99,37500,2,0,L|164:158,1,75.0000028610231
236,17,37893,6,0,B|327:46|327:46|302:124,1,150.000005722046
184,168,38481,1,0,0:0:0:0:
184,168,38677,2,0,L|212:97,1,75.0000028610231
90,86,39069,2,0,L|149:38,1,75.0000028610231
79,180,39461,6,0,P|71:243|102:340,1,150.000005722046
195,355,40049,2,0,B|264:327|264:327|342:355,1,150.000005722046
448,374,40638,2,0,P|450:340|468:357,1,75.0000028610231
467,235,41030,5,0,0:0:0:0:
467,235,41226,1,0,0:0:0:0:
467,235,41422,2,0,P|420:222|377:231,1,75.0000028610231
356,151,41814,2,0,P|321:185|307:226,1,75.0000028610231
227,205,42206,2,0,P|239:252|268:284,1,75.0000028610231
251,124,42598,6,0,P|190:127|136:204,1,150.000005722046
120,350,43187,1,0,0:0:0:0:
120,350,43383,2,0,P|139:303|131:267,1,75.0000028610231
39,226,43775,2,0,P|20:179|28:143,1,75.0000028610231
62,31,44167,6,0,L|165:41,1,85.0000016212464
275,88,44559,2,0,L|359:79,1,85.0000016212464
92,63,44951,2,0,L|195:73,1,85.0000016212464
304,119,45343,2,0,L|388:110,1,85.0000016212464
499,164,45736,6,0,P|473:225|393:297,1,170.000003242493
281,347,46324,2,0,B|246:261|246:261|281:164,1,170.000003242493
304,119,46913,2,0,P|338:116|321:99,1,75.0000028610231
211,22,47304,5,0,0:0:0:0:
211,22,47500,1,0,0:0:0:0:
211,22,47696,2,0,P|176:56|162:97,1,85.0000016212464
82,76,48088,2,0,P|94:123|123:155,1,85.0000016212464
65,214,48480,2,0,P|112:226|155:217,1,85.0000016212464
282,140,48873,6,0,L|268:310,1,170.000003242493
385,371,49461,2,0,L|372:202,1,170.000003242493
399,48,50049,2,0,P|354:61|311:51,1,85.0000016212464
200,23,50442,5,0,0:0:0:0:
200,23,50638,1,0,0:0:0:0:
200,23,50834,1,0,0:0:0:0:
200,23,51030,2,0,P|142:61|97:158,1,170.000003242493
248,201,51618,1,0,0:0:0:0:
248,201,51814,1,0,0:0:0:0:
234,92,52010,5,0,0:0:0:0:
360,247,52206,1,0,0:0:0:0:
163,279,52402,1,0,0:0:0:0:
174,23,52598,6,0,P|265:7|311:28,1,125
260,309,52991,1,0,0:0:0:0:
134,154,53187,1,0,0:0:0:0:
330,122,53383,6,0,L|461:88,1,125
174,23,53775,1,0,0:0:0:0:
60,187,53971,1,0,0:0:0:0:
259,203,54167,6,0,L|392:225,1,125
25,54,54559,5,0,0:0:0:0:
484,366,54755,1,0,0:0:0:0:
196,0,55147,5,0,0:0:0:0:
191,46,55245,1,0,0:0:0:0:
187,93,55343,1,0,0:0:0:0:
183,140,55441,1,0,0:0:0:0:
179,186,55539,1,0,0:0:0:0:
174,233,55637,1,0,0:0:0:0:
170,280,55735,1,0,0:0:0:0:
166,326,55833,1,0,0:0:0:0:
162,373,55932,6,0,B|320:381|320:381|468:357,1,300.000011444092
236,134,56520,1,0,0:0:0:0:
448,122,56716,1,0,0:0:0:0:
307,281,56912,1,0,0:0:0:0:
350,73,57108,2,0,P|284:20|205:17,1,150.000005722046
136,232,57500,5,0,0:0:0:0:
77,139,57696,1,0,0:0:0:0:
80,322,57893,5,0,0:0:0:0:
359,384,58089,1,0,0:0:0:0:
71,322,58285,5,0,0:0:0:0:
397,218,58481,1,0,0:0:0:0:
60,323,58677,5,0,0:0:0:0:
336,18,58873,1,0,0:0:0:0:
47,323,59069,6,0,B|79:228|79:228|212:63,1,300.000011444092
293,357,59657,1,0,0:0:0:0:
205,243,59853,5,0,0:0:0:0:
421,252,60049,1,0,0:0:0:0:
52,132,60245,5,0,0:0:0:0:
152,323,60441,1,0,0:0:0:0:
52,38,60638,5,0,0:0:0:0:
437,85,60834,1,0,0:0:0:0:
52,132,61030,1,0,0:0:0:0:
437,179,61226,1,0,0:0:0:0:
208,29,61422,5,0,0:0:0:0:
166,360,61618,1,0,0:0:0:0:
336,153,61814,2,0,P|353:74|335:4,1,150.000005722046
76,48,62206,6,0,B|69:135|43:206|43:206|75:273|69:352,1,300.000011444092
247,200,62795,1,0,0:0:0:0:
312,355,62991,1,0,0:0:0:0:
349,70,63187,1,0,0:0:0:0:
414,222,63383,1,0,0:0:0:0:
225,90,63579,1,0,0:0:0:0:
145,334,63775,5,0,0:0:0:0:
0,252,63971,1,0,0:0:0:0:
286,168,64167,1,0,0:0:0:0:
36,68,64363,1,0,0:0:0:0:
371,16,64559,6,0,P|453:18|486:93,1,150.000005722046
397,286,64951,2,0,P|439:356|521:347,1,150.000005722046
301,165,65344,6,0,B|207:155|119:191|119:191|27:220|-5:135,1,300.000011444092
297,23,65932,1,0,0:0:0:0:
0,143,66128,5,0,0:0:0:0:
311,16,66324,1,0,0:0:0:0:
211,253,66520,5,0,0:0:0:0:
455,181,66716,1,0,0:0:0:0:
455,181,66912,6,0,P|370:134|292:136,1,150.000005722046
0,143,67304,2,0,P|85:190|163:188,1,150.000005722046
302,44,67696,5,0,0:0:0:0:
256,223,67893,1,0,0:0:0:0:
91,99,68089,5,0,0:0:0:0:
137,278,68286,1,0,0:0:0:0:
243,120,68481,6,0,P|333:114|505:247,1,300.000011444092
243,351,69069,1,0,0:0:0:0:
243,120,69265,1,0,0:0:0:0:
107,306,69461,1,0,0:0:0:0:
326,235,69657,1,0,0:0:0:0:
107,164,69853,1,0,0:0:0:0:
407,314,70049,2,0,P|430:224|410:159,1,150.000005722046
70,355,70442,5,0,0:0:0:0:
75,27,70638,1,0,0:0:0:0:
403,32,70834,1,0,0:0:0:0:
398,360,71030,1,0,0:0:0:0:
64,16,71226,5,0,0:0:0:0:
408,370,71422,1,0,0:0:0:0:
54,7,71618,6,0,P|39:103|46:312,1,300.000011444092
292,361,72206,1,0,0:0:0:0:
194,226,72402,5,0,0:0:0:0:
209,323,72598,1,0,0:0:0:0:
276,170,72794,5,0,0:0:0:0:
370,211,72991,1,0,0:0:0:0:
272,76,73187,5,0,0:0:0:0:
46,229,73383,1,0,0:0:0:0:
272,88,73579,5,0,0:0:0:0:
498,241,73775,1,0,0:0:0:0:
260,334,73971,5,0,0:0:0:0:
462,34,74167,1,0,0:0:0:0:
108,104,74363,2,0,B|98:190|98:190|101:264,1,150.000005722046
383,357,74755,6,0,B|388:273|412:206|412:206|390:119|392:47,1,300.000011444092
108,104,75344,1,0,0:0:0:0:
278,89,75540,5,0,0:0:0:0:
197,237,75736,1,0,0:0:0:0:
367,71,75932,5,0,0:0:0:0:
221,157,76128,1,0,0:0:0:0:
453,99,76324,5,0,0:0:0:0:
283,101,76520,1,0,0:0:0:0:
348,317,76716,5,0,0:0:0:0:
367,60,76912,1,0,0:0:0:0:
489,218,77108,5,0,0:0:0:0:
44,332,77304,1,0,0:0:0:0:
445,298,77500,5,0,0:0:0:0:
0,184,77696,1,0,0:0:0:0:
405,159,77893,6,0,P|390:65|192:32,1,300.000011444092
134,115,78481,1,0,0:0:0:0:
110,288,78677,5,0,0:0:0:0:
272,223,78873,1,0,0:0:0:0:
121,105,79069,1,0,0:0:0:0:
284,232,79265,1,0,0:0:0:0:
15,238,79461,6,0,P|6:331|40:389,1,150.000005722046
481,379,79853,2,0,P|509:310|497:238,1,150.000005722046
59,76,80245,1,0,0:0:0:0:
287,15,80442,1,0,0:0:0:0:
201,337,80638,1,0,0:0:0:0:
429,276,80834,1,0,0:0:0:0:
135,185,81030,6,0,B|-42:193|-42:193|116:210,1,300.000011444092
393,244,81618,1,0,0:0:0:0:
220,45,81814,1,0,0:0:0:0:
243,308,82010,1,0,0:0:0:0:
378,81,82206,1,0,0:0:0:0:
267,188,82402,1,0,0:0:0:0:
57,43,82598,5,0,0:0:0:0:
94,351,82795,1,0,0:0:0:0:
199,32,82991,5,0,0:0:0:0:
209,342,83188,1,0,0:0:0:0:
341,33,83382,5,0,0:0:0:0:
324,343,83579,1,0,0:0:0:0:
131,159,83775,1,0,0:0:0:0:
320,220,83971,1,0,0:0:0:0:
28,20,84167,5,0,0:0:0:0:
497,188,84363,1,0,0:0:0:0:
28,364,84559,1,0,0:0:0:0:
381,151,84755,2,0,P|384:65|349:-4,1,150.000005722046
2,171,85147,1,0,0:0:0:0:
431,363,85344,6,0,P|499:358|424:333,1,200
