osu file format v14

[General]
AudioFilename: audio.mp3
AudioLeadIn: 0
PreviewTime: 55251
Countdown: 1
SampleSet: None
StackLeniency: 0.7
Mode: 0
LetterboxInBreaks: 0
WidescreenStoryboard: 0

[Editor]
Bookmarks: 84271,84467,84663,84859,85251,85447
DistanceSpacing: 1
BeatDivisor: 4
GridSize: 4
TimelineZoom: 1

[Metadata]
Title:to the beginning
TitleUnicode:to the beginning
Artist:Kalafina
ArtistUnicode:Kalafina
Creator:Animechan2001
Version:Hard
Source:Fate/Zero
Tags:
BeatmapID:1942304
BeatmapSetID:930021

[Difficulty]
HPDrainRate:5
CircleSize:4
OverallDifficulty:5
ApproachRate:7
SliderMultiplier:1.6
SliderTickRate:1

[Events]
//Background and Video events
0,0,"124186-download-saber-wallpaper-1920x1080-samsung-galaxy.jpg",0,0
//Break Periods
//Storyboard Layer 0 (Background)
//Storyboard Layer 1 (Fail)
//Storyboard Layer 2 (Pass)
//Storyboard Layer 3 (Foreground)
//Storyboard Sound Samples

[TimingPoints]
349,392.160852309695,4,1,0,100,1,0
4662,-200,4,1,0,100,0,0
6623,-100,4,1,0,100,0,0
52114,-100,4,1,0,100,0,1
55251,-100,4,1,0,100,0,0
56035,-100,4,1,0,100,0,1
85447,-250,4,1,0,100,0,1

[Colours]
Combo1 : 116,68,196
Combo2 : 232,209,85
Combo3 : 82,142,209
Combo4 : 102,176,91

[HitObjects]
146,83,349,6,0,B|90:149|197:171|143:239,1,160,2|0,2:0|0:0,0:0:0:0:
219,282,937,1,0,2:0:0:0:
298,243,1133,2,0,L|395:193,2,80,0|0|0,2:0|2:0|2:0,2:0:0:0:
243,173,1721,1,0,2:0:0:0:
304,110,1917,2,0,P|229:80|157:146,1,160,0|0,2:0|2:0,2:0:0:0:
56,145,2701,6,0,L|82:305,1,160,0|0,2:0|2:0,2:0:0:0:
211,208,3486,6,0,B|286:226|324:188|324:188|364:188|365:188|398:121|398:121|428:148,2,240,2|2|2,2:0|2:0|2:0,2:0:0:0:
167,132,5054,2,0,B|120:173|108:215|109:280|186:334,1,240,0|0,2:0|2:0,2:0:0:0:
257,190,6623,5,0,0:0:0:0:
323,234,6819,2,0,L|365:310,1,80
409,240,7211,2,0,L|359:150,1,80
352,92,7603,1,0,0:0:0:0:
277,61,7800,5,0,0:0:0:0:
207,100,7996,5,0,0:0:0:0:
193,178,8192,6,0,P|195:238|115:302,1,160
113,221,8780,2,0,P|56:254|68:364,1,160
117,298,9368,1,0,0:0:0:0:
187,260,9564,6,0,P|252:282|325:229,1,160
322,233,10153,1,0,0:0:0:0:
242,201,10349,1,0,0:0:0:0:
307,154,10545,6,0,L|397:88,2,80
237,113,11133,1,0,0:0:0:0:
157,104,11329,6,0,P|100:113|58:223,1,160
132,190,11917,2,0,P|123:263|45:288,1,160
48,368,12505,1,0,0:0:0:0:
127,355,12702,6,0,P|221:344|257:285,1,160
175,280,13290,1,0,0:0:0:0:
222,216,13486,6,0,L|332:195,2,80
148,183,14074,1,0,0:0:0:0:
146,184,14270,1,0,0:0:0:0:
66,175,14466,6,0,P|103:107|194:105,1,160,2|0,0:2|0:0,0:0:0:0:
240,150,15055,2,0,P|317:141|358:44,1,160
388,95,15643,1,0,0:0:0:0:
442,212,15839,1,0,0:0:0:0:
458,290,16035,2,0,L|465:372,2,80
379,275,16623,2,0,P|297:269|231:329,1,160
161,335,17211,1,0,0:0:0:0:
89,300,17407,1,0,0:0:0:0:
128,230,17604,6,0,P|157:176|201:166,1,80,2|0,0:2|0:0,0:0:0:0:
264,161,17996,2,0,P|255:211|217:235,1,80
284,291,18388,1,0,0:0:0:0:
352,249,18584,2,0,P|395:195|494:191,1,160
470,106,19172,1,0,0:0:0:0:
401,64,19368,1,0,0:0:0:0:
335,109,19564,6,0,P|278:146|174:135,1,160
246,352,20741,6,0,P|214:284|245:200,1,160
300,278,21329,1,0,0:0:0:0:
300,278,21427,1,0,0:0:0:0:
300,278,21525,2,0,P|339:196|285:114,1,160
228,120,22113,1,0,0:0:0:0:
286,64,22310,6,0,P|379:38|447:50,2,160
344,118,23290,1,0,0:0:0:0:
400,174,23486,2,0,L|417:271,1,80,0|12,0:0|3:3,0:0:0:0:
341,286,23878,2,0,L|328:196,1,80
175,164,24466,1,0,0:0:0:0:
175,164,24662,6,0,P|121:212|136:304,1,160
231,322,25251,2,0,B|283:307|325:277|325:277|352:292|352:292|373:306,1,160
452,299,25839,1,0,0:0:0:0:
343,181,26231,5,2,1:0:0:0:
211,89,26623,5,2,1:0:0:0:
64,152,27015,6,0,P|74:191|40:321,1,160
141,292,27604,2,0,P|201:257|292:268,1,160
334,201,28192,1,0,0:0:0:0:
408,59,28584,5,0,0:0:0:0:
474,123,28780,1,0,0:0:0:0:
474,123,28976,2,0,L|476:216,1,80
420,260,29368,5,0,0:0:0:0:
420,260,29564,1,0,0:0:0:0:
373,324,29761,2,0,P|325:313|272:334,1,80
227,362,30153,2,0,P|206:318|245:218,1,160
182,167,30741,5,0,0:0:0:0:
107,166,30937,2,0,B|126:106|126:106|192:94|234:66,1,160
275,130,31525,1,0,0:0:0:0:
275,130,31623,1,0,0:0:0:0:
275,130,31721,2,0,P|306:168|426:136,1,160
443,231,32310,5,2,0:0:0:0:
404,301,32506,1,2,0:0:0:0:
331,266,32702,1,2,0:0:0:0:
276,324,32898,5,0,0:0:0:0:
276,324,33094,1,0,0:0:0:0:
276,324,33290,2,0,P|215:297|129:346,2,160
320,257,34270,1,0,0:0:0:0:
318,157,34466,1,12,0:3:0:0:
318,157,34859,6,0,P|346:98|277:29,1,160
233,85,35447,1,0,0:0:0:0:
186,150,35643,6,0,L|152:256,2,80
90,262,36427,5,0,0:0:0:0:
231,337,36819,1,0,0:0:0:0:
231,337,37016,6,0,P|310:282|375:291,1,160
432,239,37604,1,12,0:3:0:0:
369,189,37800,1,0,0:0:0:0:
440,152,37996,6,0,B|397:104|397:104|323:120|286:64,1,160
269,158,38584,1,0,0:0:0:0:
91,250,38976,6,12,L|92:349,1,80,12|12,0:3|0:3,0:3:0:0:
163,365,39369,1,0,0:0:0:0:
219,308,39565,6,0,B|255:242|305:369|365:269,1,160
420,329,40153,1,0,0:0:0:0:
253,157,40741,6,0,L|178:87,2,80
340,183,41525,2,0,P|430:160|488:210,2,160
194,251,42702,6,12,P|144:258|78:160,1,160,12|12,0:3|0:3,0:3:0:0:
156,169,43290,1,0,0:0:0:0:
156,169,43486,2,0,B|203:133|234:133|234:133|277:180|328:157,1,160
456,154,44271,5,0,0:0:0:0:
321,240,44663,1,0,0:0:0:0:
152,251,45055,5,0,0:0:0:0:
284,340,45447,1,0,0:0:0:0:
400,230,45839,6,0,P|430:157|388:95,1,160,12|0,0:3|0:0,0:0:0:0:
345,162,46427,1,0,0:0:0:0:
345,162,46623,2,0,B|303:137|303:137|285:171|199:164,1,160
90,48,47408,6,0,P|64:101|104:198,1,160,12|0,0:3|0:0,0:0:0:0:
40,249,47996,1,0,0:0:0:0:
273,194,48584,5,0,0:0:0:0:
375,316,48976,6,0,P|419:277|394:160,1,160,12|0,0:3|0:0,0:0:0:0:
347,225,49565,1,0,0:0:0:0:
229,113,49957,1,0,0:0:0:0:
229,113,50153,2,0,P|151:91|80:132,1,160
53,35,50937,5,0,0:0:0:0:
53,35,51133,1,0,0:0:0:0:
70,274,51722,5,12,0:3:0:0:
228,256,52114,6,14,L|223:164,1,80,14|14,0:3|0:3,0:3:0:0:
291,133,52506,1,14,0:3:0:0:
354,181,52702,2,14,P|412:157|392:60,1,160,14|14,0:3|0:3,0:3:0:0:
167,53,53486,6,14,L|145:230,1,160,14|14,0:3|0:3,0:3:0:0:
79,255,54075,1,14,0:3:0:0:
227,314,54271,2,14,B|274:289|274:289|299:322|341:340|374:293,1,160,14|14,0:3|0:3,0:3:0:0:
436,268,54859,1,14,0:3:0:0:
332,146,55251,6,0,L|318:80,7,40,12|0|12|0|12|0|12|0,0:3|0:0|0:3|0:0|0:3|0:0|0:3|0:0,0:0:0:0:
287,90,56035,6,0,P|246:130|142:116,1,160
133,222,56624,1,0,0:0:0:0:
133,222,56820,2,0,P|199:243|213:328,1,160
293,337,57408,1,0,0:0:0:0:
367,308,57604,6,0,L|401:147,1,160
345,92,58192,1,0,0:0:0:0:
285,145,58388,1,0,0:0:0:0:
285,145,58584,1,0,0:0:0:0:
222,94,58780,6,0,P|180:126|175:228,1,160
96,247,59369,1,0,0:0:0:0:
134,317,59565,2,0,B|203:400|205:277|299:350,1,160
331,277,60153,1,0,0:0:0:0:
405,305,60349,2,0,P|440:197|406:131,1,160
359,202,60937,6,2,L|277:183,1,80
223,128,61330,1,2,0:0:0:0:
168,186,61526,6,0,P|103:248|39:222,1,160
68,151,62114,1,0,0:0:0:0:
68,151,62310,2,0,P|113:83|197:82,1,160
256,115,62898,1,0,0:0:0:0:
328,82,63094,2,0,B|372:133|290:168|345:231,1,160
398,290,63682,1,0,0:0:0:0:
332,337,63879,2,0,B|268:353|267:353|210:320|210:320|160:350,1,160
111,369,64467,1,0,0:0:0:0:
83,293,64663,6,0,P|58:215|93:144,2,160
138,235,65643,1,0,0:0:0:0:
138,235,65839,2,0,B|170:196|170:196|195:229|275:218,1,160
314,287,66428,1,0,0:0:0:0:
372,232,66624,6,0,P|406:163|345:90,1,160
296,138,67212,1,0,0:0:0:0:
251,204,67408,2,0,P|207:240|90:216,1,160
74,303,67996,1,0,0:0:0:0:
144,340,68192,2,0,L|321:334,1,160,0|4,0:0|0:3,0:0:0:0:
365,282,68781,5,0,0:0:0:0:
431,237,68977,2,0,P|448:159|374:79,1,160,4|0,0:1|0:0,0:0:0:0:
328,70,69565,1,0,0:0:0:0:
356,156,69761,2,0,B|277:146|277:146|201:206,2,160
337,233,70741,1,0,0:0:0:0:
305,306,70937,2,0,P|246:337|129:310,1,160
88,282,71526,1,0,0:0:0:0:
142,223,71722,6,0,P|199:213|239:99,2,160
175,295,72702,2,0,B|209:351|247:268|342:321,1,160
400,287,73290,1,0,0:0:0:0:
473,255,73486,2,0,L|463:151,1,80
273,65,74075,6,0,P|236:133|137:143,1,160
80,144,74663,1,0,0:0:0:0:
108,218,74859,6,0,P|109:286|203:323,2,160
182,246,75839,1,0,0:0:0:0:
250,204,76036,2,0,B|338:280|344:164|415:233,1,160
454,273,76624,1,0,0:0:0:0:
482,198,76820,2,0,L|484:94,1,80
247,76,77212,5,0,0:0:0:0:
247,76,77604,6,0,P|223:128|119:147,1,160
92,221,78192,1,0,0:0:0:0:
164,254,78389,2,0,P|237:258|290:329,1,160
368,315,78977,1,0,0:0:0:0:
368,315,79173,1,0,0:0:0:0:
345,184,79565,6,0,P|297:229|235:168,2,160
421,173,80545,1,0,0:0:0:0:
458,102,80741,6,0,P|405:80|295:114,1,160
228,90,81330,1,0,0:0:0:0:
152,115,81526,2,0,B|77:168|212:193|104:283,1,160
188,311,82114,1,0,0:0:0:0:
188,311,82310,1,0,0:0:0:0:
338,258,82702,6,0,P|412:209|414:116,1,160
370,82,83291,1,0,0:0:0:0:
305,128,83487,2,0,B|217:162|175:144|175:144|157:173|157:173,1,160
295,252,84271,6,0,L|368:297,1,80
464,258,84663,2,0,L|377:209,1,80
383,73,85251,1,0,0:0:0:0:
383,73,85447,2,0,B|271:-8|271:240|73:138|66:91,1,352
