osu file format v14

[General]
AudioFilename: ring your bell.mp3
AudioLeadIn: 0
PreviewTime: 51374
Countdown: 0
SampleSet: Soft
StackLeniency: 0.7
Mode: 0
LetterboxInBreaks: 0
WidescreenStoryboard: 1

[Editor]
DistanceSpacing: 0.85
BeatDivisor: 8
GridSize: 4
TimelineZoom: 0.9

[Metadata]
Title:ring your bell ~TV size~
TitleUnicode:ring your bell ~TV size~
Artist:Kalafina
ArtistUnicode:Kalafina
Creator:IamKwaN
Version:Normal
Source:Fate/stay night [Unlimited Blade Works]
Tags:ending second 梶浦由記 Kajiura Yuki 大滝若菜 Otaki Wakana 窪田啓子 Kubota Keiko 政井光 Masai Hikaru
BeatmapID:928422
BeatmapSetID:424092

[Difficulty]
HPDrainRate:4
CircleSize:3.5
OverallDifficulty:4
ApproachRate:4.5
SliderMultiplier:2
SliderTickRate:2

[Events]
//Background and Video events
0,0,"BG.jpg",0,0
Video,-893,"Video.avi"
//Break Periods
//Storyboard Layer 0 (Background)
//Storyboard Layer 1 (Fail)
//Storyboard Layer 2 (Pass)
//Storyboard Layer 3 (Foreground)
//Storyboard Sound Samples

[TimingPoints]
482,714.285714285714,4,2,1,35,1,0
482,-125,4,2,1,35,0,0
5124,-125,4,2,1,30,0,0
5481,-125,4,2,1,40,0,0
5839,-125,4,2,1,30,0,0
6196,-111.111111111111,4,2,1,40,0,0
31553,-111.111111111111,4,2,1,30,0,0
31910,-111.111111111111,4,2,1,40,0,0
31999,-111.111111111111,4,2,1,50,0,0
51910,-100,4,2,1,60,0,1
57624,-100,4,2,1,50,0,1
57714,-100,4,2,1,60,0,1
63339,-100,4,2,1,50,0,1
63428,-100,4,2,1,60,0,1
69053,-100,4,2,1,50,0,1
69142,-100,4,2,1,60,0,1
71910,-100,4,2,1,50,0,1
71999,-100,4,2,1,60,0,1
83339,-100,4,2,1,60,0,0
84767,-100,4,2,1,70,0,0
86196,-100,4,2,1,20,0,0

[Colours]
Combo1 : 94,172,255
Combo2 : 253,40,44
Combo3 : 85,243,243
Combo4 : 193,186,204

[HitObjects]
325,105,482,6,0,B|292:82|254:70|254:70|213:71|176:84,1,160,2|0,0:1|0:0,0:0:0:0:
96,114,1553,1,0,0:0:0:0:
46,181,1910,2,0,L|50:262,1,80,4|0,0:1|0:0,0:0:0:0:
111,318,2624,6,0,P|219:317|232:205,1,240,4|2,0:1|0:3,0:0:0:0:
163,253,4053,2,0,P|282:254|402:251,1,240,8|2,0:1|0:3,0:0:0:0:
485,238,5481,2,0,P|471:202|438:178,1,80,8|2,0:1|0:3,0:0:0:0:
402,251,6196,6,0,L|397:341,1,89.9999972534181,4|4,0:0|0:3,0:0:0:0:
312,338,6910,2,0,P|313:293|298:249,1,89.9999972534181,4|4,0:3|0:3,0:0:0:0:
213,250,7624,2,0,P|198:293|200:338,1,89.9999972534181,4|4,0:3|0:3,0:0:0:0:
115,341,8339,2,0,L|110:251,1,89.9999972534181,4|4,0:3|0:3,0:0:0:0:
127,167,9053,6,0,P|83:168|45:198,2,89.9999972534181,4|4|0,0:0|0:3|3:0,0:0:0:0:
207,196,10124,1,4,0:3:0:0:
286,225,10481,2,0,P|330:224|368:194,2,89.9999972534181,4|4|4,0:3|0:3|0:3,0:0:0:0:
207,196,11553,1,4,0:3:0:0:
156,264,11910,6,0,L|149:354,1,89.9999972534181,4|4,0:3|0:3,0:0:0:0:
232,370,12624,2,0,P|276:367|309:336,1,89.9999972534181,4|4,0:3|0:3,0:0:0:0:
336,256,13339,2,0,L|329:166,1,89.9999972534181,4|4,0:3|0:3,0:0:0:0:
412,150,14053,2,0,P|456:153|489:184,1,89.9999972534181,4|4,0:3|0:3,0:0:0:0:
484,268,14767,6,0,L|477:358,2,89.9999972534181,4|4|0,0:3|0:3|3:0,0:0:0:0:
488,183,15839,1,4,0:3:0:0:
409,150,16196,2,0,P|365:152|326:128,1,89.9999972534181,4|4,0:3|0:3,0:0:0:0:
340,44,16910,2,0,P|296:46|259:75,1,89.9999972534181,4|4,0:3|0:3,0:0:0:0:
202,135,17624,6,0,L|207:317,1,179.999994506836,4|4,0:3|0:3,0:0:0:0:
151,380,18696,1,4,0:3:0:0:
81,332,19053,2,0,B|52:304|52:304|47:275|51:248,1,89.9999972534181,4|4,0:3|0:3,0:0:0:0:
86,177,19767,1,4,0:3:0:0:
86,177,20124,1,4,0:3:0:0:
166,148,20481,6,0,B|256:138|256:138|346:148,1,179.999994506836,4|0,0:3|3:0,0:0:0:0:
426,177,21553,1,4,0:3:0:0:
468,251,21910,2,0,B|485:287|485:287|480:316|467:340,1,89.9999972534181,4|4,0:3|0:3,0:0:0:0:
390,367,22624,1,4,0:3:0:0:
390,367,22981,1,4,0:3:0:0:
345,293,23339,6,0,B|256:283|256:283|166:293,1,179.999994506836,4|0,0:3|3:0,0:0:0:0:
122,367,24410,1,4,0:3:0:0:
50,320,24767,2,0,P|52:276|62:230,1,89.9999972534181,4|4,0:3|0:3,0:0:0:0:
126,175,25481,2,0,P|124:131|113:85,1,89.9999972534181,4|4,0:3|0:3,0:0:0:0:
38,45,26196,6,0,L|217:39,1,179.999994506836,4|0,0:0|3:0,0:0:0:0:
299,12,27267,1,4,0:3:0:0:
375,50,27624,2,0,P|425:117|398:203,1,179.999994506836,4|4,0:3|0:3,0:0:0:0:
329,253,28696,1,4,0:3:0:0:
244,238,29053,6,0,P|200:238|154:232,1,89.9999972534181,4|4,0:3|0:3,0:0:0:0:
149,317,29767,2,0,P|192:314|239:318,1,89.9999972534181,4|4,0:3|0:3,0:0:0:0:
319,340,30481,5,4,0:3:0:0:
392,295,30839,1,4,0:3:0:0:
406,210,31196,1,4,0:3:0:0:
361,137,31553,1,4,0:0:0:0:
281,106,31910,6,0,P|307:69|347:52,2,89.9999972534181,4|4|8,0:0|0:3|0:0,0:0:0:0:
269,190,32981,1,4,0:3:0:0:
295,271,33339,2,0,L|298:361,1,89.9999972534181,4|4,0:3|0:3,0:0:0:0:
214,343,34053,2,0,L|211:253,1,89.9999972534181,8|4,0:0|0:3,0:0:0:0:
269,190,34767,6,0,B|315:176|353:206|353:206|404:214|442:194,1,179.999994506836,4|8,0:3|0:0,0:0:0:0:
496,128,35839,1,4,0:3:0:0:
443,60,36196,5,4,0:3:0:0:
357,50,36553,1,4,0:3:0:0:
294,108,36910,1,8,0:0:0:0:
269,190,37267,1,4,0:3:0:0:
307,266,37624,6,0,P|262:273|218:256,2,89.9999972534181,4|4|8,0:3|0:3|0:0,0:0:0:0:
381,224,38696,1,4,0:3:0:0:
425,151,39053,2,0,L|421:58,1,89.9999972534181,4|4,0:3|0:3,0:0:0:0:
344,22,39767,2,0,P|302:7|258:14,1,89.9999972534181,8|4,0:0|0:3,0:0:0:0:
211,85,40481,6,0,P|204:131|207:178,1,89.9999972534181,4|4,0:3|0:3,0:0:0:0:
269,232,41196,2,0,P|276:278|273:325,1,89.9999972534181,8|4,0:0|0:3,0:0:0:0:
201,367,41910,2,0,L|380:359,1,179.999994506836,4|8,0:3|0:0,0:0:0:0:
463,336,42981,1,0,0:0:0:0:
426,258,43339,6,0,P|426:215|431:166,1,89.9999972534181,4|4,0:3|0:3,0:0:0:0:
504,125,44053,2,0,P|504:82|499:33,1,89.9999972534181,8|4,0:0|0:3,0:0:0:0:
417,11,44767,2,0,L|238:19,1,179.999994506836,4|8,0:3|0:0,0:0:0:0:
155,42,45839,1,0,0:0:0:0:
185,122,46196,6,0,P|194:165|192:212,1,89.9999972534181,4|4,0:3|0:3,0:0:0:0:
162,290,46910,2,0,B|209:307|248:274|248:274|297:268|332:290,2,179.999994506836,8|4|8,0:0|0:3|0:0,0:0:0:0:
85,251,48696,1,4,0:3:0:0:
53,171,49053,6,0,P|53:127|74:87,1,89.9999972534181,4|4,0:3|0:3,0:0:0:0:
149,47,49767,2,0,P|192:43|234:60,1,89.9999972534181,8|4,0:0|0:3,0:0:0:0:
268,86,50303,1,8,0:0:0:0:
268,86,50481,2,0,L|265:134,2,44.999998626709,4|8|8,0:3|0:0|0:0,0:0:0:0:
334,31,51196,2,0,B|387:27|387:27|431:37|431:37|483:31,1,149.999995422363,4|8,0:3|0:0,0:0:0:0:
509,27,51910,6,0,L|502:177,1,150,4|0,0:0|0:0,0:0:0:0:
499,219,52624,1,8,0:0:0:0:
422,182,52981,1,4,0:3:0:0:
343,149,53339,2,0,L|336:299,1,150,4|0,0:3|0:0,0:0:0:0:
333,341,54053,1,8,0:0:0:0:
256,304,54410,1,4,0:3:0:0:
179,341,54767,6,0,P|111:350|71:288,1,150,4|0,0:3|0:0,0:0:0:0:
70,246,55481,1,8,0:0:0:0:
113,172,55839,1,4,0:3:0:0:
193,197,56196,5,4,0:3:0:0:
278,186,56553,1,4,0:3:0:0:
361,174,56910,1,8,0:0:0:0:
446,163,57267,1,4,0:3:0:0:
442,247,57624,6,0,P|432:318|366:345,1,150,4|0,0:0|0:0,0:0:0:0:
324,344,58339,1,8,0:0:0:0:
256,292,58696,1,4,0:3:0:0:
188,345,59053,2,0,P|116:348|77:289,1,150,4|0,0:3|0:0,0:0:0:0:
70,246,59767,1,8,0:0:0:0:
125,172,60124,1,4,0:3:0:0:
203,139,60481,6,0,P|249:133|282:92,1,100,4|4,0:3|0:3,0:0:0:0:
278,8,61196,2,0,P|324:17|358:56,1,100,8|4,0:0|0:3,0:0:0:0:
403,127,61910,5,4,0:3:0:0:
396,210,62267,1,4,0:3:0:0:
389,294,62624,1,8,0:0:0:0:
382,378,62981,1,4,0:3:0:0:
298,360,63339,6,0,P|251:345|200:345,1,100,4|4,0:0|0:3,0:0:0:0:
119,370,64053,2,0,P|120:319|113:271,1,100,8|4,0:0|0:3,0:0:0:0:
100,186,64767,2,0,L|1:191,2,100,4|4|8,0:3|0:3|0:0,0:0:0:0:
175,146,65839,1,4,0:3:0:0:
234,206,66196,5,4,0:0:0:0:
304,158,66553,1,4,0:3:0:0:
304,158,66731,2,0,L|354:156,1,50,0|8,0:0|0:0,0:0:0:0:
420,209,67267,1,4,0:3:0:0:
386,286,67624,2,0,B|331:302|287:284|287:284|240:265|187:282,1,200,4|8,0:3|0:0,0:0:0:0:
112,315,68696,1,4,0:3:0:0:
53,253,69053,6,0,P|45:181|100:133,1,150,4|0,0:0|0:0,0:0:0:0:
140,124,69767,1,8,0:0:0:0:
201,182,70124,1,4,0:3:0:0:
256,117,70481,2,0,L|406:125,1,150,4|0,0:3|0:0,0:0:0:0:
448,127,71196,1,8,0:0:0:0:
509,192,71553,1,4,0:3:0:0:
448,257,71910,6,0,L|298:265,1,150,4|0,0:0|0:0,0:0:0:0:
256,267,72624,1,8,0:0:0:0:
184,312,72981,1,4,0:3:0:0:
116,260,73339,2,0,P|76:200|104:134,1,150,4|0,0:3|0:0,0:0:0:0:
132,102,74053,1,8,0:0:0:0:
211,132,74410,1,4,0:3:0:0:
278,80,74767,6,0,P|326:84|378:77,1,100,4|4,0:3|0:3,0:0:0:0:
418,67,75303,1,0,0:0:0:0:
418,67,75481,2,0,L|406:166,1,100,8|4,0:0|0:3,0:0:0:0:
343,223,76196,2,0,P|295:227|243:220,1,100,4|4,0:3|0:3,0:0:0:0:
203,210,76731,1,0,0:0:0:0:
203,210,76910,2,0,L|215:309,1,100,8|4,0:0|0:3,0:0:0:0:
221,351,77446,1,0,0:0:0:0:
221,351,77624,6,0,P|171:324|129:321,1,100,4|4,0:0|0:3,0:0:0:0:
87,330,78160,1,0,0:0:0:0:
87,330,78339,2,0,L|99:231,1,100,8|4,0:0|0:3,0:0:0:0:
131,152,79053,2,0,P|171:124|220:118,1,100,4|4,0:3|0:3,0:0:0:0:
292,163,79767,2,0,P|338:178|387:170,1,100,8|4,0:0|0:3,0:0:0:0:
437,100,80481,6,0,B|420:302,1,200,4|8,0:0|0:0,0:0:0:0:
362,362,81553,1,4,0:3:0:0:
284,327,81910,2,0,P|284:301|281:275,1,50,4|8,0:3|0:0,0:0:0:0:
275,235,82267,1,4,0:3:0:0:
200,193,82624,2,0,P|199:167|203:141,1,50,8|4,0:0|0:3,0:0:0:0:
209,101,82981,1,4,0:3:0:0:
280,53,83339,5,4,0:0:0:0:
256,192,83517,12,0,86196,0:0:0:0:
