osu file format v14

[General]
AudioFilename: ring your bell.mp3
AudioLeadIn: 0
PreviewTime: 51374
Countdown: 0
SampleSet: Soft
StackLeniency: 0.7
Mode: 0
LetterboxInBreaks: 0
WidescreenStoryboard: 1

[Editor]
DistanceSpacing: 1.45
BeatDivisor: 4
GridSize: 4
TimelineZoom: 1.3

[Metadata]
Title:ring your bell ~TV size~
TitleUnicode:ring your bell ~TV size~
Artist:Kalafina
ArtistUnicode:Kalafina
Creator:IamKwaN
Version:Hard
Source:Fate/stay night [Unlimited Blade Works]
Tags:ending second 梶浦由記 Kajiura Yuki 大滝若菜 Otaki Wakana 窪田啓子 Kubota Keiko 政井光 Masai Hikaru
BeatmapID:1004716
BeatmapSetID:424092

[Difficulty]
HPDrainRate:5.5
CircleSize:4
OverallDifficulty:5.5
ApproachRate:7
SliderMultiplier:2.6
SliderTickRate:1

[Events]
//Background and Video events
0,0,"BG.jpg",0,0
Video,-893,"Video.avi"
//Break Periods
//Storyboard Layer 0 (Background)
//Storyboard Layer 1 (Fail)
//Storyboard Layer 2 (Pass)
//Storyboard Layer 3 (Foreground)
//Storyboard Sound Samples

[TimingPoints]
482,714.285714285714,4,2,1,30,1,0
482,-166.666666666667,4,2,1,30,0,0
4053,-166.666666666667,4,2,1,35,0,0
4410,-166.666666666667,4,2,1,30,0,0
4767,-166.666666666667,4,2,1,40,0,0
5124,-166.666666666667,4,2,1,30,0,0
5481,-166.666666666667,4,2,1,40,0,0
5839,-166.666666666667,4,2,1,30,0,0
6196,-142.857142857143,4,2,1,40,0,0
9053,-117.647058823529,4,2,1,40,0,0
31553,-117.647058823529,4,2,1,30,0,0
31910,-117.647058823529,4,2,1,40,0,0
31999,-117.647058823529,4,2,1,50,0,0
51910,-100,4,2,1,60,0,1
57624,-100,4,2,1,50,0,1
57714,-100,4,2,1,60,0,1
63339,-100,4,2,1,50,0,1
63428,-100,4,2,1,60,0,1
69053,-100,4,2,1,50,0,1
69142,-100,4,2,1,60,0,1
71910,-100,4,2,1,50,0,1
71999,-100,4,2,1,60,0,1
83339,-100,4,2,1,60,0,0
84767,-100,4,2,1,70,0,0
86196,-100,4,2,1,20,0,0

[Colours]
Combo1 : 94,172,255
Combo2 : 253,40,44
Combo3 : 85,243,243
Combo4 : 193,186,204

[HitObjects]
189,100,482,6,0,P|150:104|111:112,1,77.999997619629,2|0,0:1|0:0,0:0:0:0:
59,169,1196,1,0,0:0:0:0:
71,246,1553,1,0,0:0:0:0:
148,245,1910,2,0,P|186:236|225:242,1,77.999997619629,4|0,0:1|0:0,0:0:0:0:
273,301,2624,2,0,L|430:293,1,155.999995239258,4|0,0:1|0:0,0:0:0:0:
485,239,3696,5,2,0:3:0:0:
428,184,4053,2,0,P|429:146|441:108,1,77.999997619629,8|2,0:1|0:3,0:0:0:0:
489,47,4767,1,0,0:0:0:0:
453,31,4946,1,0,0:0:0:0:
414,36,5124,1,2,0:3:0:0:
347,76,5481,1,8,0:1:0:0:
273,49,5839,1,2,0:3:0:0:
195,60,6196,6,0,P|149:61|102:57,1,90.9999972229005,4|4,0:0|0:3,0:0:0:0:
26,30,6910,1,4,0:3:0:0:
38,110,7267,1,4,0:3:0:0:
49,190,7624,2,0,P|95:189|142:193,1,90.9999972229005,4|4,0:3|0:3,0:0:0:0:
218,220,8339,1,4,0:3:0:0:
206,140,8696,1,4,0:3:0:0:
113,107,9053,6,0,P|69:139|49:190,1,110.50000210762,4|4,0:0|0:3,0:0:0:0:
84,262,9589,1,0,0:0:0:0:
163,251,9767,2,0,B|209:243|209:243|238:247|268:267,1,110.50000210762,0|4,3:0|0:3,0:0:0:0:
318,328,10303,1,0,0:0:0:0:
389,293,10481,2,0,P|391:239|395:183,1,110.50000210762,4|4,0:3|0:3,0:0:0:0:
439,115,11017,1,0,0:0:0:0:
372,69,11196,2,0,P|316:59|263:62,1,110.50000210762,4|4,0:3|0:3,0:0:0:0:
33,152,11910,6,0,P|87:158|142:153,1,110.50000210762,4|4,0:3|0:3,0:0:0:0:
217,127,12446,1,0,0:0:0:0:
262,62,12624,2,0,P|315:59|361:90,1,110.50000210762,4|4,0:3|0:3,0:0:0:0:
411,152,13160,1,0,0:0:0:0:
344,196,13339,2,0,B|332:248|332:248|335:277|351:307,1,110.50000210762,4|4,0:3|0:3,0:0:0:0:
413,349,13874,1,0,0:0:0:0:
340,383,14053,2,0,P|285:370|232:362,1,110.50000210762,4|4,0:3|0:3,0:0:0:0:
79,261,14767,6,0,B|61:221|61:221|58:190|69:154,1,110.50000210762,4|4,0:3|0:3,0:0:0:0:
96,79,15303,1,0,0:0:0:0:
175,87,15481,2,0,P|227:90|285:91,1,110.50000210762,0|4,3:0|0:3,0:0:0:0:
359,124,16017,1,0,0:0:0:0:
438,112,16196,2,0,P|440:85|443:52,1,55.2500010538101,4|0,0:3|0:0,0:0:0:0:
371,20,16553,1,4,0:3:0:0:
359,124,16731,2,0,P|362:150|367:183,1,55.2500010538101,0|4,0:0|0:3,0:0:0:0:
427,231,17089,2,0,P|423:257|418:290,1,55.2500010538101,0|4,0:0|0:3,0:0:0:0:
376,353,17446,1,0,0:0:0:0:
246,328,17624,6,0,B|271:296|271:296|300:279|339:281,2,110.50000210762,4|4|4,0:3|0:3|0:3,0:0:0:0:
97,257,18696,2,0,P|96:230|91:198,1,55.2500010538101,4|0,0:3|0:0,0:0:0:0:
173,127,19053,2,0,B|132:120|132:120|103:125|103:125|63:120,1,110.50000210762,4|4,0:3|0:3,0:0:0:0:
96,46,19589,1,0,0:0:0:0:
247,90,19767,2,0,P|252:118|254:144,1,55.2500010538101,4|0,0:3|0:0,0:0:0:0:
313,199,20124,2,0,P|307:226|306:258,1,55.2500010538101,4|0,0:3|0:0,0:0:0:0:
218,216,20481,6,0,P|228:270|230:326,2,110.50000210762,4|4|0,0:3|0:3|3:0,0:0:0:0:
70,94,21553,2,0,P|42:81|23:65,1,55.2500010538101,4|0,0:3|0:0,0:0:0:0:
129,45,21910,2,0,L|119:159,1,110.50000210762,4|4,0:3|0:3,0:0:0:0:
140,232,22446,1,0,0:0:0:0:
218,216,22624,2,0,P|248:212|274:211,1,55.2500010538101,4|0,0:3|0:0,0:0:0:0:
298,294,22981,2,0,P|270:292|243:288,1,55.2500010538101,4|0,0:3|0:0,0:0:0:0:
350,231,23339,6,0,L|355:119,2,110.50000210762,4|4|4,0:3|0:3|0:3,0:0:0:0:
244,351,24410,1,4,0:3:0:0:
149,224,24767,2,0,P|92:217|40:206,1,110.50000210762,4|4,0:3|0:3,0:0:0:0:
0,136,25303,1,0,0:0:0:0:
124,115,25481,2,0,P|180:108|232:97,1,110.50000210762,4|4,0:3|0:3,0:0:0:0:
273,27,26017,1,0,0:0:0:0:
284,158,26196,6,0,B|281:200|281:200|286:225|286:225|279:267,2,110.50000210762,4|4|0,0:0|0:3|3:0,0:0:0:0:
439,195,27267,1,4,0:3:0:0:
325,337,27624,2,0,P|267:351|224:327,1,110.50000210762,4|4,0:3|0:3,0:0:0:0:
173,265,28160,1,0,0:0:0:0:
111,212,28339,2,0,B|121:168|121:168|122:140|104:100,1,110.50000210762,4|4,0:3|0:3,0:0:0:0:
243,36,29053,6,0,B|232:79|232:79|231:107|249:147,1,110.50000210762,4|4,0:3|0:3,0:0:0:0:
307,196,29589,1,0,0:0:0:0:
379,229,29767,2,0,B|432:225|432:225|463:231|490:242,1,110.50000210762,4|4,0:3|0:3,0:0:0:0:
369,347,30481,6,0,P|341:344|313:339,1,55.2500010538101,4|0,0:3|0:0,0:0:0:0:
256,280,30839,2,0,P|279:264|306:256,1,55.2500010538101,4|0,0:3|0:0,0:0:0:0:
235,357,31196,2,0,P|210:343|184:337,1,55.2500010538101,4|0,0:3|0:0,0:0:0:0:
53,371,31553,2,0,P|80:367|106:357,1,55.2500010538101,4|0,0:0|0:0,0:0:0:0:
177,255,31910,6,0,B|146:257|126:277|126:277|97:271|73:283,2,110.50000210762,4|4|8,0:0|0:3|0:0,0:0:0:0:
260,117,32981,2,0,P|287:118|316:116,1,55.2500010538101,4|0,0:3|0:0,0:0:0:0:
394,102,33339,2,0,L|388:214,1,110.50000210762,4|4,0:3|0:3,0:0:0:0:
354,284,33874,1,0,0:0:0:0:
407,343,34053,2,0,P|433:334|460:330,1,55.2500010538101,8|0,0:0|0:0,0:0:0:0:
507,264,34410,2,0,P|474:259|451:255,1,55.2500010538101,4|0,0:3|0:0,0:0:0:0:
354,284,34767,6,0,B|316:289|316:289|284:282|284:282|246:291,2,110.50000210762,4|4|8,0:3|0:3|0:0,0:0:0:0:
456,160,35839,1,4,0:3:0:0:
321,73,36196,6,0,L|266:67,1,55.2500010538101,4|0,0:3|0:0,0:0:0:0:
195,27,36553,2,0,L|140:33,1,55.2500010538101,4|0,0:3|0:0,0:0:0:0:
64,129,36910,2,0,P|66:102|70:75,1,55.2500010538101,8|0,0:0|0:0,0:0:0:0:
126,179,37267,2,0,P|132:205|135:233,1,55.2500010538101,4|0,0:3|0:0,0:0:0:0:
183,316,37624,6,0,P|142:286|87:297,2,110.50000210762,4|4|8,0:3|0:3|0:0,0:0:0:0:
305,212,38696,2,0,P|304:184|303:154,1,55.2500010538101,4|0,0:3|0:0,0:0:0:0:
339,84,39053,2,0,P|380:54|435:65,2,110.50000210762,4|4|8,0:3|0:3|0:0,0:0:0:0:
187,135,40124,2,0,P|161:128|133:115,1,55.2500010538101,4|0,0:3|0:0,0:0:0:0:
76,62,40481,6,0,L|81:177,1,110.50000210762,4|4,0:3|0:3,0:0:0:0:
130,235,41017,1,0,0:0:0:0:
86,302,41196,2,0,P|56:299|30:297,1,55.2500010538101,8|0,0:0|0:0,0:0:0:0:
157,337,41553,2,0,P|184:333|212:332,1,55.2500010538101,4|0,0:3|0:0,0:0:0:0:
313,271,41910,2,0,P|258:265|204:251,1,110.50000210762,4|0,0:3|0:0,0:0:0:0:
187,173,42446,1,0,0:0:0:0:
355,200,42624,2,0,P|390:236|391:294,1,110.50000210762,8|0,0:0|0:0,0:0:0:0:
183,331,43339,6,0,L|70:336,1,110.50000210762,4|4,0:3|0:3,0:0:0:0:
18,276,43874,1,0,0:0:0:0:
61,208,44053,2,0,P|69:182|72:151,1,55.2500010538101,8|0,0:0|0:0,0:0:0:0:
34,25,44410,2,0,P|35:53|41:80,1,55.2500010538101,4|0,0:3|0:0,0:0:0:0:
189,138,44767,2,0,P|173:89|121:87,1,110.50000210762,4|4,0:3|0:3,0:0:0:0:
71,154,45303,1,0,0:0:0:0:
180,221,45481,2,0,P|236:213|290:212,1,110.50000210762,8|4,0:0|0:3,0:0:0:0:
437,49,46196,6,0,L|428:159,1,110.50000210762,4|4,0:3|0:3,0:0:0:0:
373,217,46731,1,0,0:0:0:0:
326,341,46910,2,0,L|333:286,1,55.2500010538101,8|0,0:0|0:0,0:0:0:0:
414,285,47267,2,0,L|421:339,1,55.2500010538101,4|0,0:3|0:0,0:0:0:0:
289,211,47624,2,0,B|249:208|249:208|220:216|220:216|180:213,2,110.50000210762,4|4|8,0:3|0:3|0:0,0:0:0:0:
357,73,48696,1,4,0:3:0:0:
163,123,49053,6,0,P|118:143|88:195,1,110.50000210762,4|4,0:3|0:3,0:0:0:0:
102,273,49589,1,0,0:0:0:0:
152,373,49767,2,0,P|175:356|192:335,1,55.2500010538101,8|0,0:0|0:0,0:0:0:0:
79,344,50124,5,4,0:3:0:0:
205,306,50303,1,8,0:0:0:0:
91,310,50481,1,4,0:3:0:0:
217,272,50660,1,8,0:0:0:0:
102,273,50839,6,0,P|63:261|21:256,1,82.8750015807152,8|8,0:0|0:0,0:0:0:0:
6,218,51196,2,0,P|31:200|46:180,1,55.2500010538101,4|8,0:3|0:0,0:0:0:0:
75,105,51553,2,0,L|113:108,2,36.8333340358734,8|8|8,0:0|0:0|0:0,0:0:0:0:
52,69,51910,6,0,P|76:47|106:33,1,65,4|0,0:0|0:0,0:0:0:0:
192,72,52267,2,0,P|181:136|177:200,1,130,4|8,0:3|0:0,0:0:0:0:
300,342,52981,2,0,P|334:336|367:336,1,65,4|0,0:3|0:0,0:0:0:0:
323,250,53339,2,0,P|290:249|258:244,1,65,4|0,0:3|0:0,0:0:0:0:
358,162,53696,2,0,P|420:166|450:220,1,130,4|8,0:3|0:0,0:0:0:0:
112,306,54410,2,0,P|117:274|120:242,1,65,4|0,0:3|0:0,0:0:0:0:
53,102,54767,6,0,P|55:134|61:167,1,65,4|0,0:3|0:0,0:0:0:0:
214,61,55124,2,0,P|212:126|199:190,1,130,4|8,0:3|0:0,0:0:0:0:
385,270,55839,2,0,P|395:300|398:332,1,65,4|0,0:3|0:0,0:0:0:0:
436,190,56196,2,0,P|442:159|443:126,1,65,4|0,0:3|0:0,0:0:0:0:
345,187,56553,2,0,P|340:155|328:126,1,65,4|0,0:3|0:0,0:0:0:0:
263,230,56910,2,0,P|243:204|217:185,1,65,8|0,0:0|0:0,0:0:0:0:
200,295,57267,2,0,P|170:282|138:277,1,65,4|0,0:3|0:0,0:0:0:0:
274,353,57624,6,0,L|408:346,1,130,4|4,0:0|0:3,0:0:0:0:
482,293,58160,1,0,0:0:0:0:
441,207,58339,1,8,0:0:0:0:
441,207,58696,1,4,0:3:0:0:
257,80,59053,2,0,L|123:87,1,130,4|4,0:3|0:3,0:0:0:0:
49,140,59589,1,0,0:0:0:0:
90,226,59767,1,8,0:0:0:0:
90,226,60124,1,4,0:3:0:0:
278,236,60481,6,0,P|262:301|256:364,2,130,4|4|8,0:3|0:3|0:0,0:0:0:0:
321,152,61374,1,0,0:0:0:0:
406,192,61553,2,0,L|483:187,1,65,4|0,0:3|0:0,0:0:0:0:
376,79,61910,2,0,P|347:63|315:60,1,65,4|0,0:3|0:0,0:0:0:0:
321,152,62267,2,0,P|288:148|258:157,1,65,4|0,0:3|0:0,0:0:0:0:
331,237,62624,2,0,P|302:249|279:272,1,65,8|0,0:0|0:0,0:0:0:0:
403,299,62981,2,0,P|382:323|372:354,1,65,4|0,0:3|0:0,0:0:0:0:
477,240,63339,6,0,L|471:110,1,130,4|4,0:0|0:3,0:0:0:0:
270,58,64053,2,0,L|206:52,1,65,8|0,0:0|0:0,0:0:0:0:
162,149,64410,2,0,L|226:143,1,65,4|0,0:3|0:0,0:0:0:0:
351,107,64767,2,0,B|398:101|398:101|434:107|434:107|480:102,2,130,4|4|8,0:3|0:3|0:0,0:0:0:0:
309,192,65660,1,0,0:0:0:0:
309,192,65839,2,0,P|305:225|307:256,1,65,4|0,0:3|0:0,0:0:0:0:
415,336,66196,6,0,P|417:304|414:272,1,65,4|0,0:0|0:0,0:0:0:0:
402,185,66553,1,4,0:3:0:0:
319,275,66731,2,0,P|285:280|253:279,2,65,0|8|0,0:0|0:0|0:0,0:0:0:0:
402,185,67267,1,4,0:3:0:0:
402,185,67624,2,0,L|408:54,2,130,4|4|8,0:3|0:3|0:0,0:0:0:0:
296,352,68696,2,0,P|263:343|231:340,1,65,4|0,0:3|0:0,0:0:0:0:
112,305,69053,6,0,P|171:282|180:221,1,130,4|4,0:0|0:3,0:0:0:0:
158,129,69589,1,0,0:0:0:0:
66,219,69767,2,0,P|67:251|75:282,1,65,8|0,0:0|0:0,0:0:0:0:
180,221,70124,2,0,P|187:189|189:157,1,65,4|0,0:3|0:0,0:0:0:0:
128,39,70481,2,0,B|97:28|62:29|62:29|30:36|3:51,1,130,4|4,0:3|0:3,0:0:0:0:
74,113,71017,1,0,0:0:0:0:
189,157,71196,2,0,B|219:167|254:166|254:166|286:159|313:144,1,130,8|4,0:0|0:3,0:0:0:0:
313,144,71910,6,0,L|304:273,1,130,4|4,0:0|0:3,0:0:0:0:
247,348,72446,1,0,0:0:0:0:
379,330,72624,2,0,P|410:324|443:320,1,65,8|0,0:0|0:0,0:0:0:0:
460,212,72981,2,0,P|429:203|399:192,1,65,4|0,0:3|0:0,0:0:0:0:
249,94,73339,2,0,P|304:66|368:86,1,130,4|4,0:3|0:3,0:0:0:0:
398,173,73874,1,0,0:0:0:0:
303,273,74053,2,0,P|238:263|173:262,1,130,8|4,0:0|0:3,0:0:0:0:
120,81,74767,6,0,P|131:142|89:189,1,130,4|4,0:3|0:3,0:0:0:0:
16,251,75303,1,0,0:0:0:0:
86,312,75481,2,0,L|215:304,1,130,8|4,0:0|0:3,0:0:0:0:
392,81,76196,2,0,P|381:142|423:189,1,130,4|4,0:3|0:3,0:0:0:0:
496,251,76731,1,0,0:0:0:0:
426,312,76910,2,0,L|297:304,1,130,8|4,0:0|0:3,0:0:0:0:
256,218,77446,1,0,0:0:0:0:
154,120,77624,6,0,L|167:250,1,130,4|4,0:0|0:3,0:0:0:0:
256,218,78160,1,0,0:0:0:0:
357,120,78339,2,0,L|345:250,1,130,8|4,0:0|0:3,0:0:0:0:
377,338,78874,1,0,0:0:0:0:
282,328,79053,2,0,P|253:330|220:345,1,65,4|0,0:3|0:0,0:0:0:0:
147,284,79410,2,0,P|170:266|189:235,1,65,4|0,0:3|0:0,0:0:0:0:
205,143,79767,1,8,0:0:0:0:
123,94,79946,1,0,0:0:0:0:
70,173,80124,1,4,0:3:0:0:
404,216,80481,6,0,B|360:223|360:223|318:221|279:201,2,130,4|4|8,0:0|0:3|0:0,0:0:0:0:
191,83,81553,2,0,L|195:148,1,65,4|0,0:3|0:0,0:0:0:0:
150,231,81910,1,4,0:3:0:0:
69,181,82089,1,8,0:0:0:0:
120,259,82267,1,4,0:3:0:0:
362,231,82624,1,8,0:0:0:0:
443,181,82803,1,8,0:3:0:0:
392,259,82981,1,8,0:3:0:0:
256,126,83339,5,4,0:0:0:0:
256,192,83517,12,0,86196,0:0:0:0:
