osu file format v14

[General]
AudioFilename: ring your bell.mp3
AudioLeadIn: 0
PreviewTime: 51374
Countdown: 0
SampleSet: Soft
StackLeniency: 0.7
Mode: 0
LetterboxInBreaks: 0
WidescreenStoryboard: 0

[Editor]
DistanceSpacing: 1
BeatDivisor: 4
GridSize: 4
TimelineZoom: 0.4999999

[Metadata]
Title:ring your bell ~TV size~
TitleUnicode:ring your bell ~TV size~
Artist:Kalafina
ArtistUnicode:Kalafina
Creator:IamKwaN
Version:Easy
Source:Fate/stay night [Unlimited Blade Works]
Tags:ending second 梶浦由記 Kajiura Yuki 大滝若菜 Otaki Wakana 窪田啓子 Kubota Keiko 政井光 Masai Hikaru
BeatmapID:916939
BeatmapSetID:424092

[Difficulty]
HPDrainRate:2.5
CircleSize:3
OverallDifficulty:2.5
ApproachRate:3
SliderMultiplier:1.8
SliderTickRate:2

[Events]
//Background and Video events
0,0,"BG.jpg",0,0
Video,-893,"Video.avi"
//Break Periods
//Storyboard Layer 0 (Background)
//Storyboard Layer 1 (Fail)
//Storyboard Layer 2 (Pass)
//Storyboard Layer 3 (Foreground)
//Storyboard Sound Samples

[TimingPoints]
482,714.285714285714,4,2,1,30,1,0
482,-125,4,2,1,30,0,0
4053,-100,4,2,1,35,0,0
5481,-100,4,2,1,40,0,0
31553,-100,4,2,1,30,0,0
31910,-100,4,2,1,40,0,0
31999,-100,4,2,1,50,0,0
51910,-100,4,2,1,60,0,1
57624,-100,4,2,1,50,0,1
57714,-100,4,2,1,60,0,1
63339,-100,4,2,1,50,0,1
63428,-100,4,2,1,60,0,1
69053,-100,4,2,1,50,0,1
69142,-100,4,2,1,60,0,1
71910,-100,4,2,1,50,0,1
71999,-100,4,2,1,60,0,1
83339,-100,4,2,1,60,0,0
84767,-100,4,2,1,70,0,0
86196,-100,4,2,1,20,0,0

[Colours]
Combo1 : 94,172,255
Combo2 : 253,40,44
Combo3 : 85,243,243
Combo4 : 193,186,204

[HitObjects]
204,192,482,6,0,B|184:140|211:96|256:72|256:72|300:96|328:140|308:192,1,288,2|4,0:1|0:1,0:0:0:0:
384,312,2624,2,0,B|332:340|296:324|296:324|256:364|256:364|216:324|216:324|180:340|136:312,2,288,4|8|8,0:1|0:1|0:1,0:0:0:0:
456,147,6196,6,0,L|462:58,1,90,4|4,0:0|0:3,0:0:0:0:
380,20,6910,2,0,P|336:27|301:54,1,90,4|4,0:3|0:3,0:0:0:0:
210,54,7624,2,0,P|175:27|132:20,1,90,4|4,0:3|0:3,0:0:0:0:
50,58,8339,2,0,L|56:147,1,90,4|4,0:0|0:3,0:0:0:0:
122,208,9053,6,0,B|93:244|105:294|105:294|144:326|187:316,1,180,4|0,0:0|3:0,0:0:0:0:
256,259,10124,1,4,0:3:0:0:
324,316,10481,2,0,B|367:326|406:294|406:294|418:244|389:207,1,180,4|4,0:3|0:3,0:0:0:0:
362,124,11553,1,4,0:3:0:0:
272,124,11910,6,0,P|184:126|93:125,1,180,4|4,0:3|0:3,0:0:0:0:
32,192,12981,1,4,0:3:0:0:
92,259,13339,2,0,P|182:257|272:260,1,180,4|4,0:3|0:3,0:0:0:0:
339,319,14410,1,4,0:3:0:0:
415,272,14767,6,0,P|477:217|449:135,1,180,4|0,0:3|3:0,0:0:0:0:
368,94,15839,1,4,0:3:0:0:
302,156,16196,2,0,L|307:246,2,90,4|4|4,0:3|0:3|0:3,0:0:0:0:
234,99,17267,1,4,0:3:0:0:
144,116,17624,6,0,P|64:139|57:226,1,180,4|4,0:3|0:3,0:0:0:0:
114,293,18696,1,4,0:3:0:0:
201,271,19053,2,0,L|205:179,1,90,4|4,0:3|0:3,0:0:0:0:
294,170,19767,2,0,L|290:259,1,90,4|4,0:3|0:3,0:0:0:0:
257,343,20481,6,0,B|301:360|338:335|338:335|383:326|428:352,1,180,4|0,0:3|3:0,0:0:0:0:
512,384,21553,1,4,0:3:0:0:
500,294,21910,2,0,P|508:251|506:205,1,90,4|4,0:3|0:3,0:0:0:0:
430,156,22624,2,0,P|422:113|424:67,1,90,4|4,0:3|0:3,0:0:0:0:
497,14,23339,6,0,L|318:25,1,180,4|4,0:3|0:3,0:0:0:0:
256,91,24410,1,4,0:3:0:0:
194,25,24767,2,0,P|149:29|110:52,1,90,4|4,0:3|0:3,0:0:0:0:
82,136,25481,2,0,L|90:225,1,90,4|4,0:3|0:3,0:0:0:0:
157,285,26196,6,0,B|234:311|254:254|333:285,1,180,4|0,0:0|3:0,0:0:0:0:
412,331,27267,1,4,0:3:0:0:
469,261,27624,2,0,L|464:82,1,180,4|4,0:3|0:3,0:0:0:0:
405,12,28696,1,4,0:3:0:0:
318,36,29053,6,0,P|273:34|234:55,2,90,4|4|4,0:3|0:3|0:3,0:0:0:0:
291,122,30124,1,4,0:3:0:0:
345,193,30481,2,0,P|355:236|354:281,1,90,4|4,0:3|0:3,0:0:0:0:
264,293,31196,2,0,P|254:250|255:205,1,90,4|4,0:3|0:0,0:0:0:0:
291,122,31910,6,0,B|242:102|203:132|203:132|164:125|164:125|118:140,1,180,4|8,0:0|0:0,0:0:0:0:
46,192,32981,1,4,0:3:0:0:
119,244,33339,2,0,B|164:259|164:259|203:252|203:252|242:282|291:262,1,180,4|8,0:3|0:0,0:0:0:0:
376,233,34410,1,4,0:3:0:0:
398,145,34767,6,0,P|397:69|308:50,1,180,4|8,0:3|0:0,0:0:0:0:
233,99,35839,1,4,0:3:0:0:
149,66,36196,2,0,L|58:70,1,90,4|4,0:3|0:3,0:0:0:0:
72,158,36910,2,0,L|161:154,1,90,8|4,0:0|0:3,0:0:0:0:
233,99,37624,6,0,B|291:80|291:80|349:78|399:121,1,180,4|8,0:3|0:0,0:0:0:0:
455,192,38696,1,4,0:3:0:0:
399,262,39053,2,0,B|349:305|291:303|291:303|233:285,1,180,4|8,0:3|0:0,0:0:0:0:
176,215,40124,1,4,0:3:0:0:
165,125,40481,6,0,B|160:73|160:73|121:35|76:42|49:80,1,180,4|8,0:3|0:0,0:0:0:0:
12,164,41553,1,4,0:3:0:0:
32,251,41910,2,0,L|38:341,1,90,4|0,0:3|0:0,0:0:0:0:
125,361,42624,2,0,L|131:271,1,90,8|0,0:0|0:0,0:0:0:0:
192,205,43339,6,0,B|229:169|229:169|283:166|313:201|308:247,1,180,4|8,0:3|0:0,0:0:0:0:
315,336,44410,1,4,0:3:0:0:
402,358,44767,2,0,P|448:351|493:350,1,90,4|4,0:3|0:3,0:0:0:0:
503,260,45481,2,0,P|456:261|411:256,1,90,8|4,0:0|0:3,0:0:0:0:
375,174,46196,6,0,L|370:81,1,90,4|4,0:3|0:3,0:0:0:0:
292,37,46910,2,0,P|369:-7|443:31,2,180,8|4|8,0:0|0:3|0:0,0:0:0:0:
233,105,48696,1,4,0:3:0:0:
284,178,49053,6,0,L|287:270,1,90,4|4,0:3|0:3,0:0:0:0:
358,322,49767,2,0,B|403:315|403:315|446:324|446:324|491:316,2,135,8|8|8,0:0|0:0|0:0,0:0:0:0:
274,355,51196,2,0,P|229:340|206:305,1,90,4|8,0:3|0:0,0:0:0:0:
202,216,51910,6,0,B|155:217|130:257|130:257|86:275|43:240,1,180,4|8,0:0|0:0,0:0:0:0:
8,157,52981,1,4,0:3:0:0:
69,91,53339,2,0,P|155:94|248:92,1,180,4|8,0:3|0:0,0:0:0:0:
329,51,54410,1,4,0:3:0:0:
412,85,54767,6,0,P|482:137|465:220,1,180,4|8,0:3|0:0,0:0:0:0:
376,227,55839,1,4,0:3:0:0:
312,290,56196,2,0,L|322:381,1,90,4|4,0:3|0:3,0:0:0:0:
231,379,56910,2,0,L|221:289,1,90,8|4,0:0|0:3,0:0:0:0:
145,241,57624,6,0,P|102:250|59:236,2,90,4|4|8,0:0|0:3|0:0,0:0:0:0:
221,192,58696,1,4,0:3:0:0:
145,143,59053,2,0,P|102:134|59:148,2,90,4|4|8,0:3|0:3|0:0,0:0:0:0:
221,192,60124,1,4,0:3:0:0:
270,266,60481,6,0,B|323:279|323:279|384:273|452:270,1,180,4|8,0:3|0:0,0:0:0:0:
512,207,61553,1,4,0:3:0:0:
468,128,61910,2,0,P|467:82|465:35,1,90,4|4,0:3|0:3,0:0:0:0:
375,30,62624,2,0,P|376:74|377:119,1,90,8|4,0:0|0:3,0:0:0:0:
317,187,63339,6,0,P|272:188|235:165,1,90,4|4,0:0|0:3,0:0:0:0:
185,90,64053,2,0,L|196:271,2,180,8|4|8,0:0|0:3|0:0,0:0:0:0:
226,10,65839,1,4,0:3:0:0:
136,14,66196,6,0,P|91:16|57:45,2,90,4|4|8,0:0|0:3|0:0,0:0:0:0:
185,90,67267,1,4,0:3:0:0:
238,162,67624,2,0,L|227:343,1,180,4|8,0:3|0:0,0:0:0:0:
145,379,68696,1,4,0:3:0:0:
80,316,69053,6,0,P|17:267|57:188,1,180,4|8,0:0|0:0,0:0:0:0:
123,129,70124,1,4,0:3:0:0:
182,196,70481,2,0,L|273:203,1,90,4|4,0:3|0:3,0:0:0:0:
343,147,71196,2,0,L|434:140,1,90,8|4,0:0|0:3,0:0:0:0:
487,68,71910,6,0,L|477:250,1,180,4|8,0:0|0:0,0:0:0:0:
418,316,72981,1,4,0:3:0:0:
338,273,73339,2,0,P|292:266|247:265,1,90,4|4,0:3|0:3,0:0:0:0:
237,175,74053,2,0,P|281:176|326:171,1,90,8|4,0:0|0:3,0:0:0:0:
390,107,74767,6,0,P|389:61|397:16,2,90,4|4|8,0:3|0:3|0:0,0:0:0:0:
419,192,75839,1,4,0:3:0:0:
390,277,76196,2,0,P|389:323|397:368,2,90,4|4|8,0:3|0:3|0:0,0:0:0:0:
419,192,77267,1,4,0:3:0:0:
366,119,77624,6,0,L|274:125,1,90,4|4,0:0|0:3,0:0:0:0:
195,85,78339,2,0,P|106:81|81:155,1,180,8|4,0:0|0:3,0:0:0:0:
150,213,79410,1,4,0:3:0:0:
208,281,79767,2,0,L|211:370,1,90,8|4,0:0|0:3,0:0:0:0:
300,370,80481,6,0,B|305:278|305:278|352:280|382:244,1,180,4|8,0:0|0:0,0:0:0:0:
440,176,81553,1,4,0:3:0:0:
372,116,81910,2,0,L|376:22,1,90,4|4,0:3|0:3,0:0:0:0:
287,9,82624,2,0,P|241:10|206:34,2,90,8|8|4,0:0|0:3|0:0,0:0:0:0:
256,192,83696,12,0,86196,0:0:0:0:
