osu file format v14

[General]
AudioFilename: ring your bell.mp3
AudioLeadIn: 0
PreviewTime: 51374
Countdown: 0
SampleSet: Soft
StackLeniency: 0.7
Mode: 0
LetterboxInBreaks: 0
WidescreenStoryboard: 0

[Editor]
DistanceSpacing: 0.6
BeatDivisor: 4
GridSize: 4
TimelineZoom: 0.4999999

[Metadata]
Title:ring your bell ~TV size~
TitleUnicode:ring your bell ~TV size~
Artist:Kalafina
ArtistUnicode:Kalafina
Creator:IamKwaN
Version:Beginner
Source:Fate/stay night [Unlimited Blade Works]
Tags:ending second 梶浦由記 Kajiura Yuki 大滝若菜 Otaki Wakana 窪田啓子 Kubota Keiko 政井光 Masai Hikaru
BeatmapID:916230
BeatmapSetID:424092

[Difficulty]
HPDrainRate:1.5
CircleSize:2.7
OverallDifficulty:1.5
ApproachRate:2.5
SliderMultiplier:1.5
SliderTickRate:2

[Events]
//Background and Video events
0,0,"BG.jpg",0,0
Video,-893,"Video.avi"
//Break Periods
//Storyboard Layer 0 (Background)
//Storyboard Layer 1 (Fail)
//Storyboard Layer 2 (Pass)
//Storyboard Layer 3 (Foreground)
//Storyboard Sound Samples

[TimingPoints]
482,714.285714285714,4,2,1,30,1,0
4053,-100,4,2,1,35,0,0
5481,-100,4,2,1,40,0,0
31999,-100,4,2,1,50,0,0
51910,-100,4,2,1,60,0,1
57624,-100,4,2,1,50,0,1
57714,-100,4,2,1,60,0,1
63339,-100,4,2,1,50,0,1
63428,-100,4,2,1,60,0,1
69053,-100,4,2,1,50,0,1
69142,-100,4,2,1,60,0,1
71910,-100,4,2,1,50,0,1
71999,-100,4,2,1,60,0,1
83339,-100,4,2,1,60,0,0
84767,-100,4,2,1,70,0,0
86196,-100,4,2,1,20,0,0

[Colours]
Combo1 : 94,172,255
Combo2 : 253,40,44
Combo3 : 85,243,243
Combo4 : 193,186,204

[HitObjects]
148,146,482,6,0,B|196:94|196:94|232:94|256:142|256:142|280:94|316:94|316:94|359:145,1,300,2|4,0:1|0:1,0:0:0:0:
360,234,2624,2,0,B|316:285|316:285|280:285|256:237|256:237|232:285|196:285|196:285|148:233,2,300,4|8|8,0:1|0:1|0:1,0:0:0:0:
418,165,6196,2,0,L|409:316,1,150,4|4,0:0|0:3,0:0:0:0:
497,330,7624,2,0,L|505:180,1,150,4|4,0:3|0:3,0:0:0:0:
471,97,9053,6,0,P|403:69|349:113,1,150,4|0,0:0|3:0,0:0:0:0:
309,194,10481,2,0,L|158:187,1,150,4|4,0:3|0:3,0:0:0:0:
122,104,11910,2,0,P|69:158|77:228,1,150,4|4,0:3|0:3,0:0:0:0:
110,310,13339,2,0,L|261:303,1,150,4|4,0:3|0:3,0:0:0:0:
340,262,14767,6,0,B|338:226|360:197|360:197|363:156|345:114,1,150,4|0,0:3|3:0,0:0:0:0:
340,28,16196,2,0,B|376:26|404:48|404:48|446:51|487:33,1,150,4|4,0:3|0:3,0:0:0:0:
498,123,17624,2,0,P|430:149|424:220,1,150,4|4,0:3|0:3,0:0:0:0:
354,276,19053,6,0,L|508:262,2,150,4|4|4,0:3|0:3|0:3,0:0:0:0:
312,356,21196,1,0,3:0:0:0:
234,310,21910,2,0,L|80:324,2,150,4|4|4,0:3|0:3|0:3,0:0:0:0:
276,230,24053,1,4,0:3:0:0:
333,160,24767,2,0,P|408:148|435:205,1,150,4|4,0:3|0:3,0:0:0:0:
378,275,26196,6,0,B|344:294|304:292|304:292|273:270|234:277,1,150,4|0,0:0|3:0,0:0:0:0:
188,353,27624,2,0,P|187:279|186:204,2,150,4|4|4,0:3|0:3|0:3,0:0:0:0:
102,381,29767,1,4,0:3:0:0:
35,320,30481,2,0,B|18:271|18:271|38:226|95:218,1,150,4|4,0:3|0:3,0:0:0:0:
185,203,31910,6,0,B|235:216|235:216|276:214|331:200,1,150,4|8,0:0|0:0,0:0:0:0:
390,130,33339,2,0,L|378:282,2,150,4|8|4,0:3|0:0|0:3,0:0:0:0:
455,68,35481,1,8,0:0:0:0:
368,41,36196,2,0,B|318:28|318:28|277:30|222:44,1,150,4|8,0:3|0:0,0:0:0:0:
185,126,37624,6,0,L|190:278,1,150,4|8,0:3|0:0,0:0:0:0:
100,281,39053,2,0,L|95:131,1,150,4|8,0:3|0:0,0:0:0:0:
185,126,40481,6,0,P|197:196|268:208,1,150,4|8,0:3|0:0,0:0:0:0:
332,147,41910,2,0,P|320:77|249:65,1,150,4|8,0:3|0:0,0:0:0:0:
185,126,43339,6,0,L|176:276,1,150,4|8,0:3|0:0,0:0:0:0:
86,269,44767,2,0,L|95:119,1,150,4|8,0:3|0:0,0:0:0:0:
177,84,46196,6,0,P|103:85|75:24,2,150,4|8|4,0:3|0:0|0:3,0:0:0:0:
256,40,48339,1,8,0:0:0:0:
335,84,49053,2,0,P|409:85|437:24,2,150,4|8|4,0:3|0:0|0:3,0:0:0:0:
256,40,51196,1,4,0:3:0:0:
177,84,51910,6,0,L|183:234,1,150,4|8,0:0|0:0,0:0:0:0:
115,293,53339,2,0,B|149:337|202:323|202:323|201:352|213:377,1,150,4|8,0:3|0:0,0:0:0:0:
300,373,54767,2,0,B|311:352|310:323|310:323|363:337|397:293,1,150,4|8,0:3|0:0,0:0:0:0:
329,234,56196,2,0,L|335:84,2,150,4|8|4,0:3|0:0|0:0,0:0:0:0:
256,287,58339,5,8,0:0:0:0:
167,271,59053,2,0,L|17:279,1,150,4|8,0:3|0:0,0:0:0:0:
8,189,60481,2,0,L|158:181,1,150,4|8,0:3|0:0,0:0:0:0:
190,96,61910,2,0,B|236:100|236:100|256:120|256:120|276:100|276:100|324:96,2,150,4|8|4,0:3|0:0|0:0,0:0:0:0:
135,26,64053,5,8,0:0:0:0:
69,88,64767,2,0,P|9:130|20:208,1,150,4|8,0:3|0:0,0:0:0:0:
93,241,66196,1,4,0:0:0:0:
168,192,66910,2,0,L|318:186,2,150,8|4|8,0:0|0:3|0:0,0:0:0:0:
93,241,69053,6,0,B|63:263|46:297|46:297|53:334|77:366,2,150,4|8|4,0:0|0:0|0:3,0:0:0:0:
168,192,71196,1,8,0:0:0:0:
93,143,71910,2,0,B|63:120|46:86|46:86|53:49|77:17,2,150,4|8|4,0:0|0:0|0:3,0:0:0:0:
168,192,74053,1,8,0:0:0:0:
239,137,74767,6,0,B|282:141|306:166|306:166|337:152|380:164,1,150,4|8,0:3|0:0,0:0:0:0:
349,249,76196,2,0,B|305:253|281:278|281:278|250:264|207:276,1,150,4|8,0:3|0:0,0:0:0:0:
242,359,77624,1,4,0:0:0:0:
152,347,78339,2,0,B|116:349|88:327|88:327|41:321|5:342,2,150,8|4|8,0:0|0:3|0:0,0:0:0:0:
202,272,80481,6,0,B|213:241|199:214|199:214|209:194|209:194|200:168|210:127,1,150,4|8,0:0|0:0,0:0:0:0:
301,127,81910,2,0,B|311:168|302:194|302:194|312:214|312:214|298:241|310:272,2,150,4|8|4,0:3|0:0|0:0,0:0:0:0:
256,192,83696,12,0,86196,0:0:0:0:
