osu file format v14

[General]
AudioFilename: audio.mp3
AudioLeadIn: 0
PreviewTime: 165569
Countdown: 0
SampleSet: Soft
StackLeniency: 0.5
Mode: 0
LetterboxInBreaks: 0
EpilepsyWarning: 1
WidescreenStoryboard: 1

[Editor]
Bookmarks: 165200,308333
DistanceSpacing: 0.8
BeatDivisor: 4
GridSize: 4
TimelineZoom: 2

[Metadata]
Title:red moon
TitleUnicode:red moon
Artist:Kalafina
ArtistUnicode:Kalafina
Creator:Kalibe
Version:Lunar
Source:
Tags:カラフィナ pono ponoyoshi SME Records j-pop jpop pop
BeatmapID:1539185
BeatmapSetID:729156

[Difficulty]
HPDrainRate:6
CircleSize:4.1
OverallDifficulty:8
ApproachRate:9
SliderMultiplier:1.65
SliderTickRate:1

[Events]
//Background and Video events
0,0,"moon.jpg",0,0
//Break Periods
//Storyboard Layer 0 (Background)
//Storyboard Layer 1 (Fail)
//Storyboard Layer 2 (Pass)
//Storyboard Layer 3 (Foreground)
//Storyboard Sound Samples

[TimingPoints]
22061,361.44578313253,3,2,1,30,1,0
22061,-285.714285714286,3,2,1,30,0,0
30735,-285.714285714286,3,2,1,35,0,0
35073,-285.714285714286,3,2,1,40,0,0
39048,-200,3,2,1,30,0,0
56759,-153.846153846154,3,2,1,40,0,0
68687,-133.333333333333,3,2,1,45,0,0
69771,-117.647058823529,3,2,1,50,0,0
70494,-181.818181818181,3,2,1,45,0,0
73024,-181.818181818181,3,2,1,55,0,0
73386,-181.818181818181,3,2,1,65,0,0
73747,-181.818181818181,3,2,1,75,0,0
74109,-100,3,2,1,80,0,0
81699,-83.3333333333333,3,2,1,80,0,0
82783,-100,3,2,1,80,0,0
91458,-105.263157894737,3,2,1,70,0,0
122904,-80.0000000000001,3,2,1,70,0,0
123265,-105.263157894737,3,2,1,70,0,0
126157,-86.9565217391306,3,2,1,75,0,0
130133,-200,3,2,1,50,0,0
130494,-200,3,2,1,30,0,0
147844,-153.846153846154,3,2,1,40,0,0
158687,-125,3,2,1,60,0,0
160856,-166.666666666667,3,2,1,50,0,0
164109,-166.666666666667,3,2,1,55,0,0
164470,-166.666666666667,3,2,1,65,0,0
164832,-166.666666666667,3,2,1,75,0,0
165193,-100,3,2,1,80,0,0
172783,-83.3333333333333,3,2,1,80,0,0
173868,-100,3,2,1,80,0,0
182542,-105.263157894737,3,2,1,70,0,0
216157,-90.9090909090908,3,2,1,80,0,0
221579,-200,3,2,1,40,0,0
237753,-200,3,2,1,5,0,0
237844,-200,3,2,1,40,0,0
255916,-125,3,2,1,40,0,0
256277,-200,3,2,1,40,0,0
268205,-133.333333333333,3,2,1,40,0,0
269289,-117.647058823529,3,2,1,60,0,0
273627,-100,3,2,1,80,0,0
281217,-83.3333333333333,3,2,1,80,0,0
282301,-100,3,2,1,80,0,0
298567,-83.3333333333333,3,2,1,80,0,0
299651,-100,3,2,1,80,0,0
308326,-105.263157894737,3,2,1,80,0,0
341919,361.44578313253,3,2,1,70,1,0
341919,-105.263157894737,4,2,1,70,0,0
343003,361.44578313253,3,2,1,70,1,1
343364,-95.2380952380952,3,2,1,75,0,1
360353,-95.2380952380952,3,2,1,85,0,1
377701,-400,3,2,2,60,0,0
377793,-95.2380952380952,3,2,1,40,0,0
384208,-95.2380952380952,3,2,2,30,0,0
386377,-95.2380952380952,3,2,1,20,0,0

[Colours]
Combo1 : 255,128,0
Combo2 : 255,128,128
Combo3 : 255,0,0
Combo4 : 228,135,90

[HitObjects]
384,319,22060,5,2,0:0:0:0:
384,319,22783,1,2,0:0:0:0:
384,319,23506,1,2,0:0:0:0:
179,268,24229,21,2,0:0:0:0:
179,268,24952,1,2,0:0:0:0:
179,268,25675,1,2,0:0:0:0:
412,189,26398,21,2,0:0:0:0:
412,189,27121,1,2,0:0:0:0:
412,189,27844,1,2,0:0:0:0:
186,114,28567,21,2,0:0:0:0:
186,114,29290,1,2,0:0:0:0:
186,114,30013,1,2,0:0:0:0:
306,44,30735,22,0,L|295:104,1,57.7499982376099,2|0,0:0|0:0,0:0:0:0:
389,210,31458,2,0,L|336:185,1,57.7499982376099,2|0,0:0|0:0,0:0:0:0:
439,82,32181,2,0,L|386:106,1,57.7499982376099,2|0,0:0|0:0,0:0:0:0:
206,45,32904,22,0,L|217:105,1,57.7499982376099,2|0,0:0|0:0,0:0:0:0:
123,211,33627,2,0,L|175:186,1,57.7499982376099,2|0,0:0|0:0,0:0:0:0:
73,83,34350,2,0,L|125:107,1,57.7499982376099,2|2,0:0|0:3,0:0:0:0:
234,290,35073,22,0,P|334:286|385:344,1,173.24999471283,4|0,0:0|0:0,0:0:0:0:
289,371,36518,1,2,0:0:0:0:
355,189,36880,1,2,0:0:0:0:
381,334,37241,21,4,0:0:0:0:
280,231,37603,1,2,0:0:0:0:
354,108,37964,1,2,0:0:0:0:
493,147,38326,22,0,P|500:102|513:27,1,115.49999647522,2|2,0:0|0:3,0:0:0:0:
512,34,39410,22,0,P|431:28|361:78,1,165,2|0,0:0|0:0,0:0:0:0:
270,160,40494,2,0,P|337:205|417:199,1,165,2|0,0:0|0:0,0:0:0:0:
293,374,41579,22,0,L|310:288,1,82.5,2|0,0:0|0:0,0:0:0:0:
309,294,42121,1,0,0:0:0:0:
309,294,42301,1,2,0:0:0:0:
213,331,42663,21,0,0:0:0:0:
409,255,43024,1,0,0:0:0:0:
235,86,43386,1,2,0:0:0:0:
53,280,43747,22,0,P|69:199|75:113,1,165,2|0,0:0|0:0,0:0:0:0:
234,47,44832,2,0,P|239:129|255:210,1,165,2|0,0:0|0:0,0:0:0:0:
407,41,45916,22,0,L|393:126,1,82.5,2|0,0:0|0:0,0:0:0:0:
390,144,46639,1,2,0:0:0:0:
487,97,47000,21,0,0:0:0:0:
336,216,47362,1,2,0:0:0:0:
427,301,47723,1,0,0:0:0:0:
203,220,48085,22,0,L|217:346,1,123.75,2|0,0:0|0:0,0:0:0:0:
207,361,48807,1,2,0:0:0:0:
373,257,49169,2,0,P|333:248|284:239,2,82.5,2|0|0,0:0|0:0|0:0,0:0:0:0:
266,135,50253,22,0,P|202:146|135:154,1,123.75,2|0,0:0|0:0,0:0:0:0:
129,139,50976,1,2,0:0:0:0:
14,265,51338,2,0,P|8:305|-2:355,2,82.5,2|0|0,0:0|0:0|0:0,0:0:0:0:
54,171,52422,22,0,B|146:176|115:232|198:243,1,165,2|0,0:0|0:0,0:0:0:0:
302,348,53506,2,0,L|317:267,1,82.5,2|0,0:0|0:0,0:0:0:0:
220,326,54229,1,0,0:0:0:0:
373,186,54591,2,0,P|334:179|275:172,1,82.5,2|0,0:0|0:0,0:0:0:0:
140,89,55314,1,2,0:0:0:0:
132,82,55675,2,0,P|215:29|274:46,1,165,2|2,0:0|0:3,0:0:0:0:
260,56,56759,22,0,L|143:39,1,107.249995090485,0|0,1:0|0:0,0:0:0:0:
92,84,57301,1,2,0:0:0:0:
92,84,57482,1,0,0:0:0:0:
219,213,57844,2,0,L|325:197,1,107.249995090485,0|0,1:0|0:0,0:0:0:0:
259,130,58567,1,2,0:0:0:0:
415,219,58928,1,0,1:0:0:0:
283,307,59289,1,2,0:0:0:0:
325,197,59651,1,0,0:0:0:0:
360,384,60012,21,0,1:0:0:0:
188,292,60374,1,2,0:0:0:0:
448,200,60735,1,0,1:0:0:0:
275,111,61097,22,0,L|390:126,1,107.249995090485,0|0,1:0|0:0,0:0:0:0:
451,87,61639,1,0,0:0:0:0:
451,87,61820,1,2,0:0:0:0:
309,266,62181,2,0,L|202:279,1,107.249995090485,0|0,1:0|0:0,0:0:0:0:
253,188,62904,1,2,0:0:0:0:
109,293,63265,1,0,1:0:0:0:
267,375,63627,1,0,0:0:0:0:
202,279,63988,1,2,0:0:0:0:
86,384,64350,21,0,1:0:0:0:
289,294,64711,1,2,0:0:0:0:
209,155,65073,1,0,3:0:0:0:
209,155,65434,22,0,P|216:104|221:45,1,107.249995090485,0|2,1:0|0:0,0:0:0:0:
220,48,65976,1,0,0:0:0:0:
220,48,66157,1,0,0:0:0:0:
120,103,66518,21,0,1:0:0:0:
276,210,66880,2,0,L|344:198,2,53.6249975452424,0|0|2,0:0|0:0|0:0,0:0:0:0:
161,292,67603,22,0,P|212:297|269:324,1,107.249995090485,0|0,1:0|0:0,0:0:0:0:
327,374,68145,1,0,0:0:0:0:
327,374,68326,1,2,0:0:0:0:
512,190,68687,6,0,B|455:153|455:153|419:184|419:184|372:153|372:153|343:224|284:238|233:201,1,340.312512981892,2|0,0:1|0:0,0:0:0:0:
290,139,69771,6,0,P|325:197|299:265,1,140.250002675056,4|0,0:0|0:0,0:0:0:0:
253,322,70314,1,0,0:0:0:0:
253,322,70494,1,2,0:0:0:0:
79,176,70856,22,0,L|90:83,1,90.7500027694703,8|0,3:0|0:0,0:0:0:0:
143,32,71398,1,0,3:0:0:0:
143,32,71579,1,8,0:3:0:0:
143,32,71940,21,4,0:0:0:0:
418,49,72482,21,8,3:0:0:0:
418,49,72663,1,8,0:0:0:0:
418,49,73024,5,8,0:0:0:0:
341,21,73205,21,8,3:0:0:0:
256,55,73386,21,0,3:0:0:0:
200,137,73567,21,12,0:0:0:0:
232,240,73747,21,8,3:0:0:0:
333,299,73928,21,8,3:0:0:0:
389,130,74109,22,0,L|219:159,1,165,4|0,0:1|0:0,0:0:0:0:
65,319,74651,1,8,0:0:0:0:
50,223,74832,2,0,P|89:233|130:237,1,82.5,0|0,0:0|3:0,0:0:0:0:
320,376,75193,2,0,P|241:334|167:353,2,165,8|2|0,0:0|0:0|3:0,0:0:0:0:
399,323,76097,1,8,3:0:0:0:
224,197,76277,22,0,P|234:124|250:24,1,165,4|0,0:0|0:0,0:0:0:0:
120,254,76820,1,0,3:0:0:0:
42,184,77000,2,0,P|29:145|26:103,1,82.5,0|0,0:0|3:0,0:0:0:0:
211,293,77362,2,0,P|136:354|64:341,1,165,8|8,0:0|0:0,0:0:0:0:
14,276,77904,1,0,0:0:0:0:
224,197,78085,1,4,3:2:0:0:
148,100,78265,1,0,3:0:0:0:
103,330,78446,22,0,P|113:291|123:241,1,82.5,4|0,0:0|0:0,0:0:0:0:
323,134,78807,2,0,P|345:167|339:213,1,82.5,2|0,0:0|0:0,0:0:0:0:
280,318,79169,1,0,3:0:0:0:
200,229,79350,1,0,3:0:0:0:
399,51,79530,2,0,P|322:101|244:85,1,165,8|0,0:0|0:0,0:0:0:0:
180,28,80073,1,2,0:0:0:0:
376,173,80253,2,0,P|420:167|465:151,1,82.5,0|0,3:0|0:0,0:0:0:0:
201,302,80615,22,0,B|301:304|268:365|363:359,1,165,4|0,3:2|0:0,0:0:0:0:
465,257,81157,1,0,3:0:0:0:
388,195,81338,2,0,L|299:183,1,82.5,0|0,0:0|3:0,0:0:0:0:
125,254,81699,22,0,B|101:297|101:297|115:348,1,98.9999969787599,12|0,0:0|0:0,0:0:0:0:
262,115,82060,2,0,L|162:131,1,98.9999969787599,6|0,0:0|0:0,0:0:0:0:
444,329,82422,2,0,B|465:285|465:285|452:234,1,98.9999969787599,4|0,3:2|0:0,0:0:0:0:
350,56,82783,22,0,P|295:131|322:195,1,165,4|0,0:0|0:0,0:0:0:0:
390,154,83326,1,0,3:0:0:0:
249,28,83506,2,0,P|286:41|328:48,1,82.5,0|0,0:0|3:0,0:0:0:0:
496,230,83868,2,0,B|406:228|428:280|339:280,1,165,8|0,0:0|3:0,0:0:0:0:
236,202,84410,1,2,0:0:0:0:
236,202,84591,2,0,P|276:197|319:190,1,82.5,0|0,3:0|0:0,0:0:0:0:
79,351,84952,22,0,P|156:362|254:380,1,165,4|0,0:0|0:0,0:0:0:0:
313,212,85494,1,0,3:0:0:0:
165,159,85675,2,0,P|149:194|159:239,1,82.5,8|0,3:0|0:0,0:0:0:0:
413,78,86036,2,0,P|322:32|265:52,1,165,8|0,0:0|0:0,0:0:0:0:
191,26,86579,1,2,0:0:0:0:
371,151,86759,1,4,3:2:0:0:
232,204,86940,1,2,0:0:0:0:
355,13,87121,21,4,0:0:0:0:
469,233,87301,1,8,0:0:0:0:
358,304,87482,1,0,3:0:0:0:
358,304,87663,1,0,3:0:0:0:
455,137,87844,2,0,P|446:96|440:39,1,82.5,8|0,0:0|3:0,0:0:0:0:
247,210,88205,21,4,0:0:0:0:
467,345,88386,1,2,0:0:0:0:
381,199,88567,1,0,3:0:0:0:
381,199,88747,1,0,3:0:0:0:
207,356,88928,2,0,P|165:362|111:376,1,82.5,8|8,0:0|3:0,0:0:0:0:
98,384,89199,1,8,0:0:0:0:
98,384,89289,21,12,0:0:0:0:
292,266,89470,1,0,3:0:0:0:
161,165,89651,1,8,3:0:0:0:
191,267,89832,21,2,0:0:0:0:
341,130,90012,2,0,P|353:89|355:48,1,82.5,8|0,0:0|0:0,0:0:0:0:
87,222,90374,22,0,P|79:182|72:140,1,82.5,4|0,0:0|3:0,0:0:0:0:
374,320,90735,2,0,P|385:278|396:232,1,82.5,4|0,0:0|3:0,0:0:0:0:
123,380,91097,21,4,0:0:0:0:
123,380,91277,1,2,0:0:0:0:
210,327,91458,38,0,P|86:249|10:287,1,235.124993721485,4|0,0:1|3:0,0:0:0:0:
160,170,92181,2,0,L|256:150,1,78.3749979071618,2|0,0:0|0:0,0:0:0:0:
72,35,92542,2,0,P|108:48|149:54,1,78.3749979071618,8|0,0:0|0:0,0:0:0:0:
34,248,92904,1,2,0:0:0:0:
113,309,93085,2,0,P|189:321|270:338,1,156.749995814324,8|0,3:0|0:0,0:0:0:0:
472,201,93627,22,0,P|354:173|277:249,1,235.124993721485,4|0,0:0|0:0,0:0:0:0:
334,301,94350,2,0,L|422:318,1,78.3749979071618,2|0,0:0|3:0,0:0:0:0:
214,172,94711,1,8,0:0:0:0:
214,172,94892,1,0,3:0:0:0:
259,58,95073,21,8,3:0:0:0:
372,159,95253,1,0,3:0:0:0:
205,291,95434,1,0,3:0:0:0:
205,291,95615,1,0,3:0:0:0:
255,381,95795,22,0,P|291:315|228:167,1,235.124993721485,4|0,0:0|3:0,0:0:0:0:
344,80,96518,2,0,P|382:75|433:59,1,78.3749979071618,2|0,0:0|3:0,0:0:0:0:
223,191,96880,2,0,P|301:201|379:234,1,156.749995814324,8|0,0:0|0:0,0:0:0:0:
458,299,97422,1,2,0:0:0:0:
225,384,97603,22,0,P|212:353|221:301,1,78.3749979071618,0|0,3:0|0:0,0:0:0:0:
444,149,97964,2,0,P|480:233|467:295,1,156.749995814324,0|2,3:0|0:0,0:0:0:0:
324,177,98506,2,0,P|336:106|351:9,1,156.749995814324,8|0,0:0|3:0,0:0:0:0:
156,258,99048,2,0,B|248:257|217:320|312:314,1,156.749995814324,8|0,0:0|3:0,0:0:0:0:
370,260,99591,1,0,3:0:0:0:
370,260,99771,2,0,L|380:346,1,78.3749979071618,0|0,3:0|0:0,0:0:0:0:
234,241,100133,22,0,P|305:164|434:184,1,235.124993721485,4|0,0:0|3:0,0:0:0:0:
512,34,100856,2,0,L|496:115,1,78.3749979071618,2|0,0:0|0:0,0:0:0:0:
236,12,101217,2,0,L|258:169,2,156.749995814324,8|0|0,0:0|0:0|3:0,0:0:0:0:
321,39,102121,1,2,0:0:0:0:
170,151,102301,22,0,B|108:163|108:163|79:192|79:192|20:205,1,156.749995814324,0|0,3:0|0:0,0:0:0:0:
149,44,102844,2,0,P|187:53|225:59,1,78.3749979071618,8|0,0:0|0:0,0:0:0:0:
37,116,103205,1,0,3:0:0:0:
266,214,103386,2,0,B|182:219|205:266|113:273,1,156.749995814324,8|0,0:0|3:0,0:0:0:0:
42,349,103928,1,8,3:0:0:0:
136,180,104109,1,0,3:0:0:0:
28,219,104289,1,0,3:0:0:0:
219,322,104470,22,0,P|292:310|391:298,1,156.749995814324,4|0,0:0|0:0,0:0:0:0:
435,355,105012,1,0,3:0:0:0:
335,225,105193,1,0,3:0:0:0:
456,162,105374,1,0,3:0:0:0:
251,48,105554,22,0,L|341:59,1,78.3749979071618,12|0,0:0|0:0,0:0:0:0:
132,244,105916,2,0,B|114:209|114:209|127:159,1,78.3749979071618,8|0,3:0|3:0,0:0:0:0:
328,348,106277,2,0,L|250:357,1,78.3749979071618,2|0,0:0|0:0,0:0:0:0:
177,312,106639,21,8,3:0:0:0:
375,194,106820,2,0,P|454:191|508:255,1,156.749995814324,8|0,0:0|3:0,0:0:0:0:
432,353,107362,2,0,P|424:314|418:267,1,78.3749979071618,12|0,0:0|3:0,0:0:0:0:
253,56,107723,21,8,0:0:0:0:
239,51,107904,1,8,3:0:0:0:
331,126,108085,5,0,3:0:0:0:
420,96,108265,1,8,0:3:0:0:
263,228,108446,21,0,3:0:0:0:
142,188,108627,1,0,3:0:0:0:
319,328,108807,6,0,B|379:318|379:318|406:334|406:334|478:322,1,156.749995814324,4|0,0:0|0:0,0:0:0:0:
495,250,109350,1,0,3:0:0:0:
495,250,109530,2,0,L|481:163,1,78.3749979071618,0|0,0:0|3:0,0:0:0:0:
240,375,109892,22,0,P|215:328|256:234,1,156.749995814324,8|0,0:0|0:0,0:0:0:0:
125,163,110434,2,0,P|163:157|202:149,1,78.3749979071618,2|0,0:0|3:0,0:0:0:0:
121,263,110795,1,2,0:0:0:0:
286,94,110976,2,0,P|226:47|146:69,1,156.749995814324,0|0,3:0|3:0,0:0:0:0:
250,237,111518,2,0,B|335:253|313:194|408:212,1,156.749995814324,8|0,0:0|3:0,0:0:0:0:
373,95,112060,22,0,P|359:57|359:10,1,78.3749979071618,8|0,0:0|3:0,0:0:0:0:
373,289,112422,2,0,P|359:327|359:374,1,78.3749979071618,8|0,3:0|3:0,0:0:0:0:
477,186,112783,2,0,L|386:197,1,78.3749979071618,8|0,3:0|3:0,0:0:0:0:
172,357,113145,22,0,L|16:338,1,156.749995814324,4|0,0:0|3:0,0:0:0:0:
176,265,113687,1,8,3:0:0:0:
77,66,113868,2,0,L|88:155,1,78.3749979071618,2|0,0:0|3:0,0:0:0:0:
275,323,114229,2,0,P|299:272|266:176,2,156.749995814324,8|0|0,0:0|0:0|3:0,0:0:0:0:
209,369,115133,1,0,0:0:0:0:
380,259,115314,22,0,L|392:348,1,78.3749979071618,0|0,3:0|0:0,0:0:0:0:
272,219,115675,1,0,3:0:0:0:
475,106,115856,2,0,P|397:144|330:125,1,156.749995814324,8|0,0:0|3:0,0:0:0:0:
257,61,116398,1,8,0:0:0:0:
257,61,116579,1,0,3:0:0:0:
340,103,116759,21,8,3:0:0:0:
238,144,116940,1,0,3:0:0:0:
168,59,117121,1,0,3:0:0:0:
271,23,117301,1,0,3:0:0:0:
65,187,117482,22,0,P|44:139|63:33,1,156.749995814324,4|0,0:0|3:0,0:0:0:0:
132,70,118024,1,0,3:0:0:0:
132,70,118205,2,0,P|141:105|138:149,1,78.3749979071618,2|0,0:0|3:0,0:0:0:0:
0,331,118567,2,0,P|51:293|146:300,2,156.749995814324,8|2|0,0:0|0:0|3:0,0:0:0:0:
60,205,119470,1,0,0:0:0:0:
196,364,119651,22,0,B|230:319|230:319|203:201,1,156.749995814324,0|0,3:0|3:0,0:0:0:0:
56,112,120193,1,8,0:0:0:0:
121,28,120374,2,0,L|204:40,1,78.3749979071618,2|0,0:0|3:0,0:0:0:0:
325,179,120735,21,8,0:0:0:0:
195,244,120916,1,0,3:0:0:0:
215,113,121097,1,2,0:0:0:0:
427,215,121277,2,0,P|441:180|449:125,1,78.3749979071618,8|0,0:0|3:0,0:0:0:0:
325,77,121640,21,2,0:0:0:0:
113,179,121820,2,0,P|99:144|91:89,1,78.3749979071618,4|0,0:0|0:0,0:0:0:0:
137,37,122181,1,0,3:0:0:0:
241,200,122362,2,0,P|226:278|211:353,1,156.749995814324,8|0,3:0|3:0,0:0:0:0:
471,231,122904,6,0,B|379:234|404:296|317:293,1,154.6875,12|0,0:0|0:0,0:0:0:0:
311,283,123265,1,2,0:0:0:0:
436,355,123446,21,8,0:0:0:0:
335,161,123627,2,0,P|345:122|354:71,1,78.3749979071618,0|0,3:0|0:0,0:0:0:0:
422,36,123988,21,4,0:0:0:0:
255,115,124169,1,8,0:0:0:0:
471,231,124350,1,8,0:0:0:0:
333,292,124530,1,8,3:0:0:0:
327,323,124621,1,8,3:0:0:0:
324,354,124711,1,8,0:0:0:0:
429,327,124892,1,8,0:0:0:0:
232,224,125073,21,0,3:0:0:0:
416,157,125253,1,8,3:0:0:0:
295,103,125434,1,0,3:0:0:0:
375,59,125615,1,8,3:0:0:0:
342,38,125795,1,8,3:0:0:0:
359,27,125976,1,0,3:0:0:0:
295,103,126157,21,6,0:0:0:0:
491,195,126338,2,0,B|426:183|426:183|376:216|376:216|302:202,1,189.750003619194,8|0,0:0|3:0,0:0:0:0:
448,377,126880,2,0,B|432:332|432:332|450:277,1,94.8750018095971,12|0,0:0|0:0,0:0:0:0:
359,27,127241,2,0,B|373:71|373:71|357:116,1,94.8750018095971,12|0,0:0|0:0,0:0:0:0:
184,292,127603,21,2,0:0:0:0:
315,207,127783,1,8,3:0:0:0:
324,366,127964,1,2,0:0:0:0:
267,271,128145,21,0,3:0:0:0:
270,285,128235,1,0,3:0:0:0:
273,299,128326,1,8,3:0:0:0:
178,153,128506,22,0,B|280:177|257:94|365:118,1,189.750003619194,12|0,0:0|3:0,0:0:0:0:
365,123,128958,1,8,3:0:0:0:
365,123,129048,22,0,P|381:76|375:24,1,94.8750018095971,8|8,0:0|3:0,0:0:0:0:
324,293,129410,2,0,P|340:336|373:370,1,94.8750018095971,2|0,0:0|0:0,0:0:0:0:
170,201,129771,2,0,P|126:181|79:181,1,94.8750018095971,8|0,3:0|0:0,0:0:0:0:
14,244,130133,5,2,0:3:0:0:
22,251,130494,2,0,P|51:174|31:91,1,165,2|0,0:0|0:0,0:0:0:0:
181,45,131579,2,0,P|152:122|172:205,1,165,2|0,0:0|0:0,0:0:0:0:
58,337,132663,22,0,L|148:322,1,82.5,2|0,0:0|0:0,0:0:0:0:
166,321,133205,1,0,0:0:0:0:
166,321,133386,1,2,0:0:0:0:
58,337,133747,21,0,0:0:0:0:
166,321,134109,1,2,0:0:0:0:
274,306,134470,1,0,0:0:0:0:
477,370,134832,22,0,P|485:298|503:194,1,165,2|0,0:0|0:0,0:0:0:0:
336,37,135916,2,0,P|326:118|312:200,1,165,2|0,0:0|0:0,0:0:0:0:
512,76,137000,22,0,L|412:94,1,82.5,2|0,0:0|0:0,0:0:0:0:
411,98,137723,1,0,0:0:0:0:
512,76,138085,21,2,0:0:0:0:
411,98,138446,1,2,0:0:0:0:
326,118,138807,1,0,0:0:0:0:
168,63,139169,22,0,P|105:60|53:100,1,123.75,2|0,0:0|0:0,0:0:0:0:
35,85,139892,1,2,0:0:0:0:
165,173,140253,1,2,0:0:0:0:
62,261,140615,1,0,0:0:0:0:
137,321,140976,1,2,0:0:0:0:
31,353,141338,22,0,L|164:328,1,123.75,2|0,0:0|0:0,0:0:0:0:
170,344,142060,1,2,0:0:0:0:
261,166,142422,1,2,0:0:0:0:
310,312,142783,1,0,0:0:0:0:
382,218,143145,1,0,0:0:0:0:
419,281,143506,21,2,0:0:0:0:
250,239,143868,1,0,0:0:0:0:
419,281,144229,1,0,0:0:0:0:
170,148,144591,21,2,0:0:0:0:
339,106,144953,1,0,0:0:0:0:
170,148,145314,1,0,0:0:0:0:
344,229,145675,21,2,0:0:0:0:
345,223,146036,1,0,0:0:0:0:
150,279,146398,21,2,0:0:0:0:
142,272,146759,1,2,0:0:0:0:
134,265,147121,2,0,L|116:353,1,82.5,2|2,0:0|0:3,0:0:0:0:
118,346,147844,22,0,L|261:327,1,107.249995090485,2|0,0:0|0:0,0:0:0:0:
299,366,148386,1,0,0:0:0:0:
299,366,148567,2,0,L|308:301,1,53.6249975452424
335,94,148928,21,0,3:0:0:0:
339,108,149289,1,0,0:0:0:0:
344,122,149651,1,2,0:0:0:0:
349,136,150012,22,0,L|228:124,1,107.249995090485,2|0,0:0|0:0,0:0:0:0:
175,182,150554,1,0,0:0:0:0:
175,182,150735,1,2,0:0:0:0:
82,92,150916,21,0,0:0:0:0:
82,92,151006,1,0,0:0:0:0:
82,92,151097,2,0,L|94:149,1,53.6249975452424,0|0,3:0|0:0,0:0:0:0:
260,47,151458,2,0,L|248:104,1,53.6249975452424,0|0,3:0|0:0,0:0:0:0:
157,23,151820,1,2,3:2:0:0:
5,221,152181,22,0,B|98:203|79:265|170:246,1,160.874992635727,4|0,3:0|0:0,0:0:0:0:
211,323,152904,2,0,L|198:385,1,53.6249975452424,2|0,0:0|0:0,0:0:0:0:
333,274,153265,2,0,P|324:220|318:166,1,107.249995090485,0|2,3:0|0:0,0:0:0:0:
110,343,153988,1,2,3:2:0:0:
110,343,154169,1,0,0:0:0:0:
199,375,154350,22,0,P|251:373|315:353,1,107.249995090485,0|0,3:0|0:0,0:0:0:0:
368,310,154892,1,0,0:0:0:0:
368,310,155073,2,0,P|397:314|441:324,1,53.6249975452424,2|0,0:0|0:0,0:0:0:0:
221,163,155434,21,0,3:0:0:0:
206,167,155795,1,0,0:0:0:0:
225,89,155976,1,0,3:0:0:0:
184,250,156157,1,2,0:0:0:0:
82,18,156518,22,0,L|96:140,1,107.249995090485,4|2,3:2|0:0,0:0:0:0:
111,206,157060,1,0,0:0:0:0:
111,206,157241,1,0,0:0:0:0:
346,143,157603,2,0,L|408:136,1,53.6249975452424,2|0,0:0|0:0,0:0:0:0:
441,71,157964,2,0,P|429:124|424:182,1,107.249995090485,2|0,0:0|0:0,0:0:0:0:
172,337,158687,6,0,B|244:330|244:330|284:360|284:360|364:353,1,198,12|0,0:0|0:0,0:0:0:0:
367,360,159320,1,8,3:0:0:0:
367,360,159410,2,0,L|379:279,1,66,8|0,0:0|0:0,0:0:0:0:
333,191,159771,21,8,0:0:0:0:
157,133,159952,1,8,3:0:0:0:
203,234,160133,21,0,3:0:0:0:
245,160,160314,1,0,3:0:0:0:
285,85,160494,2,0,L|271:7,1,66,8|0,0:3|0:0,0:0:0:0:
36,165,160856,5,4,0:0:0:0:
36,165,161579,21,0,3:0:0:0:
92,246,161940,1,2,3:2:0:0:
206,276,162301,1,8,3:0:0:0:
342,248,162663,1,8,3:0:0:0:
439,123,163024,1,12,3:0:0:0:
439,123,163386,37,0,3:0:0:0:
362,76,163567,21,8,0:0:0:0:
269,88,163747,21,12,0:0:0:0:
194,153,163928,21,0,3:0:0:0:
109,213,164109,21,12,3:0:0:0:
2,197,164289,21,8,3:0:0:0:
80,115,164470,21,8,3:0:0:0:
194,153,164651,21,8,3:0:0:0:
264,284,164832,21,2,0:2:0:0:
291,308,164922,1,2,0:2:0:0:
326,317,165012,1,2,0:2:0:0:
362,308,165103,1,2,0:2:0:0:
379,298,165193,22,0,B|282:305|324:358|218:365,1,165,4|0,0:1|3:0,0:0:0:0:
130,263,165735,1,0,3:0:0:0:
294,187,165916,2,0,L|212:175,1,82.5,2|0,0:0|3:0,0:0:0:0:
44,363,166277,2,0,L|213:341,1,165,8|2,0:0|0:0,0:0:0:0:
50,243,166820,1,8,0:0:0:0:
50,243,167000,2,0,P|90:250|142:257,1,82.5,0|0,3:0|0:0,0:0:0:0:
399,69,167362,22,0,P|310:62|258:115,1,165,4|0,0:0|3:0,0:0:0:0:
109,42,167904,2,0,P|149:35|188:21,1,82.5,0|2,3:0|0:0,0:0:0:0:
66,134,168265,1,0,3:0:0:0:
301,219,168446,22,0,P|294:179|287:124,1,82.5,8|0,0:0|0:0,0:0:0:0:
466,307,168807,2,0,P|473:266|482:224,1,82.5,8|0,0:0|0:0,0:0:0:0:
209,384,169169,2,0,P|198:323|184:242,1,123.75,4|0,0:0|0:0,0:0:0:0:
167,246,169530,1,4,0:0:0:0:
479,68,169892,21,2,0:0:0:0:
398,119,170073,1,8,0:0:0:0:
398,119,170253,2,0,P|382:83|385:34,1,82.5,0|0,3:0|3:0,0:0:0:0:
511,221,170615,2,0,B|420:219|442:279|350:277,1,165,8|0,0:0|0:0,0:0:0:0:
486,338,171157,1,8,3:0:0:0:
486,338,171338,2,0,P|444:345|401:363,1,82.5,0|0,3:0|0:0,0:0:0:0:
258,152,171699,22,0,P|249:231|235:318,1,165,4|0,0:0|0:0,0:0:0:0:
362,132,172241,1,0,3:0:0:0:
278,60,172422,2,0,P|237:69|182:75,1,82.5,2|0,0:0|3:0,0:0:0:0:
460,186,172783,22,0,B|477:143|477:143|467:91,1,98.9999969787599,12|0,0:0|0:0,0:0:0:0:
240,325,173145,2,0,B|284:345|284:345|336:334,1,98.9999969787599,6|0,0:0|0:0,0:0:0:0:
160,61,173506,2,0,B|138:102|138:102|150:156,1,98.9999969787599,4|0,3:2|0:0,0:0:0:0:
296,260,173868,22,0,P|311:175|327:76,1,165,4|0,0:0|0:0,0:0:0:0:
340,22,174410,1,0,3:0:0:0:
340,22,174591,2,0,L|432:38,1,82.5,2|0,0:0|3:0,0:0:0:0:
482,270,174952,2,0,L|400:255,1,82.5,8|0,0:0|0:0,0:0:0:0:
492,85,175314,2,0,P|508:122|512:165,1,82.5,2|0,0:0|0:0,0:0:0:0:
304,371,175675,2,0,P|287:333|283:292,1,82.5,0|0,3:0|0:0,0:0:0:0:
372,164,176036,1,4,3:2:0:0:
90,365,176398,21,2,0:0:0:0:
216,219,176579,1,0,3:0:0:0:
97,255,176759,1,0,3:0:0:0:
200,344,176940,21,8,3:0:0:0:
129,159,177121,2,0,P|213:105|279:119,1,165,10|8,0:0|0:0,0:0:0:0:
163,34,177663,1,0,0:0:0:0:
319,196,177844,1,4,0:0:0:0:
404,92,178024,1,0,0:0:0:0:
119,167,178205,22,0,L|209:150,1,82.5,4|0,0:0|0:0,0:0:0:0:
404,296,178567,1,0,0:0:0:0:
404,296,178747,1,0,3:0:0:0:
288,361,178928,2,0,P|269:306|308:201,1,165,12|4,0:0|3:2,0:0:0:0:
469,133,179470,21,8,0:0:0:0:
247,50,179651,1,8,3:0:0:0:
247,50,179832,1,0,3:0:0:0:
376,127,180012,2,0,P|416:118|455:106,1,82.5,12|0,0:0|0:0,0:0:0:0:
214,197,180374,21,6,0:0:0:0:
362,362,180554,1,8,0:0:0:0:
309,234,180735,1,0,3:0:0:0:
196,310,180916,1,8,3:0:0:0:
196,310,181006,1,8,3:0:0:0:
196,310,181097,1,8,0:0:0:0:
441,231,181277,1,8,0:0:0:0:
272,128,181458,22,0,P|280:86|290:22,1,82.5,12|8,0:0|3:0,0:0:0:0:
59,247,181820,2,0,P|51:205|41:141,1,82.5,4|0,0:0|3:0,0:0:0:0:
316,370,182181,21,4,0:0:0:0:
316,370,182362,1,2,0:0:0:0:
266,280,182542,6,0,B|394:244|371:353|491:307,1,235.124993721485,4|0,0:1|3:0,0:0:0:0:
439,241,183265,2,0,L|349:256,1,78.3749979071618,2|0,0:0|3:0,0:0:0:0:
149,338,183627,2,0,P|122:280|177:212,1,156.749995814324,8|0,0:0|0:0,0:0:0:0:
250,309,184169,1,8,0:0:0:0:
250,309,184350,2,0,P|241:344|233:388,1,78.3749979071618,0|0,3:0|0:0,0:0:0:0:
365,252,184711,22,0,P|349:183|337:94,1,156.749995814324,2|0,3:2|3:0,0:0:0:0:
493,21,185253,2,0,P|531:97|502:164,1,156.749995814324,8|0,0:0|3:0,0:0:0:0:
314,19,185795,2,0,L|405:35,1,78.3749979071618,8|0,0:0|3:0,0:0:0:0:
320,263,186157,2,0,L|411:248,1,78.3749979071618,8|0,3:0|0:0,0:0:0:0:
242,142,186518,1,8,3:0:0:0:
242,142,186699,1,0,3:0:0:0:
398,153,186880,22,0,P|316:147|241:141,1,156.749995814324,4|0,0:0|3:0,0:0:0:0:
180,58,187422,1,0,3:0:0:0:
15,209,187603,22,0,P|0:175|5:130,1,78.3749979071618,2|0,0:0|0:0,0:0:0:0:
155,330,187964,2,0,P|123:349|74:353,1,78.3749979071618,8|0,0:0|0:0,0:0:0:0:
292,217,188326,2,0,P|311:249|314:297,1,78.3749979071618,2|0,0:0|0:0,0:0:0:0:
188,84,188687,2,0,P|220:65|266:62,1,78.3749979071618,0|0,3:0|0:0,0:0:0:0:
318,124,189048,22,0,P|234:111|161:99,1,156.749995814324,4|0,0:0|3:0,0:0:0:0:
393,223,189591,1,8,0:0:0:0:
477,150,189771,1,2,0:0:0:0:
422,52,189952,1,0,3:0:0:0:
490,302,190133,22,0,P|499:266|517:205,1,78.3749979071618,12|0,0:0|0:0,0:0:0:0:
254,383,190494,2,0,P|245:347|226:284,1,78.3749979071618,8|0,3:0|0:0,0:0:0:0:
384,359,190856,1,0,3:0:0:0:
384,359,191036,1,0,3:0:0:0:
116,261,191217,22,0,B|244:230|216:328|340:289,1,235.124993721485,4|0,0:0|3:0,0:0:0:0:
406,218,191940,2,0,P|372:198|324:189,1,78.3749979071618,2|0,0:0|0:0,0:0:0:0:
192,30,192301,2,0,P|230:32|268:21,1,78.3749979071618,8|0,0:0|0:0,0:0:0:0:
456,79,192663,2,0,P|375:92|298:109,1,156.749995814324,2|0,0:0|3:0,0:0:0:0:
228,193,193205,1,0,0:0:0:0:
105,78,193386,1,4,3:0:0:0:
442,243,193747,21,0,3:0:0:0:
334,135,193928,1,8,0:0:0:0:
334,135,194109,2,0,L|445:151,1,78.3749979071618,2|0,0:0|3:0,0:0:0:0:
273,366,194470,2,0,L|434:350,1,156.749995814324,12|0,0:0|0:0,0:0:0:0:
235,258,195012,1,0,3:0:0:0:
395,175,195193,1,8,3:0:0:0:
340,317,195374,1,0,3:0:0:0:
148,191,195554,22,0,P|163:123|181:34,1,156.749995814324,4|0,0:0|3:0,0:0:0:0:
270,106,196097,1,0,3:0:0:0:
270,106,196277,2,0,P|276:144|287:190,1,78.3749979071618,2|0,0:0|0:0,0:0:0:0:
506,32,196639,22,0,P|468:26|423:15,1,78.3749979071618,12|0,0:0|0:0,0:0:0:0:
510,241,197000,2,0,P|472:247|427:258,1,78.3749979071618,2|0,0:0|3:0,0:0:0:0:
349,126,197362,21,8,0:0:0:0:
465,170,197542,1,0,3:0:0:0:
350,237,197723,1,8,3:0:0:0:
466,58,197904,1,8,0:0:0:0:
466,58,198085,1,2,0:0:0:0:
359,16,198265,1,0,3:0:0:0:
437,254,198446,1,8,0:0:0:0:
327,116,198627,5,8,0:0:0:0:
304,117,198717,1,8,0:0:0:0:
283,124,198807,1,8,3:0:0:0:
184,196,198988,1,8,3:0:0:0:
129,116,199169,21,8,0:0:0:0:
321,203,199350,1,8,3:0:0:0:
109,296,199530,21,8,3:0:0:0:
304,117,199711,1,0,3:0:0:0:
226,46,199892,6,0,B|173:150|267:166|212:277,1,235.124993721485,4|0,0:0|3:0,0:0:0:0:
138,356,200615,2,0,P|125:322|124:279,1,78.3749979071618,2|0,0:0|0:0,0:0:0:0:
302,384,200976,2,0,P|331:319|325:232,1,156.749995814324,8|0,0:0|0:0,0:0:0:0:
258,172,201518,1,8,3:0:0:0:
389,120,201699,2,0,P|427:129|474:137,1,78.3749979071618,0|0,3:0|0:0,0:0:0:0:
247,46,202060,22,0,P|327:33|415:19,1,156.749995814324,2|0,0:0|3:0,0:0:0:0:
479,121,202603,1,8,0:0:0:0:
380,171,202783,1,2,0:0:0:0:
437,266,202964,1,0,3:0:0:0:
377,342,203145,22,0,L|286:331,1,78.3749979071618,8|0,0:0|0:0,0:0:0:0:
479,121,203506,2,0,B|499:153|499:153|493:203,1,78.3749979071618,0|0,3:0|0:0,0:0:0:0:
261,246,203868,2,0,B|241:214|241:214|246:159,1,78.3749979071618,8|0,3:0|0:0,0:0:0:0:
366,188,204229,22,0,P|265:246|156:211,1,235.124993721485,4|0,0:0|3:0,0:0:0:0:
83,304,204952,2,0,P|75:337|64:382,1,78.3749979071618,2|0,0:0|0:0,0:0:0:0:
0,133,205314,2,0,B|45:103|45:103|148:124,2,156.749995814324,8|2|0,0:0|0:0|3:0,0:0:0:0:
113,30,206217,1,0,0:0:0:0:
202,192,206398,22,0,P|240:135|208:59,1,156.749995814324,4|0,3:0|3:0,0:0:0:0:
62,202,206940,1,0,3:0:0:0:
62,202,207121,2,0,L|73:285,1,78.3749979071618,2|0,0:0|0:0,0:0:0:0:
359,120,207482,22,0,L|330:276,1,156.749995814324,12|8,0:0|3:0,0:0:0:0:
262,353,208024,1,0,0:0:0:0:
433,263,208205,1,2,3:2:0:0:
240,181,208386,1,0,3:0:0:0:
419,49,208567,22,0,P|339:94|282:75,1,156.749995814324,4|0,0:0|3:0,0:0:0:0:
163,171,209109,1,0,3:0:0:0:
163,171,209289,2,0,P|199:161|245:155,1,78.3749979071618,2|0,0:0|0:0,0:0:0:0:
33,48,209651,2,0,P|107:67|192:76,2,156.749995814324,8|2|0,0:0|0:0|3:0,0:0:0:0:
81,155,210554,1,0,0:0:0:0:
0,295,210735,22,0,P|62:258|146:266,1,156.749995814324,4|0,0:0|3:0,0:0:0:0:
319,349,211277,2,0,P|246:359|165:379,1,156.749995814324,8|0,0:0|3:0,0:0:0:0:
257,155,211820,2,0,P|267:188|275:258,1,78.3749979071618,12|0,0:0|0:0,0:0:0:0:
454,384,212181,2,0,P|460:347|472:308,1,78.3749979071618,8|0,3:0|3:0,0:0:0:0:
362,125,212542,1,0,3:0:0:0:
288,339,212723,1,8,3:0:0:0:
512,211,212904,22,0,P|432:224|349:236,1,156.749995814324,4|0,0:0|3:0,0:0:0:0:
249,69,213446,1,0,3:0:0:0:
319,27,213627,2,0,P|357:36|403:42,1,78.3749979071618,2|0,0:0|3:0,0:0:0:0:
118,226,213988,2,0,L|200:211,1,78.3749979071618,8|0,0:0|0:0,0:0:0:0:
332,133,214350,21,2,0:0:0:0:
214,87,214530,1,0,3:0:0:0:
263,299,214711,1,8,0:0:0:0:
263,299,214892,1,0,3:0:0:0:
155,366,215073,5,4,0:0:0:0:
359,267,215253,1,8,0:0:0:0:
178,181,215434,1,2,0:0:0:0:
316,368,215615,21,8,0:0:0:0:
126,281,215795,1,8,0:0:0:0:
345,177,215976,2,0,L|354:135,2,26.1249993023873,0|0|0,3:0|3:0|0:0,0:0:0:0:
361,213,216157,22,0,P|375:169|378:116,1,90.7500027694703,4|0,0:0|3:0,0:0:0:0:
180,15,216518,2,0,P|165:58|163:112,1,90.7500027694703,8|0,3:0|3:0,0:0:0:0:
252,183,216880,2,0,L|280:81,1,90.7500027694703,2|4,0:0|3:0,0:0:0:0:
356,331,217240,21,2,0:3:0:0:
199,262,217422,2,0,B|264:275|264:275|292:316|292:316|362:332,1,181.500005538941,8|0,0:0|0:0,0:0:0:0:
504,202,217964,22,0,B|484:242|484:242|495:293,1,90.7500027694703,12|0,0:0|0:0,0:0:0:0:
250,109,218326,2,0,B|270:69|270:69|259:18,1,90.7500027694703,12|0,0:0|0:0,0:0:0:0:
381,143,218687,21,2,0:0:0:0:
145,319,218868,2,0,B|111:272|111:272|150:146,1,181.500005538941,8|0,0:0|3:0,0:0:0:0:
28,55,219410,22,0,B|74:60|74:60|127:41,1,90.7500027694703,12|0,0:0|0:0,0:0:0:0:
321,243,219771,2,0,B|275:238|275:238|233:253,1,90.7500027694703,12|8,0:0|0:0,0:0:0:0:
91,384,220133,21,8,0:0:0:0:
170,170,220314,1,8,3:0:0:0:
39,295,220494,21,0,3:0:0:0:
113,273,220675,1,0,3:0:0:0:
248,144,220856,21,8,3:0:0:0:
340,164,221036,1,0,3:0:0:0:
408,344,221217,21,2,0:0:0:0:
512,320,221398,1,0,0:0:0:0:
512,320,221579,1,2,0:0:0:0:
269,377,222121,5,0,0:0:0:0:
269,377,222301,2,0,L|283:289,2,82.5,2|2|0,0:0|0:0|0:0,0:0:0:0:
182,310,223386,1,0,0:0:0:0:
357,189,223747,22,0,L|222:210,1,123.75,2|0,0:0|0:0,0:0:0:0:
214,195,224470,1,0,0:0:0:0:
279,86,224832,1,2,0:0:0:0:
434,140,225193,1,0,0:0:0:0:
379,296,225554,1,2,0:0:0:0:
466,267,225916,22,0,P|404:214|320:226,1,165,2|2,0:0|0:0,0:0:0:0:
224,300,227000,2,0,L|236:388,1,82.5,2|0,0:0|0:0,0:0:0:0:
329,255,227723,1,0,0:0:0:0:
181,175,228085,2,0,B|89:180|116:235|20:239,1,165,2|0,0:0|0:0,0:0:0:0:
69,134,229169,22,0,P|109:145|154:150,1,82.5,2|0,0:0|0:0,0:0:0:0:
248,226,229892,1,0,0:0:0:0:
127,68,230253,22,0,P|181:35|239:43,1,123.75,2|0,0:0|0:0,0:0:0:0:
293,98,230976,1,2,0:0:0:0:
460,28,231338,1,0,1:0:0:0:
446,109,231699,1,2,0:0:0:0:
433,190,232060,1,0,0:0:0:0:
502,234,232422,22,0,B|437:243|437:243|415:267|415:267|347:279,1,165,0|2,1:0|0:0,0:0:0:0:
245,321,233506,2,0,P|252:278|258:228,2,82.5,0|0|2,1:0|0:0|0:0,0:0:0:0:
308,384,234591,22,0,P|219:336|161:349,1,165,0|2,1:0|0:0,0:0:0:0:
24,239,235675,1,2,0:0:0:0:
117,283,236036,1,0,0:0:0:0:
31,340,236398,1,0,0:0:0:0:
112,184,236759,22,0,B|247:156|205:255|335:220,1,226.875,0|0,1:0|0:0,0:0:0:0:
413,258,237844,2,0,P|334:254|287:327,1,165,2|0,0:0|0:0,0:0:0:0:
486,193,238747,1,0,0:0:0:0:
489,181,238837,1,0,0:0:0:0:
492,169,238928,1,2,0:0:0:0:
492,169,239289,5,2,0:0:0:0:
417,144,239470,1,2,0:0:0:0:
343,170,239651,1,2,0:0:0:0:
255,231,240012,37,2,0:0:0:0:
180,256,240374,1,2,0:0:0:0:
106,230,240735,1,2,0:0:0:0:
63,164,241097,22,0,L|87:30,1,123.75,2|0,0:0|0:0,0:0:0:0:
84,42,241820,1,2,0:0:0:0:
161,115,242181,2,0,P|240:132|317:82,1,165,2|0,0:0|0:0,0:0:0:0:
392,17,243265,1,2,0:0:0:0:
392,17,243627,5,2,0:0:0:0:
455,62,243807,1,2,0:0:0:0:
434,137,243988,1,2,0:0:0:0:
333,173,244350,37,2,0:0:0:0:
270,218,244711,1,2,0:0:0:0:
291,293,245073,1,2,0:0:0:0:
239,350,245434,22,0,L|147:340,1,82.5,0|2,0:0|0:0,0:0:0:0:
68,279,246157,1,2,0:0:0:0:
157,219,246518,2,0,P|166:177|182:125,1,82.5,0|2,0:0|0:0,0:0:0:0:
272,89,247241,1,2,0:0:0:0:
189,19,247603,1,2,0:0:0:0:
189,19,247964,5,2,0:0:0:0:
148,86,248145,1,2,0:0:0:0:
171,160,248326,1,2,0:0:0:0:
264,213,248687,37,2,0:0:0:0:
305,280,249048,1,2,0:0:0:0:
282,354,249410,1,2,0:0:0:0:
217,269,249771,22,0,L|391:292,1,165,0|2,0:0|0:0,0:0:0:0:
468,228,250856,1,0,0:0:0:0:
374,175,251217,1,2,0:0:0:0:
298,251,251579,1,2,0:0:0:0:
459,139,251940,1,2,0:0:0:0:
459,139,252301,5,2,0:0:0:0:
393,95,252482,1,2,0:0:0:0:
314,102,252663,1,2,0:0:0:0:
222,157,253024,37,0,0:0:0:0:
156,201,253386,1,2,0:0:0:0:
77,194,253747,1,0,0:0:0:0:
200,269,254109,22,0,P|238:277|293:290,1,82.5
371,364,254832,1,2,0:0:0:0:
459,289,255193,2,0,P|450:246|447:197,1,82.5
253,382,255916,38,0,P|272:318|286:243,1,132,2|2,0:3|3:2,0:0:0:0:
445,81,256639,21,2,0:0:0:0:
370,56,256820,1,2,0:0:0:0:
297,84,257000,1,2,0:0:0:0:
207,143,257362,37,2,0:0:0:0:
132,168,257723,1,0,0:0:0:0:
59,140,258085,1,0,0:0:0:0:
155,83,258446,22,0,P|176:163|158:254,1,165,2|0,0:0|0:0,0:0:0:0:
36,332,259530,1,2,0:0:0:0:
104,297,259892,1,0,0:0:0:0:
102,374,260253,1,2,0:0:0:0:
33,243,260615,1,2,0:0:0:0:
33,243,260976,5,2,0:0:0:0:
98,199,261157,1,2,0:0:0:0:
175,209,261338,1,2,0:0:0:0:
239,295,261699,37,0,0:0:0:0:
304,339,262060,1,2,0:0:0:0:
381,329,262422,1,2,0:0:0:0:
434,272,262783,22,0,L|452:177,1,82.5,0|2,0:0|0:0,0:0:0:0:
377,119,263506,1,2,0:0:0:0:
474,77,263868,2,0,P|432:84|385:92,1,82.5,0|2,0:0|0:0,0:0:0:0:
270,27,264591,2,0,P|265:67|256:113,1,82.5,2|0,0:0|0:3,0:0:0:0:
251,129,265314,5,2,0:0:0:0:
175,110,265494,1,2,0:0:0:0:
102,140,265675,1,2,0:0:0:0:
101,247,266036,37,2,0:0:0:0:
177,266,266398,1,2,0:0:0:0:
250,236,266759,1,2,0:0:0:0:
305,179,267121,22,0,P|387:167|461:211,1,165,2|2,0:0|0:0,0:0:0:0:
509,328,268205,38,0,B|459:348|459:348|416:321|416:321|373:385|300:372|270:304|302:246|359:251,1,340.312512981892,2|0,0:1|0:0,0:0:0:0:
356,263,269289,22,0,P|291:302|217:282,1,140.250002675056,4|0,0:0|0:0,0:0:0:0:
122,214,269832,1,8,0:0:0:0:
210,173,270012,1,0,3:0:0:0:
210,173,270193,1,0,3:0:0:0:
144,346,270374,21,8,0:0:0:0:
248,277,270554,1,8,0:0:0:0:
122,214,270735,1,2,0:0:0:0:
282,115,270916,1,8,3:0:0:0:
282,115,271097,1,0,3:0:0:0:
162,69,271277,1,8,3:0:0:0:
159,47,271368,1,8,3:0:0:0:
157,26,271458,21,0,3:0:0:0:
283,210,271639,1,8,0:0:0:0:
399,110,271820,1,0,3:0:0:0:
241,123,272000,21,8,3:0:0:0:
478,219,272181,1,8,0:0:0:0:
369,91,272362,1,0,3:0:0:0:
220,273,272542,1,12,0:0:0:0:
331,334,272904,21,0,3:0:0:0:
220,273,273085,21,8,3:0:0:0:
351,194,273265,21,0,3:0:0:0:
180,128,273446,21,8,3:0:0:0:
423,30,273627,22,0,P|341:82|274:67,1,165,4|0,0:1|0:0,0:0:0:0:
205,238,274169,1,8,0:0:0:0:
164,46,274350,2,0,L|181:136,1,82.5,2|0,0:0|3:0,0:0:0:0:
332,346,274711,2,0,B|354:292|354:292|339:253|339:253|364:190,1,165,8|0,0:0|0:0,0:0:0:0:
461,160,275253,1,0,3:0:0:0:
303,97,275434,1,0,3:0:0:0:
466,21,275615,1,0,3:0:0:0:
284,173,275795,22,0,P|265:117|297:16,1,165,4|0,0:0|0:0,0:0:0:0:
387,111,276338,1,0,3:0:0:0:
387,111,276518,2,0,L|399:207,1,82.5,2|0,0:0|3:0,0:0:0:0:
189,27,276880,22,0,P|228:30|285:39,1,82.5,8|0,0:0|0:0,0:0:0:0:
185,292,277241,2,0,P|226:288|266:282,1,82.5,8|0,0:0|0:0,0:0:0:0:
36,143,277603,2,0,P|96:150|179:157,1,123.75,2|0,0:0|0:0,0:0:0:0:
241,165,277964,22,0,B|150:176|189:225|87:236,1,165,4|0,0:0|0:0,0:0:0:0:
29,101,278506,1,0,3:0:0:0:
93,55,278687,2,0,L|179:68,1,82.5,2|0,0:0|3:0,0:0:0:0:
373,190,279048,22,0,B|387:229|387:229|375:278,1,82.5,8|0,0:0|0:0,0:0:0:0:
185,369,279410,2,0,B|172:331|172:331|184:291,1,82.5,2|0,0:0|0:0,0:0:0:0:
273,229,279771,1,0,3:0:0:0:
273,229,279952,1,0,3:0:0:0:
432,344,280133,22,0,P|351:304|278:321,1,165,4|2,0:0|0:0,0:0:0:0:
393,174,280675,2,0,P|436:167|496:156,1,82.5,8|0,0:0|0:0,0:0:0:0:
442,251,281036,1,0,3:0:0:0:
344,34,281217,22,0,B|391:28|391:28|441:51,1,98.9999969787599,12|0,0:0|0:0,0:0:0:0:
185,259,281579,2,0,B|165:214|165:214|180:162,1,98.9999969787599,4|0,3:2|0:0,0:0:0:0:
436,366,281940,2,0,B|389:383|389:383|339:373,1,98.9999969787599,4|0,3:2|0:0,0:0:0:0:
258,118,282301,22,0,B|350:122|323:178|412:181,1,165,4|0,0:0|0:0,0:0:0:0:
496,122,282844,1,0,3:0:0:0:
288,231,283024,2,0,P|296:270|303:321,1,82.5,0|0,0:0|3:0,0:0:0:0:
411,81,283386,2,0,P|372:89|321:96,1,82.5,8|0,0:0|0:0,0:0:0:0:
414,365,283747,2,0,P|406:326|399:275,1,82.5,2|0,0:0|3:0,0:0:0:0:
230,36,284109,2,0,P|224:76|215:117,1,82.5,0|0,3:0|0:0,0:0:0:0:
88,218,284470,22,0,P|59:169|95:67,1,165,4|0,0:0|0:0,0:0:0:0:
232,210,285012,1,8,0:0:0:0:
140,144,285193,1,0,0:0:0:0:
316,15,285374,1,0,3:0:0:0:
113,54,285554,22,0,P|153:62|197:68,1,82.5,8|0,0:0|0:0,0:0:0:0:
432,135,285916,2,0,P|391:142|350:149,1,82.5,2|8,0:0|0:0,0:0:0:0:
172,316,286277,2,0,P|149:282|151:242,1,82.5,4|0,0:0|0:0,0:0:0:0:
257,91,286639,22,0,B|221:183|283:157|251:251,1,165,4|0,0:0|0:0,0:0:0:0:
152,160,287181,1,0,3:0:0:0:
322,327,287362,2,0,L|415:313,1,82.5,2|0,0:0|3:0,0:0:0:0:
246,245,287723,21,8,0:0:0:0:
416,328,287904,1,8,3:0:0:0:
260,384,288085,1,2,0:0:0:0:
350,219,288265,1,0,3:0:0:0:
199,322,288446,1,8,0:0:0:0:
132,136,288627,1,2,0:0:0:0:
56,284,288807,21,4,0:0:0:0:
240,187,288988,2,0,P|232:107|227:-3,1,165,8|0,0:0|3:0,0:0:0:0:
148,260,289530,1,8,0:0:0:0:
24,152,289711,1,8,0:0:0:0:
150,83,289892,21,8,3:0:0:0:
116,188,290073,1,0,3:0:0:0:
248,21,290253,21,8,3:0:0:0:
283,198,290434,1,4,3:0:0:0:
429,46,290615,21,12,3:0:0:0:
376,302,290795,1,4,3:0:0:0:
228,111,290976,22,0,P|245:198|259:274,1,165,4|0,0:0|0:0,0:0:0:0:
177,354,291518,1,0,3:0:0:0:
177,354,291699,2,0,P|171:311|155:256,1,82.5,2|0,0:0|3:0,0:0:0:0:
329,140,292060,2,0,P|335:183|351:238,1,82.5,8|0,0:0|0:0,0:0:0:0:
154,75,292422,2,0,L|247:87,1,82.5,0|0,0:0|3:0,0:0:0:0:
370,313,292783,2,0,L|277:301,1,82.5,0|0,3:0|0:0,0:0:0:0:
69,261,293145,22,0,B|131:244|131:244|153:213|153:213|213:197,1,165,4|0,0:0|0:0,0:0:0:0:
24,116,293687,1,8,0:0:0:0:
111,63,293868,2,0,B|129:101|129:101|118:155,1,82.5,2|0,0:0|3:0,0:0:0:0:
192,374,294229,2,0,B|183:334|183:334|201:296,1,82.5,8|0,0:0|0:0,0:0:0:0:
373,129,294591,2,0,P|330:122|268:111,1,82.5,8|0,0:0|0:0,0:0:0:0:
220,40,294952,1,4,3:2:0:0:
220,40,295133,1,0,0:0:0:0:
327,213,295314,22,0,P|405:159|474:170,1,165,4|0,0:0|0:0,0:0:0:0:
494,258,295856,1,0,3:0:0:0:
494,258,296036,2,0,P|454:257|404:239,1,82.5,0|0,3:0|0:0,0:0:0:0:
356,40,296398,2,0,P|396:27|437:26,1,82.5,8|0,0:0|0:0,0:0:0:0:
308,200,296759,1,2,0:0:0:0:
408,116,296940,1,0,3:0:0:0:
248,16,297121,2,0,P|257:59|265:110,1,82.5
296,332,297482,21,4,0:0:0:0:
260,218,297663,2,0,B|357:222|324:278|421:280,1,165,8|0,0:0|3:0,0:0:0:0:
481,84,298205,2,0,L|469:-6,1,82.5,8|0,0:0|0:0,0:0:0:0:
260,218,298567,22,0,L|273:320,1,98.9999969787599,12|0,0:0|0:0,0:0:0:0:
336,59,298928,2,0,P|288:39|234:40,1,98.9999969787599,4|0,3:2|0:0,0:0:0:0:
432,308,299289,2,0,P|482:304|529:281,1,98.9999969787599,4|0,3:2|0:0,0:0:0:0:
270,132,299651,22,0,P|214:196|237:269,1,165,4|0,0:0|0:0,0:0:0:0:
312,336,300193,1,0,3:0:0:0:
152,384,300374,1,2,0:0:0:0:
152,384,300554,1,0,3:0:0:0:
306,209,300735,22,0,P|343:222|399:238,1,82.5,10|0,0:0|0:0,0:0:0:0:
185,95,301097,2,0,P|174:56|155:1,1,82.5,2|8,0:0|0:0,0:0:0:0:
103,251,301458,2,0,P|67:272|34:296,1,82.5,4|0,0:0|0:0,0:0:0:0:
204,187,301820,21,2,0:0:0:0:
67,117,302000,1,8,0:0:0:0:
271,34,302181,1,0,0:0:0:0:
271,34,302362,1,0,3:0:0:0:
167,101,302542,21,12,0:0:0:0:
316,226,302723,1,0,3:0:0:0:
424,125,302904,22,0,P|418:83|413:32,1,82.5,12|0,0:0|0:0,0:0:0:0:
197,258,303265,2,0,P|203:216|208:165,1,82.5,0|0,3:0|0:0,0:0:0:0:
487,371,303627,2,0,P|478:305|470:222,1,123.75,4|0,0:0|0:0,0:0:0:0:
460,225,303988,21,4,0:0:0:0:
306,288,304169,1,8,0:0:0:0:
395,365,304350,1,2,0:0:0:0:
309,208,304530,1,0,3:0:0:0:
76,332,304711,1,12,0:0:0:0:
76,332,304892,1,0,3:0:0:0:
212,340,305073,21,4,3:2:0:0:
80,224,305253,1,8,0:0:0:0:
232,124,305434,1,2,0:0:0:0:
136,28,305615,1,0,3:0:0:0:
208,248,305795,1,12,0:0:0:0:
208,248,305976,1,0,3:0:0:0:
408,76,306157,21,4,3:2:0:0:
323,131,306518,21,0,3:0:0:0:
327,136,306699,1,0,3:0:0:0:
511,64,306880,21,8,3:0:0:0:
506,83,307060,1,8,3:0:0:0:
271,23,307241,21,8,0:0:0:0:
400,95,307422,1,8,3:0:0:0:
310,233,307603,21,8,3:0:0:0:
480,172,307783,1,8,3:0:0:0:
292,108,307964,21,8,3:0:0:0:
178,290,308145,1,8,3:0:0:0:
38,105,308326,6,0,B|-13:239|92:203|36:341,1,235.124993721485,4|0,0:1|3:0,0:0:0:0:
192,152,309048,2,0,L|100:168,1,78.3749979071618,2|0,0:0|0:0,0:0:0:0:
272,312,309410,2,0,L|194:325,1,78.3749979071618,8|0,0:0|0:0,0:0:0:0:
422,193,309771,2,0,L|262:220,1,156.749995814324,2|0,0:0|3:0,0:0:0:0:
385,366,310314,1,2,0:0:0:0:
439,281,310494,22,0,P|453:201|470:118,1,156.749995814324,4|0,3:0|3:0,0:0:0:0:
272,312,311036,1,8,0:0:0:0:
356,232,311217,1,0,0:0:0:0:
234,166,311398,1,0,3:0:0:0:
368,90,311579,2,0,P|363:52|360:2,1,78.3749979071618,8|0,0:0|3:0,0:0:0:0:
137,149,311940,2,0,P|142:187|145:237,1,78.3749979071618,8|0,3:0|3:0,0:0:0:0:
241,70,312301,1,8,3:0:0:0:
241,70,312482,1,0,3:0:0:0:
234,248,312663,22,0,P|155:250|94:298,1,156.749995814324,4|0,0:0|3:0,0:0:0:0:
23,166,313205,1,0,3:0:0:0:
23,166,313386,2,0,L|116:180,1,78.3749979071618,0|0,0:0|3:0,0:0:0:0:
266,364,313747,22,0,L|431:346,1,156.749995814324,8|0,0:0|0:0,0:0:0:0:
482,293,314289,1,0,0:0:0:0:
482,293,314470,2,0,P|489:254|500:216,1,78.3749979071618,0|0,3:0|0:0,0:0:0:0:
269,83,314832,2,0,P|261:121|250:159,1,78.3749979071618,4|0,3:0|0:0,0:0:0:0:
368,227,315193,1,0,3:0:0:0:
512,116,315374,2,0,P|428:104|366:161,1,156.749995814324,8|0,0:0|3:0,0:0:0:0:
252,57,315916,21,12,0:0:0:0:
252,57,316097,1,0,3:0:0:0:
392,163,316277,21,8,3:0:0:0:
278,195,316458,1,0,3:0:0:0:
176,135,316639,21,8,3:0:0:0:
61,162,316820,1,0,3:0:0:0:
5,265,317000,22,0,P|52:299|149:284,1,156.749995814324,4|0,0:0|0:0,0:0:0:0:
213,382,317542,1,0,3:0:0:0:
349,288,317723,2,0,P|310:297|260:305,1,78.3749979071618,2|0,0:0|3:0,0:0:0:0:
61,162,318085,2,0,P|147:180|215:187,1,156.749995814324,8|2,0:0|0:0,0:0:0:0:
333,72,318627,1,0,3:0:0:0:
257,21,318807,22,0,P|243:55|245:104,1,78.3749979071618,8|0,3:0|0:0,0:0:0:0:
463,263,319169,2,0,P|477:229|475:180,1,78.3749979071618,0|0,3:0|0:0,0:0:0:0:
272,303,319530,1,0,3:0:0:0:
368,369,319711,2,0,P|359:276|354:197,1,156.749995814324,8|0,0:0|3:0,0:0:0:0:
425,98,320253,22,0,P|464:95|513:86,1,78.3749979071618,12|0,0:0|0:0,0:0:0:0:
328,218,320615,1,8,3:0:0:0:
254,127,320795,1,0,3:0:0:0:
330,37,320976,21,0,3:0:0:0:
238,215,321157,1,8,3:0:0:0:
71,89,321338,2,0,P|85:179|91:256,1,156.749995814324,4|0,0:0|3:0,0:0:0:0:
234,53,321880,1,0,3:0:0:0:
234,53,322060,2,0,P|196:48|154:38,1,78.3749979071618,2|0,0:0|3:0,0:0:0:0:
330,215,322422,22,0,P|336:175|352:121,1,78.3749979071618,8|0,0:0|0:0,0:0:0:0:
224,243,322783,1,0,3:0:0:0:
367,315,322964,1,8,0:0:0:0:
248,380,323145,1,0,3:0:0:0:
248,380,323326,1,8,3:0:0:0:
451,260,323506,22,0,P|461:300|463:346,1,78.3749979071618,8|0,0:0|0:0,0:0:0:0:
246,162,323868,1,8,0:0:0:0:
369,95,324048,21,8,0:0:0:0:
151,296,324229,2,0,P|141:256|139:210,1,78.3749979071618,8|0,3:0|3:0,0:0:0:0:
428,170,324591,5,4,0:0:0:0:
245,71,324771,1,0,3:0:0:0:
377,23,324952,1,8,3:0:0:0:
292,208,325133,1,0,3:0:0:0:
123,30,325314,21,12,0:0:0:0:
245,71,325494,1,8,3:0:0:0:
7,132,325675,6,0,P|153:138|191:228,1,235.124993721485,6|8,0:0|0:0,0:0:0:0:
33,322,326398,1,2,0:0:0:0:
111,236,326579,1,0,3:0:0:0:
168,365,326759,2,0,L|263:352,1,78.3749979071618,8|8,0:0|3:0,0:0:0:0:
462,294,327121,21,2,0:0:0:0:
326,249,327301,1,8,0:0:0:0:
422,190,327482,1,0,3:0:0:0:
422,190,327663,1,8,3:0:0:0:
368,349,327844,21,4,3:0:0:0:
233,246,328024,2,0,P|236:190|277:98,1,156.749995814324,8|0,0:0|3:0,0:0:0:0:
366,42,328567,2,0,P|380:78|380:131,1,78.3749979071618,8|0,0:0|3:0,0:0:0:0:
235,267,328928,21,12,0:0:0:0:
126,311,329109,1,8,3:0:0:0:
40,231,329289,1,0,3:0:0:0:
70,117,329470,1,8,3:0:0:0:
182,80,329651,1,0,3:0:0:0:
272,156,329832,1,0,3:0:0:0:
40,231,330012,22,0,L|129:215,1,78.3749979071618,4|0,0:0|0:0,0:0:0:0:
357,58,330374,2,0,L|271:75,1,78.3749979071618,2|0,0:0|3:0,0:0:0:0:
182,157,330735,2,0,P|220:161|256:176,1,78.3749979071618,8|0,3:0|3:0,0:0:0:0:
459,305,331097,22,0,P|383:303|316:357,1,156.749995814324,12|2,0:0|0:0,0:0:0:0:
221,213,331639,1,8,0:0:0:0:
293,146,331820,2,0,P|333:142|379:133,1,78.3749979071618,0|0,3:0|3:0,0:0:0:0:
464,212,332181,21,4,3:0:0:0:
322,64,332362,1,8,0:0:0:0:
475,16,332542,2,0,L|456:100,1,78.3749979071618,2|0,0:0|3:0,0:0:0:0:
287,267,332904,21,12,0:0:0:0:
370,135,333085,1,0,3:0:0:0:
211,196,333265,1,8,0:0:0:0:
326,363,333446,1,0,3:0:0:0:
276,116,333627,21,12,0:0:0:0:
198,209,333807,1,0,3:0:0:0:
306,278,333988,1,8,3:0:0:0:
276,116,334169,1,0,3:0:0:0:
200,355,334350,22,0,P|130:375|86:246,1,235.124993721485,4|0,0:0|3:0,0:0:0:0:
172,146,335073,2,0,P|180:184|183:225,1,78.3749979071618,2|0,0:0|3:0,0:0:0:0:
24,78,335434,2,0,L|101:88,1,78.3749979071618,8|8,0:0|3:0,0:0:0:0:
298,190,335795,1,2,0:0:0:0:
345,94,335976,2,0,P|270:86|209:136,1,156.749995814324,8|8,0:0|0:0,0:0:0:0:
147,296,336518,21,4,0:0:0:0:
223,367,336699,1,8,0:0:0:0:
223,367,336880,2,0,P|259:354|308:350,1,78.3749979071618,0|0,0:0|3:0,0:0:0:0:
368,115,337241,2,0,P|404:128|453:132,1,78.3749979071618,8|0,0:0|0:0,0:0:0:0:
512,310,337603,21,12,0:0:0:0:
409,254,337783,1,8,3:0:0:0:
508,191,337964,1,0,0:0:0:0:
426,49,338145,1,8,3:0:0:0:
426,49,338326,2,0,L|508:38,1,78.3749979071618,0|0,3:0|0:0,0:0:0:0:
356,140,338687,21,4,0:0:0:0:
204,18,338868,2,0,B|165:60|165:60|190:168,1,156.749995814324,8|0,0:0|3:0,0:0:0:0:
351,237,339410,2,0,P|365:200|359:149,1,78.3749979071618,8|0,0:0|0:0,0:0:0:0:
113,331,339771,2,0,P|150:345|201:339,1,78.3749979071618,12|0,0:0|0:0,0:0:0:0:
279,189,340133,1,2,0:0:0:0:
167,266,340314,1,8,0:0:0:0:
298,338,340494,1,0,3:0:0:0:
172,181,340675,1,8,3:0:0:0:
322,66,340856,21,4,3:2:0:0:
322,66,341036,1,8,3:0:0:0:
242,276,341217,1,2,0:0:0:0:
460,202,341398,1,0,3:0:0:0:
352,139,341579,1,12,0:0:0:0:
404,379,341759,1,8,0:0:0:0:
459,304,341919,22,0,P|420:298|374:285,1,78.3749979071618,2|0,0:0|3:0,0:0:0:0:
308,213,342280,1,8,3:0:0:0:
206,372,342461,1,8,3:0:0:0:
109,146,342642,1,8,3:0:0:0:
239,256,342823,1,8,3:0:0:0:
0,353,343003,1,4,0:1:0:0:
0,353,343364,6,0,P|39:359|84:373,1,86.6249973564149,2|0,1:0|3:0,0:0:0:0:
189,174,343725,2,0,P|228:167|273:154,1,86.6249973564149,2|0,1:0|3:0,0:0:0:0:
459,337,344087,2,0,L|290:301,1,173.24999471283,8|2,0:0|1:0,0:0:0:0:
199,373,344628,1,8,0:0:0:0:
389,163,344809,2,0,B|408:202|408:202|392:250,1,86.6249973564149,0|0,3:0|3:0,0:0:0:0:
257,35,345171,22,0,P|298:45|347:50,1,86.6249973564149,2|8,1:0|3:0,0:0:0:0:
273,153,345532,1,2,1:0:0:0:
394,243,345712,1,0,3:0:0:0:
476,52,345894,2,0,P|494:91|493:142,1,86.6249973564149,8|0,0:0|0:0,0:0:0:0:
303,377,346256,2,0,P|285:338|286:287,1,86.6249973564149,10|8,0:0|3:0,0:0:0:0:
379,224,346617,2,0,L|473:240,1,86.6249973564149,2|0,1:0|3:0,0:0:0:0:
212,106,346978,2,0,L|118:122,1,86.6249973564149,12|0,0:0|0:0,0:0:0:0:
29,201,347340,22,0,P|42:107|54:16,1,173.24999471283,4|2,0:0|1:0,0:0:0:0:
128,277,347882,1,8,0:0:0:0:
229,202,348063,2,0,P|245:162|244:118,1,86.6249973564149,2|0,1:0|3:0,0:0:0:0:
60,348,348424,2,0,P|101:360|144:367,1,86.6249973564149,12|0,0:0|3:0,0:0:0:0:
244,119,348786,2,0,P|201:126|159:138,1,86.6249973564149,2|8,1:0|0:0,0:0:0:0:
62,226,349147,1,0,3:0:0:0:
245,303,349328,1,0,3:0:0:0:
60,348,349508,21,2,1:0:0:0:
306,232,349689,2,0,B|237:244|237:244|218:274|218:274|142:289,1,173.24999471283,8|0,0:0|3:0,0:0:0:0:
341,150,350231,2,0,P|383:155|426:162,1,86.6249973564149,8|8,0:0|0:3,0:0:0:0:
214,23,350593,2,0,P|257:30|318:37,1,86.6249973564149,8|8,0:0|0:3,0:0:0:0:
120,136,350954,1,2,1:0:0:0:
277,202,351135,1,8,0:0:0:0:
133,331,351316,2,0,P|91:341|39:356,1,86.6249973564149,4|0,0:0|0:0,0:0:0:0:
186,206,351677,22,0,B|295:214|248:270|359:277,1,173.24999471283,4|2,0:0|1:0,0:0:0:0:
472,139,352219,1,0,3:0:0:0:
374,17,352400,2,0,B|356:59|356:59|372:104,1,86.6249973564149,2|0,1:0|3:0,0:0:0:0:
439,335,352761,2,0,B|452:296|452:296|434:254,1,86.6249973564149,8|0,0:0|0:0,0:0:0:0:
245,362,353123,2,0,L|331:376,1,86.6249973564149,2|8,1:0|0:3,0:0:0:0:
460,165,353484,2,0,L|374:179,1,86.6249973564149,0|0,3:0|0:0,0:0:0:0:
231,260,353846,22,0,P|245:180|256:76,1,173.24999471283,4|0,0:0|0:0,0:0:0:0:
353,183,354388,1,0,3:0:0:0:
237,65,354569,2,0,P|279:57|321:47,1,86.6249973564149,2|0,1:0|3:0,0:0:0:0:
81,254,354930,2,0,B|66:214|66:214|77:160,1,86.6249973564149,12|0,0:0|0:0,0:0:0:0:
160,111,355292,2,0,B|175:151|175:151|164:205,1,86.6249973564149,2|0,1:0|3:0,0:0:0:0:
37,362,355653,21,4,0:0:0:0:
220,275,355834,1,8,3:0:0:0:
74,172,356014,1,4,0:0:0:0:
147,347,356195,22,0,P|223:300|311:314,1,173.24999471283,8|0,3:0|3:0,0:0:0:0:
425,384,356737,2,0,P|444:344|442:291,1,86.6249973564149,12|0,0:0|0:0,0:0:0:0:
297,95,357099,1,4,3:2:0:0:
358,254,357279,1,0,3:0:0:0:
498,165,357460,2,0,P|452:159|401:151,1,86.6249973564149,2|0,1:0|3:0,0:0:0:0:
102,261,357822,2,0,P|144:267|187:273,1,86.6249973564149,12|0,0:0|0:0,0:0:0:0:
332,384,358183,21,6,0:0:0:0:
275,199,358364,1,8,0:0:0:0:
185,355,358545,1,2,1:0:0:0:
389,235,358725,1,0,3:0:0:0:
196,135,358906,21,8,0:0:0:0:
435,56,359087,1,8,0:0:0:0:
311,11,359267,21,2,0:3:0:0:
311,11,359629,21,0,3:0:0:0:
212,32,359810,1,8,3:0:0:0:
356,138,359990,21,8,0:0:0:0:
510,180,360171,1,8,0:0:0:0:
279,275,360352,22,0,P|180:292|99:313,1,173.24999471283,4|2,0:1|1:0,0:0:0:0:
321,125,360894,1,8,0:0:0:0:
232,180,361075,2,0,P|187:172|138:158,1,86.6249973564149,2|0,1:0|3:0,0:0:0:0:
396,365,361436,2,0,P|443:277|401:215,1,173.24999471283,12|2,0:0|1:0,0:0:0:0:
237,351,361978,1,0,3:0:0:0:
356,287,362158,21,8,0:0:0:0:
194,156,362339,1,8,0:0:0:0:
419,130,362520,22,0,P|322:80|252:90,1,173.24999471283,4|2,0:0|1:0,0:0:0:0:
368,10,363063,1,0,3:0:0:0:
168,215,363243,1,8,0:0:0:0:
31,128,363424,1,8,3:0:0:0:
234,54,363605,21,4,0:0:0:0:
117,141,363785,1,0,3:0:0:0:
253,272,363966,2,0,P|270:230|265:184,1,86.6249973564149,2|0,1:0|0:0,0:0:0:0:
112,21,364328,2,0,L|124:117,1,86.6249973564149,4|0,0:0|0:0,0:0:0:0:
143,384,364689,22,0,P|225:326|298:344,1,173.24999471283,4|2,0:0|1:0,0:0:0:0:
389,382,365231,1,0,3:0:0:0:
389,382,365412,2,0,P|405:342|405:288,1,86.6249973564149,2|0,1:0|3:0,0:0:0:0:
146,168,365773,2,0,P|130:208|130:262,1,86.6249973564149,12|0,0:0|3:0,0:0:0:0:
302,104,366135,1,2,0:0:0:0:
176,57,366316,1,8,0:0:0:0:
383,188,366496,2,0,P|424:179|482:172,1,86.6249973564149,0|8,3:0|3:3,0:0:0:0:
200,312,366858,22,0,P|113:288|24:286,1,173.24999471283,2|0,1:0|0:0,0:0:0:0:
95,384,367400,1,0,3:0:0:0:
301,247,367581,2,0,B|320:286|320:286|310:339,1,86.6249973564149,8|0,0:0|0:0,0:0:0:0:
58,176,367942,2,0,P|99:169|155:154,1,86.6249973564149,12|0,0:0|3:0,0:0:0:0:
420,143,368304,21,2,3:2:0:0:
377,21,368484,1,8,3:0:0:0:
257,71,368665,1,8,3:0:0:0:
302,193,368846,1,0,3:0:0:0:
512,125,369026,22,0,L|319:102,1,173.24999471283,4|2,0:0|1:0,0:0:0:0:
512,284,369569,1,8,0:0:0:0:
373,380,369749,2,0,B|361:338|361:338|378:292,1,86.6249973564149,2|0,1:0|3:0,0:0:0:0:
221,29,370111,2,0,B|233:71|233:71|216:117,1,86.6249973564149,12|0,0:0|3:0,0:0:0:0:
121,197,370472,1,2,1:0:0:0:
322,94,370653,1,8,0:0:0:0:
200,22,370834,1,2,1:0:0:0:
252,229,371014,1,0,3:0:0:0:
52,107,371195,22,0,P|95:101|149:93,1,86.6249973564149,4|8,0:0|3:0,0:0:0:0:
0,215,371557,1,2,1:0:0:0:
183,362,371737,1,0,3:0:0:0:
183,362,371918,2,0,P|140:355|97:349,1,86.6249973564149,8|0,0:0|3:0,0:0:0:0:
392,183,372279,2,0,B|403:226|403:226|390:267,1,86.6249973564149,12|0,0:0|0:0,0:0:0:0:
255,96,372641,2,0,B|244:53|244:53|257:12,1,86.6249973564149,2|8,1:0|0:0,0:0:0:0:
146,252,373002,2,0,P|189:242|280:227,1,86.6249973564149,8|0,3:0|3:0,0:0:0:0:
511,73,373364,22,0,P|422:64|313:48,1,173.24999471283,4|2,0:0|1:0,0:0:0:0:
185,171,373906,1,8,0:0:0:0:
269,229,374087,2,0,P|288:191|288:140,1,86.6249973564149,2|0,1:0|3:0,0:0:0:0:
51,32,374448,2,0,P|32:70|32:121,1,86.6249973564149,12|8,0:0|0:3,0:0:0:0:
181,286,374810,1,2,1:0:0:0:
57,197,374990,1,0,3:0:0:0:
257,61,375171,2,0,L|346:73,1,86.6249973564149,10|0,0:2|3:0,0:0:0:0:
462,330,375532,21,12,0:0:0:0:
246,219,375713,1,8,3:0:0:0:
381,222,375894,21,2,1:0:0:0:
336,325,376075,1,0,3:0:0:0:
213,138,376255,21,8,0:0:0:0:
444,61,376436,1,8,3:0:0:0:
213,24,376617,22,0,L|307:39,1,86.6249973564149,8|8,3:0|3:0,0:0:0:0:
466,238,376978,2,0,L|368:219,1,86.6249973564149,0|0,3:0|0:0,0:0:0:0:
132,368,377340,21,2,0:0:0:0:
242,179,377521,1,2,0:0:0:0:
252,146,377611,1,2,0:0:0:0:
243,114,377701,22,0,B|191:89|153:125|147:215|257:243|311:201|357:166|357:105|329:29|277:14|173:6|108:96|108:96|51:44|51:44|11:107|11:107|35:137|35:137|24:179|24:179|45:215|45:215|24:253|24:253|50:288|50:288|-9:318|14:389|80:405|121:342|86:307,1,1113.75,4|2,0:1|0:0,0:0:0:0:
