osu file format v14

[General]
AudioFilename: heavenly blue ~TV Size~.mp3
AudioLeadIn: 0
PreviewTime: 56780
Countdown: 0
SampleSet: Soft
StackLeniency: 0.7
Mode: 0
LetterboxInBreaks: 0
WidescreenStoryboard: 0

[Editor]
DistanceSpacing: 1.3
BeatDivisor: 4
GridSize: 4
TimelineZoom: 1.8

[Metadata]
Title:heavenly blue ~TVsize~
TitleUnicode:heavenly blue ~TVsize~
Artist:Kalafina
ArtistUnicode:Kalafina
Creator:IamKwaN
Version:Insane
Source:アルドノア・ゼロ
Tags:ALDNOAH.ZERO ALDNOAH ZERO opening Kajiura Yuki 梶浦由記 大滝若菜 Otaki Wakana 窪田啓子 Kubota Keiko 政井光 Masai Hikaru
BeatmapID:809971
BeatmapSetID:369654

[Difficulty]
HPDrainRate:6.5
CircleSize:4
OverallDifficulty:7
ApproachRate:8.5
SliderMultiplier:1.5
SliderTickRate:1

[Events]
//Background and Video events
Video,-1482,"video.avi"
0,0,"Background.jpg",0,0
//Break Periods
//Storyboard Layer 0 (Background)
//Storyboard Layer 1 (Fail)
//Storyboard Layer 2 (Pass)
//Storyboard Layer 3 (Foreground)
//Storyboard Sound Samples

[TimingPoints]
309,382.158302707592,4,2,1,30,1,0
309,-133.333333333333,4,2,1,30,0,0
3270,-133.333333333333,4,2,1,5,0,0
3366,-133.333333333333,4,2,1,25,0,0
3557,-133.333333333333,4,2,1,30,0,0
6232,-133.333333333333,4,2,1,5,0,0
6423,-111.111111111111,4,2,1,50,0,0
30595,-111.111111111111,4,2,1,30,0,0
30690,-111.111111111111,4,2,1,35,0,0
30881,-133.333333333333,4,2,1,50,0,0
31263,-133.333333333333,4,2,1,35,0,0
37378,-133.333333333333,4,2,1,40,0,0
40053,-133.333333333333,4,2,1,50,0,0
42537,-133.333333333333,4,2,1,40,0,0
43492,-133.333333333333,4,2,1,35,0,0
49225,-133.333333333333,4,2,1,40,0,0
52282,-111.111111111111,4,2,1,40,0,0
52473,-111.111111111111,4,2,1,50,0,0
53620,-111.111111111111,4,2,1,40,0,0
53906,-111.111111111111,4,2,1,10,0,0
54002,-111.111111111111,4,2,1,50,0,0
54957,-125,4,2,1,50,0,0
55244,-125,4,2,1,10,0,0
55339,-111.111111111111,4,2,1,50,0,0
55626,-111.111111111111,4,2,1,10,0,0
55721,-111.111111111111,4,2,1,40,0,0
56104,-111.111111111111,4,2,1,32,0,0
56677,-111.111111111111,4,2,1,40,0,0
56868,-100,4,2,1,70,0,1
68906,-100,4,2,1,70,0,0
69097,-100,4,2,1,70,0,1
82090,-100,4,2,1,50,0,1
82855,-100,4,2,1,70,0,1
84192,-100,4,2,1,70,0,0
84288,-100,4,2,1,50,0,0
86294,-100,4,2,1,30,0,0
86963,-100,4,2,1,20,0,0
87058,-100,4,2,1,5,0,0

[Colours]
Combo1 : 255,36,36
Combo2 : 115,160,251
Combo3 : 255,225,15

[HitObjects]
206,256,309,6,0,P|153:272|110:240,1,112.500004291535,2|0,3:0|0:0,0:0:0:0:
306,128,1073,2,0,P|359:112|402:144,1,112.500004291535,2|0,0:0|0:0,0:0:0:0:
338,262,1837,1,2,0:0:0:0:
174,122,2219,1,0,0:0:0:0:
306,128,2601,1,2,0:0:0:0:
206,256,2984,2,0,L|112:261,1,84.3750032186509
62,215,3366,6,0,L|119:212,1,56.2500021457673,8|8,0:1|0:1,0:0:0:0:
239,183,3748,2,0,P|275:216|285:263,1,98.4375037550928,8|0,0:1|0:0,0:0:0:0:
206,256,4226,2,0,L|175:258,2,28.1250010728836,8|8|0,0:1|0:1|0:0,0:0:0:0:
284,263,4512,2,0,L|298:262,6,14.0625005364418,8|0|0|0|8|0|0,0:1|0:0|0:0|0:0|0:1|0:0|0:0,0:0:0:0:
256,192,4894,12,0,6232,0:0:0:0:
172,57,6423,22,0,P|181:89|182:122,1,67.4999979400635,2|0,0:3|0:0,0:0:0:0:
119,219,6805,1,4,0:3:0:0:
203,141,6996,1,0,0:0:0:0:
286,223,7187,2,0,P|317:211|345:191,1,67.4999979400635,4|0,0:3|0:0,0:0:0:0:
411,97,7570,1,4,0:3:0:0:
372,205,7761,6,0,L|366:340,1,134.999995880127
286,136,8334,2,0,P|290:103|303:71,1,67.4999979400635,8|0,0:0|0:0,0:0:0:0:
377,1,8716,1,4,0:3:0:0:
481,19,8907,1,0,0:0:0:0:
411,97,9098,1,4,0:3:0:0:
303,71,9289,1,0,0:0:0:0:
194,46,9480,22,0,L|126:41,1,67.4999979400635,4|0,0:3|0:0,0:0:0:0:
232,120,9862,1,8,0:0:0:0:
262,0,10054,1,0,0:0:0:0:
306,152,10245,2,0,P|314:184|313:218,1,67.4999979400635,4|0,0:3|0:0,0:0:0:0:
193,243,10627,1,4,0:3:0:0:
315,302,10818,1,0,0:0:0:0:
181,268,11009,6,0,L|114:273,1,67.4999979400635,4|0,0:3|0:0,0:0:0:0:
239,320,11391,1,8,0:0:0:0:
274,230,11582,2,0,L|341:225,1,67.4999979400635,0|4,0:0|0:3,0:0:0:0:
411,171,11964,1,0,0:0:0:0:
422,258,12155,1,4,0:3:0:0:
341,224,12346,1,0,0:0:0:0:
492,206,12538,22,0,P|498:173|494:138,1,67.4999979400635,4|0,0:3|0:0,0:0:0:0:
410,37,12920,1,8,0:0:0:0:
306,136,13111,2,0,P|302:102|308:69,1,67.4999979400635,0|4,0:0|0:3,0:0:0:0:
411,171,13493,2,0,P|414:204|408:237,1,67.4999979400635,0|4,0:0|0:3,0:0:0:0:
355,307,13875,1,0,0:0:0:0:
222,261,14066,6,0,L|154:258,1,67.4999979400635,4|0,0:3|0:0,0:0:0:0:
273,325,14448,1,8,0:0:0:0:
354,227,14639,2,0,L|488:222,1,134.999995880127
456,75,15213,2,0,P|446:107|448:142,1,67.4999979400635,4|0,0:3|0:0,0:0:0:0:
481,287,15595,22,0,P|490:254|488:219,1,67.4999979400635,4|0,0:3|0:0,0:0:0:0:
370,149,15977,1,8,0:0:0:0:
354,227,16168,2,0,L|356:294,1,67.4999979400635,0|4,0:0|0:3,0:0:0:0:
226,294,16550,2,0,L|228:226,1,67.4999979400635,0|4,0:0|0:3,0:0:0:0:
292,353,16932,1,0,0:0:0:0:
210,212,17123,6,0,B|166:221|142:210|119:199|76:211,1,134.999995880127,4|8,0:3|0:0,0:0:0:0:
226,294,17697,1,0,0:0:0:0:
265,146,17888,2,0,L|260:78,1,67.4999979400635,4|0,0:3|0:0,0:0:0:0:
210,212,18270,1,8,0:0:0:0:
343,185,18461,1,8,0:3:0:0:
444,237,18652,22,0,P|451:269|451:303,1,67.4999979400635,2|0,0:3|0:0,0:0:0:0:
343,185,19034,1,4,0:3:0:0:
444,237,19225,1,0,0:0:0:0:
316,330,19416,2,0,P|309:298|309:264,1,67.4999979400635,4|0,0:3|0:0,0:0:0:0:
333,105,19799,1,4,0:3:0:0:
210,212,19990,1,0,0:0:0:0:
226,125,20181,5,4,0:3:0:0:
293,181,20372,1,0,0:0:0:0:
143,153,20563,1,8,0:0:0:0:
184,293,20754,2,0,B|223:304|251:291|276:278|318:292,1,134.999995880127
401,316,21327,1,4,0:3:0:0:
339,378,21518,1,0,0:0:0:0:
378,231,21709,22,0,P|384:197|381:160,1,67.4999979400635,4|0,0:3|0:0,0:0:0:0:
329,38,22092,1,8,0:0:0:0:
304,122,22283,2,0,L|169:126,1,134.999995880127
104,66,22856,1,4,0:3:0:0:
85,151,23047,1,0,0:0:0:0:
148,211,23238,6,0,P|181:211|211:228,1,67.4999979400635,4|0,0:3|0:0,0:0:0:0:
244,308,23620,1,8,0:0:0:0:
344,160,23811,2,0,P|311:160|282:177,1,67.4999979400635,0|4,0:0|0:3,0:0:0:0:
155,296,24193,1,0,0:0:0:0:
244,308,24384,1,4,0:3:0:0:
281,177,24576,1,0,0:0:0:0:
315,256,24767,22,0,P|329:286|330:319,1,67.4999979400635,4|0,0:3|0:0,0:0:0:0:
366,185,25149,1,8,0:0:0:0:
256,91,25340,2,0,P|252:57|262:25,1,67.4999979400635,0|4,0:0|0:3,0:0:0:0:
374,120,25722,2,0,P|377:153|367:185,1,67.4999979400635,0|4,0:0|0:3,0:0:0:0:
315,256,26104,1,0,0:0:0:0:
401,267,26295,6,0,L|469:271,1,67.4999979400635,4|0,0:3|0:0,0:0:0:0:
348,337,26677,1,8,0:0:0:0:
315,256,26869,2,0,P|281:253|250:266,1,67.4999979400635,0|4,0:0|0:3,0:0:0:0:
194,332,27251,1,0,0:0:0:0:
113,205,27442,2,0,P|147:202|178:215,1,67.4999979400635,4|0,0:3|0:0,0:0:0:0:
64,269,27824,22,0,L|75:134,1,134.999995880127,4|8,0:3|0:0,0:0:0:0:
145,80,28397,1,0,0:0:0:0:
200,219,28588,2,0,L|196:151,2,67.4999979400635,4|0|4,0:3|0:0|0:3,0:0:0:0:
154,294,29161,1,0,0:0:0:0:
282,249,29353,6,0,L|270:383,1,134.999995880127,4|4,0:3|0:3,0:0:0:0:
200,219,29926,1,8,0:0:0:0:
324,172,30117,1,4,0:3:0:0:
282,249,30308,1,8,0:3:0:0:
330,321,30499,1,8,0:3:0:0:
350,324,30595,1,8,0:0:0:0:
370,326,30690,1,8,0:3:0:0:
390,329,30786,1,0,0:0:0:0:
410,331,30881,22,0,P|460:317|484:365,2,112.500004291535,4|4|4,0:0|0:3|0:3,0:0:0:0:
200,219,32028,2,0,B|166:211|166:211|134:189|139:142,1,112.500004291535,4|4,0:3|0:3,0:0:0:0:
256,84,32792,1,4,0:3:0:0:
312,219,33174,2,0,B|346:211|346:211|378:189|373:142,1,112.500004291535,4|4,0:3|0:3,0:0:0:0:
256,270,33938,6,0,L|256:382,2,112.500004291535,4|4|4,0:3|0:3|0:3,0:0:0:0:
460,308,35085,2,0,P|410:329|367:297,1,112.500004291535,4|4,0:3|0:3,0:0:0:0:
256,192,35849,1,4,0:3:0:0:
52,308,36231,2,0,P|102:329|145:297,1,112.500004291535,4|4,0:3|0:3,0:0:0:0:
256,192,36996,22,0,B|262:119|262:119|267:158,1,112.500004291535,4|4,0:0|0:3,0:0:0:0:
264,344,37569,1,0,0:0:0:0:
231,267,37760,2,0,B|287:279|289:254|342:266,1,112.500004291535,4|4,0:3|0:3,0:0:0:0:
446,345,38524,5,4,0:3:0:0:
452,311,38906,1,4,0:3:0:0:
457,277,39289,1,4,0:3:0:0:
463,243,39671,1,4,0:3:0:0:
343,168,40053,22,0,P|397:171|443:141,1,112.500004291535,4|4,0:3|0:3,0:0:0:0:
284,113,40626,1,0,0:0:0:0:
267,190,40817,2,0,L|272:302,1,112.500004291535,4|4,0:3|0:3,0:0:0:0:
169,168,41582,2,0,P|113:171|68:141,1,112.500004291535,4|4,0:3|0:3,0:0:0:0:
215,104,42155,1,0,0:0:0:0:
249,174,42346,1,4,0:3:0:0:
205,239,42537,5,8,0:3:0:0:
133,95,42728,1,8,0:3:0:0:
293,109,42919,1,8,0:3:0:0:
347,239,43110,22,0,P|401:244|419:295,2,112.500004291535,4|4|4,0:0|0:3|0:3,0:0:0:0:
205,239,44257,2,0,B|166:232|166:232|131:237|131:237|94:230,1,112.500004291535,4|4,0:3|0:3,0:0:0:0:
256,66,45021,1,4,0:3:0:0:
307,239,45403,2,0,B|345:232|345:232|380:237|380:237|417:230,1,112.500004291535,4|4,0:3|0:3,0:0:0:0:
256,66,46167,6,0,L|256:180,2,112.500004291535,4|4|4,0:3|0:3|0:3,0:0:0:0:
205,239,47314,2,0,P|256:260|307:239,1,112.500004291535,4|4,0:3|0:3,0:0:0:0:
256,66,48078,1,4,0:3:0:0:
256,178,48460,2,0,L|256:291,1,112.500004291535,4|4,0:3|0:3,0:0:0:0:
315,121,49225,22,0,B|388:116|388:116|350:127,1,112.500004291535,4|4,0:0|0:3,0:0:0:0:
185,142,49798,1,0,0:0:0:0:
256,178,49989,2,0,L|270:291,1,112.500004291535,4|4,0:3|0:3,0:0:0:0:
80,344,50753,5,4,0:3:0:0:
84,310,51136,1,4,0:3:0:0:
88,276,51518,1,4,0:3:0:0:
93,242,51900,1,4,0:3:0:0:
109,75,52282,21,4,0:0:0:0:
109,75,52473,2,0,L|177:81,1,67.4999979400635,0|4,0:0|0:3,0:0:0:0:
303,131,52855,2,0,L|236:138,1,67.4999979400635,0|4,0:0|0:3,0:0:0:0:
116,199,53237,2,0,L|184:206,1,67.4999979400635,0|4,0:0|0:3,0:0:0:0:
77,275,53620,6,0,P|43:240|34:189,1,101.249996910095,4|0,0:0|0:0,0:0:0:0:
44,163,54002,1,0,0:0:0:0:
235,138,54193,2,0,L|227:275,1,134.999995880127,4|4,0:3|0:3,0:0:0:0:
154,321,54766,1,0,0:0:0:0:
335,345,54957,22,0,P|373:344|375:300,1,90,4|0,0:3|0:0,0:0:0:0:
374,279,55339,6,0,B|371:239|371:239|379:220|379:220|376:179,1,101.249996910095,4|0,0:3|0:0,0:0:0:0:
373,139,55721,5,8,0:0:0:0:
415,85,55849,1,8,0:0:0:0:
441,147,55976,1,8,0:0:0:0:
373,139,56104,5,8,0:0:0:0:
339,137,56199,1,8,0:0:0:0:
305,134,56295,1,8,0:0:0:0:
272,131,56390,1,8,0:0:0:0:
238,129,56486,1,8,0:0:0:0:
62,114,56677,1,4,0:3:0:0:
128,234,56868,6,0,L|133:309,1,75,4|0,0:0|0:0,0:0:0:0:
238,129,57250,1,8,0:0:0:0:
62,114,57441,2,0,P|104:58|169:85,1,150
257,252,58014,2,0,P|261:289|260:326,1,75,8|0,0:0|0:0,0:0:0:0:
63,275,58397,22,0,P|63:237|69:201,1,75,4|0,0:3|0:0,0:0:0:0:
168,84,58779,1,8,0:0:0:0:
149,169,58970,1,0,0:0:0:0:
251,57,59161,2,0,L|326:63,1,75,4|0,0:3|0:0,0:0:0:0:
190,0,59543,1,8,0:0:0:0:
233,142,59734,1,0,0:0:0:0:
76,125,59925,6,0,P|63:160|67:196,1,75,4|0,0:0|0:0,0:0:0:0:
213,262,60307,1,8,0:0:0:0:
314,109,60498,2,0,L|464:115,1,150
505,275,61072,2,0,P|509:237|499:203,1,75,8|0,0:0|0:0,0:0:0:0:
471,42,61454,22,0,P|459:78|463:113,1,75,4|0,0:3|0:0,0:0:0:0:
422,246,61836,2,0,L|347:250,1,75,8|0,0:0|0:0,0:0:0:0:
205,197,62218,2,0,L|280:201,1,75,4|0,0:3|0:0,0:0:0:0:
175,274,62600,1,8,0:0:0:0:
141,142,62791,1,0,0:0:0:0:
279,156,62982,6,0,P|350:158|375:225,1,150,4|8,0:3|0:0,0:0:0:0:
256,303,63556,1,0,0:0:0:0:
205,197,63747,2,0,P|194:162|195:124,1,75,4|0,0:3|0:0,0:0:0:0:
343,20,64129,2,0,P|346:56|337:93,1,75,8|0,0:0|0:0,0:0:0:0:
283,232,64511,22,0,L|130:240,1,150,4|8,0:0|0:0,0:0:0:0:
67,137,65084,1,0,0:0:0:0:
258,78,65275,2,0,P|274:112|275:152,1,75,4|0,0:3|0:0,0:0:0:0:
171,317,65658,1,8,0:0:0:0:
283,232,65849,1,0,0:0:0:0:
141,142,66040,6,0,L|65:136,1,75,4|0,0:3|0:0,0:0:0:0:
180,71,66422,1,8,0:0:0:0:
206,194,66613,2,0,L|356:187,1,150
393,46,67186,2,0,P|406:81|405:120,1,75,8|0,0:0|0:0,0:0:0:0:
283,232,67568,21,4,0:3:0:0:
290,145,67759,1,0,0:0:0:0:
416,205,67951,1,8,0:0:0:0:
405,118,68142,1,0,0:0:0:0:
283,232,68333,2,0,P|274:268|275:306,1,75,4|0,0:3|0:0,0:0:0:0:
416,205,68715,2,0,P|413:167|400:131,1,75,8|0,0:0|0:0,0:0:0:0:
186,64,69097,6,0,L|337:74,1,150,4|8,0:0|0:0,0:0:0:0:
248,166,69670,2,0,L|173:174,1,75,0|4,0:0|0:3,0:0:0:0:
79,99,70052,1,0,0:0:0:0:
118,260,70243,2,0,L|193:268,1,75,8|0,0:0|0:0,0:0:0:0:
364,252,70626,21,4,0:3:0:0:
261,350,70817,1,0,0:0:0:0:
373,218,71008,1,8,0:0:0:0:
270,317,71199,1,0,0:0:0:0:
311,160,71390,2,0,P|313:122|303:85,1,75,4|0,0:3|0:0,0:0:0:0:
159,51,71772,2,0,L|233:45,1,75,8|0,0:0|0:0,0:0:0:0:
383,184,72154,6,0,L|233:174,1,150,4|8,0:0|0:0,0:0:0:0:
136,274,72727,2,0,P|145:310|141:349,1,75,0|4,0:0|0:3,0:0:0:0:
81,208,73110,1,0,0:0:0:0:
156,89,73301,2,0,L|231:95,1,75,8|0,0:0|0:0,0:0:0:0:
353,74,73683,21,4,0:3:0:0:
383,184,73874,1,0,0:0:0:0:
240,237,74065,2,0,P|161:242|144:309,2,150,8|4|8,0:0|0:3|0:0,0:0:0:0:
352,315,75020,1,0,0:0:0:0:
207,345,75212,6,0,L|56:354,1,150,4|8,0:0|0:0,0:0:0:0:
7,275,75785,1,0,0:0:0:0:
113,143,75976,2,0,L|200:134,1,75,4|0,0:3|0:0,0:0:0:0:
44,94,76358,1,8,0:0:0:0:
76,218,76549,1,0,0:0:0:0:
248,188,76740,22,0,P|264:155|267:118,1,75,4|0,0:3|0:0,0:0:0:0:
163,212,77122,2,0,L|172:362,2,150,8|4|8,0:0|0:3|0:0,0:0:0:0:
284,277,78078,1,0,0:0:0:0:
134,288,78269,6,0,P|98:286|63:267,1,75,4|0,0:0|0:0,0:0:0:0:
139,139,78651,1,8,0:0:0:0:
208,245,78842,1,0,0:0:0:0:
293,127,79033,2,0,L|284:277,1,150,4|8,0:3|0:0,0:0:0:0:
316,103,79606,1,0,0:0:0:0:
139,139,79797,22,0,L|64:127,1,75,4|0,0:3|0:0,0:0:0:0:
192,64,80180,2,0,P|230:126|208:197,1,150,8|4,0:0|0:3,0:0:0:0:
208,195,80944,1,8,0:0:0:0:
311,268,81135,1,0,0:0:0:0:
378,118,81326,6,0,P|318:84|272:136,1,150,4|8,0:0|0:0,0:0:0:0:
231,275,81899,2,0,L|236:349,1,75,4|4,0:0|0:3,0:0:0:0:
292,207,82281,1,0,0:0:0:0:
292,207,82473,1,4,0:3:0:0:
149,231,82664,1,0,0:0:0:0:
57,149,82855,22,0,P|50:112|50:74,1,75,4|0,0:0|0:0,0:0:0:0:
150,18,83237,1,4,0:3:0:0:
188,145,83428,2,0,L|183:220,1,75,12|0,0:0|0:0,0:0:0:0:
206,351,83810,1,8,0:3:0:0:
75,244,84001,1,8,0:3:0:0:
292,207,84192,1,4,0:0:0:0:
256,192,84288,12,0,87058,0:0:0:0:
