osu file format v14

[General]
AudioFilename: heavenly blue ~TV Size~.mp3
AudioLeadIn: 0
PreviewTime: 56780
Countdown: 0
SampleSet: Soft
StackLeniency: 0.7
Mode: 0
LetterboxInBreaks: 0
WidescreenStoryboard: 0

[Editor]
DistanceSpacing: 1
BeatDivisor: 4
GridSize: 4
TimelineZoom: 0.6999997

[Metadata]
Title:heavenly blue ~TVsize~
TitleUnicode:heavenly blue ~TVsize~
Artist:Kalafina
ArtistUnicode:Kalafina
Creator:IamKwaN
Version:Easy
Source:アルドノア・ゼロ
Tags:ALDNOAH.ZERO ALDNOAH ZERO opening Kajiura Yuki 梶浦由記 大滝若菜 Otaki Wakana 窪田啓子 Kubota Keiko 政井光 Masai Hikaru
BeatmapID:815033
BeatmapSetID:369654

[Difficulty]
HPDrainRate:2
CircleSize:3
OverallDifficulty:2.5
ApproachRate:3
SliderMultiplier:0.9
SliderTickRate:1

[Events]
//Background and Video events
Video,-1482,"video.avi"
0,0,"Background.jpg",0,0
//Break Periods
//Storyboard Layer 0 (Background)
//Storyboard Layer 1 (Fail)
//Storyboard Layer 2 (Pass)
//Storyboard Layer 3 (Foreground)
//Storyboard Sound Samples

[TimingPoints]
309,382.158302707592,4,2,1,30,1,0
3366,-100,4,2,1,25,0,0
3557,-100,4,2,1,30,0,0
6041,-100,4,2,1,5,0,0
6423,-100,4,2,1,50,0,0
30690,-100,4,2,1,40,0,0
30881,-100,4,2,1,50,0,0
31263,-100,4,2,1,35,0,0
35467,-100,4,2,2,35,0,0
35849,-100,4,2,1,35,0,0
37378,-100,4,2,2,40,0,0
37569,-100,4,2,1,40,0,0
40053,-100,4,2,1,50,0,0
40435,-100,4,2,2,50,0,0
40626,-100,4,2,1,50,0,0
42537,-100,4,2,1,40,0,0
43492,-100,4,2,1,35,0,0
47696,-100,4,2,2,35,0,0
48078,-100,4,2,1,35,0,0
49225,-100,4,2,1,40,0,0
49607,-100,4,2,2,40,0,0
49798,-100,4,2,1,40,0,0
52473,-100,4,2,1,50,0,0
52664,-100,4,2,2,50,0,0
53046,-100,4,2,1,50,0,0
53620,-100,4,2,1,40,0,0
54002,-100,4,2,1,50,0,0
54957,-100,4,2,2,50,0,0
55339,-100,4,2,1,50,0,0
55721,-100,4,2,1,40,0,0
56104,-100,4,2,3,40,0,0
56486,-100,4,2,1,40,0,0
56868,-100,4,2,1,70,0,1
66422,-100,4,2,3,70,0,1
66804,-100,4,2,1,70,0,1
68906,-100,4,2,1,70,0,0
69097,-100,4,2,1,70,0,1
78651,-100,4,2,3,70,0,1
79033,-100,4,2,1,70,0,1
82090,-100,4,2,1,50,0,1
82855,-100,4,2,1,70,0,1
84192,-100,4,2,1,70,0,0
84383,-100,4,2,1,50,0,0
86294,-100,4,2,1,30,0,0
86963,-100,4,2,1,20,0,0
87058,-100,4,2,1,5,0,0

[Colours]
Combo1 : 255,36,36
Combo2 : 115,160,251
Combo3 : 255,225,15

[HitObjects]
126,152,309,6,0,P|92:181|81:226,1,90,2|0,3:0|0:0,0:0:0:0:
121,306,1073,2,0,L|212:312,1,90,2|0,0:0|0:0,0:0:0:0:
301,311,1837,2,0,L|390:305,1,90,2|0,0:0|0:0,0:0:0:0:
430,224,2601,2,0,P|419:181|386:152,1,90,2|0,0:0|0:0,0:0:0:0:
316,94,3366,6,0,B|327:150|327:150|399:148|428:98|410:36|379:-13|311:-19|252:-1|215:57|236:122|236:122|183:100|183:100|132:147|70:120,1,630,8|0,0:1|0:0,0:0:0:0:
23,44,6423,21,2,0:3:0:0:
112,39,6805,2,0,P|162:109|130:190,1,180,4|4,0:3|0:3,0:0:0:0:
104,276,7952,2,0,L|112:368,1,90,4|8,0:3|0:0,0:0:0:0:
200,348,8716,2,0,L|192:258,2,90,4|4|4,0:3|0:3|0:3,0:0:0:0:
287,369,9862,6,0,B|340:355|373:371|407:388|465:372,1,180,8|4,0:0|0:3,0:0:0:0:
500,289,11009,1,4,0:3:0:0:
460,207,11391,2,0,P|444:166|452:120,1,90,8|4,0:0|0:3,0:0:0:0:
454,31,12155,2,0,L|365:40,1,90,4|4,0:3|0:3,0:0:0:0:
289,90,12920,22,0,B|222:110|185:59|110:89,1,180,8|4,0:0|0:3,0:0:0:0:
77,173,14066,1,4,0:3:0:0:
18,102,14448,2,0,L|6:12,2,90,8|4|4,0:0|0:3|0:3,0:0:0:0:
77,173,15595,5,4,0:3:0:0:
138,238,15977,2,0,B|148:328|148:328|191:316|233:347,1,180,8|4,0:0|0:3,0:0:0:0:
319,368,17123,2,0,L|409:364,1,90,4|8,0:3|0:0,0:0:0:0:
474,300,17888,2,0,B|477:255|477:255|457:215|457:215|459:167,1,135,4|8,0:3|0:3,0:0:0:0:
480,130,18652,22,0,L|300:140,1,180,2|4,0:3|0:3,0:0:0:0:
232,199,19799,2,0,P|209:162|213:111,1,90,4|4,0:3|0:3,0:0:0:0:
276,55,20563,1,8,0:0:0:0:
365,49,20945,2,0,L|454:44,2,90,4|4|4,0:3|0:3|0:3,0:0:0:0:
276,55,22092,6,0,L|96:45,1,180,8|4,0:0|0:3,0:0:0:0:
9,22,23238,1,4,0:3:0:0:
27,110,23620,2,0,P|14:154|23:199,1,90,8|4,0:0|0:3,0:0:0:0:
87,258,24384,2,0,P|100:302|91:347,1,90,4|4,0:3|0:3,0:0:0:0:
10,305,25149,22,0,L|191:300,1,180,8|4,0:0|0:3,0:0:0:0:
256,239,26295,1,4,0:3:0:0:
322,300,26677,2,0,L|412:303,1,90,8|4,0:0|0:3,0:0:0:0:
497,331,27442,2,0,P|501:287|481:246,1,90,4|4,0:3|0:3,0:0:0:0:
408,193,28206,5,8,0:0:0:0:
325,157,28588,2,0,L|317:67,1,90,4|4,0:3|0:3,0:0:0:0:
237,25,29353,2,0,P|194:14|157:35,1,90,4|4,0:3|0:3,0:0:0:0:
123,65,29926,2,0,B|83:87|35:68|35:68|45:203,1,225,8|4,0:0|0:0,0:0:0:0:
108,265,31263,22,0,L|101:356,1,90,4|4,0:3|0:3,0:0:0:0:
189,364,32028,2,0,L|195:274,1,90,4|4,0:3|0:3,0:0:0:0:
256,208,32792,1,4,0:3:0:0:
317,274,33174,2,0,L|323:364,1,90,4|4,0:3|0:3,0:0:0:0:
410,354,33938,6,0,L|404:265,2,90,4|4|4,0:3|0:3|0:3,0:0:0:0:
322,363,35085,2,0,B|234:343|232:383|143:361,1,180,4|4,0:3|0:3,0:0:0:0:
56,340,36231,2,0,P|48:297|60:254,1,90,4|4,0:3|0:3,0:0:0:0:
138,208,36996,22,0,L|134:71,1,135,4|0,0:0|0:0,0:0:0:0:
150,31,37760,2,0,P|191:16|236:27,1,90,4|4,0:3|0:3,0:0:0:0:
310,75,38524,2,0,L|314:170,1,90,4|4,0:3|0:3,0:0:0:0:
378,228,39289,2,0,L|374:323,1,90,4|4,0:3|0:3,0:0:0:0:
301,370,40053,6,0,L|166:378,1,135,4|0,0:3|0:0,0:0:0:0:
122,368,40817,2,0,P|109:326|119:280,1,90,4|4,0:3|0:3,0:0:0:0:
194,233,41582,2,0,L|189:144,1,90,4|4,0:3|0:3,0:0:0:0:
117,88,42346,2,0,L|122:-1,2,90,4|8|4,0:3|0:3|0:0,0:0:0:0:
99,176,43492,22,0,P|55:172|14:190,1,90,4|4,0:3|0:3,0:0:0:0:
25,279,44257,2,0,P|69:283|110:265,1,90,4|4,0:3|0:3,0:0:0:0:
194,233,45021,1,4,0:3:0:0:
278,263,45403,2,0,L|271:353,1,90,4|4,0:3|0:3,0:0:0:0:
360,364,46167,6,0,L|367:274,2,90,4|4|4,0:3|0:3|0:3,0:0:0:0:
449,377,47314,2,0,B|456:287|456:287|461:239|424:207,1,180,4|4,0:3|0:3,0:0:0:0:
360,145,48460,2,0,L|353:55,1,90,4|4,0:3|0:3,0:0:0:0:
271,17,49225,22,0,B|208:6|208:38|135:25,1,135,4|0,0:0|0:0,0:0:0:0:
92,21,49989,2,0,P|109:64|107:109,1,90,4|4,0:3|0:3,0:0:0:0:
36,162,50753,2,0,L|41:251,1,90,4|4,0:3|0:3,0:0:0:0:
124,286,51518,2,0,L|119:375,1,90,4|4,0:3|0:3,0:0:0:0:
208,373,52282,6,0,B|214:284|214:284|259:300|303:278,1,180,4|4,0:0|0:3,0:0:0:0:
373,223,53429,1,4,0:3:0:0:
397,136,53811,2,0,P|390:91|409:51,1,90,4|4,0:3|0:3,0:0:0:0:
478,105,54575,2,0,L|299:112,1,180,4|4,0:3|0:3,0:0:0:0:
228,55,55721,2,0,P|153:49|151:135,1,180,8|8,0:0|0:0,0:0:0:0:
232,174,56868,22,0,P|222:218|222:268,2,90,4|8|4,0:0|0:0|0:3,0:0:0:0:
298,112,58014,1,8,0:0:0:0:
375,65,58397,2,0,L|465:71,1,90,4|8,0:3|0:0,0:0:0:0:
466,160,59161,2,0,L|376:154,1,90,4|8,0:3|0:0,0:0:0:0:
298,112,59925,6,0,P|285:71|297:26,2,90,4|8|4,0:0|0:0|0:3,0:0:0:0:
376,154,61072,1,8,0:0:0:0:
409,237,61454,2,0,L|405:328,1,90,4|8,0:3|0:0,0:0:0:0:
333,380,62218,1,4,0:3:0:0:
258,330,62600,2,0,L|167:316,1,90,8|4,0:0|0:3,0:0:0:0:
123,239,63365,21,8,0:0:0:0:
184,173,63747,2,0,L|181:82,1,90,4|8,0:3|0:0,0:0:0:0:
128,9,64511,2,0,P|88:2|42:20,1,90,4|8,0:0|0:0,0:0:0:0:
10,103,65275,2,0,P|50:110|96:92,1,90,4|8,0:3|0:0,0:0:0:0:
181,83,66040,6,0,B|269:63|269:63|358:87,1,180,4|4,0:3|0:3,0:0:0:0:
431,134,67186,2,0,P|444:177|438:220,1,90,8|4,0:0|0:3,0:0:0:0:
398,300,67951,1,8,0:0:0:0:
321,251,68333,2,0,L|231:254,1,90,4|8,0:3|0:0,0:0:0:0:
225,344,69097,22,0,L|314:340,2,90,4|8|4,0:0|0:0|0:3,0:0:0:0:
149,294,70243,1,8,0:0:0:0:
191,214,70626,2,0,P|200:171|190:127,1,90,4|8,0:3|0:0,0:0:0:0:
136,54,71390,2,0,L|45:50,1,90,4|8,0:3|0:0,0:0:0:0:
13,133,72154,6,0,L|102:136,2,90,4|8|4,0:0|0:0|0:3,0:0:0:0:
11,223,73301,2,0,P|57:224|83:256,1,90,8|4,0:0|0:3,0:0:0:0:
118,338,74065,2,0,L|208:333,1,90,8|4,0:0|0:3,0:0:0:0:
256,257,74829,1,8,0:0:0:0:
304,333,75212,22,0,L|394:338,1,90,4|8,0:0|0:0,0:0:0:0:
466,284,75976,2,0,P|478:241|466:198,1,90,4|8,0:3|0:0,0:0:0:0:
400,137,76740,1,4,0:3:0:0:
318,98,77122,2,0,L|325:7,2,90,8|4|8,0:0|0:3|0:0,0:0:0:0:
242,147,78269,6,0,B|154:168|154:168|64:146,1,180,4|4,0:0|0:3,0:0:0:0:
21,223,79415,2,0,P|62:238|83:280,1,90,8|4,0:0|0:3,0:0:0:0:
150,337,80180,2,0,L|238:315,1,90,8|4,0:0|0:3,0:0:0:0:
273,232,80944,1,8,0:0:0:0:
238,148,81326,22,0,P|230:103|242:60,1,90,4|8,0:0|0:0,0:0:0:0:
259,19,81899,2,0,L|120:26,1,135,4|4,0:0|0:3,0:0:0:0:
43,64,82855,2,0,P|23:104|25:150,1,90,4|4,0:0|0:3,0:0:0:0:
46,188,83428,2,0,L|40:278,2,90,12|8|4,0:0|0:3|0:0,0:0:0:0:
256,192,84383,12,0,87058,0:0:0:0:
