osu file format v14

[General]
AudioFilename: audio.mp3
AudioLeadIn: 0
PreviewTime: 226619
Countdown: 0
SampleSet: Normal
StackLeniency: 0.7
Mode: 0
LetterboxInBreaks: 0
WidescreenStoryboard: 0

[Editor]
DistanceSpacing: 0.7
BeatDivisor: 4
GridSize: 4
TimelineZoom: 2.2

[Metadata]
Title:heavenly blue
TitleUnicode:heavenly blue
Artist:Kalafina
ArtistUnicode:Kalafina
Creator:Kalibe
Version:aozora
Source:アルドノア・ゼロ
Tags:ALDNOAH.ZERO ALDNOAH ZERO opening op full size
BeatmapID:1640348
BeatmapSetID:780962

[Difficulty]
HPDrainRate:6
CircleSize:4
OverallDifficulty:8
ApproachRate:9
SliderMultiplier:1.8
SliderTickRate:1

[Events]
//Background and Video events
0,0,"zero.jpg",0,0
//Break Periods
2,226809,230240
2,301640,302559
//Storyboard Layer 0 (Background)
//Storyboard Layer 1 (Fail)
//Storyboard Layer 2 (Pass)
//Storyboard Layer 3 (Foreground)
//Storyboard Sound Samples

[TimingPoints]
372,382.158302707592,4,2,1,40,1,0
4862,-100,4,2,1,20,0,0
6486,-100,4,1,1,30,0,0
6582,-100,4,1,1,50,0,0
30944,-111.111111111111,4,1,1,35,0,0
31040,-111.111111111111,4,1,1,40,0,0
49288,-111.111111111111,4,1,1,45,0,0
54638,-111.111111111111,4,1,1,50,0,0
55402,-80,4,1,1,60,0,0
56931,-90.9090909090909,4,1,2,70,0,1
57026,-90.9090909090909,4,1,1,70,0,0
62281,-76.9230769230769,4,1,1,70,0,0
62663,-90.9090909090909,4,1,1,70,0,0
86357,-80,4,1,1,70,0,0
87504,-111.111111111111,4,1,1,30,0,0
87599,-111.111111111111,4,1,1,45,0,0
93618,-100,4,1,1,30,0,0
93714,-100,4,1,1,50,0,0
118076,-111.111111111111,4,1,1,30,0,0
118172,-111.111111111111,4,1,1,45,0,0
142534,-74.0740740740741,4,1,1,60,0,0
144063,-86.9565217391304,4,1,2,70,0,1
144159,-86.9565217391304,4,1,1,70,0,0
170050,-74.0740740740741,4,1,1,70,0,0
171578,-100,4,1,1,55,0,0
193744,-95.2380952380952,4,1,1,55,0,0
196037,-74.0740740740741,4,1,1,55,0,1
196801,-83.3333333333333,4,1,1,55,0,1
220495,-100,4,1,1,30,0,0
220590,-100,4,1,1,55,0,0
225081,-250,4,1,1,40,0,0
225176,-250,4,2,1,30,0,0
226609,-250,4,1,2,40,0,0
226705,-250,4,1,1,55,0,0
231959,-90.9090909090909,4,1,1,70,0,0
232724,-90.9090909090909,4,1,2,70,0,1
232819,-90.9090909090909,4,1,1,70,0,0
251067,-86.9565217391304,4,1,2,70,0,1
251163,-86.9565217391304,4,1,1,70,0,0
280876,-222.222222222223,4,1,1,40,0,0
280971,-153.846153846154,4,2,1,30,0,0
281640,-153.846153846154,4,1,2,40,0,0
281736,-153.846153846154,4,2,1,35,0,0
287755,400,4,2,2,35,1,0
287755,-200,4,2,2,35,0,0
289355,384.615384615385,4,2,1,35,1,0
289355,-200,4,2,1,35,0,0
289931,-200,4,2,1,15,0,0
290124,387.096774193548,4,2,1,35,1,0
290124,-200,4,2,1,35,0,0
290704,-200,4,2,1,15,0,0
290898,387.096774193548,4,2,1,35,1,0
290898,-200,4,2,1,35,0,0
291478,-200,4,2,1,15,0,0
291672,382.165605095541,4,2,1,35,1,0
291672,-200,4,2,1,35,0,0
292245,-200,4,2,1,15,0,0
292436,384.862091084028,4,2,2,30,1,0
292436,-200,4,2,2,30,0,0
292532,-200,4,2,1,15,0,0
293590,-200,4,2,1,20,0,0
293975,382.165605095541,4,2,1,35,1,0
293975,-200,4,2,1,35,0,0
295503,365.853658536585,4,2,2,35,1,0
295503,-333.333333333333,4,2,2,35,0,0
295594,-333.333333333333,4,2,1,20,0,0
296966,368.550368550369,4,2,2,35,1,0
296966,-250,4,2,2,35,0,0
297058,-250,4,2,1,20,0,0
298440,375,4,2,2,35,1,0
298440,-333.333333333333,4,2,2,35,0,0
298533,-333.333333333333,4,2,1,25,0,0
301440,429.799426934097,4,2,1,35,1,0
301440,-200,4,2,1,35,0,0
302944,-200,4,2,1,5,0,0
303159,428.816466552316,4,2,2,40,1,0
303159,-100,4,2,2,40,0,0
303587,-100,4,2,1,30,0,0
306589,-100,4,2,2,25,0,0
308304,-100,4,2,1,20,0,0
310020,-100,4,2,2,15,0,0
311735,-100,4,2,1,12,0,0
314951,-100,4,2,2,7,0,0
315165,-100,4,2,2,5,0,0

[Colours]
Combo1 : 0,128,192
Combo2 : 148,226,205
Combo3 : 139,242,248
Combo4 : 0,128,255

[HitObjects]
225,384,372,5,4,0:2:0:0:
292,345,754,1,0,0:0:0:0:
229,306,1136,1,0,0:0:0:0:
304,334,1518,1,0,0:0:0:0:
215,278,1900,1,2,0:0:0:0:
289,248,2282,1,2,0:0:0:0:
205,199,2664,1,2,0:0:0:0:
308,147,3047,1,2,0:0:0:0:
249,12,3429,5,2,0:3:0:0:
249,12,3620,1,2,0:3:0:0:
318,61,3811,2,0,B|449:75|386:109|494:129,1,180,2|2,0:0|0:0,0:0:0:0:
481,126,4289,1,2,0:3:0:0:
481,126,4384,1,2,0:3:0:0:
411,245,4575,2,0,L|403:208,4,22.5,2|2|2|0|0,0:3|0:0|0:0|0:0|0:0,0:0:0:0:
256,192,4862,12,0,6295,0:0:0:0:
400,333,6486,6,0,P|338:317|290:314,1,90,4|0,0:0|0:0,0:0:0:0:
486,271,6868,2,0,P|491:315|504:358,1,90,8|0,0:0|0:0,0:0:0:0:
376,234,7250,2,0,P|403:198|424:158,1,90,2|0,0:0|2:0,0:0:0:0:
486,271,7633,5,0,0:0:0:0:
400,333,7824,2,0,P|373:334|221:371,1,180,2|0,2:0|3:0,0:0:0:0:
71,214,8397,2,0,P|120:230|184:239,1,90,8|2,0:0|2:0,0:0:0:0:
242,192,8779,1,0,3:0:0:0:
191,76,8970,1,2,0:0:0:0:
137,149,9161,5,0,3:0:0:0:
242,192,9352,1,0,2:0:0:0:
373,91,9543,1,2,0:0:0:0:
271,48,9734,2,0,P|237:44|165:30,1,90,0|8,3:0|0:0,0:0:0:0:
400,188,10117,2,0,P|398:172|426:9,1,180,2|0,0:0|0:0,0:0:0:0:
502,78,10690,5,0,3:0:0:0:
486,152,10881,1,2,2:0:0:0:
334,236,11072,1,0,3:0:0:0:
316,162,11263,1,2,0:0:0:0:
476,266,11454,5,8,0:0:0:0:
389,337,11645,2,0,P|321:349|291:363,1,90,0|0,0:0|3:0,0:0:0:0:
186,153,12027,5,2,0:0:0:0:
258,218,12218,1,2,2:0:0:0:
150,275,12409,1,0,0:0:0:0:
220,381,12601,1,0,3:0:0:0:
220,381,12792,2,0,P|220:341|240:282,1,90,2|8,0:0|0:0,0:0:0:0:
88,151,13174,2,0,P|106:160|184:179,1,90,2|0,0:0|3:0,0:0:0:0:
50,335,13556,2,0,P|62:329|146:307,1,90,2|0,2:0|3:0,0:0:0:0:
361,208,13938,5,2,0:0:0:0:
250,268,14129,1,0,3:0:0:0:
126,195,14320,1,0,2:0:0:0:
264,117,14511,1,8,0:0:0:0:
175,29,14702,2,0,P|174:48|159:124,1,90,2|0,0:0|2:0,0:0:0:0:
331,295,15085,2,0,P|325:275|317:206,1,90,2|0,0:1|0:0,0:0:0:0:
346,8,15467,5,2,2:0:0:0:
476,72,15658,2,0,B|374:60|403:111|303:112,1,180,4|8,0:2|0:0,0:0:0:0:
422,238,16231,2,0,P|422:215|445:142,1,90,2|0,0:0|3:0,0:0:0:0:
236,294,16613,2,0,P|256:295|323:313,1,90,2|0,0:0|3:0,0:0:0:0:
160,117,16995,5,2,2:0:0:0:
107,210,17186,2,0,L|256:190,1,135,0|0,3:0|2:0,0:0:0:0:
276,219,17569,1,8,0:0:0:0:
117,371,17760,5,2,0:0:0:0:
218,303,17951,1,0,2:0:0:0:
107,210,18142,1,0,3:0:0:0:
28,311,18333,5,8,3:0:0:0:
228,222,18524,1,8,3:0:0:0:
81,122,18715,6,0,P|75:89|67:19,1,90,4|0,0:2|0:0,0:0:0:0:
192,203,19097,2,0,P|202:159|215:116,1,90,2|0,0:0|0:0,0:0:0:0:
377,175,19479,2,0,P|371:142|363:72,1,90,2|0,0:0|2:0,0:0:0:0:
489,242,19861,2,0,P|499:198|512:155,1,90,2|0,0:0|0:0,0:0:0:0:
454,81,20244,1,2,0:0:0:0:
349,175,20435,1,0,3:0:0:0:
224,92,20626,5,8,0:0:0:0:
307,11,20817,2,0,P|339:46|334:105,1,90,2|0,0:0|3:0,0:0:0:0:
210,204,21199,2,0,P|164:195|114:192,1,90,2|0,0:0|3:0,0:0:0:0:
35,40,21581,5,2,2:0:0:0:
119,98,21772,1,0,3:0:0:0:
12,178,21963,1,0,2:0:0:0:
132,302,22155,1,8,0:0:0:0:
36,355,22346,2,0,P|23:317|29:252,1,90,2|0,0:0|3:0,0:0:0:0:
135,180,22728,1,2,0:0:0:0:
220,244,22919,1,0,3:0:0:0:
327,187,23110,1,2,2:0:0:0:
116,296,23301,5,0,3:0:0:0:
220,244,23492,1,2,2:0:0:0:
292,376,23683,1,8,0:0:0:0:
376,296,23874,2,0,P|368:229|364:99,1,180,2|0,0:0|2:0,0:0:0:0:
484,32,24447,1,0,3:0:0:0:
468,106,24639,1,4,3:0:0:0:
346,10,24830,6,0,P|281:22|243:25,1,90,2|0,0:0|0:0,0:0:0:0:
386,181,25212,1,8,0:0:0:0:
266,118,25403,2,0,P|244:165|250:232,1,90,2|0,0:0|3:0,0:0:0:0:
366,375,25785,2,0,P|388:328|382:261,1,90,2|0,0:0|3:0,0:0:0:0:
147,206,26167,5,2,2:0:0:0:
96,327,26358,2,0,P|147:312|243:304,1,135,0|0,3:0|2:0,0:0:0:0:
259,327,26740,1,8,0:0:0:0:
328,226,26932,2,0,P|279:217|234:197,1,90,2|0,0:0|3:0,0:0:0:0:
142,56,27314,1,2,2:0:0:0:
38,146,27505,1,0,3:0:0:0:
94,228,27696,1,0,2:0:0:0:
228,112,27887,6,0,P|235:64|249:7,1,90,4|0,0:2|2:0,0:0:0:0:
343,207,28269,2,0,P|391:214|448:228,1,90,8|0,0:0|0:0,0:0:0:0:
466,56,28651,2,0,P|390:82|335:88,1,135,2|0,0:0|2:0,0:0:0:0:
335,88,29033,6,0,L|350:190,1,90,0|0,3:0|2:0,0:0:0:0:
177,354,29416,2,0,L|192:252,1,90,2|0,0:0|2:0,0:0:0:0:
247,147,29798,1,0,3:0:0:0:
404,323,29989,5,12,0:2:0:0:
271,244,30180,1,0,3:0:0:0:
373,177,30371,1,8,3:0:0:0:
270,136,30562,1,10,3:0:0:0:
335,88,30753,1,8,3:0:0:0:
177,38,30944,6,0,B|83:31|111:85|9:84,2,161.999995056153,4|0|0,0:0|2:0|3:0,0:0:0:0:
266,138,32091,2,0,P|204:127|120:263,1,242.999992584229,4|0,0:3|2:0,0:0:0:0:
17,323,32855,2,0,P|29:284|26:233,1,80.9999975280763,4|0,0:3|2:0,0:0:0:0:
97,351,33237,2,0,B|268:307|192:385|343:361,1,242.999992584229,0|0,0:0|2:0,0:0:0:0:
396,317,34001,5,0,3:0:0:0:
304,172,34384,1,0,3:0:0:0:
231,195,34575,1,2,0:3:0:0:
231,195,34766,1,0,3:0:0:0:
464,147,35148,6,0,P|387:134|316:276,1,242.999992584229,4|0,0:3|2:0,0:0:0:0:
319,336,35912,2,0,P|281:340|225:360,1,80.9999975280763,4|0,0:3|0:0,0:0:0:0:
110,196,36294,2,0,P|163:135|306:176,1,242.999992584229,0|0,0:0|2:0,0:0:0:0:
405,265,37059,6,0,P|414:192|430:96,1,161.999995056153,4|0,0:2|3:0,0:0:0:0:
308,9,37632,1,2,0:3:0:0:
238,34,37823,2,0,B|94:22|135:83|-9:76,1,242.999992584229,2|0,0:0|2:0,0:0:0:0:
51,157,38587,6,0,P|85:149|140:144,1,80.9999975280763,0|0,3:0|2:0,0:0:0:0:
176,316,38969,2,0,P|141:295|109:270,1,80.9999975280763,4|0,3:0|2:0,0:0:0:0:
235,143,39352,2,0,P|231:183|222:222,1,80.9999975280763,2|0,0:0|2:0,0:0:0:0:
89,376,39734,5,4,3:0:0:0:
89,376,40116,2,0,P|150:326|314:338,1,242.999992584229,4|0,0:2|2:0,0:0:0:0:
377,370,40880,2,0,P|388:331|404:293,1,80.9999975280763,0|0,3:0|2:0,0:0:0:0:
334,224,41262,2,0,P|322:185|306:147,1,80.9999975280763,4|0,0:3|2:0,0:0:0:0:
475,42,41645,2,0,P|421:66|418:168,1,161.999995056153,2|4,0:0|0:3,0:0:0:0:
491,215,42218,5,2,2:0:0:0:
498,196,42409,1,0,3:0:0:0:
389,147,42600,1,8,3:0:0:0:
272,231,42791,1,8,3:0:0:0:
407,320,42982,1,0,3:0:0:0:
301,144,43173,6,0,P|241:155|215:158,1,80.9999975280763,4|0,0:2|2:0,0:0:0:0:
120,286,43555,2,0,P|131:226|134:200,1,80.9999975280763,4|2,0:3|2:3,0:0:0:0:
16,91,43938,2,0,P|76:102|102:105,1,80.9999975280763,0|0,3:0|2:0,0:0:0:0:
227,254,44320,6,0,P|137:244|28:360,1,242.999992584229,4|0,0:3|2:0,0:0:0:0:
28,266,45084,2,0,P|36:232|43:171,1,80.9999975280763,2|0,3:0|0:0,0:0:0:0:
164,340,45466,2,0,B|326:306|271:381|409:378,1,242.999992584229,0|0,0:0|2:0,0:0:0:0:
365,286,46230,5,2,3:2:0:0:
200,230,46613,1,4,0:3:0:0:
269,198,46804,1,2,0:3:0:0:
269,198,46995,1,0,3:0:0:0:
377,68,47377,6,0,P|301:44|198:157,1,242.999992584229,4|0,0:3|2:0,0:0:0:0:
253,235,48141,2,0,P|271:196|274:156,1,80.9999975280763,4|0,0:3|2:0,0:0:0:0:
142,301,48523,2,0,P|169:333|204:353,1,80.9999975280763,0|0,3:0|2:0,0:0:0:0:
123,174,48906,2,0,P|81:185|48:208,1,80.9999975280763,2|0,3:0|2:0,0:0:0:0:
342,344,49288,6,0,P|350:280|366:176,1,161.999995056153,4|0,0:2|3:0,0:0:0:0:
262,22,49861,1,2,0:3:0:0:
331,52,50052,2,0,P|378:43|425:38,1,80.9999975280763,2|0,0:0|2:0,0:0:0:0:
433,113,50434,2,0,P|473:118|515:127,1,80.9999975280763,4|0,0:3|2:0,0:0:0:0:
316,264,50816,1,0,3:0:0:0:
316,264,51199,5,4,0:3:0:0:
364,183,51390,1,0,2:0:0:0:
269,98,51581,2,0,P|257:135|246:197,1,80.9999975280763,2|0,3:0|2:0,0:0:0:0:
451,349,51963,2,0,P|439:312|428:250,1,80.9999975280763,2|0,3:0|2:0,0:0:0:0:
369,30,52345,5,4,0:2:0:0:
291,16,52536,2,0,P|231:9|194:8,1,80.9999975280763,2|0,0:0|3:0,0:0:0:0:
329,161,52918,2,0,B|232:156|268:194|163:194,1,161.999995056153,2|0,0:0|2:0,0:0:0:0:
15,95,53492,5,0,3:0:0:0:
81,51,53683,2,0,P|136:44|171:40,1,80.9999975280763,2|0,2:0|3:0,0:0:0:0:
30,221,54065,1,2,2:0:0:0:
95,298,54256,2,0,P|121:300|196:317,1,80.9999975280763,4|0,0:3|2:0,0:0:0:0:
387,189,54638,5,0,3:0:0:0:
277,113,54829,1,2,3:0:0:0:
146,218,55020,1,4,3:0:0:0:
187,384,55211,1,0,3:0:0:0:
292,317,55402,5,12,0:0:0:0:
292,317,55784,5,8,0:0:0:0:
273,239,55912,1,8,0:0:0:0:
253,126,56071,1,8,0:0:0:0:
253,126,56167,5,8,3:0:0:0:
216,112,56262,1,8,0:0:0:0:
176,117,56358,1,0,3:0:0:0:
146,143,56453,1,8,0:0:0:0:
114,166,56549,1,8,0:0:0:0:
74,164,56644,1,0,3:0:0:0:
40,142,56740,1,8,3:0:0:0:
32,103,56835,1,0,3:0:0:0:
32,103,56931,6,0,B|150:109|107:173|214:185,1,198.000006042481,4|8,0:0|0:0,0:0:0:0:
421,259,57504,2,0,B|308:258|363:331|211:347,1,198.000006042481,2|0,0:0|2:0,0:0:0:0:
175,316,58077,1,8,0:0:0:0:
206,184,58268,1,0,2:0:0:0:
302,133,58460,6,0,P|296:113|295:30,1,99.0000030212403,2|0,0:0|3:0,0:0:0:0:
110,195,58842,2,0,P|115:175|117:92,1,99.0000030212403,10|0,0:0|0:3,0:0:0:0:
320,125,59224,2,0,P|319:146|329:224,1,99.0000030212403,2|0,0:0|3:0,0:0:0:0:
79,194,59606,2,0,P|81:219|72:293,1,99.0000030212403,10|0,0:0|2:0,0:0:0:0:
222,374,59988,6,0,P|213:302|206:152,1,198.000006042481,4|8,0:2|0:0,0:0:0:0:
310,19,60561,1,2,0:0:0:0:
388,69,60753,2,0,P|436:62|494:49,1,99.0000030212403,0|0,3:0|2:3,0:0:0:0:
297,196,61135,2,0,P|289:147|279:98,1,99.0000030212403,8|0,0:0|0:0,0:0:0:0:
448,160,61517,5,2,0:0:0:0:
388,348,61708,1,0,2:3:0:0:
391,215,61899,5,8,0:0:0:0:
441,284,62090,1,0,3:0:0:0:
415,250,62281,6,0,B|319:249|351:294|248:307,1,175.499991966248,2|0,0:0|2:0,0:0:0:0:
208,274,62663,1,8,0:0:0:0:
25,341,62854,6,0,L|98:358,1,49.5000015106202,2|2,2:0|2:0,0:0:0:0:
97,375,63045,2,0,P|100:350|121:267,1,99.0000030212403,4|0,0:2|2:0,0:0:0:0:
199,149,63428,1,8,0:0:0:0:
125,121,63619,1,0,2:0:0:0:
51,188,63810,5,0,3:0:0:0:
199,149,64001,1,2,0:0:0:0:
317,287,64192,2,0,P|310:306|298:384,1,99.0000030212403,8|0,0:0|0:3,0:0:0:0:
190,318,64574,1,0,3:0:0:0:
341,191,64765,1,2,2:0:0:0:
341,191,64861,1,2,2:0:0:0:
341,191,64956,2,0,L|456:210,1,99.0000030212403,8|0,0:0|2:3,0:0:0:0:
367,67,65338,5,0,3:0:0:0:
255,136,65529,1,0,3:0:0:0:
411,286,65721,1,8,0:0:0:0:
439,192,65912,5,2,2:0:0:0:
439,192,66007,1,2,2:0:0:0:
439,192,66103,2,0,L|237:228,1,198.000006042481,4|8,0:2|0:0,0:0:0:0:
105,130,66676,1,2,2:0:0:0:
110,105,66772,1,2,2:0:0:0:
113,80,66867,1,0,3:0:0:0:
235,127,67058,1,2,0:0:0:0:
29,250,67249,2,0,P|29:232|7:93,1,148.50000453186,8|0,0:0|2:0,0:0:0:0:
33,63,67631,5,4,0:2:0:0:
122,221,67822,1,2,0:0:0:0:
105,130,68014,5,8,0:0:0:0:
7,245,68205,1,2,0:0:0:0:
164,349,68396,5,0,3:0:0:0:
285,266,68587,1,0,0:3:0:0:
193,96,68778,1,8,0:0:0:0:
122,221,68969,1,2,0:0:0:0:
304,356,69160,6,0,B|422:317|392:391|516:372,1,198.000006042481,4|8,0:2|0:0,0:0:0:0:
316,243,69733,2,0,P|247:237|161:329,1,198.000006042481,2|0,0:0|3:3,0:0:0:0:
407,256,70306,2,0,P|409:240|430:138,1,99.0000030212403,8|2,0:0|0:3,0:0:0:0:
325,16,70689,1,0,3:0:0:0:
415,66,70880,1,2,3:0:0:0:
229,160,71071,1,8,0:0:0:0:
236,57,71262,1,0,2:0:0:0:
330,115,71453,6,0,P|324:132|311:220,1,99.0000030212403,2|0,0:0|0:3,0:0:0:0:
134,17,71835,2,0,P|139:33|152:114,1,99.0000030212403,10|0,0:0|2:0,0:0:0:0:
0,246,72217,6,0,P|16:236|154:214,1,148.50000453186,4|0,0:2|2:0,0:0:0:0:
128,186,72599,1,8,0:0:0:0:
261,368,72790,2,0,P|205:318|57:344,1,198.000006042481,2|0,0:0|3:3,0:0:0:0:
228,184,73364,5,8,0:0:0:0:
305,243,73555,1,2,2:0:0:0:
329,240,73650,1,2,2:0:0:0:
353,238,73746,1,0,3:0:0:0:
424,308,73937,5,2,3:3:0:0:
484,156,74128,1,8,0:0:0:0:
372,88,74319,1,2,0:0:0:0:
305,243,74510,1,2,3:0:0:0:
404,164,74701,5,0,0:3:0:0:
188,232,74892,2,0,P|204:283|209:336,1,99.0000030212403,8|0,0:0|3:0,0:0:0:0:
266,384,75179,1,8,0:0:0:0:
289,372,75275,2,0,P|271:354|84:368,1,198.000006042481,4|8,0:0|0:0,0:0:0:0:
216,189,75848,5,2,0:0:0:0:
77,249,76039,2,0,P|60:211|64:144,1,99.0000030212403,0|0,3:0|2:3,0:0:0:0:
302,26,76421,2,0,P|328:78|320:126,1,99.0000030212403,8|0,0:0|3:0,0:0:0:0:
49,44,76803,6,0,P|66:49|176:64,1,99.0000030212403,2|0,3:0|2:3,0:0:0:0:
330,223,77185,2,0,P|354:215|503:205,1,148.50000453186,8|0,0:0|2:0,0:0:0:0:
492,174,77567,1,0,3:0:0:0:
396,112,77759,1,0,3:3:0:0:
195,219,77950,5,8,0:0:0:0:
291,157,78142,1,2,0:0:0:0:
410,260,78332,2,0,P|403:275|391:357,1,99.0000030212403,2|4,3:0|0:3,0:0:0:0:
203,131,78714,1,8,0:0:0:0:
272,36,78905,1,0,3:0:0:0:
272,36,79001,1,0,3:0:0:0:
272,36,79096,1,10,3:0:0:0:
396,112,79287,1,4,0:3:0:0:
275,307,79478,5,8,0:0:0:0:
408,221,79669,1,2,0:0:0:0:
299,194,79860,2,0,B|192:188|218:255|95:256,1,198.000006042481,2|8,3:0|0:0,0:0:0:0:
276,384,80434,5,0,2:0:0:0:
343,348,80625,2,0,P|343:328|368:233,1,99.0000030212403,0|0,3:0|0:0,0:0:0:0:
129,166,81007,1,10,3:0:0:0:
129,166,81389,5,4,0:2:0:0:
266,281,81580,1,0,3:0:0:0:
297,207,81771,1,8,3:0:0:0:
122,378,81962,1,12,0:2:0:0:
64,328,82153,2,0,L|48:224,1,99.0000030212403,0|0,3:0|2:0,0:0:0:0:
192,64,82536,1,8,0:0:0:0:
236,200,82727,5,2,0:0:0:0:
477,54,82918,2,0,B|370:40|395:112|292:111,1,198.000006042481,2|0,3:0|3:0,0:0:0:0:
465,305,83491,1,12,0:2:0:0:
500,202,83682,1,0,3:0:0:0:
397,168,83873,1,8,3:0:0:0:
348,336,84064,1,10,3:0:0:0:
117,292,84255,6,0,P|220:189|319:205,1,247.500007553101,4|0,0:0|2:0,0:0:0:0:
290,218,84828,2,0,P|281:235|263:328,1,99.0000030212403,8|0,0:0|0:0,0:0:0:0:
96,96,85211,5,0,3:0:0:0:
185,171,85402,1,2,0:0:0:0:
100,220,85593,2,0,P|52:228|-21:244,1,99.0000030212403,8|0,0:0|3:0,0:0:0:0:
196,76,85975,1,2,3:0:0:0:
311,200,86166,1,0,3:0:0:0:
166,371,86357,5,8,3:0:0:0:
152,334,86453,1,8,0:0:0:0:
155,295,86548,1,0,3:0:0:0:
174,261,86644,1,8,0:0:0:0:
174,261,86739,2,0,L|232:246,1,56.25,8|0,3:0|3:0,0:0:0:0:
351,199,86930,5,8,3:1:0:0:
375,161,87026,1,8,3:1:0:0:
375,116,87121,1,8,0:0:0:0:
349,78,87217,1,8,3:0:0:0:
305,66,87313,2,0,P|290:97|287:128,1,56.25,8|0,3:0|2:0,0:0:0:0:
319,309,87504,5,4,0:0:0:0:
319,309,87886,2,0,P|375:316|413:324,1,80.9999975280763,0|2,3:0|0:0,0:0:0:0:
221,247,88268,2,0,P|166:240|89:325,1,161.999995056153,8|0,0:0|3:0,0:0:0:0:
25,231,88841,6,0,P|31:169|37:144,1,80.9999975280763,2|0,2:3|3:0,0:0:0:0:
222,214,89223,2,0,P|218:173|211:133,1,80.9999975280763,2|0,2:3|3:0,0:0:0:0:
120,75,89605,1,2,0:0:0:0:
127,177,89797,2,0,L|139:355,1,161.999995056153,8|0,0:0|3:0,0:0:0:0:
260,384,90370,5,2,2:0:0:0:
260,384,90561,2,0,P|273:345|259:276,1,80.9999975280763,0|0,3:0|2:0,0:0:0:0:
401,226,90943,2,0,P|371:197|302:181,1,80.9999975280763,0|0,3:0|2:0,0:0:0:0:
387,34,91325,2,0,P|328:36|262:76,1,121.499996292114,8|0,0:0|2:0,0:0:0:0:
252,86,91707,5,4,3:0:0:0:
337,170,91898,1,2,0:0:0:0:
470,99,92089,1,0,3:0:0:0:
361,19,92281,1,8,0:0:0:0:
325,13,92376,1,8,3:0:0:0:
289,21,92472,1,0,3:0:0:0:
260,43,92567,1,8,0:0:0:0:
243,75,92663,1,8,3:1:0:0:
422,167,92854,5,8,3:0:0:0:
240,236,93045,1,8,0:0:0:0:
475,319,93236,5,8,0:0:0:0:
486,288,93332,1,8,3:0:0:0:
479,263,93427,1,0,3:0:0:0:
490,240,93523,1,0,3:0:0:0:
490,240,93618,6,0,P|446:257|392:264,1,90,4|0,0:0|0:0,0:0:0:0:
249,108,94000,2,0,P|292:127|335:160,1,90,8|0,0:0|0:0,0:0:0:0:
226,347,94382,2,0,P|225:299|236:246,1,90,2|0,0:0|2:0,0:0:0:0:
323,235,94765,5,0,3:0:0:0:
312,326,94956,2,0,P|291:326|124:365,1,180,2|0,0:0|2:0,0:0:0:0:
32,241,95529,1,8,0:0:0:0:
96,176,95720,1,2,0:0:0:0:
8,96,95911,1,0,3:0:0:0:
93,21,96102,2,0,P|132:26|193:33,1,90,2|0,0:0|3:0,0:0:0:0:
288,170,96484,5,2,2:0:0:0:
205,223,96675,2,0,P|195:179|193:134,1,90,0|0,3:0|2:0,0:0:0:0:
377,223,97058,2,0,P|341:250|301:271,1,90,8|0,0:0|0:0,0:0:0:0:
270,77,97440,5,0,3:0:0:0:
370,134,97631,1,2,0:0:0:0:
205,223,97822,1,2,3:0:0:0:
193,134,98013,1,2,0:0:0:0:
377,223,98204,1,0,3:0:0:0:
301,271,98395,1,2,0:0:0:0:
288,170,98586,5,8,0:0:0:0:
388,321,98777,2,0,B|346:374|287:389|217:356,1,180,2|0,0:0|2:0,0:0:0:0:
77,271,99351,1,0,3:0:0:0:
175,244,99542,5,2,2:0:0:0:
175,244,99637,1,2,2:0:0:0:
175,244,99733,2,0,P|151:319|150:342,1,90,4|0,0:2|2:0,0:0:0:0:
45,166,100115,1,8,0:0:0:0:
170,119,100306,2,0,B|277:114|236:171|340:185,1,180,2|0,0:0|2:0,0:0:0:0:
432,288,100879,2,0,P|439:243|451:194,1,90,0|0,3:0|2:0,0:0:0:0:
333,3,101261,5,0,3:0:0:0:
254,100,101452,1,0,2:0:0:0:
352,179,101643,1,8,0:0:0:0:
432,81,101835,1,2,0:0:0:0:
432,81,102217,5,2,2:0:0:0:
333,3,102408,1,8,3:0:0:0:
248,194,102599,1,0,3:0:0:0:
343,89,102790,2,0,P|320:92|226:102,1,90,2|0,0:0|2:0,0:0:0:0:
283,304,103172,5,8,0:0:0:0:
373,216,103363,2,0,P|435:209|510:299,1,180,2|0,0:0|2:0,0:0:0:0:
443,373,103936,2,0,P|393:378|339:388,1,90,8|0,0:0|2:0,0:0:0:0:
211,268,104319,1,0,3:0:0:0:
343,229,104510,1,0,2:0:0:0:
235,384,104701,1,8,0:0:0:0:
108,332,104892,1,2,0:0:0:0:
173,175,105083,5,4,3:0:0:0:
232,287,105274,1,2,0:2:0:0:
80,240,105465,5,8,1:3:0:0:
276,159,105656,1,8,3:0:0:0:
87,74,105847,6,0,P|51:67|0:54,1,90,4|0,0:2|0:0,0:0:0:0:
152,172,106229,1,8,0:0:0:0:
216,76,106420,1,2,0:0:0:0:
24,164,106612,2,0,P|36:210|39:264,1,90,0|0,3:0|0:0,0:0:0:0:
206,331,106994,1,0,3:0:0:0:
97,383,107185,5,2,2:0:0:0:
89,357,107280,1,2,2:0:0:0:
93,330,107376,1,0,3:0:0:0:
197,239,107567,1,2,0:0:0:0:
323,366,107758,1,8,0:0:0:0:
398,296,107949,2,0,P|426:258|399:127,1,180,2|0,0:0|2:0,0:0:0:0:
301,11,108522,2,0,P|293:77|279:133,1,90,0|0,3:0|0:0,0:0:0:0:
323,234,108904,5,4,0:2:0:0:
406,134,109096,1,0,2:0:0:0:
204,40,109287,1,8,0:0:0:0:
143,152,109478,2,0,L|156:252,1,90,2|0,0:0|3:0,0:0:0:0:
241,114,109860,5,4,0:2:0:0:
61,215,110051,1,0,3:0:0:0:
157,353,110242,1,2,0:0:0:0:
244,259,110433,1,4,0:2:0:0:
143,152,110624,1,0,3:0:0:0:
55,309,110815,5,8,0:0:0:0:
240,377,111006,1,0,3:0:0:0:
240,377,111102,1,0,3:0:0:0:
240,377,111197,2,0,P|247:337|258:280,1,90,8|0,3:0|2:0,0:0:0:0:
421,151,111580,2,0,P|426:194|439:248,1,90,2|0,3:0|2:0,0:0:0:0:
465,271,111866,5,2,2:0:0:0:
480,288,111962,2,0,P|419:272|325:268,1,135,4|0,3:2|2:0,0:0:0:0:
302,295,112344,1,8,0:0:0:0:
191,191,112535,2,0,P|201:139|329:117,1,180,2|0,0:0|2:0,0:0:0:0:
207,291,113108,1,0,3:0:0:0:
107,253,113299,5,2,2:0:0:0:
107,253,113395,1,2,2:0:0:0:
107,253,113490,2,0,P|37:242|-1:234,1,90,0|0,3:0|2:0,0:0:0:0:
224,72,113873,1,8,0:0:0:0:
315,139,114064,2,0,P|364:120|500:113,1,180,2|0,0:0|2:0,0:0:0:0:
399,29,114637,2,0,P|366:27|299:8,1,90,0|0,3:0|2:0,0:0:0:0:
280,24,114923,1,2,2:0:0:0:
272,42,115019,5,0,3:0:0:0:
330,158,115210,1,0,2:0:0:0:
483,95,115401,2,0,P|462:149|455:193,1,90,8|0,0:0|0:0,0:0:0:0:
241,241,115783,2,0,P|284:250|326:267,1,90,2|0,0:0|2:0,0:0:0:0:
440,304,116165,5,0,3:0:0:0:
363,170,116357,1,4,3:0:0:0:
243,336,116548,1,8,3:0:0:0:
354,262,116739,1,4,3:0:0:0:
188,140,116930,2,0,P|105:128|58:121,1,90,10|0,0:0|2:0,0:0:0:0:
54,108,117216,5,8,0:0:0:0:
28,115,117312,1,12,3:0:0:0:
139,226,117503,1,12,0:2:0:0:
305,115,117694,1,8,0:0:0:0:
294,90,117790,1,8,0:0:0:0:
313,59,117885,1,8,3:0:0:0:
295,17,117981,1,8,3:0:0:0:
278,24,118076,6,0,P|337:29|453:49,1,161.999995056153,4|0,0:0|3:0,0:0:0:0:
512,128,118649,1,2,0:0:0:0:
453,179,118841,2,0,P|423:184|362:210,1,80.9999975280763,8|0,0:0|0:0,0:0:0:0:
323,148,119223,2,0,P|296:145|231:126,1,80.9999975280763,0|4,3:0|0:3,0:0:0:0:
158,179,119605,2,0,P|89:184|-19:216,1,161.999995056153,0|0,3:0|3:0,0:0:0:0:
94,339,120178,5,4,0:3:0:0:
171,278,120369,1,8,0:0:0:0:
166,259,120465,1,8,0:0:0:0:
270,291,120656,1,8,0:0:0:0:
282,306,120751,2,0,P|268:354|262:392,1,80.9999975280763,0|4,3:0|0:3,0:0:0:0:
381,289,121134,6,0,P|354:194|302:162,1,161.999995056153,2|0,0:0|3:0,0:0:0:0:
210,201,121707,1,4,0:3:0:0:
109,106,121898,2,0,P|115:70|118:2,1,80.9999975280763,10|0,0:0|0:0,0:0:0:0:
203,0,122280,1,0,3:0:0:0:
293,38,122471,1,4,0:3:0:0:
416,5,122662,2,0,P|404:56|400:103,1,80.9999975280763,0|0,3:0|2:0,0:0:0:0:
312,208,123044,5,0,3:0:0:0:
237,121,123235,1,4,0:3:0:0:
369,78,123426,2,0,L|493:64,1,121.499996292114,10|0,0:0|2:0,0:0:0:0:
512,100,123809,1,0,3:0:0:0:
473,198,124000,1,2,0:0:0:0:
512,325,124191,6,0,B|370:282|414:385|267:359,1,242.999992584229,4|4,0:2|0:3,0:0:0:0:
227,312,124955,2,0,L|146:300,1,80.9999975280763,8|0,0:0|0:0,0:0:0:0:
23,377,125337,2,0,P|32:338|42:276,1,80.9999975280763,0|0,3:0|0:0,0:0:0:0:
241,151,125719,2,0,P|246:191|257:231,1,80.9999975280763,2|4,0:0|0:3,0:0:0:0:
47,104,126102,2,0,P|42:144|32:184,1,80.9999975280763,0|0,3:0|2:0,0:0:0:0:
119,284,126484,5,8,0:0:0:0:
113,257,126579,1,8,0:0:0:0:
240,120,126770,1,8,0:0:0:0:
249,150,126866,1,0,3:0:0:0:
154,108,127057,5,4,0:3:0:0:
255,27,127248,2,0,P|291:25|421:58,1,161.999995056153,4|0,0:2|3:0,0:0:0:0:
268,133,127821,1,0,2:0:0:0:
338,217,128012,2,0,P|346:202|356:128,1,80.9999975280763,8|0,0:0|0:0,0:0:0:0:
468,312,128395,2,0,P|468:293|450:233,1,80.9999975280763,0|0,3:0|0:0,0:0:0:0:
200,320,128777,2,0,B|221:372|286:392|340:353,1,161.999995056153,2|0,0:0|3:0,0:0:0:0:
214,217,129350,5,12,0:2:0:0:
89,299,129541,1,0,3:0:0:0:
124,229,129732,1,8,3:0:0:0:
198,292,129923,1,8,3:0:0:0:
138,377,130114,5,8,1:3:0:0:
204,176,130305,2,0,L|184:8,2,161.999995056153,4|0|8,0:2|3:0|0:0,0:0:0:0:
96,140,131261,1,0,0:0:0:0:
20,202,131452,2,0,P|13:166|13:61,1,121.499996292114,0|0,0:0|2:0,0:0:0:0:
10,81,131834,2,0,P|53:72|101:60,1,80.9999975280763,0|0,3:0|2:2,0:0:0:0:
178,107,132216,2,0,P|217:116|257:124,1,80.9999975280763,0|0,3:0|2:2,0:0:0:0:
459,262,132598,2,0,P|488:190|351:130,1,242.999992584229,8|0,0:0|2:0,0:0:0:0:
264,27,133363,6,0,P|274:68|280:115,1,80.9999975280763,2|4,3:0|0:3,0:0:0:0:
473,19,133745,2,0,P|462:60|457:107,1,80.9999975280763,0|2,3:0|2:0,0:0:0:0:
367,32,134127,2,0,P|371:60|383:212,1,161.999995056153,8|0,0:0|3:0,0:0:0:0:
296,228,134700,1,4,0:3:0:0:
338,321,134891,1,0,3:0:0:0:
338,321,135082,1,0,2:0:0:0:
233,383,135273,2,0,B|233:343|233:343|251:292,1,80.9999975280763,2|0,3:0|2:0,0:0:0:0:
408,223,135656,5,8,0:0:0:0:
417,253,135751,1,8,0:0:0:0:
273,137,135942,1,8,0:0:0:0:
279,106,136038,1,0,3:0:0:0:
365,151,136229,5,2,0:0:0:0:
203,232,136420,2,0,P|174:234|36:273,1,161.999995056153,4|0,0:2|3:0,0:0:0:0:
138,105,136993,1,2,0:0:0:0:
61,169,137184,6,0,P|45:135|44:80,1,80.9999975280763,8|0,0:0|0:0,0:0:0:0:
210,47,137566,2,0,P|226:81|227:136,1,80.9999975280763,0|4,3:0|0:3,0:0:0:0:
134,90,137948,2,0,P|125:52|110:-6,1,80.9999975280763,2|0,0:0|2:0,0:0:0:0:
308,180,138331,2,0,P|317:142|332:84,1,80.9999975280763,2|0,0:0|2:0,0:0:0:0:
77,275,138713,5,10,0:0:0:0:
70,243,138808,1,8,0:0:0:0:
271,330,139000,1,8,0:0:0:0:
264,362,139095,1,0,3:0:0:0:
172,300,139286,5,2,0:0:0:0:
194,213,139477,2,0,L|213:125,1,80.9999975280763,4|0,0:2|0:0,0:0:0:0:
425,285,139859,5,8,3:0:0:0:
412,164,140050,2,0,L|399:50,1,80.9999975280763,2|8,0:0|0:0,0:0:0:0:
310,196,140433,5,2,0:0:0:0:
492,122,140624,1,0,3:0:0:0:
336,0,140815,1,0,2:0:0:0:
408,72,141006,6,0,P|350:82|306:98,1,80.9999975280763,0|4,3:0|3:0,0:0:0:0:
128,160,141388,2,0,P|139:121|144:80,1,80.9999975280763,8|4,0:0|0:3,0:0:0:0:
293,233,141770,2,0,P|298:273|309:312,1,80.9999975280763,12|4,0:2|3:3,0:0:0:0:
187,269,142152,5,0,3:0:0:0:
391,165,142343,1,8,3:0:0:0:
391,165,142439,1,8,3:0:0:0:
391,165,142534,1,12,0:2:0:0:
484,364,142725,5,2,0:0:0:0:
487,327,142821,1,2,0:0:0:0:
502,293,142917,1,8,0:0:0:0:
505,256,143012,1,8,3:0:0:0:
280,195,143203,1,8,0:0:0:0:
274,152,143299,1,8,3:0:0:0:
512,66,143490,5,8,0:0:0:0:
472,93,143585,1,8,0:0:0:0:
423,87,143681,1,8,3:1:0:0:
386,55,143776,1,8,3:0:0:0:
339,39,143872,1,8,3:0:0:0:
292,50,143967,1,8,3:0:0:0:
276,67,144063,6,0,P|256:129|260:178,1,103.500001974106,4|0,0:0|2:0,0:0:0:0:
390,368,144445,1,8,0:0:0:0:
504,182,144636,2,0,B|383:187|426:239|303:251,1,207.000003948212,2|0,0:0|3:3,0:0:0:0:
212,264,145209,6,0,P|216:327|227:389,1,103.500001974106,8|0,0:0|2:0,0:0:0:0:
20,204,145592,2,0,P|16:267|5:329,1,103.500001974106,2|0,0:0|2:3,0:0:0:0:
204,84,145974,2,0,P|141:80|79:69,1,103.500001974106,8|0,0:0|2:0,0:0:0:0:
332,280,146357,2,0,P|336:217|347:155,1,103.500001974106,2|0,0:0|3:3,0:0:0:0:
114,253,146738,1,8,0:0:0:0:
248,352,146929,5,2,0:2:0:0:
248,352,147025,1,2,0:2:0:0:
248,352,147120,1,2,3:0:0:0:
377,262,147311,1,0,3:3:0:0:
278,140,147502,1,8,0:0:0:0:
143,223,147694,1,2,0:0:0:0:
253,257,147885,2,0,P|295:249|359:244,1,103.500001974106,0|0,3:0|2:3,0:0:0:0:
189,12,148267,6,0,P|185:63|176:114,1,103.500001974106,10|0,0:0|0:0,0:0:0:0:
390,336,148649,2,0,P|394:258|422:145,1,155.250002961159,2|0,0:0|2:0,0:0:0:0:
384,148,149031,1,8,0:0:0:0:
245,232,149222,1,0,2:0:0:0:
362,353,149413,1,0,3:0:0:0:
509,249,149604,1,2,3:3:0:0:
306,102,149795,5,8,0:0:0:0:
415,191,149986,1,2,2:0:0:0:
415,191,150082,1,2,2:0:0:0:
415,191,150178,2,0,P|422:138|436:80,1,103.500001974106,4|0,3:2|2:2,0:0:0:0:
243,213,150560,2,0,P|183:209|97:319,1,207.000003948212,8|0,0:0|0:0,0:0:0:0:
29,183,151133,5,2,3:3:0:0:
143,110,151324,2,0,P|136:65|132:0,1,103.500001974106,8|0,0:0|0:0,0:0:0:0:
24,76,151706,1,2,0:0:0:0:
148,202,151897,1,0,2:0:0:0:
264,88,152088,1,8,0:0:0:0:
257,59,152184,1,8,0:0:0:0:
410,157,152375,1,8,0:0:0:0:
403,184,152471,1,8,3:0:0:0:
262,224,152662,5,2,0:0:0:0:
370,35,152853,1,8,0:0:0:0:
481,114,153044,5,2,2:0:0:0:
481,114,153139,1,2,2:0:0:0:
481,114,153235,2,0,B|366:94|389:200|276:187,1,207.000003948212,4|8,0:2|0:0,0:0:0:0:
168,258,153808,2,0,P|176:211|179:140,1,103.500001974106,2|0,0:0|3:0,0:0:0:0:
448,202,154190,1,2,0:0:0:0:
439,281,154381,2,0,P|431:328|428:399,1,103.500001974106,10|0,0:0|3:3,0:0:0:0:
302,202,154763,5,2,0:3:0:0:
364,60,154955,1,0,3:0:0:0:
502,131,155146,1,8,0:0:0:0:
443,275,155337,1,0,3:0:0:0:
292,117,155528,5,4,0:2:0:0:
150,179,155720,1,0,3:0:0:0:
226,347,155911,1,10,0:0:0:0:
370,288,156102,1,2,3:0:0:0:
265,210,156292,6,0,P|182:208|111:303,1,207.000003948212,4|8,0:2|0:0,0:0:0:0:
11,217,156865,2,0,P|23:170|27:99,1,103.500001974106,2|0,0:0|3:0,0:0:0:0:
156,23,157247,1,0,3:3:0:0:
265,210,157439,5,8,0:0:0:0:
121,105,157630,1,2,0:0:0:0:
275,47,157821,2,0,B|409:44|369:107|469:115,1,207.000003948212,2|8,3:0|0:0,0:0:0:0:
288,234,158394,5,0,3:0:0:0:
297,204,158490,1,0,3:0:0:0:
304,173,158585,1,8,3:0:0:0:
167,223,158776,1,2,3:3:0:0:
213,377,158967,1,8,0:0:0:0:
349,328,159158,1,2,0:0:0:0:
462,246,159349,6,0,P|455:271|447:357,1,103.500001974106,4|0,0:2|3:0,0:0:0:0:
282,189,159732,1,8,0:0:0:0:
366,113,159923,2,0,P|359:88|351:2,1,103.500001974106,2|0,3:3|3:0,0:0:0:0:
488,142,160305,5,2,0:0:0:0:
285,278,160496,2,0,B|178:286|81:327|81:327,1,207.000003948212,8|0,0:0|3:0,0:0:0:0:
0,233,161069,1,2,3:3:0:0:
119,126,161260,6,0,B|116:176|116:176|99:226,1,103.500001974106,8|0,0:0|2:2,0:0:0:0:
323,55,161642,2,0,B|272:52|272:52|222:35,1,103.500001974106,2|2,3:0|3:3,0:0:0:0:
382,271,162024,2,0,B|384:220|384:220|401:170,1,103.500001974106,8|0,0:0|3:0,0:0:0:0:
463,111,162311,5,8,0:0:0:0:
480,128,162407,2,0,P|425:178|280:156,1,207.000003948212,4|8,0:2|0:0,0:0:0:0:
83,324,162980,1,2,3:3:0:0:
24,254,163171,2,0,P|90:238|172:351,1,207.000003948212,0|8,3:0|0:0,0:0:0:0:
273,252,163744,5,2,0:0:0:0:
183,166,163935,2,0,P|234:156|286:133,1,103.500001974106,2|0,3:0|3:3,0:0:0:0:
286,379,164317,2,0,P|238:358|187:348,1,103.500001974106,8|0,0:0|2:0,0:0:0:0:
376,192,164700,2,0,P|381:243|397:292,1,103.500001974106,2|0,0:0|2:3,0:0:0:0:
273,252,165082,1,8,0:0:0:0:
483,223,165273,5,2,2:0:0:0:
483,223,165368,1,2,2:0:0:0:
483,223,165464,2,0,P|486:163|508:28,1,155.250002961159,4|0,0:2|2:0,0:0:0:0:
499,68,165846,2,0,P|431:80|374:87,1,103.500001974106,8|0,0:0|3:0,0:0:0:0:
189,193,166228,1,8,3:0:0:0:
304,121,166419,5,2,3:3:0:0:
159,56,166610,1,8,0:0:0:0:
78,234,166801,1,2,0:0:0:0:
219,310,166993,1,0,3:0:0:0:
105,328,167184,5,2,2:0:0:0:
105,328,167279,1,2,2:0:0:0:
105,328,167375,2,0,P|38:342|-5:357,1,103.500001974106,8|0,0:0|2:0,0:0:0:0:
288,159,167757,2,0,P|302:226|317:269,1,103.500001974106,2|0,3:0|0:0,0:0:0:0:
61,87,168139,1,8,0:0:0:0:
111,76,168235,1,8,0:0:0:0:
157,97,168330,1,8,3:0:0:0:
186,139,168426,1,8,3:0:0:0:
160,169,168521,6,0,P|118:177|31:204,1,103.500001974106,4|0,0:2|2:0,0:0:0:0:
236,40,168903,1,0,3:0:0:0:
408,192,169094,1,12,0:2:0:0:
313,259,169285,5,0,3:0:0:0:
261,158,169477,1,2,0:0:0:0:
412,84,169668,1,8,0:0:0:0:
504,276,169859,1,2,0:0:0:0:
240,376,170050,5,4,3:2:0:0:
386,190,170241,1,8,0:0:0:0:
386,190,170336,1,8,0:0:0:0:
386,190,170432,2,0,P|340:173|311:158,1,60.7500002317429,0|8,3:0|0:0,0:0:0:0:
260,36,170623,2,0,P|287:23|316:13,1,60.7500002317429,8|0,3:0|3:0,0:0:0:0:
386,190,170814,5,8,0:0:0:0:
331,216,170910,1,8,0:0:0:0:
271,204,171005,1,8,3:0:0:0:
232,156,171101,1,8,3:0:0:0:
199,119,171196,1,2,3:0:0:0:
150,109,171292,1,0,3:0:0:0:
115,119,171387,1,0,3:0:0:0:
98,137,171483,1,0,3:0:0:0:
61,119,171578,6,0,P|66:146|73:308,1,180,4|8,0:0|0:0,0:0:0:0:
166,217,172152,1,0,2:0:0:0:
234,259,172343,2,0,P|246:222|250:151,1,90,2|0,0:0|2:0,0:0:0:0:
356,41,172725,2,0,P|306:27|249:23,1,90,8|0,0:0|0:0,0:0:0:0:
355,139,173107,2,0,P|406:125|489:117,1,135,0|0,3:0|2:0,0:0:0:0:
487,117,173489,6,0,P|465:162|455:205,1,90,8|0,0:0|2:0,0:0:0:0:
317,363,173871,2,0,P|362:341|405:331,1,90,2|0,0:0|2:0,0:0:0:0:
257,128,174254,6,0,P|279:166|293:209,1,90,8|0,0:0|2:0,0:0:0:0:
481,368,174636,2,0,P|442:345|399:331,1,90,2|0,3:0|2:0,0:0:0:0:
241,326,175018,5,8,0:0:0:0:
117,298,175209,1,0,3:0:0:0:
117,298,175304,1,0,3:0:0:0:
117,298,175400,1,8,3:0:0:0:
62,207,175591,5,2,0:0:0:0:
229,165,175782,1,8,0:0:0:0:
289,62,175973,5,2,0:0:0:0:
104,12,176164,2,0,B|88:54|88:54|89:109,1,90,8|4,3:0|0:3,0:0:0:0:
190,258,176546,5,8,0:0:0:0:
275,209,176738,1,0,3:0:0:0:
275,191,176833,1,0,3:0:0:0:
269,173,176929,5,10,3:0:0:0:
189,127,177120,1,4,0:3:0:0:
80,191,177311,1,8,0:0:0:0:
114,325,177502,1,2,0:0:0:0:
273,371,177693,2,0,P|336:357|472:346,1,180,4|8,0:2|0:0,0:0:0:0:
366,257,178266,5,2,0:0:0:0:
459,145,178457,2,0,B|481:185|481:185|487:240,1,90,2|4,3:0|0:3,0:0:0:0:
311,73,178839,2,0,B|333:35|333:35|370:8,1,90,8|0,0:0|2:0,0:0:0:0:
349,242,179222,2,0,B|310:263|310:263|264:268,1,90,2|4,0:0|0:3,0:0:0:0:
91,61,179604,2,0,B|127:87|127:87|150:125,1,90,8|0,0:0|2:0,0:0:0:0:
18,361,179986,2,0,B|26:316|26:316|51:279,1,90,2|4,0:0|0:3,0:0:0:0:
159,222,180368,1,8,0:0:0:0:
259,367,180559,5,0,3:0:0:0:
259,367,180655,1,0,3:0:0:0:
259,367,180750,2,0,P|186:354|134:354,1,90,2|0,3:0|2:0,0:0:0:0:
338,203,181132,2,0,P|342:247|351:291,1,90,8|4,0:0|0:3,0:0:0:0:
145,200,181515,2,0,P|183:177|219:150,1,90,2|0,0:0|2:0,0:0:0:0:
239,268,181897,1,8,0:0:0:0:
239,268,182088,1,4,0:3:0:0:
141,83,182279,6,0,P|161:126|175:168,1,90,2|0,0:0|2:0,0:0:0:0:
187,382,182661,2,0,P|203:337|223:297,1,90,10|4,0:0|0:3,0:0:0:0:
413,198,183043,2,0,P|369:218|327:232,1,90,2|0,0:0|2:0,0:0:0:0:
104,297,183425,5,8,0:0:0:0:
110,262,183521,1,8,0:0:0:0:
279,116,183712,1,8,0:0:0:0:
270,150,183807,2,0,B|436:135|381:243|517:253,1,270,4|0,0:0|2:0,1:0:0:0:
494,160,184572,6,0,P|486:123|488:58,1,90,2|4,0:0|0:3,0:0:0:0:
314,245,184954,2,0,P|355:263|391:289,1,90,8|0,0:0|2:0,0:0:0:0:
324,55,185336,2,0,P|303:86|256:131,1,90,2|4,0:0|0:3,0:0:0:0:
108,244,185718,5,8,0:0:0:0:
192,337,185909,1,2,2:0:0:0:
192,337,186005,1,2,2:0:0:0:
192,337,186100,2,0,P|198:302|216:239,1,90,0|0,3:0|2:0,0:0:0:0:
111,130,186483,2,0,P|68:142|24:150,1,90,8|4,0:0|0:3,0:0:0:0:
44,375,186865,6,0,P|35:289|107:243,1,180,4|10,0:2|0:0,0:0:0:0:
280,317,187438,1,0,2:0:0:0:
162,381,187629,2,0,B|174:336|174:336|178:283,1,90,2|4,0:0|0:3,0:0:0:0:
391,376,188011,2,0,B|378:331|378:331|375:278,1,90,10|0,0:0|2:0,0:0:0:0:
278,349,188393,5,0,3:0:0:0:
325,171,188584,1,4,0:3:0:0:
227,168,188776,5,8,0:0:0:0:
235,199,188871,1,8,0:0:0:0:
99,274,189062,1,8,0:0:0:0:
107,243,189157,1,8,3:0:0:0:
4,182,189349,5,4,0:3:0:0:
164,17,189540,2,0,B|147:58|147:58|156:103,1,90,8|0,0:0|3:0,0:0:0:0:
71,105,189826,5,8,0:0:0:0:
60,79,189922,2,0,B|223:57|164:175|304:195,1,270,4|0,0:2|2:0,0:0:0:0:
371,108,190686,6,0,P|328:97|285:74,1,90,0|4,3:0|0:3,0:0:0:0:
323,289,191068,2,0,P|351:254|390:225,1,90,8|0,0:0|2:0,0:0:0:0:
195,127,191451,2,0,P|197:171|190:216,1,90,0|4,3:0|0:3,0:0:0:0:
371,108,191833,5,10,0:0:0:0:
323,289,192024,1,2,0:0:0:0:
288,192,192215,6,0,P|280:147|283:102,1,90,2|0,3:0|2:0,0:0:0:0:
50,222,192598,2,0,P|85:249|114:283,1,90,8|4,0:0|0:3,0:0:0:0:
162,27,192980,2,0,P|122:47|78:59,1,90,4|0,0:2|2:0,0:0:0:0:
288,192,193361,5,10,0:0:0:0:
78,58,193553,1,2,0:0:0:0:
109,158,193744,6,0,P|153:147|222:140,1,94.499997116089,4|0,0:2|2:0,0:0:0:0:
408,24,194126,1,12,0:2:0:0:
292,44,194317,5,0,3:0:0:0:
299,76,194412,1,0,3:0:0:0:
305,108,194508,1,10,3:0:0:0:
324,212,194699,1,2,3:0:0:0:
352,360,194890,1,12,0:2:0:0:
192,264,195081,5,8,0:0:0:0:
192,216,195177,1,8,0:0:0:0:
215,173,195272,1,10,3:0:0:0:
452,4,195463,1,8,0:0:0:0:
447,24,195558,1,0,3:0:0:0:
439,55,195654,5,10,0:0:0:0:
479,94,195749,1,8,0:0:0:0:
504,144,195845,1,8,0:1:0:0:
491,198,195940,1,8,0:1:0:0:
430,249,196037,6,0,P|367:263|307:125,2,243.000000926971,6|8|0,0:0|0:0|3:0,0:0:0:0:
208,160,196992,1,2,0:0:0:0:
160,223,197183,2,0,P|168:274|127:368,1,107.999996704102,8|0,0:0|2:0,0:0:0:0:
347,216,197565,2,0,B|303:141|345:59,1,161.999995056153,0|0,3:0|2:2,0:0:0:0:
362,37,197947,5,8,0:0:0:0:
468,228,198138,1,2,3:0:0:0:
495,153,198330,2,0,B|509:103|509:103|510:41,1,107.999996704102,2|4,0:0|0:3,0:0:0:0:
267,266,198712,2,0,B|251:316|251:316|256:374,1,107.999996704102,8|0,0:0|3:0,0:0:0:0:
93,267,199094,6,0,B|286:227|211:388|391:374,1,323.999990112305,2|0,0:0|2:0,0:0:0:0:
357,269,199858,1,0,3:0:0:0:
388,201,200049,1,4,0:3:0:0:
216,28,200240,1,8,0:0:0:0:
293,6,200431,1,0,2:0:0:0:
317,83,200622,1,2,0:0:0:0:
174,170,200814,5,4,0:3:0:0:
174,170,200877,1,2,0:0:0:0:
174,170,200941,1,2,0:0:0:0:
174,170,201005,1,8,0:0:0:0:
38,102,201196,6,0,P|143:83|151:279,1,323.999990112305,2|8,0:0|0:0,0:0:0:0:
73,334,201960,2,0,L|66:257,1,53.9999983520508,4|0,0:3|2:0,0:0:0:0:
79,251,202151,5,4,0:2:0:0:
190,297,202342,1,2,0:0:0:0:
352,149,202533,5,10,0:0:0:0:
171,217,202724,1,2,0:0:0:0:
404,360,202915,5,2,0:0:0:0:
274,230,203106,2,0,B|152:201|177:282|71:283,1,215.999993408203,6|2,0:3|2:0,0:0:0:0:
42,260,203584,1,2,0:0:0:0:
47,234,203680,1,2,3:0:0:0:
181,34,203871,5,2,0:0:0:0:
183,76,203966,1,2,0:0:0:0:
188,119,204062,1,8,0:0:0:0:
267,243,204253,1,2,0:0:0:0:
188,119,204444,1,2,3:0:0:0:
360,152,204635,5,4,0:3:0:0:
360,152,204699,1,2,0:0:0:0:
360,152,204762,1,2,0:0:0:0:
360,152,204826,1,8,0:0:0:0:
314,332,205017,5,10,0:0:0:0:
488,164,205208,2,0,B|346:142|383:252|235:260,1,269.999991760254,2|0,0:1|0:0,0:0:0:0:
277,234,205782,2,0,L|224:223,1,53.9999983520508,2|0,0:0|2:0,0:0:0:0:
84,312,205973,2,0,B|175:321|124:359|233:387,1,161.999995056153,8|0,0:0|2:0,0:0:0:0:
271,363,206355,1,12,0:0:0:0:
240,144,206546,1,0,3:0:0:0:
200,255,206737,5,8,3:0:0:0:
309,222,206928,1,0,3:0:0:0:
272,36,207119,1,8,0:0:0:0:
162,62,207310,1,0,3:0:0:0:
240,144,207501,2,0,P|291:146|360:155,1,107.999996704102,2|0,0:0|2:0,0:0:0:0:
85,23,207883,6,0,P|76:56|68:93,1,53.9999983520508,8|0,0:0|2:0,0:0:0:0:
167,221,208075,2,0,P|162:195|155:169,1,53.9999983520508,2|2,0:0|0:0,0:0:0:0:
293,31,208266,2,0,P|345:22|421:96,1,161.999995056153,4|0,0:2|2:0,0:0:0:0:
460,112,208648,5,8,0:0:0:0:
285,317,208839,2,0,B|264:270|264:270|283:216,1,107.999996704102,2|0,0:0|3:0,0:0:0:0:
177,63,209221,1,2,0:0:0:0:
27,238,209412,1,10,0:0:0:0:
154,168,209603,1,2,0:3:0:0:
55,135,209794,5,2,0:0:0:0:
127,264,209985,1,2,0:0:0:0:
11,352,210176,5,8,0:0:0:0:
154,168,210367,1,2,0:3:0:0:
4,222,210559,5,2,0:0:0:0:
175,334,210750,1,2,0:0:0:0:
288,163,210941,1,10,0:0:0:0:
116,50,211132,1,2,0:3:0:0:
212,236,211323,5,2,0:0:0:0:
328,296,211514,1,2,0:0:0:0:
476,232,211705,1,10,0:0:0:0:
512,32,211896,2,2,B|392:19|437:110|303:121,1,215.999993408203,2|2,0:0|0:3,0:0:0:0:
276,0,212469,5,10,0:0:0:0:
0,124,212660,2,2,B|120:111|75:202|209:213,1,215.999993408203,2|2,0:0|2:0,0:0:0:0:
224,202,213138,1,2,0:0:0:0:
232,176,213234,1,8,0:0:0:0:
144,84,213425,5,2,0:0:0:0:
14,218,213616,1,8,0:0:0:0:
9,245,213711,1,8,3:0:0:0:
121,382,213902,1,8,3:0:0:0:
143,371,213998,1,8,0:0:0:0:
162,332,214094,1,0,3:0:0:0:
141,294,214189,1,8,0:0:0:0:
147,251,214285,1,8,0:0:0:0:
181,224,214380,6,0,B|293:225|258:264|339:268,1,161.999995056153,4|0,0:2|2:0,0:0:0:0:
369,234,214762,1,10,0:0:0:0:
288,157,214953,1,4,3:0:0:0:
378,336,215144,1,2,0:0:0:0:
455,255,215335,1,4,3:0:0:0:
214,307,215527,1,10,0:0:0:0:
295,384,215718,1,4,3:0:0:0:
400,160,215909,1,2,0:1:0:0:
280,146,216100,5,4,0:3:0:0:
280,146,216164,1,2,0:0:0:0:
280,146,216227,1,2,0:0:0:0:
280,146,216291,1,8,0:0:0:0:
406,20,216482,6,0,B|316:32|316:32|292:52|292:52|189:69,1,215.999993408203,2|2,0:0|0:3,0:0:0:0:
50,213,217055,1,8,0:0:0:0:
25,69,217246,5,2,2:0:0:0:
18,98,217342,1,2,2:0:0:0:
10,129,217437,2,0,P|89:124|124:272,2,215.999993408203,2|8|0,0:0|0:0|3:0,0:0:0:0:
34,237,218393,1,2,0:3:0:0:
149,53,218584,2,0,P|65:24|33:32,1,107.999996704102,8|0,0:0|3:0,0:0:0:0:
130,127,218871,5,8,0:0:0:0:
154,137,218966,2,0,P|207:142|293:79,1,161.999995056153,4|0,0:2|2:0,0:0:0:0:
357,27,219348,5,8,0:0:0:0:
432,56,219476,1,8,0:0:0:0:
369,104,219603,1,8,0:0:0:0:
449,99,219730,5,8,0:0:0:0:
411,129,219826,1,8,0:0:0:0:
363,135,219921,1,8,0:0:0:0:
317,117,220017,1,8,0:0:0:0:
291,81,220113,1,0,3:0:0:0:
253,60,220208,1,0,3:0:0:0:
209,64,220304,1,0,3:0:0:0:
171,84,220399,1,0,3:0:0:0:
156,106,220495,6,0,P|168:163|169:207,1,90,4|0,0:0|2:0,0:0:0:0:
229,298,220877,2,0,P|184:305|141:319,1,90,0|0,3:0|2:0,0:0:0:0:
295,203,221259,2,0,P|350:193|427:284,1,180,8|0,0:0|3:0,0:0:0:0:
269,384,221832,5,4,0:3:0:0:
232,284,222023,1,2,3:0:0:0:
232,284,222214,2,0,L|342:300,1,90,2|0,0:3|3:0,0:0:0:0:
380,242,222597,1,4,0:3:0:0:
218,138,222788,2,0,L|100:154,1,90,8|2,0:0|0:0,0:0:0:0:
48,88,223170,1,2,0:3:0:0:
251,38,223361,5,0,3:0:0:0:
251,38,223456,1,0,3:0:0:0:
251,38,223552,2,0,B|366:40|325:86|420:95,1,180,4|0,3:0|3:0,2:0:0:0:
223,253,224125,1,10,0:0:0:0:
221,120,224316,1,0,3:0:0:0:
412,205,224507,1,8,3:0:0:0:
309,290,224698,1,8,3:0:0:0:
307,183,224890,5,2,0:0:0:0:
151,299,225081,6,2,B|315:312|277:195|412:205,1,288,4|4,0:0|2:1,0:1:0:0:
259,23,231959,5,4,1:2:0:0:
259,23,232246,1,8,0:0:0:0:
247,44,232342,1,8,3:0:0:0:
247,78,232437,1,0,3:0:0:0:
266,118,232533,1,8,0:0:0:0:
246,163,232628,1,8,0:0:0:0:
259,189,232724,6,0,B|153:204|186:136|62:158,1,198.000006042481,4|8,0:0|0:0,0:0:0:0:
187,329,233297,1,2,0:0:0:0:
83,384,233488,2,0,B|68:342|68:342|80:270,1,99.0000030212403,0|0,3:0|2:3,0:0:0:0:
355,133,233870,2,0,B|370:175|370:175|358:247,1,99.0000030212403,8|0,0:0|2:0,0:0:0:0:
469,349,234252,6,0,P|384:362|367:365,1,99.0000030212403,2|0,0:0|3:3,0:0:0:0:
226,181,234635,2,0,L|254:-10,1,148.50000453186,8|0,0:0|2:0,0:0:0:0:
294,10,235017,1,2,0:0:0:0:
465,104,235208,1,0,2:0:0:0:
333,211,235399,1,8,0:0:0:0:
365,141,235526,6,0,P|364:108|356:64,1,66.0000020141602,8|0,0:0|2:0,0:0:0:0:
504,198,235781,6,0,P|454:234|491:336,1,148.50000453186,4|0,0:2|2:0,0:0:0:0:
508,318,236163,1,8,0:0:0:0:
328,229,236354,2,0,B|211:223|253:285|129:290,1,198.000006042481,2|0,0:0|3:3,0:0:0:0:
270,340,236927,6,0,P|349:352|372:361,1,99.0000030212403,8|0,0:0|3:0,0:0:0:0:
161,198,237310,1,2,3:0:0:0:
267,128,237501,1,0,3:0:0:0:
267,128,237596,1,0,3:0:0:0:
267,128,237692,1,8,0:0:0:0:
328,229,237883,1,0,2:3:0:0:
163,106,238074,5,2,0:0:0:0:
337,42,238265,1,0,2:0:0:0:
236,270,238456,5,8,0:0:0:0:
72,202,238647,2,0,L|128:193,1,49.5000015106202,2|2,0:0|0:0,0:0:0:0:
274,134,238838,2,0,B|406:123|356:168|471:178,1,198.000006042481,4|8,0:2|0:0,0:0:0:0:
225,31,239412,2,0,P|159:67|154:191,1,198.000006042481,2|0,0:0|2:0,0:0:0:0:
256,358,239985,1,8,0:0:0:0:
299,291,240112,6,0,P|295:250|281:214,1,66.0000020141602,8|0,0:0|2:0,0:0:0:0:
200,258,240367,2,0,P|326:274|436:302,1,198.000006042481,2|8,0:0|0:0,0:0:0:0:
501,201,240940,1,0,2:3:0:0:
355,90,241131,1,8,3:0:0:0:
355,90,241227,1,8,0:0:0:0:
355,90,241322,1,2,3:3:0:0:
317,194,241513,5,10,0:0:0:0:
463,111,241704,1,2,0:0:0:0:
315,10,241896,2,0,P|249:9|169:139,1,198.000006042481,4|8,0:2|0:0,0:0:0:0:
395,289,242469,2,0,L|420:191,1,99.0000030212403,2|0,0:0|3:0,0:0:0:0:
355,90,242851,1,0,3:3:0:0:
147,180,243042,5,8,0:0:0:0:
265,238,243233,1,2,0:0:0:0:
22,346,243424,2,0,P|143:313|178:312,1,148.50000453186,4|0,0:2|2:0,0:0:0:0:
190,325,243806,1,8,0:0:0:0:
343,271,243997,1,2,0:0:0:0:
249,154,244188,2,0,P|296:165|351:170,1,99.0000030212403,0|0,3:0|2:3,0:0:0:0:
251,384,244571,2,0,P|298:372|353:368,1,99.0000030212403,8|0,0:0|3:0,0:0:0:0:
419,297,244857,5,8,0:0:0:0:
432,269,244953,2,0,B|316:243|353:302|225:285,1,198.000006042481,4|8,0:2|0:0,0:0:0:0:
227,261,245431,1,8,3:0:0:0:
473,200,245622,1,8,3:0:0:0:
497,216,245717,2,0,P|520:259|505:316,1,99.0000030212403,2|4,3:0|3:3,0:0:0:0:
344,172,246099,2,0,P|351:127|354:54,1,99.0000030212403,8|4,0:0|0:3,0:0:0:0:
423,14,246481,5,0,3:0:0:0:
454,133,246673,1,4,0:3:0:0:
478,63,246864,5,8,0:0:0:0:
286,35,247055,1,4,0:3:0:0:
411,0,247246,5,2,0:0:0:0:
344,172,247437,1,4,0:3:0:0:
244,100,247628,5,8,0:0:0:0:
461,102,247819,1,4,0:3:0:0:
454,133,247915,1,0,3:0:0:0:
448,164,248010,2,0,P|434:213|423:273,1,99.0000030212403,2|0,0:0|2:0,0:0:0:0:
148,84,248392,2,0,P|174:195|185:269,1,148.50000453186,12|0,0:2|2:0,0:0:0:0:
211,277,248774,5,2,3:0:0:0:
329,184,248965,1,0,3:0:0:0:
195,74,249157,1,6,3:2:0:0:
31,179,249348,1,2,0:0:0:0:
63,321,249539,5,2,0:0:0:0:
304,80,249730,5,12,0:2:0:0:
117,174,249921,5,8,3:0:0:0:
162,155,250016,1,8,0:0:0:0:
210,166,250112,1,0,3:0:0:0:
247,197,250207,1,0,3:0:0:0:
274,244,250303,1,8,0:0:0:0:
322,269,250399,1,0,3:0:0:0:
376,265,250494,5,8,3:1:0:0:
402,236,250590,1,8,3:0:0:0:
398,201,250685,1,8,3:0:0:0:
416,171,250781,1,8,3:0:0:0:
409,127,250876,1,0,3:0:0:0:
435,79,250972,1,8,3:0:0:0:
425,40,251067,6,0,B|304:14|323:74|214:58,1,207.000003948212,4|8,0:0|0:0,2:0:0:0:
0,240,251641,2,0,B|121:214|102:274|211:258,1,207.000003948212,4|0,0:3|2:0,2:0:0:0:
315,384,252214,6,0,P|338:343|330:281,1,103.500001974106,8|4,0:0|0:3,0:0:0:0:
510,181,252596,2,0,P|469:158|407:166,1,103.500001974106,2|4,0:0|0:3,0:0:0:0:
285,0,252978,2,0,P|262:41|270:103,1,103.500001974106,8|4,0:0|0:3,0:0:0:0:
94,210,253360,2,0,P|135:233|197:225,1,103.500001974106,2|4,0:0|0:3,0:0:0:0:
302,189,253742,1,8,0:0:0:0:
266,95,253934,5,4,0:3:0:0:
189,228,254125,1,2,3:0:0:0:
333,288,254316,1,4,0:3:0:0:
415,162,254507,1,8,0:0:0:0:
403,89,254634,6,0,L|388:-7,1,69.0000013160706,8|0,0:0|2:0,0:0:0:0:
493,58,254889,2,0,B|369:43|401:99|281:104,1,207.000003948212,2|8,0:0|0:0,0:0:0:0:
434,277,255462,5,2,2:0:0:0:
434,277,255558,1,2,2:0:0:0:
434,277,255653,2,0,P|444:226|452:152,1,103.500001974106,2|4,3:0|0:3,0:0:0:0:
258,323,256035,2,0,P|251:271|241:220,1,103.500001974106,10|4,0:0|0:3,0:0:0:0:
32,287,256418,2,0,P|42:236|50:162,1,103.500001974106,2|4,3:0|0:3,0:0:0:0:
296,44,256800,5,8,0:0:0:0:
262,35,256895,1,8,3:0:0:0:
231,53,256991,1,8,0:0:0:0:
196,45,257086,1,8,0:0:0:0:
196,45,257182,2,0,B|220:160|137:131|160:252,1,207.000003948212,4|8,0:2|0:0,0:0:0:0:
111,77,257755,5,4,0:3:0:0:
78,148,257946,1,2,3:0:0:0:
258,222,258137,1,4,0:3:0:0:
285,147,258328,1,8,0:0:0:0:
128,328,258519,5,2,2:0:0:0:
128,328,258615,1,2,2:0:0:0:
128,328,258711,2,0,P|174:321|252:314,1,103.500001974106,2|0,3:0|2:0,0:0:0:0:
402,180,259093,1,8,0:0:0:0:
471,221,259284,2,0,P|476:176|494:104,1,103.500001974106,4|0,0:3|3:0,0:0:0:0:
289,6,259666,5,0,2:0:0:0:
180,66,259857,1,8,0:0:0:0:
210,79,259953,1,8,0:0:0:0:
301,184,260143,1,8,0:0:0:0:
271,197,260239,1,4,0:2:0:0:
163,238,260430,5,2,0:3:0:0:
356,325,260621,1,8,0:0:0:0:
282,351,260812,2,0,P|233:359|165:383,1,103.500001974106,2|0,0:0|3:0,0:0:0:0:
332,170,261195,1,2,2:0:0:0:
420,218,261386,5,8,0:0:0:0:
413,250,261481,1,8,0:0:0:0:
242,137,261672,1,8,0:0:0:0:
249,105,261768,2,0,P|313:96|372:83,1,103.500001974106,4|4,0:2|0:3,0:0:0:0:
136,263,262150,2,0,P|127:199|114:140,1,103.500001974106,8|4,0:0|0:3,0:0:0:0:
404,358,262532,2,0,P|340:367|281:380,1,103.500001974106,2|4,0:0|0:3,0:0:0:0:
481,56,262914,2,0,P|490:120|503:179,1,103.500001974106,10|4,0:0|3:0,0:0:0:0:
449,257,263201,5,8,0:0:0:0:
479,243,263296,2,0,P|419:195|260:236,1,207.000003948212,4|8,0:2|0:0,0:0:0:0:
49,7,263870,2,0,P|109:55|268:14,1,207.000003948212,4|8,0:3|0:0,0:0:0:0:
195,282,264443,5,8,0:0:0:0:
380,104,264634,2,0,P|373:128|369:157,1,51.7500009870529,6|0,0:3|2:0,0:0:0:0:
262,231,264825,2,0,P|170:250|91:283,1,155.250002961159,2|0,0:0|2:0,0:0:0:0:
64,254,265207,1,8,0:0:0:0:
224,152,265398,1,4,0:3:0:0:
369,271,265589,1,2,3:0:0:0:
504,200,265780,1,4,0:3:0:0:
195,282,265972,5,8,0:0:0:0:
360,381,266163,2,0,L|415:374,1,51.7500009870529,8|8,3:0|3:0,0:0:0:0:
512,303,266354,2,0,P|503:253|507:185,1,103.500001974106,4|4,0:2|0:3,0:0:0:0:
384,0,266736,5,8,0:0:0:0:
276,52,266927,2,0,B|290:100|290:100|281:170,1,103.500001974106,6|0,0:3|3:0,0:0:0:0:
117,384,267309,5,6,0:3:0:0:
1,300,267500,2,0,L|16:186,1,103.500001974106,8|4,0:0|0:3,0:0:0:0:
191,112,267882,5,2,3:0:0:0:
106,144,268073,1,4,0:3:0:0:
63,77,268264,1,8,0:0:0:0:
253,172,268456,1,4,0:3:0:0:
210,240,268647,1,2,3:0:0:0:
138,51,268838,1,4,0:3:0:0:
206,92,269029,1,8,0:0:0:0:
81,312,269220,1,8,3:0:0:0:
81,312,269315,1,8,0:0:0:0:
81,312,269411,1,4,0:2:0:0:
14,197,269602,5,2,3:0:0:0:
117,159,269793,1,8,0:0:0:0:
265,237,269984,1,2,0:3:0:0:
314,181,270175,2,0,B|443:169|407:226|514:227,1,207.000003948212,2|8,0:0|0:0,0:0:0:0:
352,284,270748,5,4,2:3:0:0:
379,81,270940,2,0,P|426:97|501:112,1,103.500001974106,2|4,3:0|0:3,0:0:0:0:
240,260,271322,2,0,P|228:209|212:160,1,103.500001974106,8|4,0:0|0:3,0:0:0:0:
440,356,271704,2,0,P|389:367|340:383,1,103.500001974106,2|4,0:0|0:3,0:0:0:0:
314,181,272086,5,8,0:0:0:0:
323,141,272182,1,8,3:0:0:0:
145,232,272373,1,8,3:0:0:0:
133,193,272468,1,4,0:2:0:0:
216,100,272659,1,4,3:0:0:0:
260,291,272850,1,8,0:0:0:0:
169,360,273041,5,2,2:0:0:0:
169,360,273137,1,2,2:0:0:0:
169,360,273233,2,0,P|105:349|22:351,1,103.500001974106,2|4,3:0|0:3,0:0:0:0:
322,143,273615,1,10,0:0:0:0:
355,332,273806,1,2,0:0:0:0:
266,384,273997,2,0,B|241:341|241:341|262:288,1,103.500001974106,2|4,3:0|0:3,0:0:0:0:
480,122,274379,1,8,0:0:0:0:
501,141,274475,2,0,B|526:184|526:184|505:237,1,103.500001974106,8|0,0:0|2:0,0:0:0:0:
489,270,274761,5,2,0:0:0:0:
308,190,274952,1,4,0:3:0:0:
382,163,275143,1,8,0:0:0:0:
392,130,275239,1,8,0:0:0:0:
220,48,275430,1,8,0:0:0:0:
208,15,275525,2,0,P|61:33|-5:40,1,207.000003948212,4|8,0:2|0:0,0:0:0:0:
0,129,276099,5,4,0:3:0:0:
134,285,276290,1,0,3:0:0:0:
78,155,276481,1,4,0:3:0:0:
29,258,276672,1,8,0:0:0:0:
45,361,276799,6,0,L|140:379,1,69.0000013160706,8|0,0:0|2:0,0:0:0:0:
232,380,277054,5,2,3:0:0:0:
350,336,277245,1,4,0:3:0:0:
464,228,277436,5,8,0:0:0:0:
288,144,277627,2,0,L|300:72,1,51.7500009870529,8|0,3:0|3:0,0:0:0:0:
312,0,277818,5,2,0:0:0:0:
434,85,278010,1,4,0:3:0:0:
177,174,278201,1,8,0:0:0:0:
296,92,278393,1,4,0:3:0:0:
456,360,278583,5,4,0:2:0:0:
370,293,278774,1,2,0:0:0:0:
444,184,278965,1,8,0:0:0:0:
278,118,279156,1,2,0:0:0:0:
137,313,279347,5,2,0:3:0:0:
337,200,279538,1,4,0:3:0:0:
108,68,279729,1,10,0:0:0:0:
47,162,279857,6,0,L|132:175,1,86.2500016450882,8|8,0:0|0:0,0:0:0:0:
201,228,280111,5,8,3:0:0:0:
255,208,280207,1,8,0:0:0:0:
309,218,280302,1,8,3:0:0:0:
351,246,280398,1,0,3:0:0:0:
392,271,280494,1,0,3:0:0:0:
437,271,280589,1,0,3:0:0:0:
471,249,280685,1,8,3:0:0:0:
485,225,280780,1,0,3:0:0:0:
485,225,280876,6,2,P|489:195|461:65,1,161.999995056153,4|4,0:0|2:1,0:1:0:0:
256,192,281736,12,2,287755,0:0:0:0:
68,295,288155,5,2,0:0:0:0:
82,284,288555,2,0,P|121:278|173:274,1,90
122,172,289355,6,0,P|169:185|271:192,1,135,2|0,0:0|0:0,0:0:0:0:
318,242,290124,2,0,P|336:192|334:94,1,135,2|0,0:0|0:0,0:0:0:0:
357,35,290898,2,0,P|306:37|227:72,1,135,2|0,0:0|0:0,0:0:0:0:
157,40,291672,2,0,P|151:88|176:184,1,135,2|0,0:0|0:0,0:0:0:0:
218,235,292436,6,0,B|387:210|327:323|459:331,1,270,2|0,0:0|0:0,0:0:0:0:
429,309,293975,6,0,P|373:312|308:365,1,135,2|0,0:0|0:0,0:0:0:0:
217,234,294739,2,0,P|267:276|334:283,1,135,2|0,0:0|0:0,0:0:0:0:
424,216,295503,6,0,P|434:148|452:22,1,188.999994232178,2|0,0:0|0:0,0:0:0:0:
364,61,296966,6,0,B|236:48|271:126|107:108,1,252,2|0,0:0|0:0,0:0:0:0:
41,63,298440,6,0,P|93:28|156:252,1,431.999986816407,2|0,0:0|0:0,0:0:0:0:
256,192,303159,12,0,315165,0:0:0:0:
