osu file format v14

[General]
AudioFilename: audio.mp3
AudioLeadIn: 0
PreviewTime: 56496
Countdown: 0
SampleSet: Soft
StackLeniency: 0.7
Mode: 0
LetterboxInBreaks: 0
WidescreenStoryboard: 0

[Editor]
DistanceSpacing: 0.8
BeatDivisor: 4
GridSize: 8
TimelineZoom: 1

[Metadata]
Title:blaze ~TV size~
TitleUnicode:blaze ~TV size~
Artist:Kalafina
ArtistUnicode:Kalafina
Creator:IamKwaN
Version:Hard
Source:アルスラーン戦記 風塵乱舞
Tags:梶浦由記 Kajiura Yuki 大滝若菜 Otaki Wakana 窪田啓子 Kubota Keiko 政井光 Masai Hikaru Arslan Senki Fuujin Ranbu The Heroic Legend of Season 2 Ending Short Version Ver
BeatmapID:1043826
BeatmapSetID:487578

[Difficulty]
HPDrainRate:6
CircleSize:4
OverallDifficulty:6
ApproachRate:8
SliderMultiplier:1.5
SliderTickRate:1

[Events]
//Background and Video events
Video,0,"video.flv"
0,0,"Background.jpg",0,0
//Break Periods
//Storyboard Layer 0 (Background)
//Storyboard Layer 1 (Fail)
//Storyboard Layer 2 (Pass)
//Storyboard Layer 3 (Foreground)
//Storyboard Sound Samples

[TimingPoints]
820,352.941176470588,4,2,0,0,1,0
820,-125,4,2,0,0,0,0
12114,-100,4,2,0,0,0,1
12202,-100,4,2,0,0,0,0
23408,-125,4,2,0,0,0,0
45996,-153.846153846153,4,2,0,0,0,0
51643,-125,4,2,0,0,0,0
54467,-111.111111111111,4,2,0,0,0,0
57290,-100,4,2,0,0,0,1
67172,-100,4,2,0,0,0,0
68584,-100,4,2,0,0,0,1
78789,352.941176470588,4,2,0,0,1,0
79887,352.941176470588,4,2,0,0,1,0
79887,-100,4,2,0,0,0,0

[Colours]
Combo1 : 121,255,121
Combo2 : 128,128,0
Combo3 : 0,136,0
Combo4 : 188,188,125

[HitObjects]
82,156,820,6,0,L|205:146,1,120
363,252,1525,2,0,L|356:190,1,60
243,251,1878,2,0,L|247:180,2,60
347,66,2408,1,0,0:0:0:0:
347,66,2761,2,0,L|345:129,1,60
383,266,3114,2,0,P|322:280|286:231,1,120
82,156,3643,6,0,L|205:146,1,120
363,252,4348,2,0,L|356:190,1,60
243,251,4702,2,0,L|247:192,2,60
347,66,5231,1,0,0:0:0:0:
347,66,5584,2,0,L|345:129,1,60
282,206,5937,2,0,L|270:148,1,60
270,148,6290,1,0,0:0:0:0:
234,273,6467,6,0,P|170:274|136:232,1,120
161,165,6996,1,0,0:0:0:0:
161,165,7172,2,0,L|283:159,1,120
359,289,7702,1,0,0:0:0:0:
180,294,7878,6,0,L|180:226,1,60
275,234,8231,2,0,L|210:198,1,60
152,127,8584,2,0,L|231:113,1,60
345,106,8937,2,0,L|275:94,1,60
361,229,9290,6,0,P|283:223|264:254,1,120
136,156,9819,1,0,0:0:0:0:
136,156,9996,2,0,L|148:276,1,120
217,299,10525,1,0,0:0:0:0:
220,176,10702,5,0,0:0:0:0:
405,307,11055,2,0,L|436:359,1,60
333,157,11408,2,0,L|298:155,3,30
319,239,11761,2,0,L|273:245,3,30
187,106,12114,6,0,P|137:106|108:195,1,150
162,283,12643,2,0,L|329:270,1,150
412,185,13172,2,0,L|405:262,1,75
210,224,13525,5,0,0:0:0:0:
210,224,13702,1,0,0:0:0:0:
236,86,13878,2,0,L|150:83,1,75
290,218,14231,2,0,L|285:135,1,75
184,186,14584,2,0,L|195:108,1,75
234,292,14937,6,0,P|187:293|152:268,1,75
226,166,15290,2,0,L|76:177,1,150
282,213,15819,1,0,0:0:0:0:
282,213,15996,2,0,L|298:292,1,75
335,132,16349,6,0,L|254:122,1,75
153,214,16702,2,0,L|137:121,1,75
230,282,17055,1,0,0:0:0:0:
230,282,17231,1,0,0:0:0:0:
230,282,17408,2,0,L|328:273,1,75
187,106,17761,6,0,P|137:106|108:195,1,150
162,283,18290,2,0,L|329:270,1,150
412,185,18819,2,0,L|405:262,1,75
210,224,19172,5,0,0:0:0:0:
210,224,19349,1,0,0:0:0:0:
236,86,19525,2,0,L|150:83,1,75
290,218,19878,2,0,L|285:135,1,75
184,186,20231,2,0,L|195:108,1,75
234,292,20584,6,0,P|187:293|152:268,1,75
226,166,20937,2,0,L|76:177,1,150
282,213,21466,1,0,0:0:0:0:
282,213,21643,2,0,L|298:292,1,75
133,229,21996,6,0,L|142:154,1,75
172,115,22349,2,0,P|248:112|275:191,1,150
444,130,22878,1,0,0:0:0:0:
367,219,23055,1,0,0:0:0:0:
367,219,23231,1,0,0:0:0:0:
250,247,23408,6,0,L|120:239,1,120
197,169,24114,2,0,L|186:101,1,60
266,118,24467,2,0,L|289:47,1,60
378,176,24819,1,0,0:0:0:0:
378,176,24996,2,0,L|390:241,1,60
278,276,25349,2,0,L|205:265,1,60
149,168,25702,1,0,0:0:0:0:
149,168,25878,2,0,P|210:166|239:213,1,120
302,263,26584,5,0,0:0:0:0:
302,263,26937,2,0,L|175:252,1,120
344,133,27643,1,0,0:0:0:0:
344,133,27819,2,0,L|351:200,2,60
250,313,28349,1,0,0:0:0:0:
259,118,28525,2,0,L|200:126,1,60
346,263,28878,1,0,0:0:0:0:
196,216,29055,6,0,L|328:205,1,120
260,308,29584,1,0,0:0:0:0:
260,308,29761,1,0,0:0:0:0:
196,216,30114,2,0,P|236:195|326:230,1,120
284,255,30643,1,0,0:0:0:0:
324,241,30819,2,0,L|320:314,1,60
313,110,31172,2,0,P|256:109|186:102,1,120
270,218,31878,5,0,0:0:0:0:
405,148,32231,2,0,L|390:276,2,120
251,103,33290,2,0,L|186:93,1,60
177,163,33643,1,0,0:0:0:0:
177,163,33819,1,0,0:0:0:0:
88,186,33996,2,0,L|99:120,1,60
263,223,34349,2,0,P|190:213|148:247,1,120
291,112,35055,6,0,L|170:116,2,120
230,146,36114,1,0,0:0:0:0:
230,146,36290,2,0,L|239:208,1,60
111,236,36643,2,0,L|181:219,1,60
264,106,36996,1,0,0:0:0:0:
395,276,37172,2,0,L|376:214,1,60
278,244,37525,6,0,L|147:235,1,120
155,167,38231,2,0,L|280:153,1,120
139,248,38937,1,0,0:0:0:0:
139,248,39114,2,0,L|140:179,1,60
256,283,39467,2,0,L|269:215,1,60
202,153,39819,1,0,0:0:0:0:
202,153,39996,2,0,L|272:149,1,60
300,295,40349,6,0,P|301:250|364:195,1,120
432,261,40878,1,0,0:0:0:0:
454,197,41055,2,0,L|446:125,1,60
218,252,41408,2,0,L|343:248,1,120
379,117,41937,6,0,L|252:103,1,120
274,205,42467,2,0,L|262:146,1,60
205,129,42819,2,0,L|139:129,1,60
200,253,43172,5,0,0:0:0:0:
337,283,43525,1,0,0:0:0:0:
333,193,43878,2,0,L|325:129,1,60
410,157,44231,2,0,L|416:90,1,60
325,231,44584,6,0,P|262:231|224:177,1,120
155,112,45114,1,0,0:0:0:0:
155,112,45202,1,0,0:0:0:0:
155,112,45290,2,0,L|171:189,1,60
195,270,45643,1,0,0:0:0:0:
197,263,45819,1,0,0:0:0:0:
317,163,45996,6,0,P|270:155|220:181,1,97.4999955368044
232,276,46525,1,0,0:0:0:0:
232,276,46702,2,0,L|340:275,1,97.4999955368044
361,235,47231,1,0,0:0:0:0:
317,163,47408,6,0,P|270:155|220:181,1,97.4999955368044
232,276,47937,1,0,0:0:0:0:
149,122,48114,2,0,L|149:170,1,48.7499977684022
170,253,48467,1,0,0:0:0:0:
317,163,48819,6,0,P|270:155|220:181,1,97.4999955368044
232,276,49348,1,0,0:0:0:0:
232,276,49525,2,0,L|340:275,1,97.4999955368044
361,235,50054,1,0,0:0:0:0:
317,163,50231,6,0,P|270:155|220:181,1,97.4999955368044
232,276,50760,1,0,0:0:0:0:
149,122,50937,2,0,L|150:177,1,48.7499977684022
170,253,51290,1,0,0:0:0:0:
387,233,51643,6,0,L|257:222,1,120
274,114,52172,1,0,0:0:0:0:
196,123,52349,2,0,L|199:184,1,60
206,260,52702,2,0,L|267:250,1,60
363,192,53055,6,0,L|234:180,1,120
203,273,53584,1,0,0:0:0:0:
203,273,53761,2,0,L|196:204,1,60
94,134,54114,2,0,L|161:128,1,60
362,313,54467,6,0,L|372:242,1,67.4999979400635
268,171,54819,1,0,0:0:0:0:
268,171,54996,1,0,0:0:0:0:
157,93,55172,2,0,L|231:78,1,67.4999979400635
377,101,55525,1,0,0:0:0:0:
377,101,55702,1,0,0:0:0:0:
248,238,55878,5,0,0:0:0:0:
248,238,56055,1,0,0:0:0:0:
248,238,56231,1,0,0:0:0:0:
176,186,56408,1,0,0:0:0:0:
249,115,56584,2,0,L|192:109,3,33.7499989700318
375,250,56937,2,0,L|336:247,3,33.7499989700318
228,276,57290,6,0,P|215:236|275:153,1,150
359,159,57819,1,0,0:0:0:0:
169,129,57996,1,0,0:0:0:0:
169,129,58172,1,0,0:0:0:0:
226,108,58349,2,0,L|234:192,1,75
151,185,58702,5,0,0:0:0:0:
247,288,58878,2,0,L|168:256,1,75
296,327,59231,2,0,L|304:243,1,75
207,94,59584,2,0,L|114:88,1,75
359,273,59937,1,0,0:0:0:0:
228,276,60114,6,0,P|215:236|275:153,1,150
359,159,60643,1,0,0:0:0:0:
169,129,60820,1,0,0:0:0:0:
169,129,60996,1,0,0:0:0:0:
226,108,61173,2,0,L|234:192,1,75
151,185,61526,5,0,0:0:0:0:
247,288,61702,2,0,L|168:256,1,75
296,327,62055,2,0,L|304:243,1,75
230,136,62408,1,0,0:0:0:0:
230,136,62584,1,0,0:0:0:0:
359,273,62761,1,0,0:0:0:0:
109,236,62937,6,0,L|185:229,1,75
328,186,63290,2,0,L|342:259,1,75
197,95,63643,2,0,L|203:254,1,150
277,211,64172,1,0,0:0:0:0:
192,293,64349,6,0,L|202:192,1,75
220,146,64702,2,0,L|132:139,1,75
314,241,65055,2,0,L|226:235,1,75
376,152,65408,2,0,L|460:150,1,75
238,80,65761,5,0,0:0:0:0:
238,80,65937,1,0,0:0:0:0:
236,271,66114,2,0,L|243:182,1,75
354,117,66467,2,0,P|275:110|251:172,1,150
317,185,66996,1,0,0:0:0:0:
390,297,67172,6,0,L|231:279,1,150
217,265,67878,2,0,L|224:185,1,75
351,257,68231,2,0,L|338:170,1,75
228,276,68584,6,0,P|215:236|275:153,1,150
359,159,69113,1,0,0:0:0:0:
169,129,69290,1,0,0:0:0:0:
169,129,69466,1,0,0:0:0:0:
226,108,69643,2,0,L|234:192,1,75
151,185,69996,5,0,0:0:0:0:
247,288,70172,2,0,L|168:256,1,75
296,327,70525,2,0,L|304:243,1,75
412,217,70878,2,0,L|404:291,1,75
359,273,71231,1,0,0:0:0:0:
228,276,71408,6,0,P|215:236|275:153,1,150
359,159,71937,1,0,0:0:0:0:
169,129,72114,1,0,0:0:0:0:
169,129,72290,1,0,0:0:0:0:
226,108,72467,2,0,L|234:192,1,75
151,185,72820,5,0,0:0:0:0:
247,288,72996,2,0,L|168:256,1,75
403,210,73349,2,0,L|395:284,1,75
276,244,73702,1,0,0:0:0:0:
254,172,73878,1,0,0:0:0:0:
254,172,74055,1,0,0:0:0:0:
109,236,74231,6,0,L|185:229,1,75
328,186,74584,2,0,L|342:259,1,75
206,125,74937,1,0,0:0:0:0:
206,125,75114,1,0,0:0:0:0:
254,250,75290,2,0,L|346:240,1,75
350,90,75643,5,0,0:0:0:0:
350,90,75819,1,0,0:0:0:0:
350,90,75996,2,0,L|350:183,1,75
200,104,76349,2,0,P|152:104|108:206,1,150
226,212,76878,1,0,0:0:0:0:
248,297,77055,6,0,L|339:281,1,75
407,153,77408,2,0,L|330:139,1,75
221,99,77761,2,0,P|145:104|140:183,1,150
238,221,78290,1,0,0:0:0:0:
245,297,78467,6,0,L|332:295,1,75
338,148,78789,6,0,L|338:199,3,50
424,92,79318,6,0,L|437:152,4,37.5
187,106,79887,6,0,P|137:106|108:195,1,150
162,283,80416,2,0,L|329:270,1,150
412,185,80945,2,0,L|405:262,1,75
210,224,81298,5,0,0:0:0:0:
210,224,81475,1,0,0:0:0:0:
236,86,81651,2,0,L|150:83,1,75
290,218,82004,2,0,L|285:135,1,75
184,186,82357,2,0,L|195:108,1,75
234,292,82710,6,0,P|187:293|152:268,1,75
226,166,83063,2,0,L|76:177,1,150
282,213,83592,1,0,0:0:0:0:
282,213,83769,2,0,P|298:250|298:292,1,75
335,132,84122,6,0,L|254:122,1,75
153,214,84475,2,0,L|137:121,1,75
230,282,84828,1,0,0:0:0:0:
230,282,85004,1,0,0:0:0:0:
230,282,85181,2,0,L|328:273,1,75
187,106,85534,6,0,P|137:106|108:195,1,150
162,283,86063,2,0,L|329:270,1,150
412,185,86592,2,0,L|405:262,1,75
242,192,86945,6,0,L|148:184,1,75
311,255,87298,1,0,0:0:0:0:
311,255,87475,1,0,0:0:0:0:
210,94,87651,2,0,L|284:102,1,75
438,125,88003,1,0,0:0:0:0:
239,284,88180,1,0,0:0:0:0:
