osu file format v14

[General]
AudioFilename: audio.mp3
AudioLeadIn: 0
PreviewTime: 9292
Countdown: 0
SampleSet: Soft
StackLeniency: 0.4
Mode: 0
LetterboxInBreaks: 0
WidescreenStoryboard: 1

[Editor]
DistanceSpacing: 0.8
BeatDivisor: 4
GridSize: 32
TimelineZoom: 1

[Metadata]
Title:Yume no Daichi
TitleUnicode:夢の大地
Artist:Kalafina
ArtistUnicode:Kalafina
Creator:Vell
Version:Advanced
Source:
Tags:consolation yuki kajiura keiko kubota wakana outaki hikaru masai cheesecake
BeatmapID:1021895
BeatmapSetID:468807

[Difficulty]
HPDrainRate:5
CircleSize:3.7
OverallDifficulty:5
ApproachRate:5.5
SliderMultiplier:1.2
SliderTickRate:1

[Events]
//Background and Video events
0,0,"bg.jpg",0,0
//Break Periods
2,148807,152413
//Storyboard Layer 0 (Background)
//Storyboard Layer 1 (Fail)
//Storyboard Layer 2 (Pass)
//Storyboard Layer 3 (Foreground)
//Storyboard Sound Samples

[TimingPoints]
662,410.958904109589,3,2,1,40,1,0
662,-142.857142857143,3,2,1,40,0,0
54908,-117.647058823529,3,2,1,50,0,0
99292,-100,3,2,1,60,0,1
116141,-100,3,2,1,60,0,0
116552,-100,3,2,1,60,0,1
117168,-100,3,2,1,60,0,0
117785,-100,3,2,1,60,0,1
118196,-100,3,2,1,60,0,0
119018,-100,3,2,1,60,0,1
138744,-100,3,2,1,60,0,0
143675,-142.857142857143,3,2,1,30,0,0
146346,-200,3,2,1,20,0,0
153538,-117.647058823529,3,2,1,50,0,0
212716,-100,3,2,1,60,0,1
222579,-100,3,2,1,60,0,0
226278,-200,3,2,1,40,0,0
228744,-200,3,2,1,50,0,0
229977,-200,3,2,1,60,0,0
231209,-200,3,2,1,70,0,0
232442,-200,3,2,1,80,0,0

[Colours]
Combo1 : 252,20,101
Combo2 : 16,158,243
Combo3 : 252,88,248

[HitObjects]
236,60,662,6,0,P|270:66|337:63,1,83.9999974365235,4|0,0:3|0:0,0:0:0:0:
355,44,1278,2,0,P|387:48|416:103,1,83.9999974365235,4|0,0:3|0:0,0:0:0:0:
406,128,1894,1,4,0:3:0:0:
359,198,2305,2,0,P|368:230|373:257,1,41.9999987182618,0|2,0:0|0:0,0:0:0:0:
410,250,2716,2,0,P|401:282|396:309,1,41.9999987182618,0|2,0:0|0:0,0:0:0:0:
410,331,3127,6,0,P|370:324|275:316,1,125.999996154785,4|4,0:3|0:3,0:0:0:0:
211,275,4155,1,0,0:0:0:0:
170,285,4360,2,0,P|138:293|114:300,1,41.9999987182618,4|2,0:3|0:0,0:0:0:0:
93,318,4771,2,0,P|99:285|107:219,1,83.9999974365235,4|4,0:3|0:3,0:0:0:0:
80,154,5593,22,0,P|96:115|139:93,1,83.9999974365235,4|0,0:3|0:0,0:0:0:0:
171,104,6209,2,0,P|210:118|270:124,1,83.9999974365235,8|0,0:3|0:0,0:0:0:0:
294,120,6826,1,4,0:3:0:0:
376,102,7237,2,0,P|390:79|412:58,1,41.9999987182618,0|2,0:0|0:0,0:0:0:0:
436,46,7648,1,2,0:0:0:0:
460,126,8059,6,0,P|441:155|436:220,1,83.9999974365235,4|0,0:3|0:0,0:0:0:0:
447,242,8675,2,0,P|434:297|419:335,1,83.9999974365235,8|0,0:3|0:3,0:3:0:0:
391,349,9292,1,4,0:3:0:0:
312,316,9703,2,0,P|290:275|248:202,1,125.999996154785,4|2,0:3|0:0,0:0:0:0:
215,182,10525,22,0,P|188:181|141:229,1,83.9999974365235,4|0,0:0|0:0,0:0:0:0:
140,256,11141,1,8,0:3:0:0:
204,364,11757,2,0,P|241:352|260:346,1,41.9999987182618,4|0,0:3|0:0,0:0:0:0:
272,320,12168,2,0,P|300:332|354:346,1,83.9999974365235,4|0,0:3|0:0,0:0:0:0:
393,345,12785,1,2,0:0:0:0:
430,327,12990,6,0,P|451:312|458:220,2,125.999996154785,4|8|4,0:3|0:3|0:3,0:0:0:0:
346,314,14634,2,0,P|332:289|326:259,1,41.9999987182618,4|0,0:3|0:0,0:0:0:0:
320,234,15045,2,0,P|322:203|328:184,1,41.9999987182618,4|0,0:3|0:0,0:0:0:0:
350,158,15456,22,0,P|308:163|253:164,1,83.9999974365235,4|0,0:3|0:0,0:0:0:0:
224,159,16072,2,0,P|195:139|183:84,1,83.9999974365235,8|0,0:3|0:0,0:0:0:0:
196,54,16689,1,4,0:3:0:0:
123,97,17100,1,2,0:0:0:0:
47,60,17511,1,2,0:0:0:0:
123,97,17922,6,0,P|112:134|98:191,1,83.9999974365235,4|0,0:3|0:0,0:0:0:0:
93,219,18538,1,8,0:3:0:0:
44,335,19155,2,0,P|82:324|94:321,1,41.9999987182618,4|2,0:3|0:0,0:0:0:0:
123,308,19566,2,0,P|148:311|208:325,1,83.9999974365235,2|4,0:0|0:3,0:0:0:0:
239,348,20182,1,2,0:0:0:0:
280,343,20388,22,0,P|293:305|314:260,1,83.9999974365235,4|0,0:3|0:0,0:0:0:0:
336,231,21004,1,8,0:3:0:0:
401,283,21415,1,0,0:0:0:0:
442,289,21620,2,0,P|471:280|504:221,2,83.9999974365235,4|2|2,0:3|0:0|0:0,0:0:0:0:
423,206,22853,6,0,P|439:175|442:112,1,83.9999974365235,4|0,0:3|0:0,0:0:0:0:
435,85,23470,1,8,0:3:0:0:
409,5,23881,1,0,0:0:0:0:
370,10,24086,2,0,P|342:16|318:25,1,41.9999987182618,4|2,0:3|0:0,0:0:0:0:
295,45,24497,2,0,P|269:42|200:27,1,83.9999974365235,2|4,0:0|0:3,0:0:0:0:
128,38,25319,22,0,P|96:43|61:95,1,83.9999974365235,4|0,0:3|0:0,0:0:0:0:
63,122,25935,2,0,P|101:142|150:160,1,83.9999974365235,8|0,0:3|0:0,0:0:0:0:
181,158,26552,1,4,0:3:0:0:
252,202,26963,2,0,P|217:232|208:236,1,41.9999987182618,0|2,0:0|0:0,0:0:0:0:
180,243,27374,2,0,P|152:239|128:223,1,41.9999987182618,0|2,0:0|0:0,0:0:0:0:
98,240,27785,6,0,P|108:283|116:337,1,83.9999974365235,4|0,0:3|0:0,0:0:0:0:
138,356,28401,2,0,P|162:341|234:343,1,83.9999974365235,8|0,0:3|0:0,0:0:0:0:
253,357,29018,2,0,P|283:364|304:368,1,41.9999987182618,2|2,0:0|0:0,0:0:0:0:
336,368,29429,1,2,0:0:0:0:
409,327,29840,2,0,P|413:302|418:281,1,41.9999987182618,0|2,0:0|0:0,0:0:0:0:
449,259,30251,22,0,P|437:209|426:120,1,125.999996154785,4|8,0:0|0:3,0:0:0:0:
440,52,31278,1,0,0:0:0:0:
399,41,31483,2,0,P|368:37|345:38,1,41.9999987182618,4|0,0:3|0:0,0:0:0:0:
318,54,31894,2,0,P|293:53|192:32,1,125.999996154785,4|0,0:3|0:0,0:0:0:0:
155,36,32716,6,0,P|117:62|107:111,1,83.9999974365235,4|0,0:3|0:0,0:0:0:0:
120,136,33333,2,0,P|105:168|76:216,1,83.9999974365235,8|0,0:3|0:0,0:0:0:0:
71,251,33949,1,4,0:3:0:0:
40,329,34360,2,0,P|81:327|123:323,1,83.9999974365235,4|4,0:3|0:3,0:0:0:0:
157,246,35182,22,0,P|191:240|243:280,1,83.9999974365235,4|0,0:3|0:0,0:0:0:0:
238,304,35798,2,0,P|281:324|332:335,1,83.9999974365235,8|0,0:3|0:0,0:0:0:0:
358,328,36415,2,0,P|389:315|413:308,1,41.9999987182618,4|0,0:3|0:0,0:0:0:0:
426,342,36826,2,0,P|465:335|481:333,1,41.9999987182618,0|2,0:0|0:0,0:0:0:0:
509,331,37237,1,2,0:0:0:0:
509,246,37648,6,0,P|506:213|497:152,1,83.9999974365235,4|0,0:3|0:0,0:0:0:0:
483,123,38264,2,0,P|467:107|403:107,1,83.9999974365235,8|0,0:3|0:0,0:0:0:0:
369,120,38881,2,0,P|346:126|322:129,1,41.9999987182618,4|2,0:3|0:0,0:0:0:0:
295,101,39292,2,0,P|262:84|201:59,1,83.9999974365235,2|4,0:0|0:3,0:0:0:0:
149,17,40114,22,0,P|122:21|77:106,1,125.999996154785,4|8,0:3|0:3,0:0:0:0:
89,138,40935,1,0,0:0:0:0:
159,183,41346,2,0,P|153:217|138:273,1,83.9999974365235,4|0,0:3|0:0,0:0:0:0:
125,304,41963,1,2,0:0:0:0:
110,343,42168,1,4,0:3:0:0:
45,288,42579,6,0,P|78:265|161:276,1,125.999996154785,4|8,0:3|0:3,0:0:0:0:
193,299,43401,2,0,P|218:310|238:314,1,41.9999987182618,0|0,0:0|0:0,0:0:0:0:
272,301,43812,2,0,P|295:293|365:282,1,83.9999974365235,4|2,0:3|0:0,0:0:0:0:
427,322,44634,2,0,P|438:294|448:273,1,41.9999987182618,0|2,0:0|0:0,0:0:0:0:
472,253,45045,22,0,P|468:226|450:159,1,83.9999974365235,4|0,0:0|0:0,0:0:0:0:
428,137,45661,1,8,0:3:0:0:
390,118,45867,2,0,P|360:111|333:108,1,41.9999987182618,0|0,0:0|0:0,0:0:0:0:
310,125,46278,2,0,P|279:122|236:78,2,83.9999974365235,4|2|4,0:3|0:0|0:3,0:0:0:0:
392,106,47511,6,0,P|387:139|379:206,1,83.9999974365235,4|0,0:3|0:0,0:0:0:0:
351,220,48127,2,0,P|369:257|385:303,1,83.9999974365235,8|0,0:3|0:0,0:0:0:0:
413,327,48744,2,0,P|398:366|392:376,1,41.9999987182618,4|2,0:3|0:0,0:0:0:0:
357,376,49155,2,0,P|322:365|225:342,1,125.999996154785,2|2,0:0|0:0,0:0:0:0:
193,343,49977,21,4,0:0:0:0:
69,368,50593,2,0,P|64:334|59:268,1,83.9999974365235,8|0,0:3|0:0,0:0:0:0:
60,242,51209,1,4,0:3:0:0:
119,183,51620,2,0,P|109:165|97:135,1,41.9999987182618,0|2,0:0|0:0,0:0:0:0:
74,112,52031,2,0,P|84:94|96:64,1,41.9999987182618,0|2,0:0|0:0,0:0:0:0:
105,34,52442,6,0,P|142:47|198:64,1,83.9999974365235,4|0,0:3|0:0,0:0:0:0:
213,91,53059,2,0,P|248:80|304:68,1,83.9999974365235,8|0,0:3|0:0,0:0:0:0:
336,65,53675,1,4,0:3:0:0:
377,71,53881,1,8,0:3:0:0:
449,112,54292,1,8,0:3:0:0:
438,152,54497,2,0,P|434:179|435:207,1,41.9999987182618,8|0,0:3|0:0,0:0:0:0:
440,231,54908,22,0,B|445:256|467:274|467:274|414:265|366:308,1,153.000002918243,4|8,0:0|0:3,0:0:0:0:
339,333,55730,2,0,P|315:317|232:300,1,102.000001945496,0|4,0:0|0:3,0:0:0:0:
219,211,56552,2,0,P|190:234|172:244,1,51.0000009727478,0|2,0:0|0:0,0:0:0:0:
134,255,56963,1,2,0:3:0:0:
42,259,57374,6,0,P|54:227|72:161,1,102.000001945496,4|0,0:3|0:0,0:0:0:0:
63,116,57990,2,0,P|82:83|159:74,1,102.000001945496,8|0,0:3|0:0,0:0:0:0:
181,89,58607,2,0,P|213:97|246:101,1,51.0000009727478,4|2,0:3|0:0,0:0:0:0:
276,100,59018,1,2,0:0:0:0:
348,43,59429,2,0,P|371:67|384:90,1,51.0000009727478,2|0,0:3|0:0,0:0:0:0:
425,88,59840,22,0,P|415:126|406:202,1,102.000001945496,4|0,0:3|0:0,0:0:0:0:
429,227,60456,2,0,P|399:260|339:266,1,102.000001945496,8|0,0:3|0:0,0:0:0:0:
302,247,61072,2,0,P|260:236|188:228,1,102.000001945496,2|0,0:0|0:0,0:0:0:0:
155,231,61689,1,2,0:0:0:0:
112,247,61894,2,0,P|85:262|66:281,1,51.0000009727478,2|0,0:3|0:0,0:0:0:0:
34,304,62305,6,0,P|49:258|39:186,1,102.000001945496,4|0,0:3|0:0,0:0:0:0:
33,160,62922,1,8,0:3:0:0:
79,23,63538,2,0,P|115:15|144:12,1,51.0000009727478,4|2,0:3|0:0,0:0:0:0:
174,15,63949,2,0,P|224:33|237:37,1,51.0000009727478,2|0,0:0|0:0,0:0:0:0:
266,42,64360,1,2,0:3:0:0:
348,82,64771,22,0,P|387:99|478:37,1,153.000002918243,4|8,0:0|0:3,0:0:0:0:
508,79,65593,2,0,P|499:115|496:130,1,51.0000009727478,0|0,0:0|0:0,0:0:0:0:
468,165,66004,2,0,P|477:205|486:271,1,102.000001945496,4|0,0:3|0:0,0:0:0:0:
485,311,66620,1,2,0:0:0:0:
477,356,66826,1,2,0:3:0:0:
385,360,67237,6,0,P|345:347|233:326,1,153.000002918243,4|8,0:3|0:3,0:0:0:0:
195,305,68059,2,0,P|162:308|133:329,1,51.0000009727478
121,354,68470,2,0,P|77:361|32:324,1,102.000001945496,4|2,0:3|0:0,0:0:0:0:
16,236,69292,1,2,0:3:0:0:
32,193,69497,1,0,0:0:0:0:
61,157,69703,22,0,P|52:129|32:59,2,102.000001945496,4|0|0,0:3|0:0|0:0,0:0:0:0:
148,184,70935,2,0,P|135:217|114:294,1,102.000001945496,4|2,0:3|0:0,0:0:0:0:
111,326,71552,1,0,0:0:0:0:
145,356,71757,2,0,P|183:361|206:361,1,51.0000009727478,2|0,0:3|0:0,0:0:0:0:
234,336,72168,6,0,P|251:303|359:317,1,153.000002918243,4|8,0:3|0:3,0:0:0:0:
379,344,72990,1,0,0:0:0:0:
469,336,73401,2,0,P|486:290|499:236,1,102.000001945496,4|8,0:0|0:3,0:0:0:0:
500,192,74018,1,0,0:0:0:0:
480,150,74223,1,4,0:3:0:0:
475,56,74634,22,0,P|439:24|371:27,1,102.000001945496,4|0,0:0|0:0,0:0:0:0:
348,45,75251,2,0,P|304:58|244:74,1,102.000001945496,8|0,0:3|0:0,0:0:0:0:
203,71,75867,1,4,0:3:0:0:
121,29,76278,1,2,0:0:0:0:
62,100,76689,1,2,0:0:0:0:
116,173,77100,6,0,P|109:212|90:276,1,102.000001945496,4|0,0:3|0:0,0:0:0:0:
64,308,77716,2,0,P|112:325|174:352,1,102.000001945496,8|0,0:3|0:0,0:0:0:0:
197,370,78333,2,0,P|233:360|269:351,1,51.0000009727478,2|0,0:0|0:0,0:0:0:0:
291,351,78744,1,2,0:0:0:0:
381,366,79155,2,0,P|398:342|409:320,1,51.0000009727478,0|2,0:0|0:0,0:0:0:0:
446,297,79566,22,0,P|428:259|406:187,1,102.000001945496,4|0,0:3|0:0,0:0:0:0:
418,157,80182,2,0,P|403:123|342:105,1,102.000001945496,8|0,0:3|0:0,0:0:0:0:
301,119,80798,1,4,0:3:0:0:
222,71,81209,2,0,P|189:59|173:51,1,51.0000009727478,0|2,0:0|0:0,0:0:0:0:
131,67,81620,2,0,P|104:78|66:86,1,51.0000009727478,0|2,0:0|0:0,0:0:0:0:
37,77,82031,6,0,P|44:113|58:193,1,102.000001945496,4|0,0:3|0:0,0:0:0:0:
89,208,82648,2,0,P|76:248|73:275,1,51.0000009727478,8|0,0:3|0:0,0:0:0:0:
72,302,83059,1,0,0:0:0:0:
92,342,83264,2,0,P|121:358|192:353,1,102.000001945496,2|2,0:0|0:0,0:0:0:0:
270,314,84086,2,0,P|305:323|326:332,1,51.0000009727478,2|2,0:0|0:0,0:0:0:0:
353,359,84497,22,0,P|364:322|387:251,1,102.000001945496,4|0,0:0|0:0,0:0:0:0:
420,234,85114,2,0,P|411:192|414:127,1,102.000001945496,8|0,0:3|0:0,0:0:0:0:
416,90,85730,2,0,P|449:97|525:106,2,102.000001945496,4|2|4,0:3|0:0|0:3,0:0:0:0:
372,74,86757,1,2,0:0:0:0:
335,46,86963,6,0,P|288:38|237:68,1,102.000001945496,4|0,0:3|0:0,0:0:0:0:
227,106,87579,2,0,P|185:123|118:139,1,102.000001945496,8|0,0:3|0:0,0:0:0:0:
84,131,88196,2,0,P|66:107|80:29,2,102.000001945496,4|2|0,0:3|0:0|0:0,0:0:0:0:
146,198,89429,22,0,P|132:237|113:302,1,102.000001945496,4|0,0:3|0:0,0:0:0:0:
125,339,90045,2,0,P|100:365|76:382,2,51.0000009727478,8|0|0,0:3|0:0|0:0,0:0:0:0:
170,347,90662,2,0,P|205:331|273:330,1,102.000001945496,4|2,0:3|0:0,0:0:0:0:
357,308,91483,2,0,P|399:325|418:329,1,51.0000009727478,0|2,0:0|0:0,0:0:0:0:
448,314,91894,6,0,P|457:265|464:200,1,102.000001945496,4|0,0:3|0:0,0:0:0:0:
464,166,92511,1,8,0:3:0:0:
436,78,92922,1,0,0:0:0:0:
394,58,93127,2,0,P|369:61|338:69,1,51.0000009727478,4|2,0:3|0:0,0:0:0:0:
311,99,93538,2,0,P|286:96|208:66,1,102.000001945496,2|2,0:0|0:0,0:0:0:0:
174,46,94155,1,0,0:0:0:0:
129,56,94360,22,0,P|102:89|99:167,1,102.000001945496,4|0,0:0|0:0,0:0:0:0:
120,177,94977,2,0,P|131:213|112:286,1,102.000001945496,8|0,0:3|0:0,0:0:0:0:
93,307,95593,1,4,0:3:0:0:
161,350,96004,2,0,P|197:336|231:329,1,51.0000009727478,0|2,0:0|0:0,0:0:0:0:
249,332,96415,1,4,0:3:0:0:
256,192,96826,12,4,98059,0:0:0:0:
97,355,98881,6,0,P|102:330|112:307,1,51.0000009727478,4|0,0:3|0:0,0:0:0:0:
86,278,99292,6,0,P|73:220|65:160,1,120,4|0,0:0|0:0,0:0:0:0:
44,117,99908,2,0,P|65:87|149:80,1,120,4|0,0:3|0:0,0:0:0:0:
182,105,100525,2,0,P|226:120|248:124,1,60,2|0,0:3|0:0,0:0:0:0:
285,111,100935,2,0,P|314:94|346:81,1,60,2|2,0:0|0:0,0:0:0:0:
385,77,101346,1,4,0:3:0:0:
453,144,101757,22,0,P|444:175|422:267,1,120,4|0,0:3|0:0,0:0:0:0:
441,304,102374,2,0,P|404:312|304:340,1,120,8|0,0:3|0:0,0:0:0:0:
281,355,102990,2,0,P|251:346|221:342,1,60,2|0,0:3|0:0,0:0:0:0:
174,341,103401,1,4,0:3:0:0:
81,365,103812,1,4,0:3:0:0:
45,331,104018,1,2,0:0:0:0:
45,283,104223,6,0,P|55:237|67:156,1,120,4|0,0:3|0:0,0:0:0:0:
61,116,104840,2,0,P|87:140|177:135,1,120,8|0,0:3|0:0,0:0:0:0:
208,115,105456,2,0,P|228:90|237:61,1,60,2|0,0:3|0:0,0:0:0:0:
275,35,105867,2,0,P|333:22|393:14,1,120,2|0,0:0|0:0,0:0:0:0:
441,16,106483,1,2,0:0:0:0:
483,38,106689,21,4,0:3:0:0:
425,112,107100,1,0,0:0:0:0:
430,159,107305,2,0,P|443:208|463:282,1,120,8|0,0:3|0:0,0:0:0:0:
458,323,107922,2,0,P|441:352|417:377,1,60,2|0,0:3|0:0,0:0:0:0:
375,371,108333,2,0,P|348:342|254:356,1,120,4|8,0:3|0:3,0:0:0:0:
231,367,108949,1,0,0:0:0:0:
182,368,109155,6,0,P|148:352|110:341,1,60,4|0,0:0|0:0,0:0:0:0:
78,340,109566,2,0,P|72:313|66:267,1,60,0|8,0:0|0:3,0:0:0:0:
86,236,109977,2,0,P|92:209|98:163,1,60,0|0,0:0|0:0,0:0:0:0:
93,128,110388,1,2,0:3:0:0:
141,45,110798,2,0,P|193:33|270:18,1,120,2|4,0:0|0:3,0:0:0:0:
305,10,111415,1,0,0:0:0:0:
351,22,111620,22,0,P|383:43|395:62,1,60,4|0,0:3|0:0,0:0:0:0:
395,108,112031,2,0,P|370:131|337:156,1,60,0|8,0:0|0:3,0:0:0:0:
337,193,112442,2,0,P|362:216|395:241,1,60,0|0,0:0|0:0,0:0:0:0:
424,254,112853,1,2,0:3:0:0:
457,344,113264,2,0,P|399:354|337:357,1,120,4|2,0:3|0:0,0:0:0:0:
292,341,113881,1,2,0:0:0:0:
245,350,114086,6,0,P|220:317|217:227,1,120,4|0,3:0|0:0,0:0:0:0:
235,198,114703,2,0,P|273:192|363:186,1,120,8|0,0:3|0:0,0:0:0:0:
396,163,115319,2,0,P|421:130|412:54,2,120,2|8|4,0:3|0:3|0:3,0:0:0:0:
322,224,116552,22,0,P|273:212|197:200,1,120,4|0,0:0|0:0,0:0:0:0:
156,203,117168,1,2,0:3:0:0:
72,250,117579,1,4,0:3:0:0:
65,297,117785,2,0,P|89:341|156:354,1,120,4|8,0:0|0:3,0:0:0:0:
193,327,118401,1,4,0:3:0:0:
240,320,118607,1,4,0:3:0:0:
314,375,119018,6,0,P|348:332|395:274,1,120,4|0,0:0|0:0,0:0:0:0:
430,305,119634,2,0,P|420:268|399:176,1,120,4|0,0:3|0:0,0:0:0:0:
368,153,120251,2,0,P|385:110|391:91,1,60,2|0,0:3|0:0,0:0:0:0:
383,49,120661,2,0,P|362:22|329:8,2,60,2|2|2,0:0|0:0|0:0,0:0:0:0:
307,91,121483,22,0,P|251:88|208:20,1,120,4|0,0:3|0:0,0:0:0:0:
169,18,122100,2,0,P|115:25|35:44,1,120,8|0,0:3|0:0,0:0:0:0:
6,58,122716,1,2,0:3:0:0:
12,153,123127,2,0,P|25:187|36:228,1,60,8|0,0:3|0:0,0:0:0:0:
70,238,123538,2,0,P|57:272|46:313,1,60,4|0,0:3|0:0,0:0:0:0:
59,341,123949,6,0,P|96:372|187:352,1,120,4|0,0:3|0:0,0:0:0:0:
193,330,124566,2,0,P|221:307|309:320,1,120,8|0,0:3|0:0,0:0:0:0:
330,350,125182,2,0,P|369:368|397:375,1,60,2|0,0:3|0:0,0:0:0:0:
432,364,125593,2,0,P|454:336|469:309,1,60,2|0,0:0|0:0,0:0:0:0:
502,283,126004,2,0,P|486:237|479:207,1,60,4|0,0:3|0:0,0:0:0:0:
447,194,126415,22,0,P|460:158|476:79,1,120,4|0,0:3|0:0,0:0:0:0:
477,29,127031,1,8,0:3:0:0:
389,67,127442,1,0,0:0:0:0:
340,64,127648,2,0,P|317:33|221:35,2,120,4|4|4,0:0|0:3|0:3,0:0:0:0:
293,145,128881,6,0,P|310:191|321:222,1,60,4|0,0:0|0:0,0:0:0:0:
348,234,129292,2,0,P|331:280|320:311,1,60,0|8,0:0|0:3,0:0:0:0:
299,329,129703,2,0,P|263:342|229:344,1,60,0|0,0:0|0:0,0:0:0:0:
197,324,130114,2,0,P|159:313|72:296,1,120,2|4,0:3|0:3,0:0:0:0:
48,332,130730,1,0,0:0:0:0:
1,319,130935,2,0,P|-12:285|-16:249,1,60,2|0,0:0|0:0,0:0:0:0:
18,227,131346,22,0,P|36:186|62:107,1,120,4|0,0:3|0:0,0:0:0:0:
61,66,131963,2,0,P|84:31|171:33,1,120,8|0,0:3|0:0,0:0:0:0:
195,51,132579,1,2,0:3:0:0:
265,116,132990,2,0,P|315:102|407:83,1,120,2|2,0:0|0:0,0:0:0:0:
429,84,133607,1,2,0:0:0:0:
472,103,133812,6,0,P|485:147|493:188,1,60,4|0,0:3|0:0,0:0:0:0:
452,193,134223,2,0,P|439:237|431:278,1,60,0|8,0:0|0:3,0:0:0:0:
454,295,134634,2,0,P|417:318|390:327,1,60,0|0,0:0|0:0,0:0:0:0:
357,305,135045,2,0,P|333:280|244:284,1,120,2|4,0:3|0:3,0:0:0:0:
220,315,135662,1,2,0:0:0:0:
175,332,135867,1,2,0:0:0:0:
84,299,136278,22,0,P|75:258|54:174,1,120,4|0,0:3|0:0,0:0:0:0:
35,138,136894,1,8,0:3:0:0:
8,97,137100,2,0,P|18:61|36:28,1,60,0|0,0:0|0:0,0:0:0:0:
70,19,137511,2,0,P|116:24|192:37,1,120,2|4,0:3|0:3,0:0:0:0:
231,57,138127,1,2,0:0:0:0:
260,95,138333,1,2,0:0:0:0:
306,107,138538,1,0,0:0:0:0:
350,87,138744,5,4,0:0:0:0:
256,192,138846,12,0,142442,0:0:0:0:
174,243,143470,21,0,0:0:0:0:
174,243,143675,2,0,P|300:106|261:288,1,503.999984619141,2|0,0:0|0:0,0:0:0:0:
256,192,146346,12,2,148607,0:0:0:0:
361,330,153538,22,0,P|329:322|245:317,1,102.000001945496,4|0,0:3|0:0,0:0:0:0:
216,301,154155,2,0,P|185:311|163:315,1,51.0000009727478,8|0,0:3|0:0,0:0:0:0:
120,313,154566,1,0,0:0:0:0:
86,282,154771,2,0,P|59:253|63:175,2,102.000001945496,4|2|2,0:3|0:0|0:0,0:0:0:0:
144,211,156004,6,0,P|137:172|122:100,1,102.000001945496,4|0,0:3|0:0,0:0:0:0:
97,73,156620,2,0,P|147:83|211:89,1,102.000001945496,8|0,0:3|0:0,0:0:0:0:
234,116,157237,2,0,P|250:90|272:70,1,51.0000009727478,4|2,0:3|0:0,0:0:0:0:
301,47,157648,1,2,0:0:0:0:
315,141,158059,2,0,P|338:129|377:115,1,51.0000009727478,8|2,0:3|0:0,0:0:0:0:
406,112,158470,22,0,P|445:128|468:202,1,102.000001945496,4|0,0:3|0:0,0:0:0:0:
445,218,159086,2,0,P|451:273|462:336,1,102.000001945496,8|0,0:3|0:0,0:0:0:0:
472,363,159703,1,4,0:3:0:0:
381,346,160114,2,0,P|340:331|322:321,1,51.0000009727478,0|2,0:0|0:0,0:0:0:0:
302,293,160525,2,0,P|265:287|206:339,1,102.000001945496,0|4,0:0|0:3,0:0:0:0:
129,359,161346,5,0,0:0:0:0:
84,346,161552,2,0,P|72:307|55:239,1,102.000001945496,8|0,0:3|0:0,0:0:0:0:
34,207,162168,2,0,P|45:179|57:148,1,51.0000009727478,4|2,0:3|0:0,0:0:0:0:
63,114,162579,1,4,0:3:0:0:
125,46,162990,1,8,0:3:0:0:
170,40,163196,1,2,0:0:0:0:
210,61,163401,22,0,P|252:73|329:87,1,102.000001945496,4|0,0:3|0:0,0:0:0:0:
353,72,164018,2,0,P|395:75|435:136,1,102.000001945496,8|0,0:3|0:0,0:0:0:0:
412,159,164634,2,0,P|406:206|399:284,1,102.000001945496,4|4,0:3|0:3,0:0:0:0:
405,306,165251,1,2,0:0:0:0:
386,347,165456,2,0,P|352:362|336:364,1,51.0000009727478,2|0,0:0|0:0,0:0:0:0:
295,348,165867,6,0,P|266:338|177:321,1,102.000001945496,4|0,0:3|0:0,0:0:0:0:
150,325,166483,1,8,0:3:0:0:
61,350,166894,1,0,0:0:0:0:
26,319,167100,2,0,P|11:287|13:250,1,51.0000009727478,4|2,0:3|0:0,0:0:0:0:
32,232,167511,2,0,P|57:210|59:138,1,102.000001945496,4|0,0:3|0:0,0:0:0:0:
33,108,168127,1,2,0:0:0:0:
23,62,168333,22,0,P|55:37|75:28,1,51.0000009727478,4|0,0:3|0:0,0:0:0:0:
109,25,168744,2,0,P|146:38|180:49,1,51.0000009727478,0|8,0:0|0:3,0:0:0:0:
189,74,169155,2,0,P|230:85|253:86,1,51.0000009727478,0|0,0:0|0:0,0:0:0:0:
282,71,169566,2,0,P|293:112|307:193,2,102.000001945496,4|2|2,0:3|0:0|0:0,0:0:0:0:
354,14,170798,6,0,P|405:32|463:61,1,102.000001945496,4|0,0:3|0:0,0:0:0:0:
477,88,171415,2,0,P|480:123|418:172,1,102.000001945496,8|0,0:3|0:0,0:0:0:0:
391,164,172031,2,0,P|369:188|344:221,1,51.0000009727478,4|2,0:3|0:0,0:0:0:0:
340,245,172442,1,2,0:0:0:0:
265,298,172853,2,0,P|253:256|244:234,1,51.0000009727478,4|2,0:3|0:0,0:0:0:0:
222,212,173264,22,0,P|191:202|110:184,1,102.000001945496,4|0,0:0|0:0,0:0:0:0:
82,207,173881,2,0,P|54:224|41:294,1,102.000001945496,8|0,0:3|0:0,0:0:0:0:
60,328,174497,1,4,0:3:0:0:
150,317,174908,2,0,P|188:304|215:299,1,51.0000009727478,0|2,0:0|0:0,0:0:0:0:
240,320,175319,2,0,P|262:337|287:352,1,51.0000009727478,0|2,0:0|0:0,0:0:0:0:
325,362,175730,6,0,P|352:331|396:282,1,102.000001945496,4|0,0:3|0:0,0:0:0:0:
429,258,176346,1,8,0:3:0:0:
458,222,176552,2,0,P|456:191|456:158,1,51.0000009727478,0|0,0:0|0:0,0:0:0:0:
473,128,176963,2,0,P|457:102|372:84,1,102.000001945496,4|2,0:3|0:0,0:0:0:0:
307,114,177785,2,0,P|284:117|255:117,1,51.0000009727478,4|2,0:3|0:0,0:0:0:0:
211,105,178196,22,0,P|162:96|96:81,1,102.000001945496,4|0,0:3|0:0,0:0:0:0:
68,68,178812,2,0,P|72:107|78:191,1,102.000001945496,8|0,0:3|0:0,0:0:0:0:
111,200,179429,2,0,P|97:229|86:265,1,51.0000009727478,4|0,0:3|0:0,0:0:0:0:
69,287,179840,1,2,0:0:0:0:
93,376,180251,2,0,P|115:363|135:347,1,51.0000009727478,4|2,0:3|0:0,0:0:0:0:
178,331,180662,6,0,P|220:356|270:348,1,102.000001945496,4|0,0:3|0:0,0:0:0:0:
299,313,181278,2,0,P|337:309|415:303,1,102.000001945496,8|0,0:3|0:0,0:0:0:0:
444,316,181894,1,4,0:3:0:0:
497,241,182305,1,2,0:0:0:0:
464,160,182716,1,2,0:0:0:0:
374,138,183127,22,0,P|342:115|337:39,1,102.000001945496,4|0,0:0|0:0,0:0:0:0:
348,13,183744,2,0,P|312:16|237:33,1,102.000001945496,8|0,0:3|0:0,0:0:0:0:
213,60,184360,1,4,0:3:0:0:
122,27,184771,2,0,P|89:23|23:64,1,102.000001945496,4|0,0:3|0:0,0:0:0:0:
33,100,185388,1,2,0:0:0:0:
65,132,185593,6,0,P|61:171|46:238,1,102.000001945496,4|0,0:3|0:0,0:0:0:0:
21,270,186209,2,0,P|29:309|86:340,1,102.000001945496,8|0,0:3|0:0,0:0:0:0:
124,330,186826,1,4,0:3:0:0:
205,286,187237,2,0,P|231:301|316:329,1,102.000001945496,2|4,0:0|0:3,0:0:0:0:
380,365,188059,22,0,P|416:341|422:277,1,102.000001945496,4|0,0:3|0:0,0:0:0:0:
402,245,188675,1,8,0:3:0:0:
365,216,188881,2,0,P|351:179|346:155,1,51.0000009727478,0|0,0:0|0:0,0:0:0:0:
348,121,189292,2,0,P|390:129|459:145,2,102.000001945496,4|8|4,0:3|0:3|0:3,0:0:0:0:
280,58,190525,6,0,P|238:72|162:89,1,102.000001945496,4|0,0:3|0:0,0:0:0:0:
136,89,191141,1,8,0:3:0:0:
60,141,191552,1,0,0:0:0:0:
18,122,191757,2,0,P|6:89|37:26,2,102.000001945496,4|4|2,0:3|0:3|0:0,0:0:0:0:
90,178,192990,22,0,P|83:211|82:343,1,153.000002918243,4|8,0:0|0:3,0:0:0:0:
97,372,193812,1,0,0:0:0:0:
168,314,194223,2,0,P|193:287|310:315,1,153.000002918243,2|2,0:0|0:0,0:0:0:0:
330,332,195045,2,0,P|366:341|392:350,1,51.0000009727478,0|2,0:0|0:0,0:0:0:0:
419,365,195456,6,0,P|406:324|372:207,1,153.000002918243,4|8,0:3|0:3,0:0:0:0:
350,179,196278,2,0,P|359:148|364:118,1,51.0000009727478
356,83,196689,2,0,P|317:55|256:64,1,102.000001945496,4|2,0:3|0:0,0:0:0:0:
229,143,197511,2,0,P|247:157|282:168,1,51.0000009727478,4|2,0:3|0:0,0:0:0:0:
302,202,197922,22,0,P|340:192|366:185,1,51.0000009727478,4|0,0:3|0:0,0:0:0:0:
396,196,198333,2,0,P|425:215|435:235,1,51.0000009727478,0|8,0:0|0:3,0:0:0:0:
440,273,198744,1,0,0:0:0:0:
413,360,199155,2,0,P|369:357|305:348,1,102.000001945496,4|4,0:3|0:3,0:0:0:0:
269,330,199771,1,2,0:0:0:0:
223,335,199977,1,0,0:0:0:0:
149,288,200388,6,0,P|109:294|71:355,1,102.000001945496,4|0,0:3|0:0,0:0:0:0:
31,360,201004,2,0,P|22:309|16:239,1,102.000001945496,8|0,0:3|0:0,0:0:0:0:
15,213,201620,1,4,0:0:0:0:
65,136,202031,2,0,P|73:109|78:84,1,51.0000009727478,4|8,0:3|0:3,0:0:0:0:
81,40,202442,1,4,0:3:0:0:
119,14,202648,1,2,0:0:0:0:
163,23,202853,22,0,P|196:62|297:51,1,153.000002918243,4|8,0:0|0:3,0:0:0:0:
324,24,203675,2,0,P|364:39|389:55,1,51.0000009727478,0|0,0:0|0:0,0:0:0:0:
405,73,204086,1,8,0:3:0:0:
459,147,204497,1,4,0:3:0:0:
436,186,204703,1,2,0:0:0:0:
431,231,204908,1,2,0:3:0:0:
471,313,205319,6,0,P|419:323|316:346,1,153.000002918243,4|8,0:3|0:3,0:0:0:0:
283,371,206141,2,0,P|251:358|227:351,1,51.0000009727478,0|0,0:0|0:0,0:0:0:0:
189,350,206552,2,0,P|160:346|119:349,1,51.0000009727478,8|4,0:3|0:3,0:0:0:0:
94,361,206963,1,2,0:0:0:0:
18,309,207374,2,0,P|20:273|28:244,1,51.0000009727478,2|0,0:3|0:0,0:0:0:0:
62,233,207785,22,0,P|50:186|40:115,1,102.000001945496,4|0,0:3|0:0,0:0:0:0:
56,89,208401,2,0,P|78:65|155:57,1,102.000001945496,8|0,0:3|0:0,0:0:0:0:
177,84,209018,2,0,P|216:80|299:65,1,102.000001945496,8|4,0:3|0:3,0:0:0:0:
318,47,209634,1,2,0:0:0:0:
362,56,209840,1,2,0:3:0:0:
438,106,210251,6,0,P|429:153|420:227,1,102.000001945496,4|0,0:3|0:0,0:0:0:0:
432,251,210867,2,0,P|398:298|342:301,1,102.000001945496,8|0,0:3|0:0,0:0:0:0:
314,288,211483,1,8,0:3:0:0:
243,229,211894,2,0,P|207:243|181:260,1,51.0000009727478,4|0,0:3|0:0,0:0:0:0:
156,272,212305,2,0,P|120:258|94:241,1,51.0000009727478,2|0,0:3|0:0,0:0:0:0:
71,221,212716,6,0,P|86:181|103:105,1,120,4|0,0:0|0:0,0:0:0:0:
93,58,213333,2,0,P|125:33|215:41,1,120,8|0,0:3|0:0,0:0:0:0:
229,72,213949,2,0,P|258:54|288:42,1,60,8|0,0:3|0:0,0:0:0:0:
324,66,214360,2,0,P|357:73|386:86,1,60,4|2,0:3|0:0,0:0:0:0:
413,118,214771,1,2,0:3:0:0:
484,181,215182,22,0,P|474:221|447:305,1,120,4|0,0:3|0:0,0:0:0:0:
407,317,215798,2,0,P|382:289|287:298,1,120,4|0,0:3|0:0,0:0:0:0:
264,313,216415,2,0,P|224:330|193:334,1,60,8|0,0:3|0:0,0:0:0:0:
159,333,216826,1,4,0:3:0:0:
69,368,217237,2,0,P|52:327|44:307,1,60,2|0,0:3|0:0,0:0:0:0:
9,281,217648,6,0,P|24:238|43:160,1,120,4|0,0:3|0:0,0:0:0:0:
44,117,218264,1,4,0:3:0:0:
108,45,218675,1,0,0:0:0:0:
154,34,218881,2,0,P|194:42|282:63,1,120,8|4,0:3|0:3,0:0:0:0:
311,86,219497,1,2,0:0:0:0:
358,79,219703,2,0,P|386:63|418:43,1,60,2|0,0:3|0:0,0:0:0:0:
454,31,220114,22,0,P|440:64|413:164,1,120,4|0,0:3|0:0,0:0:0:0:
377,172,220730,2,0,P|391:205|418:305,1,120,4|0,0:3|0:0,0:0:0:0:
400,331,221346,2,0,P|375:354|286:338,1,120,2|4,0:3|0:3,0:0:0:0:
237,269,222168,2,0,P|247:242|254:210,1,60,0|2,0:0|0:0,0:0:0:0:
256,163,222579,1,4,0:0:0:0:
256,192,222682,12,0,225045,0:0:0:0:
345,208,226278,22,0,P|291:223|278:227,1,60
219,164,227100,2,0,P|165:149|152:145,1,60
256,192,227614,12,4,232442,0:0:0:0:
