osu file format v14

[General]
AudioFilename: audio.mp3
AudioLeadIn: 0
PreviewTime: 28197
Countdown: 0
SampleSet: Soft
StackLeniency: 0.7
Mode: 0
LetterboxInBreaks: 0
EpilepsyWarning: 1
WidescreenStoryboard: 1

[Editor]
Bookmarks: 103178
DistanceSpacing: 0.8
BeatDivisor: 6
GridSize: 8
TimelineZoom: 2.300002

[Metadata]
Title:Manten
TitleUnicode:満天
Artist:Kalafina
ArtistUnicode:Kalafina
Creator:-Eresh
Version:Regret
Source:Fate/Zero
Tags:フェイト/ゼロ fate zero anime 2nd second season ed ending full size yuki kajiura 梶浦由記 let the stars fall down consolation japanese j-pop jpop pop version typemoon type moon f/z rolniczy mune
BeatmapID:2299810
BeatmapSetID:1100775

[Difficulty]
HPDrainRate:6
CircleSize:4.5
OverallDifficulty:8.4
ApproachRate:9
SliderMultiplier:1.5
SliderTickRate:1

[Events]
//Background and Video events
0,0,"78725175_p0.jpg",0,0
//Break Periods
2,240386,245523
//Storyboard Layer 0 (Background)
//Storyboard Layer 1 (Fail)
//Storyboard Layer 2 (Pass)
//Storyboard Layer 3 (Foreground)
//Storyboard Layer 4 (Overlay)
//Storyboard Sound Samples

[TimingPoints]
2062,312.5,6,2,1,15,1,0
3937,-100,6,2,1,5,0,0
4249,-200,3,2,1,15,0,0
7608,-200,3,2,1,5,0,0
7687,-142.857142857143,3,2,1,30,0,0
8233,-142.857142857143,3,2,1,5,0,0
8312,-142.857142857143,3,2,1,30,0,0
10733,-142.857142857143,3,2,1,5,0,0
10812,-142.857142857143,3,2,1,30,0,0
11046,-142.857142857143,3,2,1,5,0,0
11124,-142.857142857143,3,2,1,30,0,0
12608,-142.857142857143,3,2,1,5,0,0
12687,-142.857142857143,3,2,1,30,0,0
12921,-142.857142857143,3,2,1,5,0,0
12999,-142.857142857143,3,2,1,30,0,0
15187,-125,3,2,1,40,0,0
15733,-125,3,2,1,5,0,0
15812,-125,3,2,1,40,0,0
17062,-125,3,2,1,50,0,0
18546,-125,3,2,1,5,0,0
18624,-125,3,2,1,45,0,0
18937,-111.111111111111,3,2,1,40,0,0
19874,-99.9999999999999,3,2,1,40,0,0
20108,-99.9999999999999,3,2,1,5,0,0
20187,-111.111111111111,3,2,1,40,0,0
20421,-111.111111111111,3,2,1,5,0,0
20499,-125,3,2,1,40,0,0
20812,-142.857142857143,3,2,1,40,0,0
22687,-153.846153846153,3,2,1,40,0,0
26437,-166.666666666667,3,2,1,20,0,0
27079,312.5,6,2,1,18,1,0
27079,-166.666666666667,3,2,1,18,0,0
28329,312.5,6,2,1,28,1,0
28329,-200,3,2,1,28,0,0
29249,312.5,6,2,1,28,1,0
29249,-200,3,2,1,28,0,0
29795,-200,3,2,1,5,0,0
29874,-200,3,2,1,28,0,0
30186,312.5,6,2,1,15,1,0
30186,-200,3,2,1,28,0,0
32295,-200,3,2,1,5,0,0
32374,-200,3,2,1,28,0,0
36045,-200,3,2,1,5,0,0
36124,-200,3,2,1,28,0,0
39483,-200,3,2,1,5,0,0
39561,-200,3,2,1,28,0,0
42374,-200,3,2,1,50,0,0
43311,-90.9090909090909,3,2,1,70,0,1
44249,-62.5,3,2,1,70,0,1
44483,-62.5,3,2,1,5,0,1
44561,-66.6666666666667,3,2,1,70,0,1
44874,-71.4285714285714,3,2,1,70,0,1
45108,-71.4285714285714,3,2,1,5,0,1
45186,-83.3333333333333,3,2,1,70,0,1
46124,-66.6666666666667,3,2,1,70,0,1
46358,-66.6666666666667,3,2,1,5,0,1
46436,-62.5,3,2,1,70,0,1
46749,-71.4285714285714,3,2,1,70,0,1
46983,-71.4285714285714,3,2,1,5,0,1
47061,-76.9230769230769,3,2,1,70,0,1
47999,-62.5,3,2,1,70,0,1
48233,-62.5,3,2,1,5,0,1
48311,-66.6666666666667,3,2,1,70,0,1
48624,-71.4285714285714,3,2,1,70,0,1
48858,-71.4285714285714,3,2,1,5,0,1
48936,-83.3333333333333,3,2,1,70,0,1
50811,-90.9090909090909,3,2,1,70,0,1
51749,-62.5,3,2,1,70,0,1
51983,-62.5,3,2,1,5,0,1
52061,-66.6666666666667,3,2,1,70,0,1
52374,-71.4285714285714,3,2,1,70,0,1
52608,-71.4285714285714,3,2,1,5,0,1
52686,-83.3333333333333,3,2,1,70,0,1
53624,-66.6666666666667,3,2,1,70,0,1
53858,-66.6666666666667,3,2,1,5,0,1
53936,-62.5,3,2,1,70,0,1
54249,-71.4285714285714,3,2,1,70,0,1
54561,-76.9230769230769,3,2,1,70,0,1
55499,-83.3333333333333,3,2,1,70,0,1
56436,-90.9090909090909,3,2,1,70,0,1
57374,-100,3,2,1,70,0,1
58311,-142.857142857143,3,2,1,36,0,0
59483,-142.857142857143,3,2,1,5,0,0
59561,-142.857142857143,3,2,1,36,0,0
63233,-142.857142857143,3,2,1,5,0,0
63311,-142.857142857143,3,2,1,36,0,0
63545,-142.857142857143,3,2,1,5,0,0
63624,-142.857142857143,3,2,1,36,0,0
70733,-142.857142857143,3,2,1,5,0,0
70811,-142.857142857143,3,2,1,36,0,0
72608,-142.857142857143,3,2,1,5,0,0
72686,-142.857142857143,3,2,1,36,0,0
72920,-142.857142857143,3,2,1,5,0,0
72999,-111.111111111111,3,2,1,45,0,0
73233,-111.111111111111,3,2,1,5,0,0
73311,-125,3,2,1,45,0,0
74483,-125,3,2,1,5,0,0
74561,-133.333333333333,3,2,1,45,0,0
74795,-133.333333333333,3,2,1,5,0,0
74874,-142.857142857143,3,2,1,45,0,0
75186,-133.333333333333,3,2,1,45,0,0
75499,-125,3,2,1,45,0,0
76358,-125,3,2,1,5,0,0
76436,-133.333333333333,3,2,1,45,0,0
76670,-133.333333333333,3,2,1,5,0,0
76749,-142.857142857143,3,2,1,45,0,0
77374,-125,3,2,1,45,0,0
77999,-133.333333333333,3,2,1,45,0,0
78233,-133.333333333333,3,2,1,5,0,0
78311,-125,3,2,1,45,0,0
78545,-125,3,2,1,5,0,0
78624,-117.647058823529,3,2,1,45,0,0
78936,-111.111111111111,3,2,1,45,0,0
79874,-125,3,2,1,45,0,0
80499,-111.111111111111,3,2,1,45,0,0
80811,-125,3,2,1,45,0,0
81983,-125,3,2,1,5,0,0
82061,-125,3,2,1,45,0,0
82686,-133.333333333333,3,2,1,45,0,0
82920,-133.333333333333,3,2,1,5,0,0
82999,-125,3,2,1,45,0,0
83858,-125,3,2,1,5,0,0
83936,-133.333333333333,3,2,1,45,0,0
84170,-133.333333333333,3,2,1,5,0,0
84249,-142.857142857143,3,2,1,45,0,0
84561,-100,3,2,1,45,0,0
84795,-100,3,2,1,5,0,0
84874,-111.111111111111,3,2,1,45,0,0
85499,-125,3,2,1,45,0,0
86358,-125,3,2,1,5,0,0
86436,-133.333333333333,3,2,1,45,0,0
87374,-142.857142857143,3,2,1,45,0,0
88311,-125,3,2,1,40,0,0
88858,-125,3,2,1,5,0,0
88936,-125,3,2,1,40,0,0
89952,-125,3,2,1,5,0,0
90030,-125,3,2,1,40,0,0
90186,-100,3,2,1,40,0,0
90499,-125,3,2,1,40,0,0
91670,-125,3,2,1,5,0,0
91749,-125,3,2,1,40,0,0
91983,-125,3,2,1,5,0,0
92061,-111.111111111111,3,2,1,35,0,0
93702,-111.111111111111,3,2,1,5,0,0
93780,-111.111111111111,3,2,1,35,0,0
93936,-100,3,2,1,35,0,0
94249,-111.111111111111,3,2,1,35,0,0
94874,-125,3,2,1,35,0,0
95108,-125,3,2,1,5,0,0
95186,-125,3,2,1,35,0,0
95420,-125,3,2,1,5,0,0
95499,-125,3,2,1,35,0,0
95811,-100,3,2,1,45,0,0
96358,-100,3,2,1,5,0,0
96436,-100,3,2,1,45,0,0
96670,-100,3,2,1,5,0,0
96749,-100,3,2,1,45,0,0
96983,-100,3,2,1,5,0,0
97061,-90.9090909090909,3,2,1,45,0,0
97295,-90.9090909090909,3,2,1,5,0,0
97374,-100,3,2,1,45,0,0
97686,-111.111111111111,3,2,1,55,0,0
98545,-111.111111111111,3,2,1,5,0,0
98624,-111.111111111111,3,2,1,55,0,0
98858,-111.111111111111,3,2,1,5,0,0
98936,-125,3,2,1,55,0,0
99170,-111.111111111111,3,2,1,5,0,0
99249,-111.111111111111,3,2,1,55,0,0
99561,-100,3,2,1,60,0,0
100499,-90.9090909090909,3,2,1,65,0,0
101436,-83.3333333333333,3,2,1,70,0,0
101983,-83.3333333333333,3,2,1,5,0,0
102061,-83.3333333333333,3,2,1,70,0,0
102374,-100,3,2,1,67,0,0
103311,-90.909090909091,3,2,1,55,0,0
105420,-90.909090909091,3,2,1,5,0,0
105499,-100,3,2,1,55,0,0
106124,-111.111111111111,3,2,1,55,0,0
106358,-111.111111111111,3,2,1,5,0,0
106436,-111.111111111111,3,2,1,55,0,0
106670,-111.111111111111,3,2,1,5,0,0
106749,-111.111111111111,3,2,1,55,0,0
107061,-100,3,2,1,50,0,0
109170,-111.111111111111,3,2,1,5,0,0
109249,-111.111111111111,3,2,1,50,0,0
109874,-125,3,2,1,50,0,0
110108,-125,3,2,1,5,0,0
110186,-142.857142857143,3,2,1,50,0,0
110420,-125,3,2,1,5,0,0
110499,-125,3,2,1,50,0,0
110811,-111.111111111111,3,2,1,45,0,0
111358,-125,3,2,1,5,0,0
111436,-125,3,2,1,45,0,0
111749,-111.111111111111,3,2,1,45,0,0
111983,-125,3,2,1,5,0,0
112061,-142.857142857143,3,2,1,45,0,0
112295,-125,3,2,1,5,0,0
112374,-125,3,2,1,45,0,0
112686,-111.111111111111,3,2,1,45,0,0
113311,-125,3,2,1,45,0,0
113624,-111.111111111111,3,2,1,45,0,0
113858,-111.111111111111,3,2,1,5,0,0
113936,-142.857142857143,3,2,1,45,0,0
114170,-142.857142857143,3,2,1,5,0,0
114249,-125,3,2,1,45,0,0
114561,-125,3,2,1,40,0,0
115499,-142.857142857143,3,2,1,40,0,0
115733,-142.857142857143,3,2,1,5,0,0
115811,-142.857142857143,3,2,1,40,0,0
116045,-142.857142857143,3,2,1,5,0,0
116124,-142.857142857143,3,2,1,40,0,0
116436,-90.9090909090909,3,2,1,55,0,0
117374,-100,3,2,1,55,0,0
118311,-100,3,2,1,65,0,0
118936,-83.3333333333333,3,2,1,65,0,0
119874,-66.6666666666667,3,2,1,65,0,0
120186,-76.9230769230769,3,2,1,65,0,0
121124,-83.3333333333333,3,2,1,65,0,0
122061,-71.4285714285714,3,2,1,65,0,0
122686,-90.9090909090909,3,2,1,65,0,0
122999,-83.3333333333333,3,2,1,65,0,0
123624,-90.9090909090909,3,2,1,65,0,0
123936,-95.2380952380952,3,2,1,65,0,0
124874,-71.4285714285714,3,2,1,65,0,0
125499,-83.3333333333333,3,2,1,65,0,0
125811,-100,3,2,1,65,0,0
126436,-83.3333333333333,3,2,1,65,0,0
127374,-66.6666666666667,3,2,1,65,0,0
127686,-76.9230769230769,3,2,1,65,0,0
128624,-83.3333333333333,3,2,1,65,0,0
129561,-71.4285714285714,3,2,1,65,0,0
130186,-90.9090909090909,3,2,1,65,0,0
130499,-83.3333333333333,3,2,1,65,0,0
131124,-90.9090909090909,3,2,1,65,0,0
131436,-95.2380952380952,3,2,1,65,0,0
132374,-100,3,2,1,65,0,0
133311,-90.9090909090909,3,2,1,70,0,1
134249,-62.5,3,2,1,70,0,1
134483,-62.5,3,2,1,5,0,1
134561,-66.6666666666667,3,2,1,70,0,1
134874,-71.4285714285714,3,2,1,70,0,1
135108,-71.4285714285714,3,2,1,5,0,1
135186,-83.3333333333333,3,2,1,70,0,1
136124,-66.6666666666667,3,2,1,70,0,1
136358,-66.6666666666667,3,2,1,5,0,1
136436,-62.5,3,2,1,70,0,1
136749,-71.4285714285714,3,2,1,70,0,1
136983,-71.4285714285714,3,2,1,5,0,1
137061,-83.3333333333333,3,2,1,70,0,1
137999,-66.6666666666667,3,2,1,70,0,1
138233,-66.6666666666667,3,2,1,5,0,1
138311,-71.4285714285714,3,2,1,70,0,1
138624,-76.9230769230769,3,2,1,70,0,1
138858,-76.9230769230769,3,2,1,5,0,1
138936,-90.9090909090909,3,2,1,70,0,1
139874,-100,3,2,1,70,0,1
140811,-90.9090909090909,3,2,1,70,0,1
141749,-62.5,3,2,1,70,0,1
141983,-62.5,3,2,1,5,0,1
142061,-66.6666666666667,3,2,1,70,0,1
142295,-66.6666666666667,3,2,1,5,0,1
142374,-71.4285714285714,3,2,1,70,0,1
142608,-71.4285714285714,3,2,1,5,0,1
142686,-83.3333333333333,3,2,1,70,0,1
143624,-66.6666666666667,3,2,1,70,0,1
143936,-62.5,3,2,1,70,0,1
144249,-71.4285714285714,3,2,1,70,0,1
144561,-83.3333333333333,3,2,1,70,0,1
145499,-90.9090909090909,3,2,1,70,0,1
146436,-100,3,2,1,70,0,1
147999,-90.9090909090909,3,2,1,70,0,1
148311,-125,3,2,1,40,0,0
149561,-142.857142857143,3,2,1,40,0,0
150499,-125,3,2,1,40,0,0
151358,-125,3,2,1,5,0,0
151436,-133.333333333333,3,2,1,40,0,0
151670,-133.333333333333,3,2,1,5,0,0
151749,-142.857142857143,3,2,1,40,0,0
152374,-133.333333333333,3,2,1,40,0,0
152999,-153.846153846154,3,2,1,40,0,0
153233,-153.846153846154,3,2,1,5,0,0
153311,-142.857142857143,3,2,1,40,0,0
153545,-142.857142857143,3,2,1,5,0,0
153624,-133.333333333333,3,2,1,40,0,0
154561,-125,3,2,1,40,0,0
155499,-90.909090909091,3,2,1,40,0,0
155811,-125,3,2,1,40,0,0
157061,-142.857142857143,3,2,1,40,0,0
157999,-125,3,2,1,40,0,0
158858,-125,3,2,1,5,0,0
158936,-133.333333333333,3,2,1,40,0,0
159170,-133.333333333333,3,2,1,5,0,0
159249,-142.857142857143,3,2,1,40,0,0
159561,-100,3,2,1,40,0,0
159795,-100,3,2,1,5,0,0
159874,-105.263157894737,3,2,1,40,0,0
160499,-111.111111111111,3,2,1,40,0,0
161124,-125,3,2,1,40,0,0
161358,-125,3,2,1,5,0,0
161436,-125,3,2,1,40,0,0
162061,-142.857142857143,3,2,1,40,0,0
162374,-142.857142857143,3,2,1,43,0,0
162608,-142.857142857143,3,2,1,5,0,0
162686,-133.333333333333,3,2,1,46,0,0
162920,-133.333333333333,3,2,1,5,0,0
162999,-125,3,2,1,48,0,0
163311,-111.111111111111,3,2,1,50,0,0
163858,-111.111111111111,3,2,1,5,0,0
163936,-111.111111111111,3,2,1,50,0,0
164795,-111.111111111111,3,2,1,5,0,0
164874,-142.857142857143,3,2,1,50,0,0
165186,-111.111111111111,3,2,1,50,0,0
165733,-111.111111111111,3,2,1,5,0,0
165811,-142.857142857143,3,2,1,50,0,0
166436,-125,3,2,1,50,0,0
166670,-125,3,2,1,5,0,0
166749,-105.263157894737,3,2,1,50,0,0
166983,-105.263157894737,3,2,1,5,0,0
167061,-105.263157894737,3,2,1,50,0,0
167920,-105.263157894737,3,2,1,5,0,0
167999,-105.263157894737,3,2,1,50,0,0
168233,-105.263157894737,3,2,1,5,0,0
168311,-105.263157894737,3,2,1,50,0,0
168545,-105.263157894737,3,2,1,5,0,0
168624,-105.263157894737,3,2,1,50,0,0
168936,-111.111111111111,3,2,1,50,0,0
169561,-105.263157894737,3,2,1,50,0,0
169795,-105.263157894737,3,2,1,5,0,0
169874,-105.263157894737,3,2,1,50,0,0
170186,-100,3,2,1,50,0,0
170420,-100,3,2,1,5,0,0
170499,-100,3,2,1,50,0,0
170811,-90.9090909090909,3,2,1,60,0,1
171983,-90.9090909090909,3,2,1,5,0,1
172061,-76.9230769230769,3,2,1,60,0,1
172295,-76.9230769230769,3,2,1,5,0,1
172374,-90.9090909090909,3,2,1,60,0,1
172686,-100,3,2,1,60,0,1
173545,-100,3,2,1,5,0,1
173624,-100,3,2,1,60,0,1
173858,-100,3,2,1,5,0,1
173936,-90.9090909090909,3,2,1,60,0,1
174170,-90.9090909090909,3,2,1,5,0,1
174249,-83.3333333333333,3,2,1,60,0,1
174561,-76.9230769230769,3,2,1,65,0,1
175499,-66.6666666666667,3,2,1,65,0,1
176436,-55.5555555555556,3,2,1,65,0,1
177340,324.324324324324,6,2,1,65,1,1
177340,-58.8235294117647,3,2,1,65,0,1
178311,312.5,6,2,1,65,1,0
178311,-100,3,2,1,65,0,0
180186,-66.6666666666667,3,2,1,65,0,0
180498,-76.9230769230769,3,2,1,65,0,0
181123,-83.3333333333333,3,2,1,65,0,0
181357,-83.3333333333333,3,2,1,5,0,0
181436,-95.2380952380952,3,2,1,65,0,0
181670,-95.2380952380952,3,2,1,5,0,0
181748,-111.111111111111,3,2,1,65,0,0
182061,-105.263157894737,3,2,1,65,0,0
182998,-95.2380952380952,3,2,1,65,0,0
183936,-68.9655172413793,3,2,1,65,0,0
184248,-80,3,2,1,65,0,0
184873,-86.9565217391304,3,2,1,65,0,0
185107,-86.9565217391304,3,2,1,5,0,0
185186,-111.111111111111,3,2,1,65,0,0
185420,-111.111111111111,3,2,1,5,0,0
185498,-100,3,2,1,65,0,0
185811,-86.9565217391304,3,2,1,65,0,0
186982,-86.9565217391304,3,2,1,5,0,0
187061,-105.263157894737,3,2,1,65,0,0
187295,-105.263157894737,3,2,1,5,0,0
187373,-95.2380952380952,3,2,1,65,0,0
187686,-83.3333333333333,3,2,1,65,0,0
188545,-83.3333333333333,3,2,1,5,0,0
188623,-83.3333333333333,3,2,1,65,0,0
188857,-83.3333333333333,3,2,1,5,0,0
188936,-100,3,2,1,65,0,0
189170,-100,3,2,1,5,0,0
189248,-90.9090909090909,3,2,1,65,0,0
189561,-83.3333333333333,3,2,1,65,0,0
190498,-90.9090909090909,3,2,1,65,0,0
191436,-71.4285714285714,3,2,1,65,0,0
192373,-76.9230769230769,3,2,1,65,0,0
193311,-83.3333333333333,3,2,1,75,0,1
193936,-66.6666666666667,3,2,1,75,0,1
194170,-66.6666666666667,3,2,1,5,0,1
194248,-66.6666666666667,3,2,1,75,0,1
194873,-55.5555555555556,3,2,1,75,0,1
195186,-62.5,3,2,1,75,0,1
196045,-62.5,3,2,1,5,0,1
196123,-66.6666666666667,3,2,1,75,0,1
196357,-66.6666666666667,3,2,1,5,0,1
196436,-66.6666666666667,3,2,1,75,0,1
196982,-66.6666666666667,3,2,1,5,0,1
197061,-83.3333333333333,3,2,1,75,0,1
197686,-76.9230769230769,3,2,1,75,0,1
197920,-76.9230769230769,3,2,1,5,0,1
197998,-76.9230769230769,3,2,1,75,0,1
198623,-58.8235294117647,3,2,1,75,0,1
199561,-71.4285714285714,3,2,1,75,0,1
199873,-66.6666666666667,3,2,1,75,0,1
200811,-80,3,2,1,75,0,0
201436,-62.5,3,2,1,75,0,0
201670,-62.5,3,2,1,5,0,0
201748,-66.6666666666667,3,2,1,75,0,0
202373,-71.4285714285714,3,2,1,75,0,0
202686,-80,3,2,1,75,0,0
203311,-64.5161290322581,3,2,1,75,0,0
203545,-64.5161290322581,3,2,1,5,0,0
203623,-76.9230769230769,3,2,1,75,0,0
204248,-80,3,2,1,75,0,0
204561,-83.3333333333333,3,2,1,75,0,0
205186,-80,3,2,1,75,0,0
205420,-80,3,2,1,5,0,0
205498,-76.9230769230769,3,2,1,75,0,0
206123,-71.4285714285714,3,2,1,75,0,0
206436,-76.9230769230769,3,2,1,75,0,0
207061,-83.3333333333333,3,2,1,75,0,0
207373,-80,3,2,1,75,0,0
208311,-71.4285714285714,3,2,1,85,0,1
208936,-62.5,3,2,1,85,0,1
209873,-50,3,2,1,85,0,1
210186,-55.5555555555556,3,2,1,85,0,1
211123,-62.5,3,2,1,85,0,1
211357,-62.5,3,2,1,5,0,1
211436,-62.5,3,2,1,85,0,1
211670,-62.5,3,2,1,5,0,1
211748,-62.5,3,2,1,85,0,1
211982,-62.5,3,2,1,5,0,1
212061,-71.4285714285714,3,2,1,85,0,1
212686,-66.6666666666667,3,2,1,85,0,1
213623,-52.6315789473684,3,2,1,85,0,1
214561,-64.5161290322581,3,2,1,85,0,1
214795,-64.5161290322581,3,2,1,5,0,1
214873,-62.5,3,2,1,85,0,1
215811,-64.5161290322581,3,2,1,85,0,1
216436,-52.6315789473684,3,2,1,85,0,1
216748,-62.5,3,2,1,85,0,1
217373,-66.6666666666667,3,2,1,85,0,1
217607,-66.6666666666667,3,2,1,5,0,1
217686,-71.4285714285714,3,2,1,85,0,1
217920,-71.4285714285714,3,2,1,5,0,1
217998,-57.1428571428571,3,2,1,85,0,1
218311,-50,3,2,1,85,0,1
218545,-50,3,2,1,5,0,1
218623,-40,3,2,1,85,0,1
218936,-44.4444444444445,3,2,1,85,0,1
219248,-50,3,2,1,85,0,1
220186,-40,3,2,1,85,0,1
220420,-40,3,2,1,5,0,1
220498,-44.4444444444445,3,2,1,85,0,1
220811,-47.6190476190476,3,2,1,85,0,1
221123,-55.5555555555556,3,2,1,85,0,1
221436,-50,3,2,1,85,0,1
222373,-55.5555555555556,3,2,1,85,0,1
222607,-55.5555555555556,3,2,1,5,0,1
222686,-55.5555555555556,3,2,1,85,0,1
223311,-111.111111111111,3,2,1,65,0,0
224248,-100,3,2,1,65,0,0
225186,-90.9090909090909,3,2,1,65,0,0
226045,-90.9090909090909,3,2,1,5,0,0
226123,-100,3,2,1,65,0,0
226357,-100,3,2,1,5,0,0
226436,-100,3,2,1,65,0,0
226748,-90.9090909090909,3,2,1,65,0,0
227061,-83.3333333333333,3,2,1,65,0,0
227998,-86.9565217391304,3,2,1,65,0,0
228232,-86.9565217391304,3,2,1,5,0,0
228311,-90.9090909090909,3,2,1,65,0,0
228936,-105.263157894737,3,2,1,65,0,0
229873,-117.647058823529,3,2,1,65,0,0
230811,-111.111111111111,3,2,1,65,0,0
231748,-100,3,2,1,65,0,0
232686,-90.9090909090909,3,2,1,65,0,0
233623,-100,3,2,1,65,0,0
233857,-100,3,2,1,5,0,0
233936,-100,3,2,1,65,0,0
234170,-100,3,2,1,5,0,0
234248,-90.9090909090909,3,2,1,65,0,0
234561,-83.3333333333333,3,2,1,65,0,0
236436,-76.9230769230769,3,2,1,65,0,0
236748,-66.6666666666667,3,2,1,65,0,0
237607,-66.6666666666667,3,2,1,5,0,0
237686,-66.6666666666667,3,2,1,65,0,0
237920,-66.6666666666667,3,2,1,5,0,0
237998,-66.6666666666667,3,2,1,65,0,0
239561,-142.857142857143,3,2,1,65,0,0
240186,-142.857142857143,3,2,1,45,0,0
246123,-100,3,2,1,45,0,0
247686,-90.9090909090909,3,2,1,70,0,1
248623,-62.5,3,2,1,70,0,1
248857,-62.5,3,2,1,5,0,1
248936,-66.6666666666667,3,2,1,70,0,1
249248,-71.4285714285714,3,2,1,70,0,1
249561,-83.3333333333333,3,2,1,70,0,1
250498,-66.6666666666667,3,2,1,70,0,1
250732,-66.6666666666667,3,2,1,5,0,1
250811,-62.5,3,2,1,70,0,1
251123,-71.4285714285714,3,2,1,70,0,1
252373,-90.9090909090909,3,2,1,70,0,1
253311,-100,3,2,1,70,0,1
255186,-100,3,2,1,65,0,0
255811,-83.3333333333333,3,2,1,65,0,0
256748,-66.6666666666667,3,2,1,65,0,0
257061,-76.9230769230769,3,2,1,65,0,0
257998,-83.3333333333333,3,2,1,65,0,0
258936,-71.4285714285714,3,2,1,65,0,0
259561,-90.9090909090909,3,2,1,65,0,0
259873,-83.3333333333333,3,2,1,65,0,0
260498,-90.9090909090909,3,2,1,65,0,0
260811,-95.2380952380952,3,2,1,65,0,0
261748,-83.3333333333333,3,2,1,65,0,0
261982,-83.3333333333333,3,2,1,5,0,0
262061,-71.4285714285714,3,2,1,65,0,0
262295,-71.4285714285714,3,2,1,5,0,0
262373,-83.3333333333333,3,2,1,65,0,0
262686,-100,3,2,1,65,0,0
263311,-83.3333333333333,3,2,1,65,0,0
264248,-66.6666666666667,3,2,1,65,0,0
264561,-76.9230769230769,3,2,1,65,0,0
265498,-83.3333333333333,3,2,1,65,0,0
266436,-71.4285714285714,3,2,1,65,0,0
267061,-90.9090909090909,3,2,1,65,0,0
267373,-83.3333333333333,3,2,1,65,0,0
267607,-83.3333333333333,3,2,1,5,0,0
267686,-83.3333333333333,3,2,1,65,0,0
267920,-83.3333333333333,3,2,1,5,0,0
267998,-90.9090909090909,3,2,1,65,0,0
268311,-95.2380952380952,3,2,1,65,0,0
269248,-100,3,2,1,65,0,0
270186,-71.4285714285714,3,2,1,80,0,1
270811,-62.5,3,2,1,80,0,1
271748,-55.5555555555556,3,2,1,80,0,1
272061,-57.1428571428571,3,2,1,80,0,1
272529,-55.5555555555556,3,2,1,80,0,1
272607,-55.5555555555556,3,2,1,5,0,1
272686,-57.1428571428571,3,2,1,80,0,1
272998,-62.5,3,2,1,80,0,1
273936,-58.8235294117647,3,2,1,80,0,1
274404,-62.5,3,2,1,80,0,1
274482,-62.5,3,2,1,5,0,1
274561,-64.5161290322581,3,2,1,80,0,1
274873,-62.5,3,2,1,80,0,1
275498,-64.5161290322581,3,2,1,80,0,1
275811,-66.6666666666667,3,2,1,80,0,1
276279,-64.5161290322581,3,2,1,80,0,1
276357,-64.5161290322581,3,2,1,5,0,1
276436,-62.5,3,2,1,80,0,1
276748,-58.8235294117647,3,2,1,80,0,1
277373,-62.5,3,2,1,80,0,1
277686,-71.4285714285714,3,2,1,80,0,1
278311,-62.5,3,2,1,80,0,1
279248,-55.5555555555556,3,2,1,80,0,1
279561,-58.8235294117647,3,2,1,80,0,1
280029,-55.5555555555556,3,2,1,80,0,1
280107,-55.5555555555556,3,2,1,5,0,1
280186,-58.8235294117647,3,2,1,80,0,1
280498,-62.5,3,2,1,80,0,1
281436,-58.8235294117647,3,2,1,80,0,1
281904,-62.5,3,2,1,80,0,1
281982,-62.5,3,2,1,5,0,1
282061,-66.6666666666667,3,2,1,80,0,1
282373,-62.5,3,2,1,80,0,1
282998,-76.9230769230769,3,2,1,80,0,1
283311,-100,3,2,1,65,0,0
283389,-100,3,2,1,40,0,0
284248,-125,3,2,1,40,0,0
288857,-125,3,2,1,5,0,0
288936,-125,3,2,1,40,0,0
290811,-166.666666666667,3,2,1,30,0,0
293311,-200,3,2,1,30,0,0
294561,-125,3,2,1,30,0,0
297061,-200,3,2,1,30,0,0
298285,500,6,2,1,35,1,0
298285,-200,3,2,1,30,0,0
298493,312.5,6,2,1,65,1,0
298493,-285.714285714286,3,2,1,30,0,0
302035,-142.857142857143,3,2,1,25,0,0
305785,-142.857142857143,3,2,1,20,0,0
309535,-142.857142857143,3,2,1,5,0,0

[Colours]
Combo1 : 78,181,186
Combo2 : 255,239,206
Combo3 : 255,108,112
Combo4 : 240,214,134

[HitObjects]
256,192,2062,12,0,3937,0:0:0:0:
30,363,4249,5,2,0:0:0:0:
85,323,4562,1,2,0:0:0:0:
194,350,4874,1,2,0:0:0:0:
276,312,5187,1,2,0:0:0:0:
348,323,5499,2,0,P|320:312|268:301,1,75,2|0,0:0|0:0,0:0:0:0:
104,198,6124,5,2,0:0:0:0:
45,234,6437,1,2,0:0:0:0:
86,124,6749,1,2,0:0:0:0:
173,148,7062,1,2,0:0:0:0:
148,82,7374,2,0,P|117:86|91:94,1,56.25,2|0,0:0|0:0,0:0:0:0:
72,114,7687,6,0,P|126:94|253:84,1,183.749994392395,2|0,0:0|0:0,0:0:0:0:
263,72,8312,6,0,P|227:66|192:65,1,52.4999983978272,2|0,0:0|0:0,0:0:0:0:
333,37,8624,2,0,B|356:88|333:142|309:113|292:162|322:208|322:208|368:200,1,209.999993591309,2|0,0:0|0:0,0:0:0:0:
413,156,9562,6,0,P|357:117|309:137,1,104.999996795654,2|0,0:0|0:0,0:0:0:0:
276,182,10030,1,2,0:0:0:0:
435,239,10187,2,0,P|477:231|501:229,1,52.4999983978272,2|0,0:0|0:0,0:0:0:0:
348,203,10499,2,0,P|341:248|340:295,1,78.7499975967408,2|0,0:0|0:0,0:0:0:0:
278,353,10812,2,0,P|275:313|269:274,1,78.7499975967408,2|0,0:0|0:0,0:0:0:0:
260,263,11124,2,0,P|253:308|255:335,1,52.4999983978272,2|0,0:0|0:0,0:0:0:0:
117,384,11437,6,0,P|82:377|47:314,1,104.999996795654,2|0,0:0|0:0,0:0:0:0:
141,249,11905,1,2,0:0:0:0:
121,313,12062,2,0,P|124:263|127:238,1,52.4999983978272,2|0,0:0|0:0,0:0:0:0:
54,159,12374,2,0,P|19:194|36:229,1,78.7499975967408,2|0,0:0|0:0,0:0:0:0:
97,292,12687,2,0,P|131:256|114:221,1,78.7499975967408,2|0,0:0|0:0,0:0:0:0:
112,201,12999,2,0,L|129:135,1,52.4999983978272,2|0,0:0|0:0,0:0:0:0:
75,26,13312,6,0,B|127:1|168:48|142:55|190:88|235:57,1,157.499995193482,2|2,0:0|0:0,0:0:0:0:
281,33,13937,2,0,P|248:36|231:43,1,52.4999983978272,2|0,0:0|0:0,0:0:0:0:
350,170,14249,2,0,B|387:137|387:137|372:21,1,157.499995193482,2|0,0:0|0:0,0:0:0:0:
281,33,14874,2,0,L|289:96,1,52.4999983978272,2|0,0:0|0:0,0:0:0:0:
281,192,15187,6,0,B|323:226|401:185|356:160|422:121|474:159,1,210,2|0,0:0|0:0,0:0:0:0:
477,166,15812,2,0,L|472:232,1,60,2|0,0:0|0:0,0:0:0:0:
502,341,16124,2,0,B|449:372|373:327|425:298|334:250|285:289,1,240,2|0,0:0|0:0,0:0:0:0:
64,314,17062,6,0,B|88:327|128:304|101:288|149:264|182:284,1,120,2|0,0:0|0:0,0:0:0:0:
234,323,17530,1,2,0:0:0:0:
111,384,17687,2,0,P|106:346|116:316,1,60,2|0,0:0|0:0,0:0:0:0:
260,187,17999,2,0,P|191:203|161:87,1,210,2|0,0:0|0:0,0:0:0:0:
172,81,18624,2,0,P|180:128|175:155,1,60,2|0,0:0|0:0,0:0:0:0:
15,208,18937,6,0,B|6:172|53:127|96:137|96:137|80:160,1,134.999995880127,2|0,0:0|0:0,0:0:0:0:
141,208,19405,1,2,0:0:0:0:
36,284,19562,2,0,P|24:250|21:216,1,67.4999979400635,2|0,0:0|0:0,0:0:0:0:
92,17,19874,6,0,P|81:71|38:119,1,112.5,2|0,0:0|0:0,0:0:0:0:
36,125,20187,2,0,P|88:107|151:120,1,101.249996910095,2|0,0:0|0:0,0:0:0:0:
148,117,20499,2,0,P|121:93|108:54,1,60,2|0,0:0|0:0,0:0:0:0:
253,50,20812,6,0,B|283:192|157:240|164:156|51:258|110:380|110:380|95:318|136:266,1,524.999983978272,2|0,0:0|0:0,0:0:0:0:
421,309,22687,6,0,B|340:323|310:277|310:277|276:225|197:234|197:234|292:223|333:176|299:129|251:112|223:152|223:152|254:112|240:44|240:44|341:47|388:119|387:173|368:213|368:213|401:144|437:104|503:117|528:172|504:247|438:228,1,1121.24994867325,2|0,0:0|0:0,0:0:0:0:
408,139,26437,2,0,P|443:120|509:185,1,134.999995880127,4|0,0:3|0:0,0:0:0:0:
377,280,27079,6,0,L|382:217,1,44.999998626709,8|0,0:3|0:0,0:0:0:0:
301,354,27391,1,0,0:0:0:0:
247,305,27547,2,0,L|242:242,1,44.999998626709,8|0,0:3|0:0,0:0:0:0:
274,117,27860,1,8,0:3:0:0:
315,176,28016,2,0,L|305:238,1,44.999998626709
200,139,28329,6,0,P|225:56|295:44,1,150,2|2,0:0|0:0,0:0:0:0:
403,181,29249,2,0,B|362:171|362:171|328:135|328:135|290:126,1,131.25,2|0,0:0|0:0,0:0:0:0:
274,117,29874,2,0,L|319:113,1,37.5,2|0,0:0|0:0,0:0:0:0:
431,36,30186,6,0,B|436:33|446:13|446:13|439:49|426:109,1,112.5,2|2,0:0|0:0,0:0:0:0:
474,201,30811,2,0,L|469:159,1,37.5,2|0,0:0|0:0,0:0:0:0:
383,256,31124,5,2,0:0:0:0:
456,283,31436,1,2,0:0:0:0:
473,272,31748,2,0,P|493:270|514:266,1,37.5,2|0,0:0|0:0,0:0:0:0:
507,373,32061,2,0,P|464:367|449:366,1,56.25,2|0,0:0|0:0,0:0:0:0:
433,363,32374,1,2,0:0:0:0:
427,367,32530,1,2,0:0:0:0:
385,358,32686,1,2,0:0:0:0:
191,384,32999,6,0,P|153:375|111:368,1,75,2|0,0:0|0:0,0:0:0:0:
47,345,33624,1,2,0:0:0:0:
127,225,33936,2,0,P|122:270|118:316,1,75,2|0,0:0|0:0,0:0:0:0:
217,266,34405,1,2,0:0:0:0:
236,252,34561,2,0,L|222:207,1,37.5,2|0,0:0|0:0,0:0:0:0:
133,130,34874,2,0,P|76:141|63:160,2,75,2|2|2,0:0|0:0|0:0,0:0:0:0:
229,68,35811,6,0,P|218:104|212:130,1,56.25,2|0,0:0|0:0,0:0:0:0:
205,139,36124,2,0,L|201:97,1,37.5,2|2,0:0|0:0,0:0:0:0:
146,37,36436,2,0,L|150:-5,1,37.5,2|2,0:0|0:0,0:0:0:0:
70,82,36749,6,0,P|33:66|-2:59,1,75,2|0,0:0|0:0,0:0:0:0:
137,42,37374,1,2,0:0:0:0:
53,154,37686,2,0,P|58:123|72:75,1,75,2|0,0:0|0:0,0:0:0:0:
137,42,38155,1,2,0:0:0:0:
152,61,38311,2,0,P|156:92|159:114,1,37.5,2|0,0:0|0:0,0:0:0:0:
251,9,38624,2,0,P|318:-1|339:1,1,75,2|0,0:0|0:0,0:0:0:0:
401,131,39249,2,0,P|386:108|387:66,1,56.25,2|0,0:0|0:0,0:0:0:0:
381,63,39561,6,0,P|372:111|353:147,1,75,2|0,0:0|0:0,0:0:0:0:
265,180,40030,1,2,0:0:0:0:
259,167,40186,2,0,P|291:177|306:185,1,37.5,2|0,0:0|0:0,0:0:0:0:
399,224,40499,2,0,P|351:229|330:249,1,75,2|0,0:0|0:0,0:0:0:0:
451,295,41124,1,2,0:0:0:0:
441,166,41436,2,0,P|405:199|398:225,1,75,2|0,0:0|0:0,0:0:0:0:
469,301,41905,1,2,0:0:0:0:
477,311,42061,2,0,P|489:281|489:263,1,37.5,2|0,0:0|0:0,0:0:0:0:
436,157,42374,5,8,0:0:0:0:
478,384,42529,1,0,3:0:0:0:
501,88,42842,5,0,3:0:0:0:
459,315,42999,1,0,1:0:0:0:
258,46,43311,5,6,1:2:0:0:
326,213,43467,1,2,1:2:0:0:
355,32,43624,1,10,0:0:0:0:
164,151,43780,2,0,P|241:122|323:118,1,165.000005035401,6|10,1:2|0:0,0:0:0:0:
122,214,44249,6,0,P|86:163|154:72,1,180,6|0,1:2|0:0,0:0:0:0:
208,33,44561,6,0,P|182:57|96:51,1,112.500004291535,10|0,0:0|3:0,0:0:0:0:
1,11,44874,6,0,P|12:95|23:213,1,157.499995193482,2|0,1:2|0:0,0:0:0:0:
24,180,45186,5,6,1:2:0:0:
131,283,45342,1,2,1:2:0:0:
0,334,45499,1,10,0:0:0:0:
59,103,45655,2,0,P|59:192|63:282,1,179.999994506836,6|10,1:2|0:0,0:0:0:0:
10,384,46124,6,0,P|16:323|35:216,1,168.750006437302,6|0,1:2|0:0,0:0:0:0:
87,164,46436,6,0,P|89:211|105:293,1,120,2|0,3:2|3:0,0:0:0:0:
129,87,46749,6,0,P|71:80|11:183,1,157.499995193482,2|0,1:2|0:0,0:0:0:0:
34,217,47061,5,6,1:2:0:0:
167,319,47217,1,2,1:0:0:0:
180,134,47374,1,10,0:2:0:0:
123,240,47530,2,0,P|215:211|321:202,1,194.999991073609,6|8,1:2|0:0,0:0:0:0:
382,320,47999,6,0,P|316:300|326:189,1,180,6|0,1:2|0:0,0:0:0:0:
344,187,48311,6,0,P|350:245|297:319,1,112.500004291535,2|0,1:2|1:0,0:0:0:0:
307,123,48624,6,0,B|361:91|404:123|379:140|424:175|476:139,1,157.499995193482,2|0,1:2|0:0,0:0:0:0:
468,132,48936,5,6,1:2:0:0:
385,35,49092,1,2,1:2:0:0:
393,247,49249,1,10,0:0:0:0:
495,131,49405,2,0,P|471:253|469:344,1,179.999994506836,6|10,1:2|0:0,0:0:0:0:
506,384,49874,2,0,P|496:332|479:278,1,89.9999972534181,6|2,1:2|0:0,0:0:0:0:
308,158,50186,5,10,0:0:0:0:
277,282,50342,1,10,0:0:0:0:
409,378,50499,5,2,3:0:0:0:
397,273,50655,1,0,3:0:0:0:
222,342,50811,5,6,1:2:0:0:
111,250,50967,1,2,1:2:0:0:
82,384,51124,1,10,0:0:0:0:
208,191,51280,2,0,P|194:277|188:358,1,165.000005035401,6|10,1:2|0:0,0:0:0:0:
295,154,51749,6,0,P|272:100|151:87,1,180,6|0,1:2|0:0,0:0:0:0:
165,109,52061,6,0,P|228:112|284:71,1,112.500004291535,10|0,0:0|3:0,0:0:0:0:
427,9,52374,6,0,B|379:61|376:136|376:136|368:113|348:82,1,157.499995193482,2|0,1:2|0:0,0:0:0:0:
369,119,52686,5,6,1:2:0:0:
238,56,52842,1,2,1:2:0:0:
121,188,52999,1,10,0:0:0:0:
19,122,53155,2,0,P|43:60|148:35,1,179.999994506836,6|10,1:2|0:0,0:0:0:0:
214,218,53624,6,0,P|157:206|28:209,1,168.750006437302,6|0,1:2|0:0,0:0:0:0:
15,243,53936,6,0,P|86:228|135:222,1,120,10|0,0:0|1:0,0:0:0:0:
296,351,54249,6,0,P|343:313|337:227,1,104.999996795654,2|0,3:2|1:0,0:0:0:0:
278,135,54561,5,6,1:2:0:0:
206,237,54717,1,2,1:2:0:0:
263,40,54874,1,10,0:0:0:0:
402,184,55030,2,0,P|309:163|174:153,1,194.999991073609,6|10,1:2|0:0,0:0:0:0:
432,92,55499,5,6,1:2:0:0:
493,178,55655,1,2,1:2:0:0:
444,11,55812,1,10,0:0:0:0:
326,133,55968,2,0,P|405:115|520:106,1,179.999994506836,2|10,1:2|0:0,0:0:0:0:
396,303,56436,5,6,1:2:0:0:
336,237,56592,1,2,1:2:0:0:
385,378,56749,1,10,0:0:0:0:
468,257,56904,2,0,P|406:274|309:340,1,165.000005035401,2|10,1:2|0:0,0:0:0:0:
237,384,57374,2,0,P|180:360|160:333,1,75,6|0,1:2|0:0,0:0:0:0:
92,225,57686,5,10,0:0:0:0:
57,357,57842,1,8,0:0:0:0:
96,202,57999,5,2,3:2:0:0:
149,283,58155,1,0,3:0:0:0:
142,79,58311,6,0,B|95:53|38:109|38:109|50:69,1,157.499995193482,6|0,1:2|0:0,0:0:0:0:
191,134,58936,2,0,P|191:163|181:191,1,52.4999983978272,0|0,1:0|0:0,0:0:0:0:
236,54,59249,2,0,P|282:48|326:67,1,78.7499975967408,8|0,0:3|0:0,0:0:0:0:
339,78,59561,2,0,L|348:23,1,52.4999983978272,2|0,0:0|0:0,0:0:0:0:
430,5,59874,2,0,L|439:60,1,52.4999983978272,2|0,0:0|0:0,0:0:0:0:
451,161,60186,6,0,P|426:149|378:148,1,52.4999983978272,10|0,1:0|0:0,0:0:0:0:
512,111,60499,2,0,P|429:125|396:145,1,104.999996795654,2|0,0:0|1:0,0:0:0:0:
452,333,60967,1,2,0:0:0:0:
512,261,61124,2,0,P|513:232|505:200,1,52.4999983978272,10|0,0:3|0:0,0:0:0:0:
458,360,61436,2,0,P|482:375|514:384,1,52.4999983978272,2|0,0:0|0:0,0:0:0:0:
399,263,61749,2,0,P|373:276|349:299,1,52.4999983978272,2|0,0:0|0:0,0:0:0:0:
239,384,62061,6,0,P|246:354|246:328,1,52.4999983978272,10|0,1:0|0:0,0:0:0:0:
243,201,62374,2,0,P|236:231|236:257,2,52.4999983978272,2|0|0,0:0|0:0|0:0,0:0:0:0:
278,100,62842,1,2,0:0:0:0:
352,133,62999,2,0,P|321:128|255:129,1,78.7499975967408,10|0,0:3|0:0,0:0:0:0:
207,82,63311,2,0,P|167:82|128:87,1,78.7499975967408,2|0,0:0|0:0,0:0:0:0:
51,126,63624,2,0,P|38:165|36:189,1,52.4999983978272,2|0,0:0|0:0,0:0:0:0:
31,45,63936,6,0,P|27:100|31:172,1,104.999996795654,10|0,1:0|0:0,0:0:0:0:
73,296,64405,2,0,P|61:266|64:243,2,52.4999983978272,0|2|0,0:0|0:0|0:0,0:0:0:0:
11,368,64874,1,10,0:3:0:0:
70,334,65030,1,2,0:0:0:0:
136,359,65186,1,2,0:0:0:0:
136,359,65499,6,0,L|196:353,1,52.4999983978272,2|0,0:0|0:0,0:0:0:0:
352,358,65811,2,0,P|277:339|264:308,1,104.999996795654,10|0,1:0|0:0,0:0:0:0:
359,206,66280,1,2,0:0:0:0:
359,206,66436,1,2,0:0:0:0:
359,278,66592,1,2,0:0:0:0:
425,312,66749,2,0,P|476:311|510:273,1,104.999996795654,10|2,0:3|0:0,0:0:0:0:
497,140,67217,1,0,0:0:0:0:
440,191,67374,2,0,P|446:231|447:258,1,52.4999983978272,2|0,0:0|0:0,0:0:0:0:
392,101,67686,6,0,P|365:87|329:87,1,52.4999983978272,10|0,1:0|0:0,0:0:0:0:
462,54,67999,2,0,P|401:60|345:83,1,104.999996795654,2|0,0:0|0:0,0:0:0:0:
222,127,68467,1,2,0:0:0:0:
266,61,68624,2,0,P|273:33|271:0,1,52.4999983978272,10|0,0:3|0:0,0:0:0:0:
140,73,68936,2,0,P|140:99|146:124,1,52.4999983978272,2|0,0:0|0:0,0:0:0:0:
255,211,69249,2,0,P|287:203|306:186,1,52.4999983978272,2|0,0:0|0:0,0:0:0:0:
140,207,69561,6,0,P|100:226|91:288,1,104.999996795654,10|2,1:0|0:0,0:0:0:0:
224,215,70030,1,2,0:0:0:0:
201,295,70186,2,0,P|199:321|209:346,1,52.4999983978272,2|2,0:0|0:0,0:0:0:0:
366,283,70499,2,0,L|285:299,1,78.7499975967408,10|0,0:3|0:0,0:0:0:0:
278,306,70811,2,0,L|344:315,1,52.4999983978272,2|0,0:0|0:0,0:0:0:0:
436,382,71124,2,0,P|444:342|436:318,1,52.4999983978272,2|0,0:0|0:0,0:0:0:0:
413,166,71436,6,0,P|393:199|387:285,1,104.999996795654,10|0,1:0|0:0,0:0:0:0:
422,83,71905,1,0,0:0:0:0:
351,136,72061,2,0,P|370:168|376:187,1,52.4999983978272,2|0,0:0|0:0,0:0:0:0:
226,21,72374,2,0,P|200:44|190:102,1,78.7499975967408,10|0,0:3|0:0,0:0:0:0:
224,106,72686,2,0,P|250:83|260:25,1,78.7499975967408
193,42,72999,6,0,L|212:156,1,101.249996910095,2|0,0:0|0:0,0:0:0:0:
188,246,73311,6,0,L|202:110,1,120,6|0,0:0|0:0,0:0:0:0:
85,92,73780,1,2,0:0:0:0:
111,152,73936,2,0,L|116:231,1,60,2|0,0:0|0:0,0:0:0:0:
110,26,74248,2,0,P|50:29|23:58,1,90,10|0,0:3|0:0,0:0:0:0:
18,77,74561,2,0,P|28:126|35:164,1,84.3750032186509,2|0,0:0|0:0,0:0:0:0:
46,168,74874,2,0,P|37:212|33:240,1,52.4999983978272,2|0,0:0|0:0,0:0:0:0:
72,354,75186,6,0,P|42:343|28:325,1,56.2500021457673,10|0,1:0|0:0,0:0:0:0:
163,308,75499,2,0,P|135:358|68:362,1,120,2|0,0:0|1:0,0:0:0:0:
117,218,75967,1,2,0:0:0:0:
93,289,76124,2,0,P|83:247|91:180,1,90,10|0,0:3|0:0,0:0:0:0:
135,137,76436,2,0,P|103:166|41:193,1,84.3750032186509,2|0,0:0|0:0,0:0:0:0:
0,176,76749,2,0,P|26:183|60:209,1,52.4999983978272,2|0,0:0|0:0,0:0:0:0:
213,261,77061,6,0,P|235:247|260:240,1,52.4999983978272,10|0,1:0|0:0,0:0:0:0:
147,312,77374,2,0,P|167:256|170:180,1,120,2|0,0:0|0:0,0:0:0:0:
118,62,77842,1,2,0:0:0:0:
216,89,77999,2,0,P|265:78|320:62,1,84.3750032186509,10|0,0:3|0:0,0:0:0:0:
366,107,78311,2,0,P|325:95|270:87,1,90,2|0,0:0|0:0,0:0:0:0:
241,110,78624,2,0,P|274:96|300:88,1,63.7500012159348,2|0,0:0|0:0,0:0:0:0:
427,169,78936,6,0,P|451:117|422:43,1,134.999995880127,10|0,1:0|0:0,0:0:0:0:
504,194,79405,1,0,0:0:0:0:
358,198,79561,2,0,P|325:191|285:186,1,67.4999979400635,2|0,1:0|0:0,0:0:0:0:
434,288,79874,2,0,P|428:218|427:156,1,120,10|0,0:3|0:0,0:0:0:0:
348,362,80342,1,0,0:0:0:0:
274,278,80499,2,0,P|267:246|268:208,1,67.4999979400635,2|0,0:0|0:0,0:0:0:0:
238,351,80811,6,0,P|244:291|264:224,1,120,10|0,1:0|0:0,0:0:0:0:
164,379,81280,1,0,0:0:0:0:
91,312,81436,2,0,P|48:312|21:323,1,60,0|0,1:0|0:0,0:0:0:0:
168,204,81749,2,0,P|191:233|176:294,1,90,10|0,0:3|0:0,0:0:0:0:
162,299,82061,2,0,P|172:264|191:240,1,60,2|0,0:0|0:0,0:0:0:0:
336,192,82374,1,0,0:0:0:0:
270,263,82530,1,2,0:0:0:0:
191,122,82686,6,0,P|142:115|112:136,1,84.3750032186509,10|0,1:0|0:0,0:0:0:0:
106,151,82999,2,0,L|115:82,2,60,2|0|0,0:0|0:0|1:0,0:0:0:0:
1,51,83467,1,2,0:0:0:0:
25,128,83624,2,0,L|37:217,1,90,10|0,0:3|0:0,0:0:0:0:
26,225,83936,2,0,L|15:310,1,84.3750032186509,2|0,0:0|0:0,0:0:0:0:
0,340,84249,2,0,L|-8:274,1,52.4999983978272,2|0,0:0|0:0,0:0:0:0:
145,209,84561,6,0,L|130:326,1,112.5,10|0,1:0|0:0,0:0:0:0:
85,382,84874,2,0,P|117:341|202:352,1,134.999995880127,2|0,0:0|0:0,0:0:0:0:
337,318,85342,1,2,0:0:0:0:
296,383,85499,2,0,P|263:337|283:266,1,120,10|0,0:3|0:0,0:0:0:0:
355,159,85967,1,0,0:0:0:0:
422,207,86124,2,0,P|353:192|328:192,1,90,2|0,0:0|0:0,0:0:0:0:
274,122,86436,6,0,P|264:84|316:12,2,112.500004291535,10|0|2,1:0|0:0|1:0,0:0:0:0:
201,3,87217,1,2,0:0:0:0:
344,82,87374,2,0,L|415:68,1,52.4999983978272,10|0,0:0|0:0,0:0:0:0:
188,160,87686,1,8,0:0:0:0:
343,229,87842,1,8,0:0:0:0:
251,95,87999,1,0,3:2:0:0:
174,249,88155,1,0,3:2:0:0:
300,159,88311,6,0,B|352:121|413:164|380:171|438:215|499:180,1,210,6|0,1:2|0:0,0:0:0:0:
499,163,88936,2,0,P|466:164|435:183,1,60,2|0,1:0|0:0,0:0:0:0:
306,244,89249,2,0,P|273:243|242:224,1,60,10|0,0:0|0:0,0:0:0:0:
111,158,89561,2,0,B|91:162|79:156|79:156|100:201|160:203|189:167,1,150,2|0,1:0|0:0,0:0:0:0:
190,158,90030,1,2,0:0:0:0:
132,0,90186,6,0,P|113:42|110:84,1,75,10|0,1:0|0:0,0:0:0:0:
24,10,90499,2,0,P|81:31|107:96,1,120,2|0,1:0|0:0,0:0:0:0:
50,222,90967,1,2,0:0:0:0:
12,153,91124,2,0,P|20:98|32:68,1,60,10|0,0:0|0:0,0:0:0:0:
143,266,91436,2,0,P|106:298|61:295,1,90,0|0,1:0|0:0,0:0:0:0:
28,288,91749,2,0,P|66:305|93:354,1,90,0|0,1:0|0:0,0:0:0:0:
81,372,92061,6,0,P|71:303|91:153,1,202.499993820191,2|0,1:2|0:0,0:0:0:0:
103,163,92686,2,0,P|86:210|80:256,1,67.4999979400635,2|0,1:0|0:0,0:0:0:0:
0,81,92999,2,0,P|17:128|23:174,1,67.4999979400635,10|0,0:0|0:0,0:0:0:0:
85,27,93311,2,0,B|132:10|132:10|191:37|191:37|244:27,1,168.749994850159,2|0,1:0|0:0,0:0:0:0:
282,25,93780,1,2,0:0:0:0:
434,114,93936,6,0,P|418:80|406:38,1,75,10|0,1:0|0:0,0:0:0:0:
373,226,94249,2,0,P|391:168|400:91,1,134.999995880127,2|0,0:0|1:0,0:0:0:0:
422,298,94717,1,2,0:0:0:0:
265,269,94874,2,0,P|292:234|356:236,1,90,10|0,0:0|0:0,0:0:0:0:
373,226,95186,2,0,P|343:200|327:146,1,90,0|0,1:0|0:0,0:0:0:0:
288,92,95499,2,0,P|290:53|301:16,1,60,0|0,1:0|0:0,0:0:0:0:
157,221,95811,6,0,P|71:192|65:17,1,262.5,6|0,1:2|0:0,0:0:0:0:
94,18,96436,2,0,P|74:71|13:124,1,112.5,2|0,1:0|0:0,0:0:0:0:
6,126,96749,2,0,P|66:118|111:144,1,112.5,8|0,0:0|0:0,0:0:0:0:
172,200,97061,2,0,P|241:188|316:156,1,123.75000377655,2|0,0:0|0:0,0:0:0:0:
346,109,97374,2,0,P|296:101|242:83,1,75,2|0,1:0|0:0,0:0:0:0:
410,211,97686,6,0,P|458:171|419:39,1,202.499993820191,6|0,1:2|0:0,0:0:0:0:
318,264,98311,2,0,P|405:236|431:236,1,101.249996910095,2|0,1:0|0:0,0:0:0:0:
422,269,98624,2,0,P|361:270|308:260,1,101.249996910095,8|0,0:0|0:0,0:0:0:0:
245,225,98936,2,0,P|196:224|137:232,1,90,2|0,0:0|0:0,0:0:0:0:
67,267,99249,2,0,P|53:302|41:340,1,67.4999979400635,2|0,1:0|0:0,0:0:0:0:
1,163,99561,6,0,P|32:290|37:386,1,225,6|0,1:2|3:0,0:0:0:0:
143,104,100186,2,0,P|112:121|79:160,1,75,2|0,1:0|0:0,0:0:0:0:
290,74,100499,6,0,P|188:76|42:42,1,247.500007553101,14|8,0:0|0:0,0:0:0:0:
412,0,101124,2,0,P|440:41|461:82,1,82.5000025177003,2|0,1:0|0:0,0:0:0:0:
472,257,101436,6,0,P|396:205|146:185,1,314.999990386963,6|0,1:2|0:0,0:0:0:0:
165,197,102061,2,0,P|236:185|284:168,1,89.9999972534181,2|0,1:0|0:0,0:0:0:0:
385,88,102374,5,14,0:0:0:0:
454,168,102530,1,8,0:0:0:0:
414,10,102686,1,0,3:0:0:0:
262,142,102842,1,0,3:0:0:0:
366,294,102999,1,0,1:0:0:0:
360,115,103155,2,0,L|346:172,1,37.5,0|0,1:0|1:0,0:0:0:0:
281,217,103311,6,0,P|215:206|197:100,1,165.000005035401,6|0,1:2|0:0,0:0:0:0:
222,0,103780,1,0,0:0:0:0:
274,60,103936,2,0,P|264:110|261:151,1,82.5000025177003,2|0,1:0|0:0,0:0:0:0:
143,252,104249,2,0,P|120:207|121:165,1,82.5000025177003,10|0,0:0|0:0,0:0:0:0:
59,345,104561,2,0,P|60:286|103:179,1,165.000005035401,2|0,0:0|1:0,0:0:0:0:
164,60,105030,1,2,0:0:0:0:
77,0,105186,6,0,P|66:49|81:127,1,123.75000377655,10|0,1:0|0:0,0:0:0:0:
99,143,105499,2,0,P|101:92|2:103,1,150,2|0,0:0|1:0,0:0:0:0:
25,250,105967,1,2,0:0:0:0:
106,219,106124,2,0,P|152:223|204:244,1,101.249996910095,10|0,0:0|0:0,0:0:0:0:
270,276,106436,2,0,P|358:267|388:252,1,101.249996910095,2|0,0:0|0:0,0:0:0:0:
431,218,106749,2,0,P|447:180|447:133,1,67.4999979400635,2|0,1:0|0:0,0:0:0:0:
493,343,107061,6,0,P|472:298|470:172,1,150,2|0,1:0|0:0,0:0:0:0:
353,370,107530,1,0,1:0:0:0:
283,294,107686,2,0,P|213:287|178:289,1,75,2|0,1:0|0:0,0:0:0:0:
70,295,107999,2,0,P|31:351|26:382,1,75,10|0,0:0|0:0,0:0:0:0:
0,184,108311,2,0,P|15:239|22:342,1,150,2|0,1:0|1:0,0:0:0:0:
83,90,108780,1,2,0:0:0:0:
149,172,108936,6,0,P|199:193|274:203,1,112.5,10|0,1:0|0:0,0:0:0:0:
284,180,109249,2,0,P|214:169|198:238,1,134.999995880127,2|0,0:0|1:0,0:0:0:0:
361,291,109717,1,2,0:0:0:0:
351,206,109874,2,0,P|358:147|374:98,1,90,10|0,0:0|0:0,0:0:0:0:
401,82,110186,2,0,P|355:106|317:108,1,78.7499975967408,2|0,1:0|0:0,0:0:0:0:
259,73,110499,2,0,P|213:59|193:57,1,60,2|0,1:0|0:0,0:0:0:0:
30,182,110811,6,0,P|114:137|70:2,1,236.249992790222,6|0,1:2|0:0,0:0:0:0:
73,14,111436,2,0,P|73:67|82:94,1,60,2|0,1:0|0:0,0:0:0:0:
187,241,111749,2,0,P|152:196|92:180,1,101.249996910095,10|0,0:0|0:0,0:0:0:0:
31,183,112061,2,0,P|106:179|121:167,1,78.7499975967408,2|0,0:0|0:0,0:0:0:0:
157,115,112374,2,0,P|153:73|134:40,1,60,2|0,1:0|0:0,0:0:0:0:
274,247,112686,6,0,P|235:239|177:98,1,202.499993820191,10|0,1:0|0:0,0:0:0:0:
381,39,113311,2,0,P|373:89|367:115,1,60,2|0,1:0|0:0,0:0:0:0:
454,288,113624,2,0,P|451:231|419:197,1,101.249996910095,10|0,0:0|0:0,0:0:0:0:
391,193,113936,2,0,P|390:268|391:288,1,78.7499975967408,2|0,0:0|0:0,0:0:0:0:
366,351,114249,2,0,P|314:330|287:323,1,60,2|0,1:0|0:0,0:0:0:0:
95,301,114561,6,0,P|99:339|168:381,1,120,6|0,1:2|0:0,0:0:0:0:
24,384,115030,1,0,0:0:0:0:
171,307,115186,2,0,P|217:315|241:321,1,60,0|2,1:0|0:0,0:0:0:0:
83,197,115499,2,0,P|67:143|72:101,1,78.7499975967408,14|0,0:0|0:0,0:0:0:0:
95,104,115811,2,0,P|77:173|71:188,1,78.7499975967408,0|0,1:0|0:0,0:0:0:0:
11,220,116124,2,0,P|0:184|-4:149,1,52.4999983978272,0|0,1:0|0:0,0:0:0:0:
176,71,116436,5,6,1:2:0:0:
163,152,116592,1,0,1:0:0:0:
309,227,116749,5,0,3:0:0:0:
286,81,116905,1,0,3:0:0:0:
216,290,117061,21,10,0:0:0:0:
426,263,117217,1,10,0:0:0:0:
383,14,117374,5,6,1:2:0:0:
317,235,117530,1,0,1:0:0:0:
245,15,117686,5,0,3:0:0:0:
395,149,117842,1,0,3:0:0:0:
207,213,117999,1,0,3:0:0:0:
487,384,118311,6,0,P|473:275|476:208,1,150,6|0,1:2|0:0,0:0:0:0:
391,98,118779,1,0,1:0:0:0:
506,0,118936,2,0,P|495:50|487:94,1,89.9999972534181,2|0,0:0|1:0,0:0:0:0:
376,204,119249,2,0,P|270:216|222:66,1,269.999991760254,10|0,0:0|0:0,0:0:0:0:
360,0,119874,2,0,P|351:58|323:116,1,112.500004291535,2|0,1:0|0:0,0:0:0:0:
147,368,120186,6,0,P|140:297|92:152,1,194.999991073609,2|0,1:0|0:0,0:0:0:0:
196,52,120655,1,2,1:0:0:0:
292,115,120811,2,0,P|278:161|274:210,1,97.4999955368044,2|0,0:0|1:0,0:0:0:0:
267,367,121124,2,0,P|263:341|252:77,1,269.999991760254,10|0,0:0|0:0,0:0:0:0:
398,269,121749,2,0,P|355:248|325:208,1,89.9999972534181,2|0,1:0|0:0,0:0:0:0:
512,223,122061,6,0,B|456:180|456:180|280:215,1,209.999993591309,2|0,1:0|0:0,0:0:0:0:
493,355,122530,1,2,1:0:0:0:
439,151,122686,2,0,P|435:94|447:41,1,82.5000025177003,2|0,0:0|1:0,0:0:0:0:
508,253,122999,2,0,B|441:291|353:252|403:232|320:175|244:217,1,269.999991760254,10|0,0:0|0:0,0:0:0:0:
121,126,123624,2,0,P|101:186|99:238,1,82.5000025177003,2|0,1:0|0:0,0:0:0:0:
0,384,123936,6,0,P|73:345|177:335,1,157.499995193482,2|0,1:0|0:0,0:0:0:0:
375,320,124404,1,2,1:0:0:0:
457,383,124561,2,0,P|389:355|359:336,1,78.7499975967408,2|0,0:0|1:0,0:0:0:0:
206,323,124874,2,0,P|274:295|309:271,1,104.999996795654,10|0,0:0|0:0,0:0:0:0:
431,113,125186,1,8,0:0:0:0:
409,232,125342,1,0,1:0:0:0:
345,26,125499,1,2,3:0:0:0:
505,170,125655,1,0,1:0:0:0:
216,85,125811,6,4,P|151:89|113:187,1,150,6|0,1:2|0:0,1:2:0:0:
254,253,126280,1,0,1:0:0:0:
149,384,126436,2,0,P|153:335|160:291,1,89.9999972534181,2|0,0:0|1:0,0:0:0:0:
264,165,126749,2,0,B|336:119|419:179|368:196|450:246|537:182,1,269.999991760254,10|0,0:0|0:0,0:0:0:0:
371,16,127374,2,0,P|381:99|384:162,1,112.500004291535,2|0,1:0|0:0,0:0:0:0:
379,287,127686,6,0,P|397:191|432:100,1,194.999991073609,2|0,1:0|0:0,0:0:0:0:
283,378,128155,1,2,1:0:0:0:
215,224,128311,2,0,P|200:138|196:104,1,97.4999955368044,2|0,0:0|1:0,0:0:0:0:
313,302,128624,2,0,P|263:266|38:255,1,269.999991760254,10|0,0:0|0:0,0:0:0:0:
266,152,129249,2,0,P|229:193|178:215,1,89.9999972534181,2|0,1:0|0:0,0:0:0:0:
318,35,129561,6,0,P|297:114|307:275,1,209.999993591309,2|0,1:0|0:0,0:0:0:0:
442,383,130030,1,2,1:0:0:0:
382,245,130186,2,0,P|337:220|277:205,1,82.5000025177003,2|0,0:0|1:0,0:0:0:0:
509,284,130499,2,0,P|432:267|211:270,1,269.999991760254,10|0,0:0|0:0,0:0:0:0:
454,49,131124,2,0,P|430:129|426:164,1,82.5000025177003,2|0,1:0|0:0,0:0:0:0:
321,366,131436,6,0,P|243:317|231:226,1,157.499995193482,2|0,1:0|0:0,0:0:0:0:
351,128,131904,1,2,1:0:0:0:
384,230,132061,2,0,P|346:270|312:287,1,78.7499975967408,2|0,0:0|1:0,0:0:0:0:
189,384,132374,2,0,P|147:365|108:330,1,75,10|0,0:0|0:0,0:0:0:0:
245,134,132686,1,0,1:0:0:0:
189,299,132842,1,0,1:0:0:0:
177,88,132999,1,0,3:0:0:0:
267,232,133155,1,0,3:0:0:0:
310,38,133311,5,6,1:2:0:0:
128,172,133467,1,2,1:0:0:0:
270,158,133624,1,10,0:0:0:0:
68,55,133780,2,0,P|174:39|261:20,1,165.000005035401,6|10,1:2|0:0,0:0:0:0:
477,37,134249,6,0,P|440:86|394:202,1,180,6|0,1:2|0:0,0:0:0:0:
403,269,134561,6,0,P|368:205|306:188,1,112.500004291535,10|0,0:2|3:0,0:0:0:0:
233,360,134874,6,0,P|295:345|417:348,1,157.499995193482,2|0,1:2|0:0,0:0:0:0:
407,359,135186,5,6,1:2:0:0:
311,270,135342,1,2,1:0:0:0:
477,178,135499,1,10,0:0:0:0:
382,367,135655,2,0,P|390:306|406:152,1,179.999994506836,6|10,1:2|0:0,0:0:0:0:
204,10,136124,6,0,P|214:100|235:183,1,168.750006437302,6|0,1:2|0:0,0:0:0:0:
239,193,136436,6,0,P|253:128|265:72,1,120,2|0,3:2|3:0,0:0:0:0:
178,256,136749,6,0,P|254:283|316:223,1,157.499995193482,2|0,1:2|0:0,0:0:0:0:
306,225,137061,5,6,1:2:0:0:
198,37,137217,1,2,1:0:0:0:
239,193,137374,1,10,0:0:0:0:
360,6,137530,2,0,P|434:-4|498:92,1,179.999994506836,6|10,1:2|0:0,0:0:0:0:
378,258,137999,6,0,P|389:185|409:87,1,168.750006437302,6|0,1:2|0:0,0:0:0:0:
419,83,138311,6,0,P|394:147|341:141,1,104.999996795654,2|0,1:2|1:0,0:0:0:0:
191,11,138624,6,0,P|248:15|273:102,1,146.249993305207,2|0,1:2|0:0,0:0:0:0:
266,111,138936,5,6,1:2:0:0:
211,254,139092,1,2,1:0:0:0:
147,92,139249,1,8,0:0:0:0:
162,343,139405,2,0,P|183:256|192:154,1,165.000005035401,6|10,1:2|0:0,0:0:0:0:
65,310,139874,2,0,P|71:391|78:415,1,75,10|2,1:2|0:0,0:0:0:0:
62,157,140186,5,10,0:0:0:0:
3,269,140342,1,10,0:0:0:0:
35,84,140499,5,2,3:0:0:0:
123,237,140655,1,0,3:0:0:0:
135,26,140811,5,6,1:2:0:0:
42,183,140967,1,2,1:0:0:0:
237,123,141124,1,10,0:0:0:0:
130,112,141280,2,0,P|202:93|301:95,1,165.000005035401,6|10,1:2|0:0,0:0:0:0:
339,305,141749,6,0,P|285:263|260:145,1,180,6|0,1:2|0:0,0:0:0:0:
292,93,142061,6,0,P|282:160|192:241,1,168.750006437302,2|0,1:2|0:0,0:0:0:0:
142,227,142374,6,0,P|205:201|320:238,1,157.499995193482,2|0,1:2|0:0,0:0:0:0:
312,240,142686,5,6,1:2:0:0:
170,134,142842,1,2,1:2:0:0:
243,353,142999,1,10,0:0:0:0:
292,93,143155,2,0,P|264:164|246:283,1,179.999994506836,6|10,1:2|0:0,0:0:0:0:
366,164,143624,6,0,P|340:112|279:93,1,112.500004291535,12|0,0:0|1:0,0:0:0:0:
237,341,143936,6,0,P|295:344|341:301,1,120,0|0,3:2|1:0,0:0:0:0:
170,134,144249,6,0,P|137:182|152:244,1,104.999996795654,0|0,1:2|1:2,0:0:0:0:
251,101,144561,5,6,1:2:0:0:
49,132,144717,1,2,1:0:0:0:
217,307,144874,1,10,0:0:0:0:
172,59,145030,2,0,P|145:162|137:244,1,179.999994506836,6|8,1:2|0:0,0:0:0:0:
395,335,145499,5,6,1:2:0:0:
217,307,145655,1,2,1:0:0:0:
365,154,145812,1,10,0:0:0:0:
325,371,145968,2,0,P|301:280|294:208,1,165.000005035401,2|8,1:2|0:0,0:0:0:0:
436,56,146436,5,6,1:2:0:0:
381,242,146592,1,2,1:0:0:0:
286,55,146749,1,10,0:0:0:0:
458,162,146905,2,0,P|389:137|283:137,1,150,2|10,1:2|0:0,0:0:0:0:
63,213,147374,2,0,P|126:206|156:189,1,75,4|0,1:2|0:0,0:0:0:0:
37,133,147686,5,8,0:0:0:0:
3,264,147842,1,8,0:0:0:0:
161,312,147999,5,2,3:0:0:0:
142,232,148155,1,0,3:0:0:0:
66,383,148311,6,0,P|120:361|250:356,1,180,6|0,1:2|1:0,0:0:0:0:
329,258,148936,2,0,P|379:285|387:298,1,60,0|0,1:0|0:0,0:0:0:0:
512,325,149249,2,0,P|500:354|492:393,1,60,10|0,0:3|0:0,0:0:0:0:
462,236,149561,2,0,P|481:277|488:344,1,104.999996795654,2|0,0:0|1:0,0:0:0:0:
512,165,150030,1,2,0:0:0:0:
400,193,150186,6,0,P|350:182|327:174,1,52.4999983978272,10|0,1:0|0:0,0:0:0:0:
454,89,150499,2,0,P|455:57|458:28,2,60,2|0|0,0:0|1:0|1:0,0:0:0:0:
400,193,150967,1,2,0:0:0:0:
283,81,151124,2,0,P|243:119|246:163,1,90,10|0,0:3|0:0,0:0:0:0:
289,208,151436,2,0,P|244:199|182:193,1,84.3750032186509,2|0,0:0|0:0,0:0:0:0:
141,137,151749,2,0,P|86:151|71:161,1,52.4999983978272,2|0,1:0|0:0,0:0:0:0:
11,176,152061,6,0,P|20:217|22:247,1,52.4999983978272,10|0,1:0|0:0,0:0:0:0:
62,307,152374,6,0,P|55:332|50:367,2,56.2500021457673,2|0|0,0:0|1:0|1:0,0:0:0:0:
176,241,152842,1,2,0:0:0:0:
167,331,152999,2,0,P|157:297|157:247,1,73.1249966526033,10|0,0:3|0:0,0:0:0:0:
183,163,153311,2,0,P|183:204|172:253,1,78.7499975967408,2|0,0:0|0:0,0:0:0:0:
152,316,153624,2,0,P|149:356|150:390,1,56.2500021457673,2|0,0:0|0:0,0:0:0:0:
72,224,153936,6,0,P|127:237|148:299,1,112.500004291535,10|0,1:0|0:0,0:0:0:0:
24,308,154405,1,0,1:0:0:0:
84,203,154561,2,0,P|89:157|86:127,1,60,2|0,0:0|0:0,0:0:0:0:
13,52,154874,2,0,P|66:72|138:76,1,120,10|0,0:3|0:0,0:0:0:0:
235,15,155342,1,0,0:0:0:0:
216,121,155499,2,0,P|204:169|201:209,1,82.5000025177003,2|0,1:0|0:0,0:0:0:0:
228,332,155811,6,0,P|219:275|220:202,1,120,10|0,1:0|0:0,0:0:0:0:
307,130,156280,1,0,1:0:0:0:
348,244,156436,2,0,P|337:285|319:319,1,60,0|0,1:0|0:0,0:0:0:0:
440,159,156749,2,0,P|442:129|440:99,1,60,10|0,0:3|0:0,0:0:0:0:
484,252,157061,2,0,P|477:197|459:132,1,104.999996795654,2|0,0:0|0:0,0:0:0:0:
391,67,157530,1,2,0:0:0:0:
479,10,157686,6,0,P|475:49|472:81,1,52.4999983978272,10|0,1:0|0:0,0:0:0:0:
377,153,157999,2,0,P|315:119|303:68,1,120,2|0,0:0|0:0,0:0:0:0:
380,0,158467,1,2,0:0:0:0:
403,149,158624,2,0,P|389:217|390:244,1,90,10|0,0:3|0:0,0:0:0:0:
470,300,158936,2,0,P|472:247|464:208,1,84.3750032186509,2|0,0:0|0:0,0:0:0:0:
382,168,159249,2,0,P|368:202|362:239,1,52.4999983978272,2|0,0:0|0:0,0:0:0:0:
393,330,159561,6,0,P|466:336|493:286,1,112.5,10|0,1:0|0:0,0:0:0:0:
508,226,159874,2,0,L|353:256,1,142.49999619484,2|0,0:0|0:0,0:0:0:0:
217,357,160342,1,2,0:0:0:0:
122,259,160499,2,0,P|84:259|29:341,1,134.999995880127,10|0,0:3|0:0,0:0:0:0:
140,384,160967,1,0,0:0:0:0:
145,264,161124,2,0,P|134:211|134:157,1,90,2|0,0:0|0:0,0:0:0:0:
171,98,161436,6,0,P|133:142|70:134,1,120,10|0,1:0|0:0,0:0:0:0:
2,22,161905,1,0,0:0:0:0:
109,67,162061,2,0,P|151:64|178:59,1,52.4999983978272,2|0,1:0|0:0,0:0:0:0:
321,9,162374,6,0,P|395:24|417:36,1,78.7499975967408,10|0,0:0|0:0,0:0:0:0:
434,130,162686,2,0,P|419:103|415:48,1,84.3750032186509,0|0,3:0|0:0,0:0:0:0:
438,10,162999,2,0,P|436:47|430:70,1,60,0|0,1:0|0:0,0:0:0:0:
280,247,163311,6,0,P|307:184|463:188,1,236.249992790222,6|0,1:2|0:0,0:0:0:0:
459,201,163936,2,0,P|425:202|395:186,1,67.4999979400635,2|0,1:0|0:0,0:0:0:0:
241,113,164249,2,0,P|193:92|158:90,1,67.4999979400635,10|0,0:0|0:0,0:0:0:0:
52,225,164561,2,0,P|76:182|76:120,1,101.249996910095,2|0,0:0|0:0,0:0:0:0:
56,117,164874,2,0,P|45:158|47:192,1,52.4999983978272,2|0,1:0|0:0,0:0:0:0:
138,351,165186,6,0,P|91:269|54:369,1,236.249992790222,10|0,1:0|0:0,0:0:0:0:
58,370,165811,2,0,P|73:330|79:303,1,52.4999983978272,2|0,1:0|0:0,0:0:0:0:
0,198,166124,2,0,P|19:221|62:231,1,52.4999983978272,10|0,0:0|0:0,0:0:0:0:
161,121,166436,2,0,P|121:122|77:153,1,90,2|0,0:0|0:0,0:0:0:0:
44,214,166749,2,0,P|56:171|53:96,1,106.87499714613,2|0,1:0|0:0,0:0:0:0:
0,52,167061,6,0,P|61:91|197:54,1,213.749994292259,2|0,1:0|1:0,0:0:0:0:
299,182,167686,2,0,P|234:160|220:102,1,106.87499714613,2|0,0:0|0:0,0:0:0:0:
217,21,167999,2,0,P|205:72|180:151,1,106.87499714613,8|0,0:0|0:0,0:0:0:0:
127,176,168311,2,0,P|138:237|141:309,1,106.87499714613,2|0,0:0|0:0,0:0:0:0:
148,346,168624,2,0,P|157:312|170:279,1,71.2499980974198,2|0,1:0|0:0,0:0:0:0:
316,174,168936,6,0,P|385:162|438:276,1,202.499993820191,10|0,1:0|1:0,0:0:0:0:
294,316,169561,2,0,P|330:256|393:246,1,106.87499714613,2|0,0:0|0:0,0:0:0:0:
429,270,169874,2,0,L|416:367,1,71.2499980974198,8|0,0:0|0:0,0:0:0:0:
356,378,170186,2,0,P|305:350|234:330,1,112.5,2|0,0:0|0:0,0:0:0:0:
200,287,170499,2,0,P|149:298|113:317,1,75,2|0,1:0|0:0,0:0:0:0:
1,379,170811,6,0,P|18:329|53:107,1,247.500007553101,6|0,1:2|1:0,0:0:0:0:
4,0,171436,2,0,P|31:51|54:65,1,82.5000025177003,2|0,0:0|0:0,0:0:0:0:
184,21,171749,2,0,P|147:39|134:122,1,123.75000377655,8|0,0:0|0:0,0:0:0:0:
143,147,172061,2,0,P|217:125|312:126,1,146.249993305207,2|0,0:0|0:0,0:0:0:0:
357,85,172374,2,0,P|409:130|423:165,1,82.5000025177003,2|0,1:0|0:0,0:0:0:0:
288,332,172686,6,0,B|252:280|252:280|286:116,1,225,6|0,1:2|1:0,0:0:0:0:
443,284,173311,2,0,P|409:350|369:368,1,112.5,2|0,0:0|0:0,0:0:0:0:
301,343,173624,2,0,P|246:345|178:373,1,112.5,8|0,0:0|0:0,0:0:0:0:
85,384,173936,2,0,P|56:376|35:277,1,123.75000377655,2|0,1:0|0:0,0:0:0:0:
81,239,174249,2,0,P|69:289|65:340,1,89.9999972534181,2|0,1:0|0:0,0:0:0:0:
38,126,174561,6,0,B|129:70|203:179|142:173|204:264|299:216,1,292.499986610413,6|8,1:2|0:0,0:0:0:0:
362,131,175186,2,0,P|356:81|322:32,1,97.4999955368044,2|0,1:0|1:0,0:0:0:0:
385,302,175499,6,0,P|400:169|487:-17,1,337.500012874604,6|0,1:2|3:0,0:0:0:0:
468,298,176124,2,0,P|439:371|399:387,1,112.500004291535,2|0,1:0|1:0,0:0:0:0:
123,284,176436,6,0,B|221:204|339:294|261:343|331:412|438:415|463:318,1,404.999987640381,6|0,1:2|3:0,0:0:0:0:
161,166,177061,2,0,P|86:193|40:256,1,134.999995880127,2|0,1:0|0:0,0:0:0:0:
234,233,177340,5,10,0:0:0:0:
177,52,177502,1,8,0:0:0:0:
176,291,177664,5,0,3:0:0:0:
253,158,177826,1,0,3:0:0:0:
264,335,177988,5,0,1:0:0:0:
239,247,178150,1,0,1:0:0:0:
387,344,178311,6,0,P|461:332|486:260,1,150,6|0,1:2|0:0,0:0:0:0:
379,47,178779,1,0,0:0:0:0:
447,105,178936,2,0,P|434:155|431:201,1,75,2|0,1:0|0:0,0:0:0:0:
282,282,179248,2,0,P|275:244|264:194,1,75,10|0,0:0|0:0,0:0:0:0:
309,38,179561,2,0,P|287:109|272:211,1,150,2|0,0:0|1:0,0:0:0:0:
183,349,180029,1,2,0:0:0:0:
83,179,180186,6,0,P|74:133|87:58,1,112.500004291535,10|0,1:0|0:0,0:0:0:0:
45,302,180498,2,0,P|46:235|74:87,1,194.999991073609,2|0,0:0|1:0,0:0:0:0:
123,350,180967,1,2,0:0:0:0:
0,359,181123,2,0,P|42:320|126:325,1,134.999995880127,10|0,0:0|0:0,0:0:0:0:
237,381,181436,2,0,P|194:337|188:258,1,118.124996395111,2|0,0:0|0:0,0:0:0:0:
236,221,181748,2,0,P|226:268|215:302,1,67.4999979400635,2|0,1:0|0:0,0:0:0:0:
257,83,182061,6,0,P|258:163|270:240,1,142.49999619484,2|0,1:0|0:0,0:0:0:0:
456,372,182529,1,0,0:0:0:0:
297,348,182686,2,0,P|243:373|224:404,1,71.2499980974198,2|0,1:0|0:0,0:0:0:0:
435,254,182998,2,0,P|437:211|421:171,1,78.7499975967408,10|0,0:0|0:0,0:0:0:0:
380,374,183311,2,0,P|428:299|506:315,1,157.499995193482,2|0,0:0|1:0,0:0:0:0:
456,372,183779,1,2,0:0:0:0:
407,234,183936,6,0,P|407:203|428:100,1,108.750003318787,10|0,1:0|0:0,0:0:0:0:
284,77,184248,2,0,P|340:55|391:149,1,187.5,2|0,0:0|1:0,0:0:0:0:
234,240,184717,1,2,0:0:0:0:
149,136,184873,2,0,P|97:112|30:142,1,129.375002467632,10|0,0:0|0:0,0:0:0:0:
19,151,185186,2,0,P|85:139|129:110,1,101.249996910095,2|0,0:0|0:0,0:0:0:0:
172,73,185498,2,0,P|184:27|187:-1,1,75,2|0,1:0|0:0,0:0:0:0:
229,274,185811,6,0,P|214:165|208:7,1,258.750004935265,6|0,1:2|0:0,0:0:0:0:
136,153,186436,2,0,P|138:190|153:268,1,86.2500016450882,2|0,1:0|0:0,0:0:0:0:
290,359,186748,2,0,P|334:351|356:278,1,129.375002467632,10|0,0:0|0:0,0:0:0:0:
295,236,187061,2,0,P|286:187|285:106,1,106.87499714613,2|0,0:0|0:0,0:0:0:0:
220,100,187373,2,0,P|227:54|226:19,1,78.7499975967408,2|0,1:0|0:0,0:0:0:0:
462,2,187686,6,0,P|383:60|212:6,1,269.999991760254,10|0,1:0|0:0,0:0:0:0:
107,177,188311,2,0,P|179:140|168:64,1,134.999995880127,2|0,1:0|0:0,0:0:0:0:
149,16,188623,2,0,P|160:101|169:163,1,134.999995880127,10|0,0:0|0:0,0:0:0:0:
231,194,188936,2,0,P|220:279|211:341,1,112.5,2|0,1:0|0:0,0:0:0:0:
161,376,189248,2,0,P|128:349|78:343,1,82.5000025177003,2|0,1:0|0:0,0:0:0:0:
381,323,189561,6,0,P|270:304|93:343,1,269.999991760254,6|8,1:2|0:0,0:0:0:0:
419,384,190186,2,0,P|410:328|411:266,1,89.9999972534181,0|0,1:0|0:0,0:0:0:0:
490,76,190498,2,0,P|464:193|347:148,1,247.500007553101,6|0,1:2|0:0,0:0:0:0:
428,19,191123,2,0,P|419:80|414:128,1,82.5000025177003,0|0,1:0|0:0,0:0:0:0:
201,271,191436,6,0,P|230:134|383:193,1,314.999990386963,6|0,1:2|0:0,0:0:0:0:
355,374,192061,2,0,P|332:301|334:238,1,104.999996795654,0|0,1:0|0:0,0:0:0:0:
262,49,192373,2,0,P|250:143|237:172,1,97.4999955368044,12|0,0:0|0:0,0:0:0:0:
41,368,192686,5,8,0:0:0:0:
97,192,192842,1,8,0:0:0:0:
206,384,192998,5,2,3:0:0:0:
5,276,193154,1,2,3:0:0:0:
252,205,193311,6,0,B|335:155|406:239|344:241|420:311|499:266,1,269.999991760254,6|8,1:2|0:0,0:0:0:0:
409,99,193936,2,0,P|392:127|344:273,1,168.750006437302,2|0,1:0|0:0,0:0:0:0:
322,335,194248,2,0,L|367:-41,1,337.500012874604,10|0,0:0|0:0,0:0:0:0:
450,251,194873,2,0,P|461:305|470:413,1,134.999995880127,2|0,1:0|0:0,0:0:0:0:
512,67,195186,6,0,P|485:179|471:346,1,240,2|0,1:0|0:0,0:0:0:0:
349,102,195654,1,10,0:0:0:0:
357,188,195811,2,0,P|273:147|293:42,1,180,2|0,1:0|0:0,0:0:0:0:
304,0,196123,2,0,P|280:101|263:195,1,168.750006437302,10|0,0:0|0:0,0:0:0:0:
220,227,196436,2,0,P|233:299|240:380,1,112.500004291535,0|8,1:0|0:0,0:0:0:0:
30,171,196748,2,0,P|93:73|177:102,1,168.750006437302,0|0,1:0|0:0,0:0:0:0:
181,12,197061,6,0,P|157:96|124:316,1,269.999991760254,2|0,1:0|1:0,0:0:0:0:
96,371,197686,2,0,P|150:310|249:329,1,146.249993305207,2|0,1:0|0:0,0:0:0:0:
288,339,197998,2,0,P|186:336|0:280,1,292.499986610413,10|8,0:0|0:0,0:0:0:0:
306,175,198623,2,0,P|370:183|430:250,1,127.50000243187,2|0,1:0|0:0,0:0:0:0:
502,384,198936,6,0,P|459:292|443:137,1,255.000004863739,2|0,1:0|0:0,0:0:0:0:
443,0,199404,1,10,0:0:0:0:
368,66,199561,2,0,P|357:138|341:195,1,104.999996795654,2|0,1:0|0:0,0:0:0:0:
359,312,199873,2,0,B|273:353|226:251|226:251|218:258|218:258|176:157|66:213,1,337.500012874604,10|0,0:0|3:0,0:0:0:0:
315,222,200498,1,0,3:0:0:0:
122,332,200654,1,0,3:0:0:0:
246,106,200811,6,0,P|230:181|205:419,1,281.25,6|2,1:2|1:0,0:0:0:0:
430,122,201436,2,0,P|391:52|299:65,1,180,2|0,1:0|0:0,0:0:0:0:
246,106,201748,2,0,P|346:77|504:84,1,225.000008583069,10|0,0:0|0:0,0:0:0:0:
472,249,202217,1,0,0:0:0:0:
388,193,202373,2,0,P|366:133|366:56,1,104.999996795654,2|0,1:0|0:0,0:0:0:0:
303,307,202686,6,0,P|340:220|352:105,1,187.5,2|0,1:0|0:0,0:0:0:0:
374,372,203154,1,2,1:0:0:0:
229,239,203311,2,0,P|185:236|100:334,1,174.375001330376,2|0,1:0|0:0,0:0:0:0:
79,358,203623,2,0,L|68:226,1,97.4999955368044,10|0,0:0|0:0,0:0:0:0:
178,99,203936,5,0,3:0:0:0:
206,234,204092,1,0,3:0:0:0:
59,122,204248,5,2,1:0:0:0:
82,51,204404,1,0,1:0:0:0:
138,190,204561,6,0,B|79:149|4:151|4:151|38:146|53:134,1,179.999994506836,6|0,1:2|0:0,0:0:0:0:
216,139,205029,1,0,1:0:0:0:
154,312,205186,2,0,P|119:265|152:177,1,140.625,2|0,1:0|0:0,0:0:0:0:
182,119,205498,2,0,L|153:316,1,194.999991073609,10|0,0:0|0:0,0:0:0:0:
328,377,205967,1,0,0:0:0:0:
272,242,206123,2,0,P|261:176|270:127,1,104.999996795654,2|0,1:0|0:0,0:0:0:0:
215,373,206436,6,0,P|257:278|438:273,1,292.499986610413,6|10,1:2|0:0,0:0:0:0:
512,384,207061,2,0,P|504:333|503:264,1,89.9999972534181,2|0,1:0|0:0,0:0:0:0:
511,114,207373,2,0,P|463:147|418:148,1,93.75,14|0,0:0|0:0,0:0:0:0:
211,32,207686,5,8,0:0:0:0:
298,196,207842,1,8,0:0:0:0:
304,0,207998,5,0,3:0:0:0:
217,260,208154,1,0,3:0:0:0:
20,172,208311,6,0,P|54:44|211:78,1,314.999990386963,6|0,1:2|1:0,0:0:0:0:
127,284,208936,2,0,P|132:225|149:156,1,120,2|0,1:0|0:0,0:0:0:0:
330,344,209248,2,0,B|244:420|133:355|197:332|98:221|-34:336,1,360,14|0,0:0|0:0,0:0:0:0:
314,230,209873,2,0,P|408:258|426:357,1,150,2|0,1:0|0:0,0:0:0:0:
506,92,210186,6,0,P|464:156|453:360,1,269.999991760254,2|0,1:0|0:0,0:0:0:0:
261,59,210654,1,10,0:0:0:0:
384,44,210811,2,0,P|487:19|526:-3,1,134.999995880127,2|0,1:0|0:0,0:0:0:0:
236,187,211123,2,0,P|156:157|101:67,1,180,10|0,0:0|0:0,0:0:0:0:
55,2,211436,2,0,P|75:125|84:211,1,180,0|0,1:0|0:0,0:0:0:0:
152,205,211748,2,0,P|132:328|123:414,1,180,0|0,1:0|0:0,0:0:0:0:
43,381,212061,6,0,P|94:305|194:344,1,209.999993591309,6|0,1:2|0:0,0:0:0:0:
344,302,212529,1,0,1:0:0:0:
323,384,212686,2,0,P|263:331|278:263,1,112.500004291535,2|0,1:0|0:0,0:0:0:0:
380,79,212998,2,0,P|364:163|341:327,1,225.000008583069,10|0,0:0|0:0,0:0:0:0:
451,0,213467,1,8,0:0:0:0:
277,72,213623,2,0,P|197:55|135:19,1,142.49999619484,2|0,1:0|0:0,0:0:0:0:
499,83,213936,6,0,P|389:84|202:137,1,284.999992389679,2|0,1:0|0:0,0:0:0:0:
479,265,214404,1,10,0:0:0:0:
340,202,214561,2,0,P|345:116|443:81,1,174.375001330376,2|0,1:0|0:0,0:0:0:0:
469,13,214873,2,0,L|443:172,1,120,10|0,0:0|0:0,0:0:0:0:
293,303,215186,5,8,0:0:0:0:
221,83,215342,1,8,0:0:0:0:
426,208,215498,5,0,3:0:0:0:
333,381,215654,1,0,3:0:0:0:
71,184,215811,6,0,P|78:124|242:123,1,232.500001773834,6|0,1:2|0:0,0:0:0:0:
209,357,216279,1,2,1:0:0:0:
127,259,216436,2,0,P|44:276|-15:329,1,142.49999619484,2|0,1:0|0:0,0:0:0:0:
291,267,216748,2,0,P|149:233|36:151,1,240,10|0,0:0|0:0,0:0:0:0:
406,162,217217,1,8,0:0:0:0:
389,371,217373,2,0,P|314:347|294:255,1,168.750006437302,2|0,1:0|0:0,0:0:0:0:
332,202,217686,6,0,P|344:138|357:40,1,157.499995193482,2|0,1:0|0:0,0:0:0:0:
298,0,217998,2,0,P|312:109|324:173,1,131.250001251698,2|8,0:0|0:0,0:0:0:0:
425,288,218311,2,0,P|357:230|217:262,1,225,2|0,1:0|0:0,0:0:0:0:
96,384,218623,6,0,B|170:346|148:263|148:263|144:299|123:329,1,187.5,14|8,0:0|0:0,0:0:0:0:
120,81,218936,6,0,B|113:158|196:180|196:180|167:159|152:125,1,168.750006437302,2|0,3:0|3:0,0:0:0:0:
370,253,219248,6,0,B|316:216|266:266|266:266|293:254|324:257,1,150,2|0,1:0|1:0,0:0:0:0:
455,384,219561,6,0,P|411:289|423:70,1,300,6|0,1:2|0:0,0:0:0:0:
506,0,220029,1,10,0:0:0:0:
509,185,220186,2,0,P|412:143|231:129,1,281.25,2|0,1:0|0:0,0:0:0:0:
134,153,220498,2,0,P|227:108|253:-1,1,168.750006437302,14|0,0:0|0:0,0:0:0:0:
43,97,220811,2,0,P|34:200|116:276,1,157.499995193482,2|0,3:0|3:0,0:0:0:0:
137,46,221123,2,0,P|65:-3|-22:24,1,134.999995880127,2|0,1:0|1:0,0:0:0:0:
172,384,221436,6,0,B|226:324|226:324|190:80,1,300,6|0,1:2|0:0,0:0:0:0:
81,288,221904,1,10,0:0:0:0:
304,238,222061,2,0,P|365:262|441:348,1,150,2|0,1:0|0:0,0:0:0:0:
149,223,222373,2,0,P|264:231|351:165,1,202.499993820191,14|0,0:0|0:0,0:0:0:0:
339,156,222686,1,8,0:0:0:0:
222,115,222842,1,8,0:0:0:0:
148,251,222998,5,0,3:0:0:0:
279,237,223154,1,0,3:0:0:0:
368,351,223311,6,0,P|306:323|240:313,1,134.999995880127,6|0,1:2|0:0,0:0:0:0:
122,358,223779,1,0,1:0:0:0:
180,250,223936,2,0,P|185:196|181:154,1,67.4999979400635,2|0,3:0|0:0,0:0:0:0:
199,383,224248,2,0,P|196:316|226:218,1,150,10|0,1:0|0:0,0:0:0:0:
320,145,224717,1,2,3:0:0:0:
370,232,224873,2,0,P|372:288|371:343,1,75,2|0,1:0|0:0,0:0:0:0:
489,188,225186,6,0,P|440:172|390:267,1,165.000005035401,2|0,1:0|0:0,0:0:0:0:
512,278,225654,1,2,1:0:0:0:
498,200,225811,2,0,P|485:138|486:73,1,123.75000377655,2|0,3:0|0:0,0:0:0:0:
512,0,226123,2,0,P|453:51|400:43,1,112.5,10|0,0:3|0:0,0:0:0:0:
358,12,226436,2,0,P|414:23|436:52,1,75,2|0,0:0|3:0,0:0:0:0:
272,165,226748,2,0,P|265:112|278:72,1,82.5000025177003,2|0,1:0|1:0,0:0:0:0:
191,303,227061,6,0,P|223:252|238:104,1,179.999994506836,2|0,1:0|0:0,0:0:0:0:
331,384,227529,1,0,1:0:0:0:
260,340,227686,2,0,P|240:291|234:243,1,89.9999972534181,2|0,3:0|0:0,0:0:0:0:
412,153,227998,2,0,P|388:211|397:286,1,129.375002467632,10|0,0:1|0:0,0:0:0:0:
403,303,228311,2,0,P|398:251|308:283,1,165.000005035401,2|0,1:0|1:0,0:0:0:0:
440,378,228779,1,2,3:0:0:0:
463,222,228936,6,0,P|474:163|483:133,1,71.2499980974198,2|0,1:0|0:0,0:0:0:0:
502,314,229248,2,0,P|510:362|512:394,2,71.2499980974198,2|0|0,1:0|3:0|1:0,0:0:0:0:
461,139,229717,1,2,3:0:0:0:
463,222,229873,2,0,P|469:184|479:149,1,63.7500012159348,10|0,1:3|0:0,0:0:0:0:
347,23,230186,5,0,3:0:0:0:
374,125,230342,1,0,3:0:0:0:
224,153,230498,1,0,1:0:0:0:
251,82,230654,1,0,1:0:0:0:
275,211,230811,6,0,P|221:181|132:167,1,134.999995880127,2|0,1:0|0:0,0:0:0:0:
17,290,231279,1,0,1:0:0:0:
63,220,231436,2,0,P|73:177|72:140,1,67.4999979400635,2|0,3:0|0:0,0:0:0:0:
116,351,231748,2,0,P|98:274|95:188,1,150,10|0,1:0|0:0,0:0:0:0:
38,375,232217,1,2,3:0:0:0:
173,259,232373,2,0,P|222:265|253:291,1,75,2|0,1:0|1:0,0:0:0:0:
293,384,232686,6,0,P|281:286|278:185,1,165.000005035401,2|0,1:0|0:0,0:0:0:0:
395,74,233154,1,2,1:0:0:0:
455,178,233311,2,0,P|446:237|431:273,1,82.5000025177003,2|0,3:0|0:0,0:0:0:0:
299,98,233623,2,0,P|350:48|398:76,1,112.5,10|0,1:3|0:0,0:0:0:0:
395,74,233936,2,0,P|330:52|262:38,1,112.5,2|0,3:0|0:0,0:0:0:0:
193,36,234248,2,0,P|147:66|137:90,1,82.5000025177003,2|0,1:0|1:0,0:0:0:0:
10,20,234561,6,0,P|90:30|120:142,1,179.999994506836,2|0,1:0|0:0,0:0:0:0:
3,164,235029,1,0,1:0:0:0:
34,99,235186,2,0,P|30:147|27:200,1,89.9999972534181,2|0,3:0|0:0,0:0:0:0:
152,289,235498,2,0,P|151:239|148:195,1,89.9999972534181,10|0,1:0|1:0,0:0:0:0:
97,356,235811,2,0,B|175:403|255:350|192:325|294:276|371:352,1,269.999991760254,2|2,1:0|0:0,0:0:0:0:
497,173,236436,6,0,P|455:228|450:268,1,97.4999955368044,2|0,3:0|0:0,0:0:0:0:
454,384,236748,2,0,P|410:222|322:79,1,337.500012874604,2|2,1:0|3:0,0:0:0:0:
454,0,237373,2,0,P|425:82|413:179,1,168.750006437302,10|0,1:3|0:0,0:0:0:0:
436,256,237686,2,0,P|355:218|280:232,1,168.750006437302,2|0,3:0|0:0,0:0:0:0:
226,173,237998,2,0,P|171:231|157:312,1,112.500004291535,2|0,3:0|0:0,0:0:0:0:
62,384,238311,6,0,L|108:10,1,337.500012874604,2|0,1:0|0:0,0:0:0:0:
251,157,238936,1,2,3:0:0:0:
261,229,239092,1,0,1:0:0:0:
154,287,239248,1,2,3:0:0:0:
164,221,239404,1,0,1:0:0:0:
239,368,239561,2,0,P|179:332|39:323,1,209.999993591309,2|6,1:0|0:0,0:0:0:0:
61,272,246123,6,0,L|71:118,1,150,10|2,0:0|1:0,0:0:0:0:
86,112,246748,5,10,0:0:0:0:
40,277,246904,1,8,0:0:0:0:
241,214,247060,1,0,3:0:0:0:
167,146,247217,1,0,3:0:0:0:
142,323,247373,2,0,P|199:301|226:299,1,75,0|0,1:0|1:0,0:0:0:0:
281,315,247607,1,0,1:0:0:0:
281,315,247686,5,6,1:2:0:0:
440,192,247842,1,2,1:2:0:0:
316,140,247998,1,10,0:0:0:0:
381,380,248154,2,0,P|375:316|370:208,1,165.000005035401,6|10,1:2|0:0,0:0:0:0:
507,55,248623,6,0,P|484:125|368:86,1,180,6|0,1:2|0:0,0:0:0:0:
349,22,248936,2,0,P|361:107|362:150,1,112.500004291535,10|0,0:0|3:0,0:0:0:0:
219,233,249248,2,0,P|222:176|231:121,1,104.999996795654,2|0,3:2|3:0,0:0:0:0:
337,321,249561,5,6,1:2:0:0:
111,276,249717,1,2,1:2:0:0:
300,174,249873,1,10,0:0:0:0:
186,369,250029,2,0,P|183:323|299:266,1,179.999994506836,6|10,1:2|0:0,0:0:0:0:
502,372,250498,6,0,P|429:349|329:353,1,168.750006437302,6|0,1:2|0:0,0:0:0:0:
290,277,250811,2,0,P|349:270|404:246,1,120,10|0,0:0|3:0,0:0:0:0:
284,39,251123,2,0,P|295:123|311:186,1,104.999996795654,2|0,3:2|3:0,0:0:0:0:
504,188,251436,5,6,1:2:0:0:
391,119,251592,1,2,1:2:0:0:
257,258,251748,1,10,0:0:0:0:
410,218,251904,2,0,P|321:183|203:172,1,209.999993591309,6|10,1:2|0:0,0:0:0:0:
40,278,252373,5,6,1:2:0:0:
211,271,252529,1,2,1:2:0:0:
27,158,252686,1,10,0:0:0:0:
83,374,252842,2,0,P|120:325|114:218,1,165.000005035401,2|10,1:2|0:0,0:0:0:0:
136,34,253311,5,6,1:2:0:0:
28,119,253467,1,2,1:2:0:0:
235,200,253623,1,10,0:0:0:0:
160,115,253779,2,0,P|136:185|143:259,1,150,2|10,1:2|0:0,0:0:0:0:
338,242,254248,2,0,P|342:192|340:161,1,75,6|0,1:2|0:0,0:0:0:0:
486,71,254561,5,8,0:0:0:0:
508,157,254717,1,8,0:0:0:0:
362,231,254873,5,0,3:0:0:0:
418,153,255029,1,0,3:0:0:0:
461,301,255186,6,0,P|395:262|251:286,1,225,6|0,1:2|0:0,0:0:0:0:
53,227,255811,2,0,P|56:286|66:332,1,89.9999972534181,2|0,1:2|0:0,0:0:0:0:
166,373,256123,2,0,P|151:271|133:180,1,179.999994506836,10|0,0:0|1:0,0:0:0:0:
37,45,256592,1,8,0:0:0:0:
150,87,256748,2,0,P|225:72|267:52,1,112.500004291535,2|0,1:0|0:0,0:0:0:0:
456,107,257061,6,0,P|384:74|248:82,1,194.999991073609,10|0,1:0|0:0,0:0:0:0:
368,252,257529,1,2,1:0:0:0:
444,221,257686,2,0,P|466:166|473:102,1,97.4999955368044,2|0,1:0|0:0,0:0:0:0:
512,371,257998,2,0,P|492:315|494:93,1,269.999991760254,10|0,0:0|0:0,0:0:0:0:
295,298,258623,2,0,P|355:283|401:266,1,89.9999972534181,2|0,1:0|0:0,0:0:0:0:
267,0,258936,6,0,P|245:102|236:212,1,209.999993591309,2|0,1:0|0:0,0:0:0:0:
275,372,259404,1,2,1:0:0:0:
137,300,259561,2,0,P|88:307|55:328,1,82.5000025177003,2|0,1:0|0:0,0:0:0:0:
31,105,259873,2,0,P|61:192|26:377,1,269.999991760254,10|0,0:0|0:0,0:0:0:0:
241,80,260498,2,0,P|168:67|136:41,1,82.5000025177003,2|0,1:0|0:0,0:0:0:0:
400,83,260811,6,0,P|294:84|218:103,1,157.499995193482,10|0,1:0|0:0,0:0:0:0:
204,217,261279,1,2,1:0:0:0:
289,252,261436,2,0,P|367:237|394:224,1,78.7499975967408,2|0,1:0|0:0,0:0:0:0:
479,139,261748,2,0,L|449:305,1,134.999995880127,10|0,0:0|0:0,0:0:0:0:
496,374,262061,2,0,P|450:308|365:320,1,157.499995193482,2|0,1:0|0:0,0:0:0:0:
293,353,262373,2,0,L|174:333,1,89.9999972534181,2|0,1:0|0:0,0:0:0:0:
112,165,262686,6,0,B|124:133|189:148|189:148|202:238|117:271,1,225,2|0,1:0|0:0,0:0:0:0:
0,375,263311,2,0,P|1:330|10:286,1,89.9999972534181,2|0,1:0|0:0,0:0:0:0:
164,87,263623,2,0,P|162:131|126:278,1,179.999994506836,10|0,0:0|1:0,0:0:0:0:
52,40,264092,1,8,0:0:0:0:
151,0,264248,2,0,P|212:19|249:51,1,112.500004291535,2|0,1:0|0:0,0:0:0:0:
326,237,264561,6,0,P|318:143|350:14,1,194.999991073609,10|0,1:0|0:0,0:0:0:0:
421,197,265029,1,8,0:0:0:0:
241,278,265186,2,0,P|176:255|132:253,1,97.4999955368044,2|0,1:0|0:0,0:0:0:0:
423,279,265498,2,0,P|297:278|161:338,1,269.999991760254,10|0,0:0|0:0,0:0:0:0:
507,383,266123,2,0,P|501:332|503:287,1,89.9999972534181,2|0,1:0|0:0,0:0:0:0:
390,79,266436,6,0,P|481:96|484:213,1,209.999993591309,2|0,1:0|0:0,0:0:0:0:
221,214,266904,1,2,1:0:0:0:
282,135,267061,2,0,P|299:85|306:47,1,82.5000025177003,2|0,1:0|0:0,0:0:0:0:
141,18,267373,2,0,L|149:173,1,134.999995880127,10|0,0:0|0:0,0:0:0:0:
201,207,267686,2,0,L|193:362,1,134.999995880127,0|0,1:0|0:0,0:0:0:0:
129,384,267998,2,0,P|123:329|125:274,1,82.5000025177003,2|0,1:0|0:0,0:0:0:0:
242,134,268311,6,0,P|172:195|92:200,1,157.499995193482,10|0,0:0|0:0,0:0:0:0:
27,120,268779,1,10,0:0:0:0:
99,12,268936,1,10,0:0:0:0:
86,8,269248,5,10,0:0:0:0:
12,132,269404,1,8,0:0:0:0:
116,237,269560,1,8,0:0:0:0:
0,320,269717,1,8,0:0:0:0:
96,127,269873,1,8,0:0:0:0:
244,241,270029,1,8,0:0:0:0:
381,34,270186,6,0,B|285:0|222:76|254:159|254:159|308:161|340:129,1,314.999990386963,6|0,1:2|0:0,0:0:0:0:
462,0,270811,2,0,P|460:78|464:128,1,120,2|0,1:0|0:0,0:0:0:0:
512,295,271123,2,0,P|457:226|305:248,1,240,10|0,0:0|0:0,0:0:0:0:
207,384,271592,1,8,0:0:0:0:
207,384,271670,1,8,0:0:0:0:
207,384,271748,2,0,L|224:243,1,134.999995880127,2|0,1:0|0:0,0:0:0:0:
23,34,272061,6,0,P|98:92|117:253,1,262.500002503395,2|0,1:0|0:0,0:0:0:0:
45,368,272529,2,0,P|36:328|34:270,1,67.4999979400635,10|0,0:0|0:0,0:0:0:0:
4,236,272686,2,0,P|74:274|185:271,1,131.250001251698,2|0,1:0|0:0,0:0:0:0:
358,173,272998,2,0,P|273:123|116:111,1,240,8|0,0:0|0:0,0:0:0:0:
6,207,273467,1,8,0:0:0:0:
74,16,273623,1,2,1:0:0:0:
62,0,273936,6,0,P|80:128|94:303,1,255.000004863739,2|0,1:2|0:0,0:0:0:0:
14,366,274404,2,0,P|60:354|118:347,1,60,10|0,0:0|0:0,0:0:0:0:
145,384,274561,2,0,P|115:330|103:251,1,116.250000886917,2|0,1:0|0:0,0:0:0:0:
209,149,274873,2,0,P|204:288|149:430,1,240,10|0,0:0|1:0,0:0:0:0:
100,82,275342,1,8,0:0:0:0:
309,238,275498,2,0,P|364:221|399:164,1,116.250000886917,2|0,1:0|0:0,0:0:0:0:
494,0,275811,6,0,P|473:109|500:217,1,225.000008583069,2|0,1:0|0:0,0:0:0:0:
506,373,276279,2,0,P|481:334|475:293,1,58.1250004434586,10|0,0:0|0:0,0:0:0:0:
471,229,276436,2,0,P|458:310|403:356,1,120,2|0,1:0|0:0,0:0:0:0:
253,229,276748,2,0,P|265:147|320:101,1,127.50000243187,14|0,0:0|0:0,0:0:0:0:
357,306,277061,5,8,0:0:0:0:
230,345,277217,1,0,1:0:0:0:
156,150,277373,1,2,3:0:0:0:
287,218,277529,1,0,1:0:0:0:
57,384,277686,6,0,P|67:281|78:125,1,209.999993591309,6|0,1:2|0:0,0:0:0:0:
101,0,278154,1,8,0:0:0:0:
1,102,278311,2,0,P|99:82|136:81,1,120,2|0,1:0|0:0,0:0:0:0:
393,147,278623,2,0,P|312:80|168:31,1,240,14|0,0:0|0:0,0:0:0:0:
333,287,279092,1,8,0:0:0:0:
468,146,279248,2,0,P|467:84|478:-5,1,134.999995880127,2|0,1:0|0:0,0:0:0:0:
480,251,279561,6,0,P|352:249|197:321,1,255.000004863739,2|0,1:0|0:0,0:0:0:0:
463,384,280029,2,0,P|453:355|449:312,1,67.4999979400635,10|0,0:0|0:0,0:0:0:0:
383,272,280186,2,0,P|412:189|458:140,1,127.50000243187,2|0,1:0|0:0,0:0:0:0:
486,7,280498,2,0,P|416:62|350:70,1,120,14|0,0:0|0:0,0:0:0:0:
161,15,280811,5,8,0:0:0:0:
294,138,280967,1,0,1:0:0:0:
56,200,281123,1,2,3:0:0:0:
172,113,281279,1,0,1:0:0:0:
278,338,281436,6,0,P|159:293|32:293,1,255.000004863739,6|0,1:2|0:0,0:0:0:0:
393,193,281904,2,0,P|379:234|376:260,1,60,10|0,0:0|0:0,0:0:0:0:
385,359,282061,2,0,P|361:283|318:250,1,112.500004291535,2|0,1:0|0:0,0:0:0:0:
155,190,282373,2,0,P|232:207|282:186,1,120,14|0,0:0|0:0,0:0:0:0:
325,0,282686,5,8,0:0:0:0:
240,130,282842,1,0,1:0:0:0:
455,164,282998,1,2,3:2:0:0:
344,112,283154,1,0,1:0:0:0:
388,283,283311,6,0,L|378:39,1,225,6|2,0:3|0:0,0:0:0:0:
470,18,283936,2,0,L|458:103,1,75,2|0,0:0|0:0,0:0:0:0:
414,161,284248,2,0,L|424:234,1,60,2|0,0:0|0:0,0:0:0:0:
494,324,284561,2,0,P|455:304|416:304,1,60,2|0,0:0|0:0,0:0:0:0:
353,253,284873,2,0,P|295:259|270:275,1,60,2|0,0:0|0:0,0:0:0:0:
220,358,285186,6,0,P|176:321|103:317,1,120,2|0,1:0|0:0,0:0:0:0:
26,373,285654,1,2,1:0:0:0:
26,373,285811,2,0,L|40:242,2,120,2|2|2,1:0|1:0|1:0,0:0:0:0:
115,267,286748,1,2,1:0:0:0:
15,167,287061,6,0,L|28:305,1,120,2|0,1:0|0:0,0:0:0:0:
143,196,287529,1,2,1:0:0:0:
107,127,287686,2,0,L|95:246,2,120,2|2|0,1:0|1:0|0:0,0:0:0:0:
211,40,288467,1,2,1:0:0:0:
251,107,288623,2,0,P|215:67|143:65,2,120,2|2|0,1:0|1:0|0:0,0:0:0:0:
218,210,289404,1,2,1:0:0:0:
176,141,289561,2,0,L|184:283,1,120,2|0,1:0|1:0,0:0:0:0:
271,384,290186,2,0,L|279:242,1,120,2|0,0:0|1:0,0:0:0:0:
358,98,290811,5,10,0:1:0:0:
428,138,291123,1,0,0:0:0:0:
430,219,291436,1,0,0:0:0:0:
358,256,291748,5,2,0:0:0:0:
283,190,292061,1,2,0:0:0:0:
359,114,292373,1,2,0:0:0:0:
284,23,292686,6,0,B|246:69|275:118|290:97|317:145|277:197,2,179.999994506836,2|2|0,0:0|0:0|0:0,0:0:0:0:
284,23,294404,5,2,0:0:0:0:
284,23,294482,1,2,0:0:0:0:
284,23,294561,1,10,0:1:0:0:
360,57,294873,1,0,0:0:0:0:
380,138,295186,1,0,0:0:0:0:
329,204,295498,5,2,0:0:0:0:
256,140,295811,1,2,0:0:0:0:
300,41,296123,1,2,0:0:0:0:
418,23,296436,5,2,0:0:0:0:
407,259,297061,5,2,0:0:0:0:
100,285,298285,6,0,B|100:301|97:295|98:295,1,12.5,2|2,0:0|0:0,0:0:0:0:
94,309,298493,2,0,B|60:347|1:322|1:322|12:237|69:140|206:171|248:221|248:221|229:274|174:275|174:275|292:273|345:294|298:394|413:405|443:374|462:384|513:336|525:293|493:235|493:235|443:231|414:282|414:282|386:166|344:170|290:230|155:63|274:7|346:-13|385:64|385:64|383:-3|443:-16|479:-16|523:13|537:114|477:92|458:140|458:140|483:135|503:140,1,1854.99994338989,2|0,0:0|0:0,0:0:0:0:
