osu file format v14

[General]
AudioFilename: audio.mp3
AudioLeadIn: 0
PreviewTime: 72120
Countdown: 0
SampleSet: Soft
StackLeniency: 0.7
Mode: 0
LetterboxInBreaks: 0
WidescreenStoryboard: 1

[Editor]
DistanceSpacing: 1
BeatDivisor: 4
GridSize: 4
TimelineZoom: 1

[Metadata]
Title:Maerchen (TV Size)
TitleUnicode:メルヒェン (TV Size)
Artist:Kalafina
ArtistUnicode:Kalafina
Creator:-kevincela-
Version:Normal
Source:クビキリサイクル 青色サヴァンと戯言遣い
Tags:anime japanese zaregoto nisio ishin kajiura yuki märchen kubikiri cycle aoiro savant to zaregotozukai headless beheading the blue and the nonsense bearer pseudonymous pop folk marchen 梶浦由記
BeatmapID:4471285
BeatmapSetID:2124848

[Difficulty]
HPDrainRate:3
CircleSize:3.5
OverallDifficulty:4
ApproachRate:5
SliderMultiplier:2.2
SliderTickRate:1

[Events]
//Background and Video events
0,0,"kubikiri.jpg",0,0
Video,0,"zaregoto_vid.mp4"
//Break Periods
//Storyboard Layer 0 (Background)
//Storyboard Layer 1 (Fail)
//Storyboard Layer 2 (Pass)
//Storyboard Layer 3 (Foreground)
//Storyboard Layer 4 (Overlay)
//Storyboard Sound Samples

[TimingPoints]
335,714.285714285714,4,2,2,50,1,0
6049,714.285714285714,5,2,2,55,1,0
18192,714.285714285714,5,2,1,60,1,0
30334,714.285714285714,4,2,1,60,1,0
37476,714.285714285714,4,2,1,60,1,0
44618,714.285714285714,5,2,1,60,1,0
58191,714.285714285714,4,2,1,60,1,0
72476,714.285714285714,5,2,1,60,1,0

[Colours]
Combo1 : 12,211,106
Combo2 : 149,175,193
Combo3 : 138,141,254
Combo4 : 85,190,171
Combo5 : 139,137,146

[HitObjects]
109,70,334,6,0,L|90:200,1,110,4|2,3:0|0:0,0:0:0:0:
60,224,870,1,0,0:0:0:0:
76,276,1049,2,0,P|124:276|180:220,1,110,0|2,3:0|0:0,0:0:0:0:
268,184,1763,6,0,P|326:187|368:229,1,110,4|2,3:0|0:0,0:0:0:0:
388,268,2299,1,0,0:0:0:0:
352,312,2477,2,0,L|340:376,2,55,0|0|0,3:0|0:0|3:0,0:0:0:0:
260,252,3191,6,0,B|196:244|212:276|144:268,1,110,4|2,3:0|0:0,0:0:0:0:
100,248,3727,1,0,0:0:0:0:
64,204,3906,2,0,P|52:152|76:84,1,110,0|2,3:0|0:0,0:0:0:0:
156,36,4620,6,0,L|288:52,1,110,4|2,3:0|0:0,0:0:0:0:
320,144,5334,2,0,L|188:160,1,110,0|0,3:0|3:0,0:0:0:0:
176,200,5870,1,0,3:0:0:0:
148,248,6049,6,0,P|176:320|280:328,1,165,4|2,3:0|0:0,0:0:0:0:
300,308,6763,2,0,L|288:180,1,110,2|2,3:2|0:0,0:0:0:0:
348,108,7477,5,4,3:0:0:0:
260,40,7834,2,0,P|216:36|136:68,1,110,2|0,0:0|3:0,0:0:0:0:
88,144,8549,1,2,0:0:0:0:
176,208,8906,2,0,P|220:212|300:180,1,110,4|2,3:0|0:0,0:0:0:0:
348,108,9620,6,0,L|360:44,2,55,2|2|2,3:2|0:0|0:0,0:0:0:0:
282,192,10334,1,4,3:0:0:0:
376,252,10691,2,0,L|396:376,1,110,2|0,0:1|3:2,0:0:0:0:
500,316,11406,5,2,0:0:0:0:
484,208,11763,2,0,L|464:84,1,110,4|2,3:0|0:0,0:0:0:0:
428,60,12299,1,2,0:0:0:0:
380,84,12477,2,0,P|332:112|264:104,1,110,2|0,3:2|0:0,0:0:0:0:
180,64,13191,6,0,L|196:-8,2,55,4|0|2,3:0|0:0|0:0,0:0:0:0:
96,132,13906,1,2,3:2:0:0:
148,228,14263,2,0,L|276:212,1,110,2|4,0:1|3:0,0:0:0:0:
352,268,14977,5,2,0:0:0:0:
260,324,15334,1,0,3:0:0:0:
257,214,15691,1,2,0:0:0:0:
352,160,16049,6,0,L|420:156,2,55,4|0|2,3:0|0:0|0:0,0:0:0:0:
312,120,16584,1,0,0:0:0:0:
272,84,16763,2,0,P|216:84|156:124,1,110,2|2,3:2|0:0,0:0:0:0:
88,184,17477,2,0,P|136:216|198:218,1,110,2|2,3:1|3:1,0:0:0:0:
296,204,18191,6,0,L|288:320,1,110,6|2,0:0|0:0,0:0:0:0:
324,356,18727,1,2,0:0:0:0:
372,332,18906,2,0,P|428:324|480:340,1,110,10|2,0:0|0:0,0:0:0:0:
496,232,19620,6,0,L|480:100,2,110,2|2|0,3:2|3:2|0:0,0:0:0:0:
412,304,20691,1,2,0:0:0:0:
316,252,21049,2,0,P|268:236|192:252,1,110,2|14,0:0|0:0,0:0:0:0:
112,296,21763,6,0,L|120:368,2,55,2|2|2,3:2|0:0|0:0,0:0:0:0:
36,216,22477,1,10,0:0:0:0:
72,112,22834,2,0,P|128:88|200:96,1,110,10|0,0:1|3:0,0:0:0:0:
256,164,23549,1,2,0:0:0:0:
335,88,23906,6,0,P|390:89|440:112,1,110,10|2,0:0|3:2,0:0:0:0:
468,156,24441,1,0,0:0:0:0:
468,212,24620,2,0,L|456:272,2,55,2|0|14,3:2|3:0|0:0,0:0:0:0:
364,252,25334,6,0,L|376:312,2,55,2|0|2,0:0|0:0|0:0,0:0:0:0:
264,208,26049,1,10,0:0:0:0:
164,252,26406,2,0,P|120:248|68:192,1,110,2|0,0:1|0:0,0:0:0:0:
64,100,27120,5,2,0:0:0:0:
168,60,27477,1,8,0:0:0:0:
268,104,27834,1,2,0:0:0:0:
296,212,28191,6,0,L|304:292,1,55,2|0,0:0|0:0,0:0:0:0:
256,300,28549,2,0,L|196:294,1,55,10|2,0:0|0:0,0:0:0:0:
156,328,28906,2,0,L|142:196,1,110,2|10,3:2|0:0,0:0:0:0:
76,132,29620,2,0,L|16:120,2,55,2|8|0,3:2|0:0|3:0,0:0:0:0:
152,52,30334,6,0,P|204:44|276:68,1,110,6|0,0:0|0:0,0:0:0:0:
368,52,31049,2,0,P|344:132|260:168,1,165,10|0,0:0|0:0,0:0:0:0:
220,164,31763,6,0,L|240:288,2,110,2|2|8,3:2|0:0|0:0,0:0:0:0:
124,108,32834,2,0,L|112:180,1,55,8|8,0:0|0:0,0:0:0:0:
76,200,33191,6,0,L|92:320,1,110,2|0,0:0|0:0,0:0:0:0:
180,376,33906,1,10,0:0:0:0:
268,312,34263,1,2,0:0:0:0:
368,360,34620,6,0,P|408:336|436:268,1,110,2|2,3:2|0:0,0:0:0:0:
400,236,35156,1,2,0:0:0:0:
416,184,35334,2,0,L|392:56,1,110,2|10,0:0|0:0,0:0:0:0:
308,12,36049,5,2,0:0:0:0:
236,96,36406,1,2,0:0:0:0:
136,48,36763,2,0,P|88:68|52:136,1,110,10|0,0:0|0:0,0:0:0:0:
116,208,37477,6,0,L|288:232,1,165,6|2,0:0|0:0,0:0:0:0:
324,264,38191,2,0,P|364:268|436:236,1,110,10|2,0:0|0:0,0:0:0:0:
356,156,38904,6,0,L|332:44,2,110,2|2|10,3:2|0:0|0:0,0:0:0:0:
324,264,39977,2,0,L|312:332,1,55,8|8,0:0|0:0,0:0:0:0:
272,352,40334,5,2,0:0:0:0:
176,296,40691,1,2,0:0:0:0:
92,368,41047,2,0,P|68:320|72:256,1,110,10|2,0:0|0:0,0:0:0:0:
140,180,41761,6,0,L|260:192,1,110,2|2,0:0|0:0,0:0:0:0:
300,168,42297,1,2,0:0:0:0:
328,120,42476,2,0,P|329:65|305:16,1,110,10|2,0:0|0:0,0:0:0:0:
216,84,43190,6,0,L|96:72,1,110,2|8,3:2|0:0,0:0:0:0:
24,148,43904,2,0,P|48:220|136:244,1,165,10|0,0:2|3:0,0:0:0:0:
180,236,44618,6,0,L|196:368,1,110,6|2,0:0|0:0,0:0:0:0:
300,376,45332,2,0,L|313:266,1,110,10|0,0:0|0:0,0:0:0:0:
348,224,45868,1,0,0:0:0:0:
400,248,46046,6,0,B|460:264|444:236|512:252,2,110,2|2|0,3:2|3:1|0:0,0:0:0:0:
328,164,47118,1,2,0:0:0:0:
404,88,47475,2,0,P|458:91|503:121,1,110,2|14,3:2|0:0,0:0:0:0:
424,200,48189,6,0,L|432:268,2,55,2|2|2,3:2|0:0|0:0,0:0:0:0:
404,88,48903,1,10,0:0:0:0:
304,40,49260,2,0,P|249:43|204:73,1,110,2|0,0:1|3:0,0:0:0:0:
164,176,49975,5,2,0:0:0:0:
260,228,50332,2,0,P|314:224|359:194,1,110,10|2,0:0|0:0,0:0:0:0:
404,88,51046,1,10,0:0:0:0:
500,144,51403,1,14,0:0:0:0:
456,244,51760,6,0,P|472:276|480:316,2,55,6|2|2,3:2|0:0|0:0,0:0:0:0:
359,193,52475,1,10,0:0:0:0:
264,248,52832,2,0,L|244:364,1,110,2|0,0:1|0:0,0:0:0:0:
136,380,53546,5,2,3:2:0:0:
40,324,53903,1,2,0:0:0:0:
24,216,54260,1,10,0:0:0:0:
88,128,54618,6,0,L|156:116,1,55,2|0,3:2|0:0,0:0:0:0:
176,76,54975,2,0,L|244:88,1,55,14|2,0:0|0:0,0:0:0:0:
280,60,55332,2,0,P|300:108|296:168,1,110,6|2,0:0|0:0,0:0:0:0:
236,260,56046,2,0,P|148:280|64:188,1,220,10|4,0:0|0:0,0:0:0:0:
100,84,57117,6,0,L|88:24,2,55,10|2|10,0:0|0:0|0:0,0:0:0:0:
188,148,57832,1,10,0:0:0:0:
252,60,58189,5,4,0:0:0:0:
344,124,58548,2,0,L|464:100,1,110,2|10,0:0|0:0,0:0:0:0:
508,196,59262,2,0,P|492:292|372:276,1,220,2|2,0:0|0:0,0:0:0:0:
292,236,60334,1,8,0:0:0:0:
224,320,60691,1,2,0:0:0:0:
132,260,61049,6,0,P|128:212|132:144,1,110,2|2,3:2|0:0,0:0:0:0:
208,72,61763,2,0,L|200:12,2,55,10|0|2,0:0|0:0|0:0,0:0:0:0:
248,112,62299,1,2,0:0:0:0:
296,136,62477,6,0,P|352:128|408:92,2,110,2|2|4,3:2|3:2|0:0,0:0:0:0:
224,220,63549,2,0,P|201:204|176:193,1,55,2|0,0:2|0:2,0:0:0:0:
120,196,63906,5,6,3:2:0:0:
60,288,64263,1,2,0:0:0:0:
128,376,64620,1,10,0:0:0:0:
228,332,64977,2,0,B|348:312|312:372|444:352,1,220,2|2,0:0|0:0,0:0:0:0:
508,264,66049,1,10,0:0:0:0:
424,192,66406,1,2,0:0:0:0:
492,108,66763,5,0,3:0:0:0:
412,32,67120,1,2,0:0:0:0:
312,76,67477,2,0,L|204:60,1,110,10|0,0:0|0:0,0:0:0:0:
156,32,68013,1,2,0:0:0:0:
112,64,68191,6,0,P|104:116|116:208,1,110,2|0,3:2|3:0,0:0:0:0:
124,224,68727,1,0,0:0:0:0:
164,260,68906,2,0,L|152:352,2,55,10|2|2,0:2|0:2|0:0,0:0:0:0:
260,204,69620,6,0,P|296:212|356:272,1,110,2|0,3:2|0:0,0:0:0:0:
308,360,70334,2,0,P|364:368|452:296,1,165,8|0,0:0|0:0,0:0:0:0:
460,252,71049,5,0,3:0:0:0:
392,164,71406,1,0,3:0:0:0:
432,64,71763,2,0,P|460:60|500:52,2,55,8|0|0,0:0|3:0|3:0,0:0:0:0:
328,32,72477,6,0,P|272:32|216:56,1,110,2|0,3:2|0:0,0:0:0:0:
180,88,73011,1,2,0:0:0:0:
160,140,73190,2,0,L|176:276,1,110,10|0,0:0|0:0,0:0:0:0:
272,296,73904,6,0,L|284:186,2,110,2|2|0,3:2|3:1|3:0,0:0:0:0:
348,376,74977,1,2,3:2:0:0:
440,316,75334,2,0,P|448:272|420:196,1,110,2|14,0:0|0:0,0:0:0:0:
368,120,76047,6,0,L|380:56,2,55,2|2|2,0:0|0:0|0:0,0:0:0:0:
272,176,76761,1,10,0:0:0:0:
188,104,77118,1,10,0:1:0:0:
104,176,77477,6,0,L|114:230,1,55,0|0,3:0|3:0,0:0:0:0:
80,272,77834,2,0,P|140:284|200:308,1,110,10|2,0:0|3:2,0:0:0:0:
256,216,78547,1,10,0:0:0:0:
326,301,78904,2,0,P|378:282|432:272,1,110,2|14,3:2|0:0,0:0:0:0:
480,172,79618,6,0,L|496:104,2,55,2|2|2,0:0|0:0|0:0,0:0:0:0:
432,272,80334,1,10,0:0:0:0:
328,232,80691,2,0,P|308:188|296:120,1,110,10|0,0:1|0:0,0:0:0:0:
336,24,81404,5,2,3:2:0:0:
444,28,81761,1,10,0:0:0:0:
512,116,82118,1,2,0:0:0:0:
480,220,82477,6,0,L|476:288,1,55,2|2,3:2|0:2,0:0:0:0:
440,316,82834,2,0,L|372:312,1,55,10|0,0:0|0:0,0:0:0:0:
340,344,83191,2,0,L|333:232,1,110,2|2,3:2|0:0,0:0:0:0:
264,148,83904,2,0,P|192:148|100:216,1,165,10|0,0:0|0:0,0:0:0:0:
88,244,84618,6,0,P|144:248|204:284,1,110,8|2,0:0|3:1,0:0:0:0:
232,312,85154,1,0,3:0:0:0:
252,364,85332,1,2,3:1:0:0:
344,300,85691,6,0,L|356:172,1,110,10|0,0:1|0:0,2:0:0:0:
