osu file format v14

[General]
AudioFilename: audio.mp3
AudioLeadIn: 0
PreviewTime: 72120
Countdown: 0
SampleSet: Soft
StackLeniency: 0.7
Mode: 0
LetterboxInBreaks: 0
WidescreenStoryboard: 0

[Editor]
DistanceSpacing: 1.6
BeatDivisor: 4
GridSize: 8
TimelineZoom: 1

[Metadata]
Title:Maerchen (TV Size)
TitleUnicode:メルヒェン (TV Size)
Artist:Kalafina
ArtistUnicode:Kalafina
Creator:-kevincela-
Version:Insane
Source:クビキリサイクル 青色サヴァンと戯言遣い
Tags:anime japanese zaregoto nisio ishin kajiura yuki märchen kubikiri cycle aoiro savant to zaregotozukai headless beheading the blue and the nonsense bearer pseudonymous pop folk marchen 梶浦由記
BeatmapID:4465909
BeatmapSetID:2124848

[Difficulty]
HPDrainRate:5
CircleSize:4.2
OverallDifficulty:8
ApproachRate:9.1
SliderMultiplier:3.4
SliderTickRate:1

[Events]
//Background and Video events
0,0,"kubikiri.jpg",0,0
Video,0,"zaregoto_vid.mp4"
//Break Periods
//Storyboard Layer 0 (Background)
//Storyboard Layer 1 (Fail)
//Storyboard Layer 2 (Pass)
//Storyboard Layer 3 (Foreground)
//Storyboard Layer 4 (Overlay)
//Storyboard Sound Samples

[TimingPoints]
335,714.285714285714,4,2,2,50,1,0
6049,714.285714285714,5,2,2,55,1,0
18192,714.285714285714,5,2,1,60,1,0
30334,714.285714285714,4,2,1,60,1,0
37476,714.285714285714,4,2,1,60,1,0
44618,714.285714285714,5,2,1,60,1,0
58191,714.285714285714,4,2,1,60,1,0
72476,714.285714285714,5,2,1,60,1,0

[Colours]
Combo1 : 12,211,106
Combo2 : 149,175,193
Combo3 : 138,141,254
Combo4 : 85,190,171
Combo5 : 139,137,146

[HitObjects]
27,251,334,6,0,P|84:254|210:289,1,170,4|2,3:0|0:0,0:0:0:0:
276,328,870,1,0,0:0:0:0:
192,170,1049,6,0,P|249:167|375:132,1,170,0|2,3:0|0:0,0:0:0:0:
448,88,1585,1,0,0:0:0:0:
424,384,1763,6,0,L|395:207,1,170,4|2,3:0|0:0,0:0:0:0:
448,88,2299,1,0,0:0:0:0:
488,224,2477,5,0,3:0:0:0:
280,160,2656,1,0,0:0:0:0:
440,8,2834,1,0,3:0:0:0:
440,8,3191,6,0,P|416:56|304:80,1,170,4|2,3:0|0:0,0:0:0:0:
216,48,3727,1,0,0:0:0:0:
152,224,3906,6,0,P|202:240|299:178,1,170,0|2,3:0|0:0,0:0:0:0:
310,82,4442,1,0,0:0:0:0:
352,384,4620,6,0,P|299:373|247:271,1,170,4|2,3:0|0:0,0:0:0:0:
304,104,5156,1,0,0:0:0:0:
424,272,5334,6,0,L|328:288,1,85,0|0,3:0|0:0,0:0:0:0:
340,285,5602,1,0,0:0:0:0:
340,285,5691,1,0,3:0:0:0:
448,112,5870,1,0,3:0:0:0:
512,296,6049,6,0,P|429:276|353:239,1,170,4|0,3:0|0:0,0:0:0:0:
440,136,6584,1,2,0:0:0:0:
274,334,6763,2,0,P|350:296|432:277,1,170,2|2,3:2|0:0,0:0:0:0:
168,272,7477,6,0,B|72:288|96:248|0:264,2,170,4|2|0,3:0|0:0|3:0,0:0:0:0:
168,272,8549,6,0,L|192:176,1,85,2|0,0:0|0:0,0:0:0:0:
352,208,8906,2,0,L|256:235,1,85,4|0,3:0|0:0,0:0:0:0:
208,80,9263,2,0,L|279:148,1,85,2|0,0:0|0:0,0:0:0:0:
128,128,9620,5,2,3:2:0:0:
360,120,9799,1,2,0:0:0:0:
256,320,9977,2,0,P|240:256|240:176,1,127.5,2|0,0:0|0:0,0:0:0:0:
360,120,10334,6,0,P|352:176|344:208,1,85,4|0,3:0|0:0,0:0:0:0:
200,88,10691,2,0,P|208:32|216:0,1,85,2|0,0:1|0:0,0:0:0:0:
112,224,11049,5,0,3:2:0:0:
112,224,11406,2,0,P|120:280|128:312,1,85,2|0,0:0|0:0,0:0:0:0:
224,72,11763,6,0,P|216:192|200:264,1,170,4|2,3:0|0:0,0:0:0:0:
136,8,12299,1,2,0:0:0:0:
256,160,12477,2,0,P|264:280|280:352,1,170,2|0,3:2|0:0,0:0:0:0:
344,168,13013,1,0,0:0:0:0:
224,296,13191,5,4,3:0:0:0:
392,384,13370,1,0,0:0:0:0:
496,232,13549,1,2,0:0:0:0:
496,232,13906,6,0,P|448:240|368:184,1,127.5,2|0,3:2|0:0,0:0:0:0:
248,168,14263,2,0,P|304:168|392:88,1,170,2|4,0:1|3:0,0:0:0:0:
388,97,14977,6,0,L|484:113,1,85,2|0,0:0|0:0,0:0:0:0:
344,16,15334,2,0,P|288:16|200:96,1,170,0|2,3:0|0:0,0:0:0:0:
203,86,16049,5,4,3:0:0:0:
320,168,16227,1,0,0:0:0:0:
192,256,16406,1,2,0:0:0:0:
272,312,16584,1,0,0:0:0:0:
200,376,16763,6,0,P|184:368|104:352,1,85,2|0,3:2|0:0,0:0:0:0:
288,208,17120,2,0,P|304:200|384:184,1,85,2|0,0:0|0:0,0:0:0:0:
208,88,17477,5,2,3:1:0:0:
152,200,17656,1,0,0:0:0:0:
56,72,17834,5,2,3:1:0:0:
168,224,18013,1,0,0:0:0:0:
8,336,18191,6,0,P|72:336|184:368,1,170,6|2,0:0|0:0,0:0:0:0:
272,304,18727,1,2,0:0:0:0:
144,192,18906,2,0,P|104:200|56:224,1,85,10|0,0:0|0:0,0:0:0:0:
288,96,19263,2,0,P|326:114|367:122,1,85,2|0,0:0|0:0,0:0:0:0:
150,22,19620,6,0,L|143:197,2,170,2|2|0,3:2|3:2|0:0,0:0:0:0:
150,22,20691,2,0,P|182:30|232:56,1,85,2|0,0:0|0:0,0:0:0:0:
448,96,21049,2,0,P|384:104|304:144,1,127.5,2|0,0:0|0:0,0:0:0:0:
264,192,21406,2,0,L|280:296,1,85,14|0,0:0|0:0,0:0:0:0:
64,368,21763,5,2,3:2:0:0:
168,216,21941,1,2,0:0:0:0:
312,352,22120,2,0,P|232:352|200:320,1,127.5,2|0,0:0|0:0,0:0:0:0:
344,200,22477,6,0,P|360:240|360:304,1,85,10|0,0:0|0:0,0:0:0:0:
216,128,22834,2,0,L|200:24,1,85,10|0,0:1|0:0,0:0:0:0:
80,288,23191,5,0,3:0:0:0:
80,288,23549,2,0,L|96:184,1,85,2|0,0:0|0:0,0:0:0:0:
215,351,23906,2,0,P|191:303|191:183,1,170,10|2,0:0|3:2,0:0:0:0:
240,104,24441,1,0,0:0:0:0:
376,304,24620,5,2,3:2:0:0:
280,248,24799,1,0,3:0:0:0:
368,184,24977,2,0,P|400:184|464:216,1,85,14|0,0:0|0:0,0:0:0:0:
320,48,25334,5,2,0:0:0:0:
280,248,25513,1,0,0:0:0:0:
120,120,25691,2,0,P|168:104|264:112,1,127.5,2|0,0:0|0:0,0:0:0:0:
404,57,26049,6,0,L|318:47,1,85,10|0,0:0|0:0,0:0:0:0:
195,257,26406,2,0,L|281:247,1,85,2|0,0:1|0:0,0:0:0:0:
488,112,26763,5,0,0:0:0:0:
488,112,27120,2,0,P|480:144|480:208,1,85,2|0,0:0|0:0,0:0:0:0:
400,296,27477,2,0,P|399:253|390:212,1,85,8|0,0:0|0:0,0:0:0:0:
336,128,27834,2,0,L|232:112,1,85,2|0,0:0|0:0,0:0:0:0:
32,40,28191,5,2,0:0:0:0:
80,136,28370,1,0,0:0:0:0:
176,32,28549,5,10,0:0:0:0:
16,16,28727,1,2,0:0:0:0:
120,216,28906,2,0,L|176:320,1,85,2|0,3:2|0:0,0:0:0:0:
344,384,29263,5,10,0:0:0:0:
496,288,29441,1,0,0:0:0:0:
280,216,29620,5,2,3:2:0:0:
440,384,29799,1,8,0:0:0:0:
512,136,29977,2,0,P|512:96|496:40,1,85,0|0,3:0|0:0,0:0:0:0:
416,224,30334,6,0,P|344:256|232:240,1,170,6|0,0:0|0:0,0:0:0:0:
160,200,30870,1,0,0:0:0:0:
344,336,31049,6,0,B|376:200|288:224|328:88,1,255,10|0,0:0|0:0,0:0:0:0:
496,112,31763,2,0,P|461:137|421:150,1,85,2|0,3:2|0:0,0:0:0:0:
176,240,32120,2,0,P|216:253|250:278,1,85,2|0,0:0|0:0,0:0:0:0:
472,368,32477,5,8,0:0:0:0:
472,368,32834,1,8,0:0:0:0:
250,278,33013,1,8,0:0:0:0:
496,112,33191,6,0,P|496:144|488:208,1,85,2|0,0:0|0:0,0:0:0:0:
376,256,33549,2,0,P|376:224|368:160,1,85
304,80,33906,2,0,B|208:72|240:128|136:112,1,170,10|2,0:0|0:0,0:0:0:0:
40,72,34441,1,0,0:0:0:0:
24,240,34620,6,0,P|64:224|128:224,1,85,2|0,3:2|0:0,0:0:0:0:
384,256,34977,1,2,0:0:0:0:
272,312,35156,1,2,0:0:0:0:
208,208,35334,2,0,L|192:96,1,85,2|0,0:0|0:0,0:0:0:0:
328,56,35691,2,0,L|312:168,1,85,10|0,0:0|0:0,0:0:0:0:
114,100,36049,6,0,P|154:116|210:124,1,85,2|0,0:0|0:0,0:0:0:0:
457,224,36406,2,0,P|415:231|375:247,1,85,2|0,0:0|0:0,0:0:0:0:
72,320,36763,2,0,P|136:344|256:352,1,170,10|0,0:0|0:0,0:0:0:0:
236,353,37477,6,0,P|228:266|232:160,1,170,6|0,0:0|0:0,0:0:0:0:
248,80,38011,1,2,0:0:0:0:
96,8,38191,2,0,P|103:94|100:201,1,170,10|2,0:0|0:0,0:0:0:0:
102,178,38904,6,0,L|-10:162,1,85,2|0,3:2|0:0,0:0:0:0:
192,328,39261,2,0,L|304:344,1,85,2|0,0:0|0:0,0:0:0:0:
480,208,39618,5,10,0:0:0:0:
480,208,39977,1,8,0:0:0:0:
276,340,40154,1,8,0:0:0:0:
368,104,40334,6,0,L|360:192,1,85,2|0,0:0|0:0,0:0:0:0:
264,240,40691,2,0,L|256:152,1,85,2|0,0:0|0:0,0:0:0:0:
176,280,41047,2,0,P|248:280|360:320,1,170,10|2,0:0|0:0,0:0:0:0:
424,368,41584,1,0,0:0:0:0:
464,216,41761,6,0,L|448:96,1,85,2|0,0:0|0:0,0:0:0:0:
328,40,42118,1,2,0:0:0:0:
256,112,42297,1,2,0:0:0:0:
144,32,42477,2,0,P|185:23|227:27,1,85,10|0,0:0|0:0,0:0:0:0:
424,168,42834,2,0,P|382:176|340:172,1,85,2|0,0:0|0:0,0:0:0:0:
56,280,43191,6,0,P|112:272|200:296,1,127.5,2|0,3:2|0:0,0:0:0:0:
288,360,43547,2,0,L|392:336,1,85,8|0,0:0|0:0,0:0:0:0:
496,64,43904,5,10,0:2:0:0:
424,168,44084,1,0,3:0:0:0:
248,224,44261,1,0,3:0:0:0:
48,176,44441,1,0,3:0:0:0:
200,24,44618,6,0,L|192:168,1,127.5,6|0,0:0|0:0,0:0:0:0:
248,224,44975,2,0,L|252:308,1,85,2|0,0:0|0:0,0:0:0:0:
496,160,45332,6,0,P|432:136|320:160,1,170,10|0,0:0|0:0,0:0:0:0:
248,224,45868,1,0,0:0:0:0:
48,128,46046,6,0,P|88:120|152:128,1,85,2|0,3:2|0:0,0:0:0:0:
96,224,46403,2,0,P|56:232|-8:224,1,85,2|0,3:1|0:0,0:0:0:0:
216,48,46760,5,0,0:0:0:0:
216,48,47118,2,0,P|232:96|240:144,1,85,2|0,0:0|0:0,0:0:0:0:
256,344,47475,2,0,P|272:264|312:208,1,127.5,2|0,3:2|0:0,0:0:0:0:
408,112,47832,2,0,P|368:128|312:136,1,85,14|0,0:0|0:0,0:0:0:0:
464,32,48189,5,2,3:2:0:0:
440,192,48368,1,2,0:0:0:0:
416,352,48546,2,0,P|384:288|376:208,1,127.5,2|0,0:0|0:0,0:0:0:0:
408,112,48903,6,0,P|457:113|506:132,1,85,10|0,0:0|0:0,0:0:0:0:
272,256,49260,2,0,P|223:255|174:236,1,85,2|0,0:1|0:0,0:0:0:0:
72,72,49618,1,0,3:0:0:0:
72,72,49975,6,0,L|90:179,1,85,2|0,0:0|0:0,0:0:0:0:
176,336,50332,2,0,L|204:146,1,170,10|2,0:0|0:0,0:0:0:0:
264,80,50868,1,0,0:0:0:0:
400,160,51046,6,0,L|505:144,1,85,10|0,0:0|0:0,0:0:0:0:
344,304,51403,2,0,L|239:320,1,85,14|0,0:0|0:0,0:0:0:0:
72,376,51760,5,6,3:2:0:0:
176,224,51939,1,2,0:0:0:0:
24,112,52118,2,0,P|80:120|168:80,1,127.5,2|0,0:0|0:0,0:0:0:0:
272,24,52475,6,0,P|312:24|384:64,1,85,10|0,0:0|0:0,0:0:0:0:
432,208,52832,2,0,P|392:222|350:223,1,85,2|0,0:1|0:0,0:0:0:0:
146,97,53189,5,0,0:0:0:0:
146,97,53546,2,0,P|136:136|96:184,1,85,2|0,3:2|0:0,0:0:0:0:
312,144,53903,2,0,P|283:115|256:56,1,85,2|0,0:0|0:0,0:0:0:0:
224,216,54260,2,0,L|240:320,1,85,10|0,0:0|0:0,0:0:0:0:
368,368,54618,5,2,3:2:0:0:
496,288,54796,1,0,0:0:0:0:
328,192,54975,1,14,0:0:0:0:
512,288,55153,1,2,0:0:0:0:
456,104,55332,6,0,P|448:152|448:208,1,85,6|0,0:0|0:0,0:0:0:0:
368,368,55689,2,0,P|366:325|358:283,1,85,2|0,0:0|0:0,0:0:0:0:
256,168,56046,2,0,L|64:192,1,170,10|0,0:0|0:0,0:0:0:0:
0,128,56582,1,0,0:0:0:0:
128,24,56760,6,0,P|172:23|232:32,1,85,4|0,0:0|0:0,0:0:0:0:
336,152,57117,5,10,0:0:0:0:
432,72,57296,1,2,0:0:0:0:
312,32,57475,5,10,0:0:0:0:
448,200,57653,1,8,0:0:0:0:
504,8,57832,5,10,0:0:0:0:
336,152,58010,1,8,0:0:0:0:
496,312,58191,5,4,0:0:0:0:
496,312,58548,2,0,P|472:312|400:328,1,85,2|0,0:0|0:0,0:0:0:0:
328,360,58905,2,0,L|312:264,1,85,10|0,0:0|0:0,0:0:0:0:
56,200,59262,6,0,P|104:200|232:232,1,170,2|0,0:0|3:0,0:0:0:0:
314,276,59798,1,0,0:0:0:0:
312,80,59976,2,0,L|296:176,1,85,2|0,0:0|0:0,0:0:0:0:
412,307,60333,5,8,0:0:0:0:
304,64,60691,2,0,L|290:147,1,85,2|0,0:0|0:0,0:0:0:0:
208,288,61049,6,0,B|104:296|144:248|40:256,1,170,2|2,3:2|0:0,0:0:0:0:
64,344,61584,1,0,0:0:0:0:
184,200,61763,2,0,L|176:104,1,85,10|0,0:0|0:0,0:0:0:0:
88,48,62120,1,2,0:0:0:0:
8,136,62299,1,2,0:0:0:0:
208,288,62477,6,0,P|256:288|304:272,1,85,2|0,3:2|0:0,0:0:0:0:
416,128,62834,1,2,3:2:0:0:
248,200,63013,1,0,3:0:0:0:
392,320,63191,5,4,0:0:0:0:
392,320,63549,1,2,0:2:0:0:
368,224,63727,1,0,0:2:0:0:
339,133,63906,6,0,L|310:21,1,85,6|0,3:2|0:0,0:0:0:0:
163,198,64263,2,0,P|196:203|256:198,1,85,2|0,0:0|0:0,0:0:0:0:
128,64,64620,2,0,P|85:60|43:65,1,85,10|0,0:0|0:0,0:0:0:0:
248,200,64977,6,0,P|256:144|232:16,1,170,2|0,0:0|3:0,0:0:0:0:
352,64,65513,1,0,0:0:0:0:
144,168,65691,2,0,L|48:192,1,85,2|0,0:0|0:0,0:0:0:0:
208,320,66049,6,0,P|244:338|293:342,1,85,10|0,0:0|0:0,0:0:0:0:
432,216,66406,2,0,P|395:197|346:193,1,85,2|0,0:0|0:0,0:0:0:0:
496,360,66763,5,0,3:0:0:0:
496,360,67120,2,0,P|488:312|488:256,1,85,2|0,0:0|0:0,0:0:0:0:
454,62,67477,2,0,P|446:134|350:182,1,170,10|0,0:0|0:0,0:0:0:0:
352,80,68013,1,2,0:0:0:0:
386,284,68191,6,0,P|314:276|266:180,1,170,2|0,3:2|3:0,0:0:0:0:
368,182,68727,1,0,0:0:0:0:
168,224,68906,5,10,0:2:0:0:
304,376,69084,1,2,0:2:0:0:
368,182,69263,2,0,L|376:80,1,85,2|0,0:0|0:0,0:0:0:0:
248,16,69620,6,0,P|176:16|104:96,1,170,2|0,3:2|0:0,0:0:0:0:
96,176,70156,1,0,0:0:0:0:
312,144,70334,5,8,0:0:0:0:
208,112,70513,1,0,0:0:0:0:
192,216,70691,2,0,P|192:256|208:304,1,85
368,352,71049,6,0,L|464:336,1,85,0|0,3:0|0:0,0:0:0:0:
512,264,71406,2,0,L|428:250,1,85,0|0,3:0|0:0,0:0:0:0:
200,360,71763,5,8,0:0:0:0:
336,280,71941,1,0,3:0:0:0:
368,152,72120,1,0,3:0:0:0:
320,48,72299,1,0,3:0:0:0:
232,16,72477,6,0,P|163:18|56:56,1,170,2|0,3:2|0:0,0:0:0:0:
0,112,73011,1,2,0:0:0:0:
312,88,73190,6,0,P|250:56|139:34,1,170,10|0,0:0|0:0,0:0:0:0:
0,112,73726,1,0,0:0:0:0:
336,200,73904,6,0,P|299:141|213:67,2,170,2|2|0,3:2|3:1|3:0,0:0:0:0:
336,200,74976,6,0,L|328:288,1,85,2|0,3:2|0:0,0:0:0:0:
192,368,75333,2,0,P|136:336|120:264,1,127.5,2|0,0:0|0:0,0:0:0:0:
160,192,75690,2,0,L|144:80,1,85,14|0,0:0|0:0,0:0:0:0:
256,0,76047,5,2,0:0:0:0:
344,192,76226,1,2,0:0:0:0:
496,40,76404,2,0,P|448:40|352:72,1,127.5,2|0,0:0|0:0,0:0:0:0:
231,121,76761,6,0,P|184:120|135:105,1,85,10|0,0:0|0:0,0:0:0:0:
0,256,77118,2,0,P|41:245|83:245,1,85,10|0,0:1|0:0,0:0:0:0:
240,368,77476,5,0,3:0:0:0:
304,288,77654,1,0,3:0:0:0:
496,360,77833,6,0,P|472:296|464:208,1,127.5,10|0,0:0|0:0,0:0:0:0:
488,64,78190,2,0,P|488:112|472:160,1,85,2|0,3:2|0:0,0:0:0:0:
304,288,78547,6,0,B|232:280|248:312|176:296,1,127.5,10|0,0:0|0:0,0:0:0:0:
24,232,78904,2,0,P|72:240|112:256,1,85,2|0,3:2|0:0,0:0:0:0:
264,96,79261,2,0,P|224:110|182:116,1,85,14|0,0:0|0:0,0:0:0:0:
48,56,79618,5,2,0:0:0:0:
200,200,79797,1,2,0:0:0:0:
312,24,79976,2,0,P|360:32|440:72,1,127.5,2|0,0:0|0:0,0:0:0:0:
488,192,80333,6,0,L|472:296,1,85,10|0,0:0|0:0,0:0:0:0:
320,344,80690,2,0,L|304:240,1,85,10|0,0:1|0:0,0:0:0:0:
181,116,81047,5,0,0:0:0:0:
181,116,81404,2,0,P|141:108|85:116,1,85,2|0,3:2|0:0,0:0:0:0:
280,160,81761,2,0,P|306:129|328:76,1,85,10|0,0:0|0:0,0:0:0:0:
192,224,82118,2,0,P|205:262|240:307,1,85,2|0,0:0|0:0,0:0:0:0:
181,116,82477,5,2,3:2:0:0:
280,160,82654,1,2,0:2:0:0:
120,312,82833,2,0,L|24:296,1,85,10|0,0:0|0:0,0:0:0:0:
181,116,83190,6,0,P|205:150|219:190,1,85,2|0,3:2|0:0,0:0:0:0:
83,114,83547,2,0,L|107:18,1,85,2|0,0:0|0:0,0:0:0:0:
219,190,83904,2,0,P|211:262|139:334,1,170,10|0,0:0|0:0,0:0:0:0:
40,360,84440,1,0,0:0:0:0:
0,128,84618,6,0,L|96:112,1,85,8|0,0:0|0:0,0:0:0:0:
272,112,84976,5,2,3:1:0:0:
408,208,85154,1,0,3:0:0:0:
448,16,85332,5,2,3:1:0:0:
256,128,85511,1,0,3:0:0:0:
392,312,85691,6,0,P|468:290|512:208,1,170,10|0,0:1|0:0,2:0:0:0:
