osu file format v14

[General]
AudioFilename: audio.mp3
AudioLeadIn: 0
PreviewTime: 72120
Countdown: 0
SampleSet: Soft
StackLeniency: 0.7
Mode: 0
LetterboxInBreaks: 0
WidescreenStoryboard: 1

[Editor]
DistanceSpacing: 1.1
BeatDivisor: 4
GridSize: 4
TimelineZoom: 1

[Metadata]
Title:Maerchen (TV Size)
TitleUnicode:メルヒェン (TV Size)
Artist:Kalafina
ArtistUnicode:Kalafina
Creator:-kevincela-
Version:Hard
Source:クビキリサイクル 青色サヴァンと戯言遣い
Tags:anime japanese zaregoto nisio ishin kajiura yuki märchen kubikiri cycle aoiro savant to zaregotozukai headless beheading the blue and the nonsense bearer pseudonymous pop folk marchen 梶浦由記
BeatmapID:4471542
BeatmapSetID:2124848

[Difficulty]
HPDrainRate:4
CircleSize:4
OverallDifficulty:6
ApproachRate:8
SliderMultiplier:2.8
SliderTickRate:1

[Events]
//Background and Video events
0,0,"kubikiri.jpg",0,0
Video,0,"zaregoto_vid.mp4"
//Break Periods
//Storyboard Layer 0 (Background)
//Storyboard Layer 1 (Fail)
//Storyboard Layer 2 (Pass)
//Storyboard Layer 3 (Foreground)
//Storyboard Layer 4 (Overlay)
//Storyboard Sound Samples

[TimingPoints]
335,714.285714285714,4,2,2,50,1,0
6049,714.285714285714,5,2,2,55,1,0
18192,714.285714285714,5,2,1,60,1,0
30334,714.285714285714,4,2,1,60,1,0
37476,714.285714285714,4,2,1,60,1,0
44618,714.285714285714,5,2,1,60,1,0
58191,714.285714285714,4,2,1,60,1,0
72476,714.285714285714,5,2,1,60,1,0

[Colours]
Combo1 : 12,211,106
Combo2 : 149,175,193
Combo3 : 138,141,254
Combo4 : 85,190,171
Combo5 : 139,137,146

[HitObjects]
8,128,334,6,0,P|52:128|148:164,1,140,4|2,3:0|0:0,0:0:0:0:
208,212,870,1,0,0:0:0:0:
184,292,1049,6,0,P|228:292|324:256,1,140,0|2,3:0|0:0,0:0:0:0:
384,208,1585,1,0,0:0:0:0:
492,244,1763,6,0,L|480:384,1,140,4|2,3:0|0:0,0:0:0:0:
404,344,2299,1,0,0:0:0:0:
288,316,2477,6,0,L|204:332,1,70,0|0,3:0|0:0,0:0:0:0:
128,348,2834,1,0,3:0:0:0:
128,348,3191,6,0,P|116:288|128:184,1,140,4|2,3:0|0:0,0:0:0:0:
144,128,3727,1,0,0:0:0:0:
235,109,3906,6,0,P|247:169|235:273,1,140,0|2,3:0|0:0,0:0:0:0:
219,329,4442,1,0,0:0:0:0:
348,360,4620,6,0,P|388:348|420:244,1,140,4|2,3:0|0:0,0:0:0:0:
396,184,5156,1,0,0:0:0:0:
272,160,5334,6,0,L|196:172,1,70,0|0,3:0|0:0,0:0:0:0:
184,168,5602,1,0,0:0:0:0:
168,164,5691,2,0,P|165:125|157:81,1,70,0|0,3:0|3:0,0:0:0:0:
36,144,6049,6,0,P|44:212|60:300,1,140,4|0,3:0|0:0,0:0:0:0:
100,356,6584,1,2,0:0:0:0:
180,324,6763,2,0,L|320:308,1,140,2|2,3:2|0:0,0:0:0:0:
384,168,7477,2,0,L|244:152,2,140,4|2|0,3:0|0:0|3:0,0:0:0:0:
384,168,8549,6,0,L|368:88,1,70,2|0,0:0|0:0,0:0:0:0:
304,60,8906,2,0,P|252:60|168:84,1,140,4|2,3:0|0:0,0:0:0:0:
32,224,9620,5,2,3:2:0:0:
120,264,9799,1,2,0:0:0:0:
196,200,9977,2,0,P|260:208|312:228,1,105,2|0,0:0|0:0,0:0:0:0:
312,236,10334,6,0,L|344:160,1,70,4|0,3:0|0:0,0:0:0:0:
432,316,10691,2,0,L|404:251,1,70,2|0,0:1|0:0,0:0:0:0:
424,120,11049,1,0,3:2:0:0:
424,120,11406,6,0,L|436:40,1,70,2|0,0:0|0:0,0:0:0:0:
364,20,11763,2,0,P|304:52|304:120,1,140,4|2,3:0|0:0,0:0:0:0:
344,184,12299,1,2,0:0:0:0:
384,248,12477,2,0,P|381:314|322:345,1,140,2|0,3:2|0:0,0:0:0:0:
248,320,13013,1,0,0:0:0:0:
128,356,13191,5,4,3:0:0:0:
109,260,13370,1,0,0:0:0:0:
91,168,13549,1,2,0:0:0:0:
91,168,13906,6,0,P|124:182|168:190,1,70,2|0,3:2|0:0,0:0:0:0:
208,100,14263,2,0,P|239:85|273:77,1,70,2|0,0:1|0:0,0:0:0:0:
372,128,14620,1,4,3:0:0:0:
372,128,14977,6,0,L|364:220,1,70,2|0,0:0|0:0,0:0:0:0:
444,196,15334,2,0,L|431:344,1,140,0|2,3:0|0:0,0:0:0:0:
256,352,16049,5,4,3:0:0:0:
200,300,16227,1,0,0:0:0:0:
128,332,16406,1,2,0:0:0:0:
136,256,16584,1,0,0:0:0:0:
64,284,16763,6,0,L|28:208,1,70,2|0,3:2|0:0,0:0:0:0:
84,164,17120,2,0,L|104:92,1,70,2|0,0:0|0:0,0:0:0:0:
192,28,17477,6,0,P|228:20|268:24,1,70,2|0,3:1|0:0,0:0:0:0:
308,120,17834,2,0,P|332:147|349:183,1,70,2|0,3:1|0:0,0:0:0:0:
296,280,18191,6,0,L|140:260,1,140,6|2,0:0|0:0,0:0:0:0:
92,304,18727,1,2,0:0:0:0:
36,252,18906,2,0,L|20:172,1,70,10|0,0:0|0:0,0:0:0:0:
76,128,19263,2,0,P|108:124|160:144,1,70,2|0,0:0|0:0,0:0:0:0:
212,96,19620,6,0,P|256:96|356:64,2,140,2|2|0,3:2|3:2|0:0,0:0:0:0:
212,96,20691,6,0,L|200:16,1,70,2|0,0:0|0:0,0:0:0:0:
144,133,21049,2,0,P|132:173|128:269,1,105,2|0,0:0|0:0,0:0:0:0:
132,260,21406,2,0,L|212:248,1,70,14|0,0:0|0:0,0:0:0:0:
336,296,21763,5,2,3:2:0:0:
420,336,21941,1,2,0:0:0:0:
484,272,22120,2,0,L|472:184,1,70,2|0,0:0|0:0,0:0:0:0:
408,124,22477,6,0,L|420:36,1,70,10|0,0:0|0:0,0:0:0:0:
320,172,22834,2,0,B|244:188|256:160|180:172,1,140,10|0,0:1|3:0,0:0:0:0:
181,171,23549,6,0,L|176:92,1,70,2|0,0:0|0:0,0:0:0:0:
104,72,23906,2,0,P|92:124|116:224,1,140,10|2,0:0|3:2,0:0:0:0:
140,280,24441,1,0,0:0:0:0:
240,252,24620,5,2,3:2:0:0:
300,304,24799,1,0,3:0:0:0:
364,260,24977,2,0,L|376:184,1,70,14|0,0:0|0:0,0:0:0:0:
448,92,25334,5,2,0:0:0:0:
376,36,25513,1,0,0:0:0:0:
288,68,25691,2,0,L|176:80,1,105,2|0,0:0|0:0,0:0:0:0:
164,88,26049,6,0,P|152:52|144:16,1,70,10|0,0:0|0:0,0:0:0:0:
64,96,26406,2,0,P|76:132|84:168,1,70,2|0,0:1|0:0,0:0:0:0:
44,256,26763,1,0,0:0:0:0:
44,256,27120,6,0,P|84:268|116:284,1,70,2|0,0:0|0:0,0:0:0:0:
164,228,27477,2,0,P|204:216|236:200,1,70,8|0,0:0|0:0,0:0:0:0:
280,260,27834,2,0,L|360:276,1,70,2|0,0:0|0:0,0:0:0:0:
440,220,28191,5,2,0:0:0:0:
400,152,28370,1,0,0:0:0:0:
424,80,28549,2,0,P|448:76|500:76,1,70,10|2,0:0|0:0,0:0:0:0:
340,36,28906,6,0,P|300:48|196:40,2,140,2|10|2,3:2|0:0|3:2,0:0:0:0:
424,80,29799,1,8,0:0:0:0:
348,136,29977,2,0,L|340:216,1,70,0|0,3:0|0:0,0:0:0:0:
368,324,30334,6,0,P|308:312|216:312,1,140,6|0,0:0|0:0,0:0:0:0:
156,336,30870,1,0,0:0:0:0:
92,296,31049,2,0,P|76:236|88:80,1,210,10|0,0:0|0:0,0:0:0:0:
140,36,31763,6,0,L|212:56,1,70,2|0,3:2|0:0,0:0:0:0:
280,124,32120,2,0,L|347:105,1,70,2|0,0:0|0:0,0:0:0:0:
440,68,32477,5,8,0:0:0:0:
440,68,32834,1,8,0:0:0:0:
500,140,33013,1,8,0:0:0:0:
456,220,33191,6,0,L|472:316,1,70,2|0,0:0|0:0,0:0:0:0:
404,336,33549,2,0,P|376:324|324:312,1,70
264,332,33906,2,0,P|204:344|120:336,1,140,10|2,0:0|0:0,0:0:0:0:
68,196,34620,6,0,P|136:183|206:190,1,140,2|2,3:2|0:0,0:0:0:0:
276,224,35156,1,2,0:0:0:0:
324,164,35334,2,0,L|332:88,1,70,2|0,0:0|0:0,0:0:0:0:
408,76,35691,2,0,L|400:152,1,70,10|0,0:0|0:0,0:0:0:0:
432,216,36049,6,0,L|508:196,1,70,2|0,0:0|0:0,0:0:0:0:
504,296,36406,2,0,L|436:313,1,70,2|0,0:0|0:0,0:0:0:0:
352,368,36763,2,0,P|308:356|204:352,1,140,10|0,0:0|0:0,0:0:0:0:
144,212,37477,6,0,P|213:210|281:194,1,140,6|0,0:0|0:0,0:0:0:0:
332,136,38011,1,2,0:0:0:0:
268,92,38190,2,0,P|199:94|131:110,1,140,10|2,0:0|0:0,0:0:0:0:
130,110,38904,6,0,P|120:68|96:28,1,70,2|0,3:2|0:0,0:0:0:0:
32,108,39261,2,0,P|17:139|9:173,1,70,2|0,0:0|0:0,0:0:0:0:
40,268,39618,5,10,0:0:0:0:
40,268,39976,1,8,0:0:0:0:
128,236,40154,1,8,0:0:0:0:
192,300,40333,6,0,P|228:300|280:292,1,70,2|0,0:0|0:0,0:0:0:0:
316,240,40690,2,0,L|308:152,1,70,2|0,0:0|0:0,0:0:0:0:
368,120,41047,2,0,P|420:136|432:220,1,140,10|2,0:0|0:0,0:0:0:0:
248,332,41761,6,0,P|254:265|315:239,1,140,2|2,0:0|0:0,0:0:0:0:
384,272,42297,1,2,0:0:0:0:
435,212,42476,2,0,L|447:128,1,70,10|0,0:0|0:0,0:0:0:0:
368,132,42833,2,0,L|358:62,1,70,2|0,0:0|0:0,0:0:0:0:
264,28,43190,6,0,P|216:36|152:64,1,105,2|0,3:2|0:0,0:0:0:0:
144,68,43547,2,0,L|136:148,1,70,8|0,0:0|0:0,0:0:0:0:
64,204,43904,5,10,0:2:0:0:
84,276,44083,1,0,3:0:0:0:
144,324,44261,1,0,3:0:0:0:
220,328,44440,1,0,3:0:0:0:
320,276,44618,6,0,L|300:128,1,140,6|2,0:0|0:0,0:0:0:0:
176,48,45332,2,0,L|157:186,1,140,10|0,0:0|0:0,0:0:0:0:
100,240,45868,1,0,0:0:0:0:
16,140,46046,6,0,P|8:92|16:-4,2,140,2|2|0,3:2|3:1|0:0,0:0:0:0:
16,140,47118,6,0,L|96:128,1,70,2|0,0:0|0:0,0:0:0:0:
172,168,47475,2,0,P|180:212|180:288,1,105,2|0,3:2|0:0,0:0:0:0:
176,296,47832,2,0,L|260:308,1,70,14|0,0:0|0:0,0:0:0:0:
340,248,48189,5,2,3:2:0:0:
424,300,48368,1,2,0:0:0:0:
480,224,48546,2,0,L|488:144,1,70,2|0,0:0|0:0,0:0:0:0:
400,100,48903,6,0,L|392:20,1,70,10|0,0:0|0:0,0:0:0:0:
308,152,49260,2,0,P|248:160|164:144,1,140,2|0,0:1|3:0,0:0:0:0:
170,146,49975,6,0,L|178:226,1,70,2|0,0:0|0:0,0:0:0:0:
184,292,50332,2,0,P|244:284|328:300,1,140,10|2,0:0|0:0,0:0:0:0:
392,332,50868,1,0,0:0:0:0:
472,268,51046,6,0,P|472:240|460:188,1,70,10|0,0:0|0:0,0:0:0:0:
388,124,51403,2,0,L|312:132,1,70,14|0,0:0|0:0,0:0:0:0:
224,68,51760,5,6,3:2:0:0:
144,112,51939,1,2,0:0:0:0:
60,72,52118,2,0,P|52:112|52:184,1,105,2|0,0:0|0:0,0:0:0:0:
40,196,52475,6,0,L|124:208,1,70,10|0,0:0|0:0,0:0:0:0:
176,292,52832,2,0,L|106:301,1,70,2|0,0:1|0:0,0:0:0:0:
28,376,53189,5,0,0:0:0:0:
28,376,53546,2,0,P|20:328|20:288,1,70,2|0,3:2|0:0,0:0:0:0:
96,292,53903,2,0,P|113:246|133:211,1,70,2|0,0:0|0:0,0:0:0:0:
200,244,54260,2,0,L|284:232,1,70,10|0,0:0|0:0,0:0:0:0:
392,280,54618,5,2,3:2:0:0:
440,220,54796,1,0,0:0:0:0:
436,144,54975,1,14,0:0:0:0:
392,80,55153,1,2,0:0:0:0:
320,56,55332,6,0,L|244:68,1,70,6|0,0:0|0:0,0:0:0:0:
180,100,55689,2,0,L|110:89,1,70,2|0,0:0|0:0,0:0:0:0:
48,132,56046,2,0,P|40:184|52:300,1,140,10|0,0:0|0:0,0:0:0:0:
212,356,56760,6,0,P|220:304|208:188,1,140,4|10,0:0|0:0,0:0:0:0:
196,140,57296,1,2,0:0:0:0:
232,40,57475,6,0,L|304:48,1,70,10|8,0:0|0:0,0:0:0:0:
388,108,57832,1,10,0:0:0:0:
340,188,58010,1,8,0:0:0:0:
392,264,58189,5,4,0:0:0:0:
392,264,58549,2,0,L|476:280,1,70,2|0,0:0|0:0,0:0:0:0:
464,356,58906,2,0,L|380:372,1,70,10|0,0:0|0:0,0:0:0:0:
320,320,59263,6,0,B|244:320|272:352|184:348,1,140,2|0,0:0|3:0,0:0:0:0:
116,316,59799,1,0,0:0:0:0:
44,340,59977,2,0,L|24:256,1,70,2|0,0:0|0:0,0:0:0:0:
100,144,60334,5,8,0:0:0:0:
100,144,60691,2,0,L|184:136,1,70,2|0,0:0|0:0,0:0:0:0:
220,76,61049,2,0,B|296:76|268:108|356:104,1,140,2|2,3:2|0:0,0:0:0:0:
420,64,61584,1,0,0:0:0:0:
472,156,61763,5,10,0:0:0:0:
424,216,61941,1,0,0:0:0:0:
480,276,62120,2,0,L|472:360,1,70,2|2,0:0|0:0,0:0:0:0:
356,296,62477,6,0,P|312:300|204:324,1,140,2|2,3:2|3:2,0:0:0:0:
140,348,63013,1,0,3:0:0:0:
76,264,63191,5,4,0:0:0:0:
76,264,63549,1,2,0:2:0:0:
116,200,63727,1,0,0:2:0:0:
64,140,63906,6,0,L|56:60,1,70,6|0,3:2|0:0,0:0:0:0:
116,20,64263,2,0,P|152:20|192:32,1,70,2|0,0:0|0:0,0:0:0:0:
256,112,64620,2,0,P|220:112|180:124,1,70,10|0,0:0|0:0,0:0:0:0:
116,200,64977,6,0,P|176:220|268:216,1,140,2|0,0:0|3:0,0:0:0:0:
324,188,65513,1,0,0:0:0:0:
392,224,65691,2,0,L|412:300,1,70,2|0,0:0|0:0,0:0:0:0:
344,376,66049,6,0,P|312:376|264:368,1,70,10|0,0:0|0:0,0:0:0:0:
172,316,66406,2,0,P|140:316|92:324,1,70,2|0,0:0|0:0,0:0:0:0:
4,376,66763,5,0,3:0:0:0:
4,376,67120,2,0,L|0:292,1,70,2|0,0:0|0:0,0:0:0:0:
48,244,67477,2,0,P|56:180|40:80,1,140,10|0,0:0|0:0,0:0:0:0:
24,32,68013,1,2,0:0:0:0:
84,120,68191,6,0,L|244:96,1,140,2|0,3:2|3:0,0:0:0:0:
284,52,68727,1,0,0:0:0:0:
200,132,68906,6,0,L|196:212,1,70,10|2,0:2|0:2,0:0:0:0:
188,296,69263,1,2,0:0:0:0:
368,356,69620,6,0,P|376:304|360:208,1,140,2|0,3:2|0:0,0:0:0:0:
344,144,70156,1,0,0:0:0:0:
276,228,70334,5,8,0:0:0:0:
200,212,70513,1,0,0:0:0:0:
124,196,70691,2,0,L|40:180,1,70
16,68,71049,6,0,P|48:64|96:68,1,70,0|0,3:0|0:0,0:0:0:0:
184,112,71406,2,0,P|218:116|253:113,1,70,0|0,3:0|0:0,0:0:0:0:
376,72,71763,5,8,0:0:0:0:
412,140,71941,1,0,3:0:0:0:
372,208,72120,1,0,3:0:0:0:
324,268,72299,1,0,3:0:0:0:
360,336,72477,6,0,L|504:316,1,140,2|0,3:2|0:0,0:0:0:0:
512,240,73011,1,2,0:0:0:0:
468,176,73190,2,0,L|476:104,1,70,10|0,0:0|0:0,0:0:0:0:
420,56,73547,2,0,P|392:52|336:52,1,70
276,72,73904,6,0,P|232:72|136:44,2,140,2|2|0,3:2|3:1|3:0,0:0:0:0:
276,72,74977,6,0,L|284:144,1,70,2|0,3:2|0:0,0:0:0:0:
196,192,75334,2,0,P|144:196|76:216,1,105,2|0,0:0|0:0,0:0:0:0:
68,224,75691,2,0,L|56:296,1,70,14|0,0:0|0:0,0:0:0:0:
128,364,76047,5,2,0:0:0:0:
220,348,76226,1,2,0:0:0:0:
312,332,76404,2,0,L|392:348,1,70,2|0,0:0|0:0,0:0:0:0:
484,292,76761,6,0,P|484:264|472:208,1,70,10|0,0:0|0:0,0:0:0:0:
364,184,77118,2,0,P|364:132|372:76,1,105,10|0,0:1|0:0,0:0:0:0:
380,52,77476,5,0,3:0:0:0:
296,8,77654,1,0,3:0:0:0:
208,40,77833,6,0,P|208:92|200:148,1,105,10|0,0:0|0:0,0:0:0:0:
184,168,78190,2,0,L|192:248,1,70,2|0,3:2|0:0,0:0:0:0:
112,324,78547,6,0,P|160:320|236:340,1,105,10|0,0:0|0:0,0:0:0:0:
240,344,78904,2,0,P|280:344|320:336,1,70,2|0,3:2|0:0,0:0:0:0:
376,264,79261,2,0,L|368:184,1,70,14|0,0:0|0:0,0:0:0:0:
300,88,79618,5,2,0:0:0:0:
228,148,79797,1,2,0:0:0:0:
144,108,79976,2,0,L|128:232,1,105,2|0,0:0|0:0,0:0:0:0:
140,232,80334,6,0,P|112:232|64:252,1,70,10|0,0:0|0:0,0:0:0:0:
136,344,80691,2,0,P|164:344|212:324,1,70,10|0,0:1|0:0,0:0:0:0:
292,252,81047,5,0,0:0:0:0:
292,252,81404,2,0,P|327:259|364:276,1,70,2|0,3:2|0:0,0:0:0:0:
420,224,81761,2,0,P|428:208|436:148,1,70,10|0,0:0|0:0,0:0:0:0:
388,96,82118,2,0,L|308:108,1,70,2|0,0:0|0:0,0:0:0:0:
208,52,82476,5,2,3:2:0:0:
132,68,82654,1,2,0:2:0:0:
84,128,82834,1,10,0:0:0:0:
88,204,83011,1,0,0:0:0:0:
132,268,83191,6,0,P|164:260|212:256,1,70,2|0,3:2|0:0,0:0:0:0:
256,308,83547,2,0,P|288:316|336:320,1,70,2|0,0:0|0:0,0:0:0:0:
392,284,83904,2,0,L|376:136,1,140,10|0,0:0|0:0,0:0:0:0:
368,68,84441,1,0,0:0:0:0:
264,116,84618,6,0,P|228:120|176:108,1,70,8|0,0:0|0:0,0:0:0:0:
72,64,84975,5,2,3:1:0:0:
92,150,85154,1,0,3:0:0:0:
113,237,85332,2,0,L|136:328,1,70,2|0,3:1|3:0,0:0:0:0:
248,368,85691,6,0,P|308:368|376:312,1,140,10|0,0:1|0:0,2:0:0:0:
