osu file format v14

[General]
AudioFilename: audio.mp3
AudioLeadIn: 0
PreviewTime: 183541
Countdown: 0
SampleSet: Normal
StackLeniency: 0.8
Mode: 0
LetterboxInBreaks: 0
WidescreenStoryboard: 0

[Editor]
DistanceSpacing: 1.6
BeatDivisor: 8
GridSize: 32
TimelineZoom: 1.7

[Metadata]
Title:Lacrimosa
TitleUnicode:Lacrimosa
Artist:Kalafina
ArtistUnicode:Kalafina
Creator:Kalibe
Version:Regret
Source:黒執事
Tags:Kuroshitsuji full ver ed ending black butler
BeatmapID:1759418
BeatmapSetID:840559

[Difficulty]
HPDrainRate:5.5
CircleSize:4.5
OverallDifficulty:8
ApproachRate:8.8
SliderMultiplier:3.4
SliderTickRate:1

[Events]
//Background and Video events
0,0,"kalafena.jpg",0,0
//Break Periods
2,167491,171666
//Storyboard Layer 0 (Background)
//Storyboard Layer 1 (Fail)
//Storyboard Layer 2 (Pass)
//Storyboard Layer 3 (Foreground)
//Storyboard Sound Samples

[TimingPoints]
416,625,3,2,1,30,1,0
416,-125,3,2,1,30,0,0
3541,-125,3,2,1,40,0,0
7916,-142.857142857143,3,2,1,45,0,0
11666,-133.333333333333,3,2,1,50,0,0
12603,-117.647058823529,3,2,1,60,0,0
13541,-181.818181818181,3,2,1,40,0,0
16353,-181.818181818181,3,2,1,50,0,0
17291,-153.846153846153,3,2,1,45,0,0
24791,-133.333333333333,3,2,1,50,0,0
34166,-125,3,2,1,50,0,0
35103,-250,3,2,1,50,0,0
36041,-125,3,2,1,50,0,0
36978,-250,3,2,1,50,0,0
37916,-125,3,2,1,50,0,0
42603,-250,3,2,1,50,0,0
43541,-125,3,2,1,50,0,0
44478,-250,3,2,1,50,0,0
45416,-125,3,2,1,55,0,0
49166,-100,3,2,1,70,0,0
90416,-111.111111111111,3,2,1,65,0,0
97916,-142.857142857143,3,2,1,45,0,0
116666,-125,3,2,1,50,0,0
117603,-250.000000000001,3,2,1,50,0,0
118541,-125,3,2,1,50,0,0
119478,-250.000000000001,3,2,1,50,0,0
120416,-125,3,2,1,50,0,0
125103,-250.000000000001,3,2,1,50,0,0
126041,-125,3,2,1,50,0,0
126978,-250.000000000001,3,2,1,50,0,0
127916,-125,3,2,1,55,0,0
129791,-125,3,2,1,60,0,0
131666,-105.263157894737,3,2,1,70,0,0
146666,-125,3,2,1,45,0,0
147291,-200,3,2,1,45,0,0
150416,-125,3,2,1,45,0,0
151041,-200,3,2,1,45,0,0
154166,-133.333333333333,3,2,1,55,0,0
157916,-133.333333333333,3,2,1,60,0,0
161666,-285.714285714284,3,2,1,35,0,0
163228,-285.714285714284,3,2,1,15,0,0
172916,-285.714285714284,3,1,1,40,0,0
182291,-181.818181818181,3,2,1,50,0,0
183462,-181.818181818181,3,2,1,5,0,0
183541,-181.818181818181,3,2,1,60,0,0
184166,-100,3,2,1,70,0,0
217916,-100,3,2,1,65,0,0
221041,-100,3,2,1,70,0,0
225416,-100,3,2,1,65,0,0
232916,-400,3,2,1,30,0,0
236744,-1000,3,2,1,15,0,0

[Colours]
Combo1 : 255,40,40
Combo2 : 192,192,192
Combo3 : 128,128,128
Combo4 : 255,128,128

[HitObjects]
476,127,416,6,0,P|484:205|496:270,1,136,4|0,3:0|0:0,0:0:0:0:
425,344,884,2,0,P|368:348|339:265,1,136,2|0,0:0|0:0,0:0:0:0:
332,285,1353,2,0,P|345:250|352:213,1,68,0|0,3:0|0:0,0:0:0:0:
203,305,1666,6,0,P|141:316|52:341,1,136,2|0,0:0|0:0,0:0:0:0:
70,334,2134,1,0,0:0:0:0:
115,246,2291,2,0,P|103:214|95:180,1,68,2|0,3:0|0:0,0:0:0:0:
204,227,2603,1,2,0:0:0:0:
204,227,2759,2,0,P|258:207|263:118,1,136,2|0,0:0|0:0,0:0:0:0:
176,68,3228,2,0,P|143:85|107:100,1,68,0|0,3:0|0:0,0:0:0:0:
4,230,3541,38,0,B|86:219|52:189|139:178,1,136,2|0,0:0|3:0,0:0:0:0:
488,344,4166,2,0,B|411:334|445:304|363:293,1,136,2|0,0:0|0:0,0:0:0:0:
300,228,4634,1,0,0:0:0:0:
388,170,4791,2,0,B|418:188|468:198|468:198,1,68,2|0,0:3|0:0,0:0:0:0:
302,342,5103,2,0,B|332:324|382:314|382:314,1,68,2|0,0:3|0:0,0:0:0:0:
222,188,5416,2,0,P|173:218|179:291,2,136,2|2|0,0:3|0:0|3:0,0:0:0:0:
467,85,6353,5,0,0:0:0:0:
467,85,6509,1,2,0:0:0:0:
379,148,6666,2,0,P|376:114|366:81,1,68,0|0,3:0|0:0,0:0:0:0:
472,183,6978,2,0,P|481:150|484:116,1,68,2|0,3:0|0:0,0:0:0:0:
315,223,7291,2,0,P|317:256|327:289,1,68,2|0,3:0|0:0,0:0:0:0:
222,188,7603,2,0,P|212:220|209:254,1,68,2|0,0:0|0:0,0:0:0:0:
354,375,7916,37,4,3:0:0:0:
419,334,8072,2,0,B|428:276|441:213|441:213,1,118.999996368408,8|0,3:0|0:0,0:0:0:0:
440,216,8541,2,0,P|474:238|492:242,1,59.4999981842042,2|0,0:0|0:0,0:0:0:0:
321,127,8853,2,0,B|196:147|266:231|118:253,1,237.999992736817,2|0,3:0|0:0,0:0:0:0:
126,238,9791,5,8,3:0:0:0:
198,306,9947,2,0,B|256:306|316:334|316:334,1,118.999996368408,8|0,3:0|0:0,0:0:0:0:
313,332,10416,2,0,P|309:314|304:263,1,59.4999981842042,2|0,0:0|0:0,0:0:0:0:
275,181,10728,2,0,P|251:198|225:213,1,59.4999981842042,2|0,0:0|0:0,0:0:0:0:
148,273,11041,2,0,P|173:288|197:305,1,59.4999981842042,2|0,0:0|0:0,0:0:0:0:
465,179,11353,2,0,B|416:166|381:209|381:209,1,89.2499972763062,2|0,3:0|0:0,0:0:0:0:
384,205,11666,38,0,P|393:250|396:285,1,63.7500024318696,4|0,0:0|0:0,0:0:0:0:
460,301,11978,1,2,3:0:0:0:
280,212,12134,1,12,0:0:0:0:
174,292,12291,5,12,3:0:0:0:
96,318,12447,1,0,3:0:0:0:
242,365,12603,38,0,L|336:381,1,72.2500013780594,10|0,1:0|0:0,0:0:0:0:
512,237,12916,5,12,0:0:0:0:
336,125,13072,1,8,3:0:0:0:
368,206,13228,37,10,3:0:0:0:
481,156,13384,1,0,3:0:0:0:
409,121,13541,6,0,P|410:191|417:261,2,140.25000428009,4|8|8,0:1|0:0|3:0,0:0:0:0:
409,121,14791,2,0,P|438:112|459:105,1,46.7500014266968,8|0,3:0|0:0,0:0:0:0:
449,184,15103,2,0,P|471:190|493:198,1,46.7500014266968,8|0,3:0|0:0,0:0:0:0:
265,366,15416,38,0,P|201:361|176:297,1,140.25000428009,2|8,3:0|0:0,0:0:0:0:
103,271,16041,2,0,L|55:288,1,46.7500014266968,0|0,0:0|3:0,0:0:0:0:
224,172,16353,1,2,3:0:0:0:
279,224,16509,1,8,3:0:0:0:
194,284,16666,5,2,0:0:0:0:
352,161,16822,37,8,3:0:0:0:
252,101,16978,1,0,3:0:0:0:
252,101,17134,1,2,0:0:0:0:
337,142,17291,6,0,B|428:128|383:71|479:50,1,165.749992412568,4|8,1:2|0:0,0:0:0:0:
508,112,17916,2,0,P|508:142|517:179,1,55.2499974708558,2|0,0:0|0:0,0:0:0:0:
349,379,18228,2,0,P|361:318|367:252,2,110.499994941712,2|0|2,3:0|3:0|0:0,0:0:0:0:
426,358,19009,1,0,0:0:0:0:
438,211,19166,38,0,B|408:200|375:177|375:177,1,55.2499974708558,0|0,3:0|0:0,0:0:0:0:
325,144,19478,1,2,0:0:0:0:
472,51,19634,2,0,P|420:71|367:87,1,110.499994941712,8|0,0:0|3:0,0:0:0:0:
485,140,20103,5,2,3:0:0:0:
388,185,20259,1,0,3:0:0:0:
331,281,20416,37,2,3:2:0:0:
407,321,20572,1,8,3:0:0:0:
329,309,20728,1,0,3:0:0:0:
403,287,20884,1,2,0:0:0:0:
225,283,21041,6,0,L|106:308,1,110.499994941712,4|0,1:2|0:0,0:0:0:0:
53,344,21509,1,8,0:0:0:0:
2,262,21666,2,0,P|13:238|28:197,1,55.2499974708558,2|0,0:0|0:0,0:0:0:0:
129,122,21978,2,0,P|166:135|179:204,1,110.499994941712,8|0,3:0|3:0,0:0:0:0:
253,371,22447,1,8,3:0:0:0:
139,292,22603,1,0,3:0:0:0:
272,216,22759,1,2,0:0:0:0:
323,317,22916,38,0,B|233:333|270:359|158:374,1,165.749992412568,4|8,3:0|0:0,0:0:0:0:
358,229,23541,2,0,P|382:241|409:248,1,55.2499974708558,2|0,0:0|0:0,0:0:0:0:
308,152,23853,1,10,3:0:0:0:
354,57,24009,2,0,P|301:72|246:83,1,110.499994941712,8|0,3:0|3:0,0:0:0:0:
178,108,24478,1,8,3:0:0:0:
220,216,24634,1,0,0:0:0:0:
153,257,24791,6,0,P|97:275|21:305,1,127.500004863739,2|0,3:2|0:0,0:0:0:0:
86,191,25259,1,8,0:0:0:0:
16,138,25416,2,0,P|10:171|0:199,1,63.7500024318696,2|0,0:0|0:0,0:0:0:0:
149,359,25728,2,0,P|200:358|247:298,1,127.500004863739,8|0,3:0|3:0,0:0:0:0:
327,237,26197,1,2,3:0:0:0:
327,237,26353,2,0,L|343:307,1,63.7500024318696,0|4,3:0|0:3,0:0:0:0:
218,142,26666,38,0,P|236:70|247:6,1,127.500004863739,4|0,1:2|0:0,0:0:0:0:
325,87,27134,2,0,P|363:76|399:70,1,63.7500024318696,8|2,0:0|0:0,0:0:0:0:
447,30,27447,1,2,3:0:0:0:
376,161,27603,1,0,3:0:0:0:
376,161,27759,2,0,P|423:159|472:223,1,127.500004863739,8|2,3:0|3:0,0:0:0:0:
510,311,28228,2,0,P|496:347|487:388,1,63.7500024318696,2|0,0:0|0:0,0:0:0:0:
317,264,28541,6,0,P|261:253|198:220,1,127.500004863739,0|0,3:0|0:0,0:0:0:0:
76,321,29009,1,8,0:0:0:0:
141,353,29166,2,0,P|164:344|208:332,1,63.7500024318696,2|0,0:0|0:0,0:0:0:0:
132,183,29478,2,0,P|162:191|192:202,1,63.7500024318696,8|0,3:0|0:0,0:0:0:0:
144,267,29791,37,8,3:0:0:0:
266,234,29947,1,2,3:0:0:0:
349,296,30103,5,0,3:0:0:0:
434,328,30259,1,0,3:0:0:0:
512,146,30416,38,0,L|495:4,1,127.500004863739,4|2,3:0|0:0,0:0:0:0:
365,107,30884,1,8,0:0:0:0:
432,151,31041,1,2,3:0:0:0:
391,93,31197,1,8,3:0:0:0:
308,165,31353,1,2,3:0:0:0:
308,165,31509,2,0,B|238:168|171:198|171:198,1,127.500004863739,8|2,3:0|3:0,0:0:0:0:
49,67,31978,2,0,P|74:80|110:90,1,63.7500024318696,0|0,3:0|0:0,0:0:0:0:
0,236,32291,6,0,P|30:194|108:173,1,127.500004863739,4|2,3:0|0:0,0:0:0:0:
202,234,32759,1,8,0:0:0:0:
140,339,32916,2,0,P|128:309|114:280,1,63.7500024318696,2|2,0:0|0:3,0:0:0:0:
283,143,33228,1,8,0:0:0:0:
283,143,33541,37,8,0:0:0:0:
418,235,33697,1,8,3:0:0:0:
386,161,33853,5,0,3:0:0:0:
294,220,34009,1,0,3:0:0:0:
357,303,34166,38,0,P|409:284|504:274,1,136,4|0,0:2|0:0,0:0:0:0:
512,201,34634,1,2,3:0:0:0:
421,65,34791,2,0,P|458:76|496:82,1,68,2|0,0:0|0:0,0:0:0:0:
189,198,35103,6,0,P|135:210|84:229,1,102,10|2,1:0|3:0,0:0:0:0:
20,251,35728,1,0,3:0:0:0:
20,251,36041,38,0,L|179:283,1,136,2|0,0:0|0:0,0:0:0:0:
224,263,36509,1,2,3:0:0:0:
270,356,36666,2,0,P|308:364|343:373,1,68,2|0,0:0|0:0,0:0:0:0:
355,63,36978,6,0,P|309:79|252:93,1,102,10|2,1:0|3:0,0:0:0:0:
211,154,37603,1,0,3:0:0:0:
211,154,37916,38,0,B|296:169|252:194|338:210,1,136,2|0,0:0|0:0,0:0:0:0:
423,154,38384,1,2,3:0:0:0:
306,99,38541,2,0,P|347:94|376:82,1,68,2|0,0:0|0:0,0:0:0:0:
270,273,38853,2,0,P|266:239|255:207,1,68,8|0,0:0|0:0,0:0:0:0:
425,344,39166,2,0,P|384:349|355:361,1,68,2|0,0:0|0:0,0:0:0:0:
493,211,39478,2,0,P|496:244|507:276,1,68,4|0,3:0|0:0,0:0:0:0:
366,257,39791,6,0,B|293:239|220:220|220:220,1,136,2|0,0:0|0:0,0:0:0:0:
137,322,40259,1,2,3:0:0:0:
137,322,40416,2,0,B|111:294|126:259|126:259,1,68,2|0,0:0|0:0,0:0:0:0:
308,89,40728,2,0,B|334:117|319:152|319:152,1,68,8|0,0:0|0:0,0:0:0:0:
123,55,41041,2,0,P|159:41|186:29,1,68,12|0,0:0|0:0,0:0:0:0:
155,237,41353,2,0,P|191:251|218:263,1,68,6|0,0:0|0:0,0:0:0:0:
49,172,41666,38,0,B|110:140|189:140|189:140,1,136,4|0,3:0|0:0,0:0:0:0:
241,273,42134,1,2,3:0:0:0:
261,197,42291,2,0,B|296:201|330:222|330:222,1,68,2|0,0:0|0:0,0:0:0:0:
70,375,42603,6,0,P|113:335|166:327,1,102,10|2,1:0|3:0,0:0:0:0:
221,354,43228,1,0,3:0:0:0:
512,82,43541,38,0,P|448:68|366:43,1,136,2|0,0:0|0:0,0:0:0:0:
315,89,44009,1,2,3:0:0:0:
397,191,44166,2,0,P|429:180|462:172,1,68,2|0,0:0|0:0,0:0:0:0:
248,325,44478,6,0,P|291:332|346:354,1,102,10|2,1:0|3:0,0:0:0:0:
422,381,45103,1,4,3:0:0:0:
422,381,45416,38,0,P|477:340|458:267,1,136,4|0,1:2|0:0,0:0:0:0:
372,197,45884,1,2,3:0:0:0:
472,93,46041,2,0,P|477:125|491:169,1,68,2|0,0:0|0:0,0:0:0:0:
248,324,46353,2,0,P|266:258|273:191,1,136,8|0,0:0|0:0,0:0:0:0:
181,102,46822,1,0,0:0:0:0:
246,57,46978,2,0,P|278:62|322:73,1,68,4|0,3:0|0:0,0:0:0:0:
403,187,47291,5,12,3:0:0:0:
212,282,47447,1,8,0:0:0:0:
212,282,47759,37,10,1:0:0:0:
438,369,47916,1,10,1:0:0:0:
438,369,48228,5,8,0:0:0:0:
438,369,48541,37,8,1:0:0:0:
353,292,48697,5,12,3:0:0:0:
209,258,48853,37,2,3:0:0:0:
34,333,49009,5,8,1:0:0:0:
111,383,49166,6,0,B|191:345|279:344|279:344,1,170,4|0,1:0|0:0,0:0:0:0:
92,238,49634,1,12,1:2:0:0:
184,159,49791,2,0,B|139:153|97:131|97:131,1,85,2|0,0:0|0:0,0:0:0:0:
183,338,50103,2,0,B|189:293|211:251|211:251,1,85,0|0,1:0|0:0,0:0:0:0:
227,67,50416,5,8,1:3:0:0:
68,138,50572,1,2,1:0:0:0:
110,62,50728,37,8,3:0:0:0:
200,150,50884,1,0,3:0:0:0:
92,238,51041,6,0,B|48:245|-2:269|-2:269,1,85,4|0,0:0|0:0,0:0:0:0:
289,130,51353,1,2,0:0:0:0:
289,130,51509,2,0,B|383:151|333:204|429:223,1,170,8|2,0:0|3:0,0:0:0:0:
512,75,51978,37,0,1:0:0:0:
440,105,52134,1,0,3:0:0:0:
350,192,52291,5,2,1:0:0:0:
447,231,52447,1,2,3:0:0:0:
512,288,52603,37,8,1:0:0:0:
346,361,52759,1,10,1:0:0:0:
466,357,52916,6,0,B|373:293|446:210|446:210,1,170,4|2,1:2|0:0,0:0:0:0:
321,116,53384,1,8,0:0:0:0:
240,244,53541,2,0,B|278:221|326:216|326:216,1,85,4|0,3:0|0:0,0:0:0:0:
241,0,53853,2,0,B|279:23|327:28|327:28,1,85,8|0,3:0|0:0,0:0:0:0:
445,98,54166,37,2,3:0:0:0:
334,204,54322,1,0,1:0:0:0:
397,281,54478,1,2,1:0:0:0:
488,202,54634,1,8,1:0:0:0:
305,108,54791,6,0,B|216:119|258:193|140:193,1,170,4|2,1:2|0:0,0:0:0:0:
53,102,55259,2,0,B|73:62|76:12|76:12,1,85,8|2,0:0|0:0,0:0:0:0:
170,104,55572,1,0,1:0:0:0:
9,233,55728,2,0,P|43:207|96:199,1,85,8|0,3:0|3:0,0:0:0:0:
288,286,56041,1,2,1:0:0:0:
183,367,56197,2,0,P|113:377|55:306,1,170,2|0,3:0|0:0,0:0:0:0:
55,306,56666,38,0,P|98:296|147:281,1,85,4|0,0:0|0:0,0:0:0:0:
286,208,56978,1,2,1:0:0:0:
171,97,57134,2,0,B|251:134|345:138|345:138,1,170,8|2,0:0|0:0,0:0:0:0:
257,295,57603,6,0,B|213:268|243:216|243:216,1,85,8|0,3:0|0:0,0:0:0:0:
419,36,57916,2,0,B|463:63|433:115|433:115,1,85,8|0,3:0|0:0,0:0:0:0:
354,212,58228,1,8,3:0:0:0:
336,138,58384,1,2,0:0:0:0:
219,26,58541,38,0,P|182:80|78:78,1,170,4|2,1:2|0:0,0:0:0:0:
0,203,59009,1,8,0:0:0:0:
43,263,59166,2,0,P|28:305|15:361,1,85,2|0,1:0|0:0,0:0:0:0:
215,191,59478,5,8,3:0:0:0:
182,105,59634,1,2,3:0:0:0:
87,160,59791,1,0,3:0:0:0:
129,281,59947,1,8,3:0:0:0:
313,184,60103,38,0,P|268:172|225:156,1,85,2|0,3:0|0:0,0:0:0:0:
128,386,60416,6,0,P|201:351|297:330,1,170,4|2,1:2|0:0,0:0:0:0:
409,294,60884,2,0,P|397:334|388:376,1,85,8|0,0:0|0:0,0:0:0:0:
268,252,61197,1,2,1:0:0:0:
392,167,61353,38,0,P|432:150|477:145,1,85,8|0,3:0|0:0,0:0:0:0:
287,330,61666,2,0,P|244:324|206:307,1,85,10|0,3:0|0:0,0:0:0:0:
464,237,61978,6,0,P|492:268|473:324,1,85,4|0,3:0|0:0,0:0:0:0:
253,208,62291,2,0,P|247:140|331:86,1,170,4|2,1:0|0:0,0:0:0:0:
469,160,62759,1,8,0:0:0:0:
367,267,62916,2,0,P|361:219|350:177,1,85,2|0,1:0|0:0,0:0:0:0:
168,39,63228,37,10,3:0:0:0:
331,99,63384,1,8,3:0:0:0:
262,191,63541,5,8,1:0:0:0:
161,224,63697,1,8,1:0:0:0:
53,323,63853,37,0,1:0:0:0:
121,362,64009,1,0,1:0:0:0:
277,291,64166,6,0,P|229:214|156:227,1,170,4|2,1:0|0:0,0:0:0:0:
43,163,64634,1,8,0:0:0:0:
197,58,64791,2,0,P|177:93|158:140,1,85,2|0,0:0|0:0,0:0:0:0:
20,67,65103,2,0,P|60:53|114:28,1,85,0|0,3:0|0:0,0:0:0:0:
78,268,65416,2,0,P|40:251|0:237,1,85,2|0,3:0|3:0,0:0:0:0:
44,163,65728,38,0,B|143:147|111:193|211:178,2,170,2|0|0,0:0|3:0|0:0,0:0:0:0:
95,253,66509,1,8,0:0:0:0:
188,156,66666,1,2,0:0:0:0:
276,220,66822,1,0,0:0:0:0:
384,121,66978,2,0,P|391:78|407:32,1,85,0|8,3:0|3:0,0:0:0:0:
285,119,67291,5,2,0:0:0:0:
436,218,67447,1,10,3:0:0:0:
460,145,67603,1,0,3:0:0:0:
295,198,67759,1,0,0:0:0:0:
338,347,67916,38,0,B|350:308|343:295|356:252,1,85,2|0,1:0|0:0,0:0:0:0:
210,178,68228,1,0,3:0:0:0:
113,246,68384,2,0,B|104:214|106:193|87:128,1,85,8|2,0:0|0:0,0:0:0:0:
248,304,68697,1,0,3:0:0:0:
375,153,68853,5,8,3:0:0:0:
214,216,69009,1,2,3:0:0:0:
352,263,69166,37,8,3:0:0:0:
442,300,69322,1,8,3:0:0:0:
512,197,69478,5,2,3:0:0:0:
352,263,69634,1,2,3:0:0:0:
355,178,69791,38,0,B|268:178|303:241|197:250,1,170,4|0,1:2|0:0,0:0:0:0:
50,339,70259,1,8,0:0:0:0:
32,271,70416,2,0,P|26:227|16:182,1,85,2|0,0:0|0:0,0:0:0:0:
197,9,70728,5,0,3:0:0:0:
97,63,70884,1,8,3:0:0:0:
203,216,71041,2,0,P|210:173|230:119,1,85,2|8,0:0|3:0,0:0:0:0:
363,290,71353,1,0,3:0:0:0:
251,345,71509,1,2,3:0:0:0:
380,199,71666,2,0,P|435:205|496:307,1,170,2|0,1:0|0:0,0:0:0:0:
297,229,72134,37,8,0:0:0:0:
375,117,72291,2,0,B|361:77|361:77|356:27,1,85,2|0,0:0|0:0,0:0:0:0:
162,236,72603,2,0,B|176:196|176:196|181:146,1,85,8|2,3:0|3:0,0:0:0:0:
416,317,72916,2,0,B|402:277|402:277|397:227,1,85,2|8,0:0|3:0,0:0:0:0:
282,157,73228,5,0,3:0:0:0:
203,327,73384,1,2,0:0:0:0:
311,266,73541,38,0,B|214:256|269:200|155:181,1,170,4|0,1:2|0:0,0:0:0:0:
55,108,74009,1,8,0:0:0:0:
146,16,74166,2,0,P|156:58|177:94,1,85,2|0,0:0|0:0,0:0:0:0:
142,275,74478,2,0,P|178:253|219:244,1,85,8|0,3:0|3:0,0:0:0:0:
60,135,74791,2,0,P|34:166|33:245,1,85,2|8,0:0|3:0,0:0:0:0:
291,92,75103,2,0,P|282:50|255:18,1,85,2|0,0:0|0:0,0:0:0:0:
142,275,75416,6,0,P|181:320|286:311,1,170,0|0,1:0|0:0,0:0:0:0:
362,219,75884,2,0,P|307:207|267:192,1,85,8|2,0:0|0:0,0:0:0:0:
391,368,76197,1,0,0:0:0:0:
499,269,76353,38,0,B|482:199|482:199|493:177|493:177|472:91,1,170,4|0,1:0|0:0,0:0:0:0:
326,7,76822,1,8,0:0:0:0:
397,84,76978,1,0,3:0:0:0:
244,146,77134,1,2,0:0:0:0:
367,233,77291,6,0,B|403:232|411:216|459:210,1,85,4|0,1:2|0:0,0:0:0:0:
231,62,77603,2,0,B|267:63|275:79|323:85,1,85,2|8,3:0|0:0,0:0:0:0:
130,308,77916,2,0,B|166:307|174:291|222:285,1,85,8|8,0:0|3:0,0:0:0:0:
99,132,78228,37,8,0:0:0:0:
196,170,78384,1,8,3:0:0:0:
221,288,78541,5,2,3:0:0:0:
367,233,78697,1,8,3:0:0:0:
488,384,78853,37,10,1:0:0:0:
313,327,79009,1,2,1:0:0:0:
417,155,79166,6,0,P|478:183|474:292,1,170,4|0,1:0|0:0,0:0:0:0:
303,118,79634,2,0,P|318:72|328:18,1,85,8|2,3:0|0:0,0:0:0:0:
417,155,79947,1,0,0:0:0:0:
278,229,80103,2,0,B|194:252|114:292|114:292,1,170,14|0,1:0|0:0,0:0:0:0:
200,153,80572,1,0,0:0:0:0:
137,85,80728,2,0,P|99:138|100:176,1,85,2|0,0:0|0:0,0:0:0:0:
177,362,81041,2,0,P|215:309|214:271,1,85,2|0,3:0|0:0,0:0:0:0:
126,246,81353,37,2,0:0:0:0:
308,333,81509,1,8,0:0:0:0:
278,229,81666,1,2,0:0:0:0:
86,354,81822,1,8,0:0:0:0:
227,310,81978,6,0,B|274:315|319:338|319:338,1,85,14|0,1:0|0:0,0:0:0:0:
149,164,82291,2,0,B|144:211|121:256|121:256,1,85,10|8,3:0|3:0,0:0:0:0:
323,62,82603,2,0,B|276:57|231:34|231:34,1,85,0|0,3:0|0:0,0:0:0:0:
250,206,82916,38,0,B|343:195|300:148|417:134,1,170,4|0,1:2|0:0,0:0:0:0:
489,193,83384,2,0,P|498:153|518:98,1,85,8|2,0:0|0:0,0:0:0:0:
343,258,83697,1,0,3:0:0:0:
432,352,83853,2,0,B|471:331|471:331|521:320,1,85,14|0,1:0|0:0,0:0:0:0:
314,144,84166,2,0,B|353:165|353:165|403:176,1,85,2|0,0:0|3:0,0:0:0:0:
222,384,84478,2,0,P|195:349|210:294,1,85,2|0,3:0|0:0,0:0:0:0:
344,44,84791,6,0,P|406:90|380:184,1,170,4|2,1:2|0:0,0:0:0:0:
309,253,85259,1,8,0:0:0:0:
254,197,85416,1,2,0:0:0:0:
314,144,85572,1,0,3:0:0:0:
348,378,85728,37,14,1:0:0:0:
348,378,86041,5,8,3:0:0:0:
434,237,86197,1,14,3:0:0:0:
322,172,86353,1,10,3:0:0:0:
230,310,86509,1,2,3:0:0:0:
352,256,86666,38,0,B|339:174|338:79|338:79,1,170,4|0,1:2|0:0,0:0:0:0:
233,0,87134,1,8,0:0:0:0:
159,52,87291,1,2,0:0:0:0:
222,97,87447,1,0,3:0:0:0:
133,202,87603,2,0,P|92:210|42:225,1,85,12|0,1:0|0:0,0:0:0:0:
259,384,87916,2,0,P|218:372|176:363,1,85,12|0,1:2|0:0,0:0:0:0:
342,166,88228,2,0,P|372:197|371:247,1,85,2|0,0:0|0:0,0:0:0:0:
194,140,88541,6,0,P|220:88|326:70,1,170,4|0,1:2|0:0,0:0:0:0:
435,158,89009,1,10,0:0:0:0:
512,151,89166,38,0,B|434:150|462:223|349:214,2,170,2|12|2,0:0|0:0|0:0,0:0:0:0:
495,251,89947,1,2,3:0:0:0:
473,366,90103,2,0,P|429:355|373:354,1,85,2|0,3:2|0:0,0:0:0:0:
215,238,90416,6,0,P|297:241|384:123,1,229.499992996216,2|2,1:0|3:0,0:0:0:0:
309,71,91041,2,0,P|285:99|278:145,1,76.4999976654053,2|0,3:2|0:0,0:0:0:0:
381,327,91353,2,0,P|405:299|412:253,1,76.4999976654053,12|0,0:0|0:0,0:0:0:0:
476,136,91666,2,0,L|402:156,1,76.4999976654053,2|0,0:0|3:0,0:0:0:0:
290,258,91978,2,0,L|216:279,1,76.4999976654053,2|0,3:0|0:0,0:0:0:0:
52,344,92291,38,0,B|41:285|44:252|28:176,1,152.999995330811,4|0,0:0|0:0,0:0:0:0:
139,85,92759,1,8,0:0:0:0:
64,13,92916,2,0,P|38:58|43:108,1,76.4999976654053,2|0,0:0|3:0,0:0:0:0:
139,239,93228,1,12,0:0:0:0:
340,30,93541,5,2,3:0:0:0:
196,145,93697,1,4,3:0:0:0:
226,72,93853,1,8,3:0:0:0:
341,134,94009,1,8,3:0:0:0:
272,243,94166,38,0,P|264:292|248:363,1,114.749996498108,4|0,0:0|0:0,0:0:0:0:
249,355,94478,2,0,P|292:344|329:337,1,76.4999976654053,2|8,0:0|0:0,0:0:0:0:
404,283,94791,1,2,0:0:0:0:
470,324,94947,1,2,3:0:0:0:
512,194,95103,2,0,P|504:156|500:102,1,76.4999976654053,10|0,1:0|0:0,0:0:0:0:
270,237,95416,2,0,P|278:199|282:145,1,76.4999976654053,2|8,1:0|1:0,0:0:0:0:
407,254,95728,5,2,0:0:0:0:
385,149,95884,1,2,0:0:0:0:
367,41,96041,2,0,B|286:32|296:80|203:65,1,152.999995330811,4|2,1:2|0:0,0:0:0:0:
79,112,96509,37,8,1:0:0:0:
270,237,96666,5,8,0:0:0:0:
105,311,96822,1,8,3:0:0:0:
210,157,96978,1,8,1:0:0:0:
349,330,97134,1,8,0:0:0:0:
200,384,97291,37,2,3:0:0:0:
228,314,97447,1,8,3:0:0:0:
440,260,97603,5,10,3:0:0:0:
424,191,97759,1,0,3:0:0:0:
432,114,97916,1,2,3:2:0:0:
432,114,98228,6,0,P|440:152|453:185,1,59.4999981842042
502,226,98541,2,0,P|492:254|487:283,1,59.4999981842042,2|0,0:0|0:0,0:0:0:0:
412,384,98853,1,8,1:0:0:0:
370,228,99009,5,8,0:0:0:0:
279,291,99166,37,0,3:0:0:0:
344,324,99322,1,2,3:0:0:0:
284,169,99478,1,8,3:0:0:0:
349,136,99634,1,0,3:0:0:0:
214,233,99791,6,0,B|156:221|174:198|100:186,1,118.999996368408,4|0,3:0|0:0,0:0:0:0:
6,104,100259,2,0,P|43:84|78:78,1,59.4999981842042,8|2,0:0|0:0,0:0:0:0:
108,26,100572,1,0,3:0:0:0:
182,112,100728,2,0,P|189:81|207:38,1,59.4999981842042,2|0,3:0|0:0,0:0:0:0:
84,158,101041,1,0,3:0:0:0:
194,208,101197,2,0,P|253:189|336:175,1,118.999996368408,8|0,3:0|0:0,0:0:0:0:
415,125,101666,38,0,P|398:163|394:190,1,59.4999981842042,0|0,3:0|0:0,0:0:0:0:
289,74,101978,1,0,3:0:0:0:
289,74,102134,2,0,P|317:32|421:56,1,118.999996368408,8|0,0:0|3:0,0:0:0:0:
492,81,102603,5,2,3:0:0:0:
392,178,102759,1,2,3:0:0:0:
460,219,102916,1,0,3:0:0:0:
491,305,103072,1,8,3:0:0:0:
436,359,103228,1,4,3:0:0:0:
436,359,103541,38,0,B|384:353|372:327|323:323,1,118.999996368408,0|0,3:0|0:0,0:0:0:0:
241,267,104009,2,0,P|188:307|213:384,1,118.999996368408,8|0,0:0|3:0,0:0:0:0:
325,239,104478,2,0,P|316:212|305:170,1,59.4999981842042,2|0,3:0|0:0,0:0:0:0:
228,190,104791,1,0,3:0:0:0:
109,149,104947,1,8,3:0:0:0:
164,96,105103,2,0,P|149:139|143:178,1,59.4999981842042,0|0,3:0|0:0,0:0:0:0:
61,317,105416,6,0,P|13:297|38:196,1,118.999996368408,0|0,3:0|0:0,0:0:0:0:
77,196,105884,2,0,P|109:185|166:172,1,59.4999981842042,8|2,0:0|0:0,0:0:0:0:
226,289,106197,1,0,3:0:0:0:
294,247,106353,2,0,P|326:257|383:271,1,59.4999981842042,2|8,3:0|3:0,0:0:0:0:
512,363,106666,1,0,0:0:0:0:
444,245,106822,1,8,3:0:0:0:
383,346,106978,1,8,3:0:0:0:
454,316,107134,1,0,3:0:0:0:
314,230,107291,38,0,P|256:269|264:326,1,118.999996368408,2|0,3:2|0:0,0:0:0:0:
386,181,107759,2,0,L|364:90,1,59.4999981842042,8|2,0:0|0:0,0:0:0:0:
280,87,108072,1,0,3:0:0:0:
417,1,108228,2,0,P|374:22|343:31,1,59.4999981842042,2|0,3:0|0:0,0:0:0:0:
479,158,108541,1,0,3:0:0:0:
479,158,108697,2,0,P|420:122|348:131,1,118.999996368408,8|0,3:0|0:0,0:0:0:0:
199,196,109166,6,0,P|255:210|317:231,1,118.999996368408,4|0,3:0|0:0,0:0:0:0:
409,356,109634,1,8,0:0:0:0:
343,317,109791,2,0,P|334:345|325:373,1,59.4999981842042,2|0,0:0|3:0,0:0:0:0:
432,245,110103,1,2,3:0:0:0:
509,262,110259,2,0,P|496:210|481:130,1,118.999996368408,0|8,3:0|3:0,0:0:0:0:
377,76,110728,1,0,3:0:0:0:
349,162,110884,1,2,0:3:0:0:
446,40,111041,38,0,P|382:32|312:10,1,118.999996368408,2|0,3:2|0:0,0:0:0:0:
237,76,111509,1,8,0:0:0:0:
293,154,111666,2,0,P|326:137|372:124,1,59.4999981842042,2|2,0:0|3:0,0:0:0:0:
199,8,111978,2,0,P|151:31|149:124,1,118.999996368408,0|0,3:0|3:0,0:0:0:0:
56,152,112447,1,8,3:0:0:0:
106,215,112603,1,0,3:0:0:0:
30,297,112759,1,2,3:2:0:0:
85,360,112916,6,0,P|136:343|211:329,1,118.999996368408,2|0,3:0|0:0,0:0:0:0:
240,255,113384,2,0,P|234:227|229:180,2,59.4999981842042,8|2|2,0:0|0:0|3:0,0:0:0:0:
357,361,113853,1,8,3:0:0:0:
357,361,114009,2,0,P|388:328|374:230,1,118.999996368408,0|8,3:0|3:0,0:0:0:0:
510,187,114478,2,0,P|462:172|423:160,1,59.4999981842042,2|0,3:0|0:0,0:0:0:0:
271,86,114791,38,0,P|295:38|417:27,1,178.499994552612,4|8,3:0|0:0,0:0:0:0:
459,77,115416,2,0,P|433:92|405:99,1,59.4999981842042,2|0,0:0|0:0,0:0:0:0:
187,218,115728,2,0,L|297:195,1,89.2499972763062,8|0,1:0|0:0,0:0:0:0:
274,199,116041,2,0,P|261:247|254:278,1,59.4999981842042,8|8,1:0|3:0,0:0:0:0:
421,371,116353,1,2,3:0:0:0:
402,293,116509,1,2,3:0:0:0:
283,342,116666,6,0,P|206:359|133:380,1,136,4|0,0:2|0:0,0:0:0:0:
358,203,117134,1,2,3:0:0:0:
422,250,117291,2,0,P|453:256|508:270,1,68,2|0,0:0|0:0,0:0:0:0:
222,97,117603,38,0,P|178:131|180:188,1,102,10|2,1:0|3:0,0:0:0:0:
254,276,118228,1,0,3:0:0:0:
254,276,118541,6,0,L|114:249,1,136,2|0,0:0|0:0,0:0:0:0:
243,92,119009,1,2,3:0:0:0:
192,36,119166,2,0,L|120:52,1,68,2|0,0:0|0:0,0:0:0:0:
43,308,119478,38,0,P|6:278|22:206,1,102,10|2,1:0|3:0,0:0:0:0:
77,137,120103,1,0,3:0:0:0:
77,137,120416,6,0,B|146:136|129:171|204:177,1,136,2|0,0:0|0:0,0:0:0:0:
349,125,120884,1,2,3:0:0:0:
276,33,121041,2,0,P|273:69|259:112,1,68,2|0,0:0|0:0,0:0:0:0:
445,219,121353,2,0,P|435:187|433:153,1,68,8|0,0:0|0:0,0:0:0:0:
305,359,121666,1,0,3:0:0:0:
406,304,121822,1,8,3:0:0:0:
232,202,121978,2,0,P|208:237|219:299,1,68,2|0,3:0|0:0,0:0:0:0:
454,151,122291,38,0,B|438:92|448:74|428:4,1,136,2|0,0:0|0:0,0:0:0:0:
333,150,122759,1,2,3:0:0:0:
279,93,122916,2,0,P|244:99|201:113,1,68,2|0,0:0|0:0,0:0:0:0:
302,286,123228,2,0,P|269:276|235:270,1,68,8|0,0:0|0:0,0:0:0:0:
496,238,123541,5,0,3:0:0:0:
364,348,123697,1,8,0:0:0:0:
461,316,123853,1,8,3:0:0:0:
402,267,124009,1,0,0:0:0:0:
242,315,124166,38,0,P|264:360|343:373,1,136,2|0,0:0|0:0,0:0:0:0:
254,221,124634,1,2,3:0:0:0:
156,263,124791,2,0,P|130:287|110:368,1,68,2|0,0:0|0:0,0:0:0:0:
301,118,125103,6,0,P|344:104|415:95,1,102,10|2,1:0|3:0,0:0:0:0:
295,9,125728,1,0,3:0:0:0:
295,9,126041,38,0,B|213:21|257:52|158:66,1,136,2|0,0:0|0:0,0:0:0:0:
116,15,126509,1,2,3:0:0:0:
7,172,126666,2,0,P|15:139|22:105,1,68,2|0,0:0|0:0,0:0:0:0:
281,330,126978,6,0,P|271:275|266:203,1,102,10|2,1:0|3:0,0:0:0:0:
186,155,127603,1,0,3:0:0:0:
186,155,127916,38,0,P|131:160|100:242,1,136,2|0,0:0|0:0,0:0:0:0:
22,280,128384,1,2,3:0:0:0:
160,308,128541,2,0,P|117:318|76:337,1,68,2|0,0:0|0:0,0:0:0:0:
322,192,128853,2,0,P|367:198|460:240,1,136,8|0,0:0|0:0,0:0:0:0:
381,333,129322,1,8,3:0:0:0:
319,384,129478,2,0,P|310:349|309:308,1,68,2|0,0:0|0:0,0:0:0:0:
359,93,129791,5,4,0:0:0:0:
512,159,129947,1,8,0:0:0:0:
512,159,130259,37,8,1:0:0:0:
293,223,130416,1,2,3:0:0:0:
374,286,130572,1,8,3:0:0:0:
441,85,130728,1,12,0:0:0:0:
441,85,131041,21,8,0:0:0:0:
303,25,131197,1,2,1:0:0:0:
99,237,131353,5,8,1:0:0:0:
222,176,131509,1,8,1:0:0:0:
352,247,131666,38,0,B|215:222|318:133|138:107,1,242.249993531227,4|8,1:0|3:0,0:0:0:0:
71,64,132291,2,0,B|51:99|51:99|59:141,1,80.7499978437424,2|0,0:0|0:0,0:0:0:0:
0,355,132603,2,0,B|85:341|59:298|154:282,1,161.499995687485,8|0,0:0|0:0,0:0:0:0:
270,161,133072,5,2,3:0:0:0:
181,200,133228,1,2,0:0:0:0:
246,263,133384,1,0,0:0:0:0:
207,363,133541,37,0,3:0:0:0:
142,284,133697,1,0,0:0:0:0:
75,366,133853,1,2,0:3:0:0:
246,263,134009,1,8,0:0:0:0:
136,159,134166,6,0,P|79:146|56:137,1,80.7499978437424,2|0,0:0|0:0,0:0:0:0:
242,340,134478,2,0,P|281:347|319:360,1,80.7499978437424,8|0,0:0|0:0,0:0:0:0:
372,311,134791,1,4,3:0:0:0:
325,185,134947,1,8,3:0:0:0:
246,262,135103,1,2,3:0:0:0:
460,180,135259,1,8,1:0:0:0:
350,101,135416,38,0,B|266:90|291:46|183:38,1,161.499995687485,4|2,1:2|0:3,0:0:0:0:
78,183,135884,2,0,P|147:159|166:155,1,80.7499978437424,8|2,0:0|0:0,0:0:0:0:
215,120,136197,1,0,0:0:0:0:
27,264,136353,5,10,0:0:0:0:
183,319,136509,1,0,3:0:0:0:
160,250,136666,1,8,0:0:0:0:
54,337,136822,1,2,3:0:0:0:
122,384,136978,37,4,3:0:0:0:
160,250,137134,1,0,3:0:0:0:
383,270,137291,5,8,3:0:0:0:
364,344,137447,2,0,B|288:313|198:315|198:315,1,161.499995687485,8|0,1:0|3:0,0:0:0:0:
418,200,137916,2,0,P|450:227|461:270,1,80.7499978437424,10|0,1:0|0:0,0:0:0:0:
241,128,138228,2,0,P|200:138|172:173,1,80.7499978437424,6|0,3:0|0:0,0:0:0:0:
295,237,138541,1,8,0:0:0:0:
389,118,138697,1,8,3:0:0:0:
305,42,138853,1,8,3:0:0:0:
241,128,139009,1,0,3:0:0:0:
377,267,139166,38,0,B|465:251|424:207|523:180,1,161.499995687485,4|2,0:0|0:3,0:0:0:0:
475,114,139634,1,8,0:0:0:0:
379,63,139791,1,2,0:0:0:0:
350,132,139947,1,0,3:0:0:0:
477,26,140103,1,12,0:0:0:0:
403,46,140259,1,4,3:0:0:0:
279,193,140416,5,2,3:0:0:0:
370,166,140572,1,12,3:0:0:0:
347,237,140728,1,8,3:0:0:0:
261,121,140884,1,0,1:0:0:0:
261,121,140962,1,0,1:0:0:0:
261,121,141041,38,0,B|125:118|172:222|20:197,1,242.249993531227,4|8,1:2|0:0,0:0:0:0:
41,199,141666,2,0,L|61:107,1,80.7499978437424,2|0,0:0|3:0,0:0:0:0:
274,269,141978,6,0,P|240:295|189:314,1,80.7499978437424,8|0,1:0|0:0,0:0:0:0:
394,138,142291,2,0,P|420:172|439:223,1,80.7499978437424,12|0,1:2|0:0,0:0:0:0:
244,40,142603,2,0,P|278:14|329:-5,1,80.7499978437424,2|0,3:0|0:0,0:0:0:0:
353,213,142916,38,0,B|276:202|296:155|190:144,1,161.499995687485,4|2,0:0|0:3,0:0:0:0:
67,298,143384,5,8,0:0:0:0:
155,325,143541,1,2,0:0:0:0:
249,354,143697,1,2,3:0:0:0:
426,212,143853,37,10,1:0:0:0:
358,233,144009,1,0,1:0:0:0:
289,257,144166,1,2,1:0:0:0:
407,305,144322,5,8,3:0:0:0:
204,149,144478,1,0,1:0:0:0:
189,174,144556,1,0,1:0:0:0:
200,210,144634,1,0,1:0:0:0:
188,238,144712,1,0,1:0:0:0:
188,238,144791,38,0,P|256:228|316:149,1,161.499995687485,4|2,1:2|0:3,0:0:0:0:
376,73,145259,2,0,P|333:64|296:53,1,80.7499978437424,8|2,0:0|0:0,0:0:0:0:
212,148,145572,1,2,3:0:0:0:
381,296,145728,2,0,P|338:305|301:316,1,80.7499978437424,12|0,0:0|0:0,0:0:0:0:
475,141,146041,5,8,3:0:0:0:
322,233,146197,1,2,3:0:0:0:
305,152,146353,37,8,3:0:0:0:
491,257,146509,1,0,3:0:0:0:
383,355,146666,22,0,B|397:304|391:283|408:221,2,136,4|0|2,0:1|0:0|0:0,0:0:0:0:
383,355,147603,2,0,P|363:347|342:341,1,42.5,8|0,3:0|0:0,0:0:0:0:
234,268,147916,1,2,0:0:0:0:
234,268,148072,2,0,P|270:260|318:253,1,85,8|0,3:0|0:0,0:0:0:0:
456,366,148541,6,0,P|464:346|480:322,1,42.5,2|0,3:0|0:0,0:0:0:0:
511,257,148853,2,0,P|499:238|491:219,1,42.5,0|8,0:0|3:0,0:0:0:0:
459,149,149166,2,0,P|479:108|483:63,2,85,2|8|0,0:0|3:0|0:0,0:0:0:0:
349,240,149947,1,8,3:0:0:0:
294,194,150103,2,0,L|314:144,1,42.5,0|0,3:0|0:0,0:0:0:0:
372,16,150416,38,0,P|310:28|231:48,2,136,2|0|2,3:0|0:0|0:0,0:0:0:0:
372,16,151353,2,0,P|361:51|361:66,1,42.5,8|0,3:0|0:0,0:0:0:0:
216,161,151666,1,2,0:0:0:0:
158,211,151822,2,0,P|167:250|173:313,1,85,8|0,3:0|0:0,0:0:0:0:
43,260,152291,6,0,P|60:264|94:277,1,42.5,2|0,3:0|0:0,0:0:0:0:
288,175,152603,2,0,P|267:180|247:187,1,42.5,0|8,0:0|3:0,0:0:0:0:
109,124,152916,2,0,P|105:91|137:49,2,85,2|8|0,0:0|3:0|0:0,0:0:0:0:
169,185,153697,37,8,3:0:0:0:
97,232,153853,1,0,3:0:0:0:
172,294,154009,1,8,1:0:0:0:
85,374,154166,6,0,B|187:364|151:303|255:288,1,191.250007295609,4|0,0:1|0:0,0:0:0:0:
257,292,154791,2,0,P|265:322|277:351,1,63.7500024318696,2|0,1:0|0:0,0:0:0:0:
507,159,155103,38,0,P|465:86|364:94,1,191.250007295609,12|0,1:0|0:0,0:0:0:0:
371,98,155728,2,0,P|386:121|434:132,1,63.7500024318696,2|0,1:0|0:0,0:0:0:0:
204,25,156041,6,0,B|88:37|139:71|13:89,1,191.250007295609,4|2,1:2|0:3,0:0:0:0:
1,158,156666,1,2,0:0:0:0:
65,183,156822,1,2,0:0:0:0:
22,333,156978,1,12,0:1:0:0:
22,333,157291,38,0,L|106:321,1,63.7500024318696,2|0,0:0|0:0,0:0:0:0:
212,267,157603,1,0,3:0:0:0:
301,310,157759,1,8,0:0:0:0:
424,171,157916,6,0,L|412:39,1,127.500004863739,4|0,1:0|0:0,0:0:0:0:
338,30,158384,1,2,0:0:0:0:
290,133,158541,1,10,0:2:0:0:
341,191,158697,1,0,3:0:0:0:
370,320,158853,1,12,1:2:0:0:
370,320,159166,37,0,3:0:0:0:
299,304,159322,1,2,3:0:0:0:
204,364,159478,5,8,3:0:0:0:
136,384,159634,1,8,3:0:0:0:
0,316,159791,5,12,1:0:0:0:
136,247,159947,1,8,3:0:0:0:
63,230,160103,1,0,3:0:0:0:
74,301,160259,1,0,3:0:0:0:
229,176,160416,21,2,3:0:0:0:
302,199,160572,1,0,3:0:0:0:
468,137,160728,5,8,3:0:0:0:
391,156,160884,1,0,3:0:0:0:
357,271,161041,21,10,3:0:0:0:
214,224,161197,1,10,3:0:0:0:
359,127,161353,37,2,1:0:0:0:
477,89,161509,1,8,1:0:0:0:
302,199,161666,22,0,B|219:231|132:175|205:136|115:81|45:111,1,297.499990921021,4|2,1:0|0:0,0:0:0:0:
256,192,163306,12,0,167291,0:0:0:0:
154,126,172916,53,4,0:0:0:0:
154,126,173853,2,0,L|140:55,2,59.4999981842042,8|8|8,1:3|1:3|1:3,0:0:0:0:
256,237,174791,2,0,B|166:223|192:300|86:286,1,178.499994552612,4|8,3:1|0:3,0:0:0:0:
18,218,176041,5,8,0:3:0:0:
207,362,176353,1,8,0:3:0:0:
423,260,176666,1,4,3:1:0:0:
423,260,177603,2,0,P|457:268|492:279,2,59.4999981842042,8|8|8,0:3|0:3|0:3,0:0:0:0:
249,196,178541,2,0,B|332:206|312:127|417:140,1,178.499994552612,4|8,3:1|0:3,0:0:0:0:
508,196,179791,37,8,0:3:0:0:
482,34,180103,1,8,0:3:0:0:
175,95,180416,5,4,0:0:0:0:
175,95,182291,2,0,L|75:77,1,93.5000028533936,12|0,0:0|0:0,0:0:0:0:
89,84,182759,2,0,L|96:136,1,46.7500014266968,8|0,3:0|0:0,0:0:0:0:
133,195,183072,1,2,0:0:0:0:
307,12,183228,2,0,L|294:86,1,70.1250021400452,12|0,0:0|0:0,0:0:0:0:
288,90,183541,37,8,1:0:0:0:
253,168,183697,1,12,3:0:0:0:
465,277,183853,5,2,3:0:0:0:
510,142,184009,1,8,1:0:0:0:
347,196,184166,6,0,L|363:377,1,170,4|0,1:0|0:0,0:0:0:0:
511,218,184634,1,12,0:0:0:0:
429,124,184791,2,0,P|443:62|449:22,1,85,2|0,0:0|0:0,0:0:0:0:
221,196,185103,2,0,P|207:134|201:94,1,85,2|0,3:0|0:0,0:0:0:0:
374,210,185416,5,8,3:0:0:0:
259,282,185572,1,2,3:0:0:0:
286,356,185728,1,0,3:0:0:0:
374,210,185884,1,0,3:0:0:0:
419,313,186041,38,0,P|467:300|518:292,1,85,2|0,3:2|0:0,0:0:0:0:
267,180,186353,1,0,0:0:0:0:
429,124,186509,2,0,B|341:117|377:69|265:61,1,170,8|2,0:0|0:0,0:0:0:0:
156,8,186978,5,8,3:0:0:0:
93,183,187134,1,0,3:0:0:0:
56,105,187291,37,2,3:0:0:0:
184,156,187447,1,8,3:0:0:0:
222,240,187603,5,8,3:0:0:0:
66,317,187759,1,10,3:0:0:0:
4,237,187916,38,0,P|58:257|165:300,1,170,4|0,0:0|0:0,0:0:0:0:
258,384,188384,2,0,P|274:324|290:294,1,85,8|2,0:0|0:0,0:0:0:0:
222,240,188697,1,0,0:0:0:0:
81,312,188853,2,0,P|40:321|-14:340,1,85,8|0,3:0|0:0,0:0:0:0:
100,194,189166,5,0,3:0:0:0:
165,306,189322,1,8,3:0:0:0:
254,196,189478,1,0,3:0:0:0:
182,231,189634,1,2,3:0:0:0:
305,320,189791,38,0,L|498:356,1,170,4|0,0:0|0:0,0:0:0:0:
464,273,190259,1,8,0:0:0:0:
356,161,190416,1,2,0:0:0:0:
330,235,190572,1,2,3:0:0:0:
510,120,190728,2,0,P|502:78|502:35,1,85,8|0,3:0|0:0,0:0:0:0:
423,95,191041,1,0,0:0:0:0:
320,15,191197,5,8,3:0:0:0:
236,207,191353,1,8,3:0:0:0:
356,161,191509,37,0,0:0:0:0:
222,107,191666,6,0,B|140:92|172:49|65:35,1,170,4|2,1:2|0:0,0:0:0:0:
0,222,192134,1,8,0:0:0:0:
57,275,192291,2,0,P|117:260|150:257,1,85,2|0,0:0|0:0,0:0:0:0:
20,123,192603,2,0,P|-11:154|-15:198,1,85,2|0,3:0|0:0,0:0:0:0:
188,357,192916,37,2,0:0:0:0:
261,384,193072,2,0,P|315:359|291:255,1,170,8|0,3:0|0:0,0:0:0:0:
144,187,193541,6,0,P|135:231|118:290,1,85,4|0,0:0|0:0,0:0:0:0:
300,120,193853,1,2,0:0:0:0:
388,202,194009,2,0,P|378:139|369:22,1,170,8|2,0:0|3:0,0:0:0:0:
294,20,194478,37,8,3:0:0:0:
209,47,194634,1,0,3:0:0:0:
402,122,194791,5,2,3:0:0:0:
473,145,194947,1,8,3:0:0:0:
306,240,195103,37,8,3:0:0:0:
289,235,195259,1,0,3:0:0:0:
239,321,195416,6,0,P|282:327|331:338,1,85,2|0,0:0|0:0,0:0:0:0:
185,234,195728,1,0,3:0:0:0:
395,90,195884,2,0,L|213:133,1,170,8|0,0:0|3:0,0:0:0:0:
47,160,196353,38,0,P|93:162|170:261,1,170,8|2,3:0|3:2,0:0:0:0:
82,322,196822,1,8,3:0:0:0:
13,348,196978,2,0,P|-2:316|3:258,1,85,2|0,3:0|0:0,0:0:0:0:
163,87,197291,6,0,P|204:100|256:113,1,85,4|0,1:2|0:0,0:0:0:0:
407,306,197603,1,2,0:0:0:0:
462,180,197759,2,0,B|372:177|409:262|276:230,1,170,8|0,0:0|3:0,0:0:0:0:
163,87,198228,1,12,0:0:0:0:
163,87,198541,37,10,1:0:0:0:
78,218,198697,1,2,3:0:0:0:
356,379,198853,5,12,3:0:0:0:
308,236,199009,1,12,3:0:0:0:
176,315,199166,38,0,L|223:140,1,170,4|0,1:0|0:0,0:0:0:0:
83,192,199634,2,0,P|41:201|-18:215,1,85,8|2,0:0|0:0,0:0:0:0:
36,279,199947,1,2,3:0:0:0:
84,384,200103,2,0,P|42:375|-17:361,1,85,8|0,3:0|0:0,0:0:0:0:
183,205,200416,5,2,3:0:0:0:
283,273,200572,1,0,3:0:0:0:
347,75,200728,1,8,3:0:0:0:
237,123,200884,1,0,3:0:0:0:
312,199,201041,38,0,P|362:201|421:93,1,170,2|2,3:2|0:0,0:0:0:0:
487,32,201509,2,0,P|445:23|389:9,1,85,8|2,0:0|0:0,0:0:0:0:
439,241,201822,1,0,0:0:0:0:
504,197,201978,2,0,P|462:206|406:220,1,85,2|8,3:0|3:0,0:0:0:0:
251,309,202291,5,2,3:0:0:0:
90,376,202447,1,8,3:0:0:0:
68,274,202603,37,8,3:0:0:0:
181,347,202759,1,0,3:0:0:0:
90,376,202916,6,0,L|138:190,1,170,4|0,0:0|0:0,0:0:0:0:
272,78,203384,1,8,0:0:0:0:
161,30,203541,2,0,P|175:88|177:116,1,85,2|0,0:0|0:0,0:0:0:0:
336,308,203853,2,0,P|322:250|320:222,1,85,8|0,3:0|0:0,0:0:0:0:
232,302,204166,37,2,3:0:0:0:
413,167,204322,1,8,3:0:0:0:
292,213,204478,5,8,3:0:0:0:
442,306,204634,1,8,0:0:0:0:
311,309,204791,38,0,P|237:326|136:367,1,170,4|0,1:2|0:0,0:0:0:0:
366,239,205259,1,8,0:0:0:0:
273,173,205416,2,0,P|231:162|184:145,1,85,2|0,0:0|0:0,0:0:0:0:
370,369,205728,5,8,3:0:0:0:
439,329,205884,2,0,P|487:268|434:180,1,170,10|8,3:0|3:0,0:0:0:0:
322,61,206353,1,0,3:0:0:0:
273,173,206509,1,2,3:0:0:0:
428,10,206666,38,0,L|521:28,1,85,4|0,0:0|0:0,0:0:0:0:
373,118,206978,1,2,0:0:0:0:
511,218,207134,2,0,P|418:235|345:260,1,170,8|0,0:0|0:0,0:0:0:0:
253,353,207603,2,0,P|286:375|336:384,1,85,8|0,3:0|0:0,0:0:0:0:
169,256,207916,5,2,3:0:0:0:
135,328,208072,1,8,3:0:0:0:
84,235,208228,1,0,1:0:0:0:
53,307,208384,1,2,1:0:0:0:
182,156,208541,38,0,P|122:150|33:244,1,170,4|2,0:0|0:0,0:0:0:0:
52,345,209009,2,0,P|93:334|135:329,1,85,8|2,0:0|0:0,0:0:0:0:
253,239,209322,1,0,3:0:0:0:
99,117,209478,5,8,3:0:0:0:
144,245,209634,1,0,3:0:0:0:
282,138,209791,37,2,3:0:0:0:
311,21,209947,1,8,3:0:0:0:
456,119,210103,5,8,3:0:0:0:
485,206,210259,1,0,1:0:0:0:
485,206,210337,1,0,1:0:0:0:
485,206,210416,38,0,L|452:374,1,170,4|0,1:2|0:0,0:0:0:0:
253,239,210884,2,0,L|269:322,1,85,8|2,0:0|0:0,0:0:0:0:
366,249,211197,1,8,3:0:0:0:
161,300,211353,6,0,B|70:290|121:239|6:230,1,170,12|0,0:0|0:0,0:0:0:0:
40,155,211822,1,2,0:0:0:0:
135,199,211978,1,4,3:0:0:0:
263,137,212134,1,8,3:0:0:0:
388,238,212291,38,0,P|433:228|472:224,1,85,4|0,1:0|0:0,0:0:0:0:
458,153,212603,1,2,0:0:0:0:
225,229,212759,5,8,0:0:0:0:
280,50,212916,1,10,0:0:0:0:
355,99,213072,1,8,3:0:0:0:
275,148,213228,2,0,P|214:159|135:177,1,127.5,8|0,1:0|0:0,0:0:0:0:
135,167,213541,37,8,3:0:0:0:
59,145,213697,1,0,3:0:0:0:
14,370,213853,5,8,1:0:0:0:
195,313,214009,1,2,1:0:0:0:
52,235,214166,38,0,B|157:244|104:300|201:314,1,170,4|0,1:0|0:0,0:0:0:0:
335,198,214634,2,0,P|339:155|350:114,1,85,8|2,0:0|0:0,0:0:0:0:
243,224,214947,1,0,3:0:0:0:
453,349,215103,6,0,L|438:179,2,170,12|2|0,0:0|0:0|0:0,0:0:0:0:
358,318,215884,1,2,0:0:0:0:
248,274,216041,2,0,B|153:283|189:339|81:348,1,170,4|0,0:0|0:0,0:0:0:0:
324,210,216509,2,0,P|327:252|340:295,1,85,10|2,1:0|0:0,0:0:0:0:
190,189,216822,1,0,3:0:0:0:
343,84,216978,2,0,P|401:86|467:168,1,170,12|2,1:0|0:0,0:0:0:0:
360,280,217447,1,8,3:0:0:0:
324,210,217603,1,2,3:0:0:0:
392,169,217759,1,2,0:0:0:0:
427,348,217916,38,0,P|342:319|255:305,1,170,4|0,0:0|0:0,0:0:0:0:
140,241,218384,2,0,P|132:282|115:328,1,85,8|2,0:0|0:0,0:0:0:0:
239,221,218697,1,8,3:0:0:0:
69,121,218853,2,0,P|27:227|58:274,1,170,12|0,0:0|0:0,0:0:0:0:
132,342,219322,1,8,3:0:0:0:
239,221,219478,2,0,P|230:181|218:127,1,85,2|0,3:0|0:0,0:0:0:0:
358,368,219791,6,0,L|390:193,1,170,4|2,0:0|0:0,0:0:0:0:
315,84,220259,1,8,0:0:0:0:
397,31,220416,2,0,P|437:41|489:52,1,85,2|0,0:0|0:0,0:0:0:0:
401,281,220728,2,0,P|441:271|493:260,1,85,12|0,0:0|0:0,0:0:0:0:
492,76,221041,37,2,3:0:0:0:
308,171,221197,1,2,3:0:0:0:
380,256,221353,5,10,1:0:0:0:
501,310,221509,1,10,1:0:0:0:
308,171,221666,38,0,B|207:177|248:221|124:227,1,170,4|2,1:0|0:0,0:0:0:0:
69,113,222134,2,0,P|111:125|152:134,1,85,8|2,3:0|0:0,0:0:0:0:
19,203,222447,1,8,3:0:0:0:
164,330,222603,2,0,P|80:346|-8:373,1,170,12|0,0:0|0:0,0:0:0:0:
170,248,223072,5,8,0:0:0:0:
248,317,223228,1,2,3:0:0:0:
327,384,223384,1,2,1:0:0:0:
312,259,223541,38,0,L|290:64,1,170,4|2,0:0|0:0,0:0:0:0:
392,216,224009,2,0,P|403:174|406:120,1,85,8|2,0:0|0:0,0:0:0:0:
248,317,224322,1,0,3:0:0:0:
151,224,224478,2,0,P|140:182|137:128,1,85,12|0,0:0|0:0,0:0:0:0:
201,72,224791,5,2,0:0:0:0:
311,261,224947,1,8,3:0:0:0:
170,338,225103,37,2,3:0:0:0:
225,243,225259,1,0,3:0:0:0:
321,167,225416,6,0,P|393:212|388:294,1,170,4|0,0:0|0:0,0:0:0:0:
310,364,225884,2,0,P|269:355|224:350,1,85,8|2,0:0|0:0,0:0:0:0:
149,338,226197,1,0,3:0:0:0:
252,118,226353,2,0,P|211:126|166:132,1,85,12|0,0:0|0:0,0:0:0:0:
58,206,226666,37,2,3:0:0:0:
136,247,226822,1,8,3:0:0:0:
275,89,226978,5,2,0:0:0:0:
147,146,227134,1,8,1:0:0:0:
327,246,227291,38,0,P|386:248|429:146,1,170,4|0,1:2|0:0,0:0:0:0:
433,159,227759,2,0,P|397:152|341:131,1,85,8|2,3:0|0:0,0:0:0:0:
243,215,228072,1,0,3:0:0:0:
460,349,228228,2,0,P|373:365|285:384,1,170,12|0,0:0|0:0,0:0:0:0:
265,312,228697,1,10,3:0:0:0:
350,224,228853,1,0,3:0:0:0:
458,262,229009,1,8,3:0:0:0:
243,215,229166,6,0,B|143:210|172:265|59:251,1,170,4|2,1:0|0:0,0:0:0:0:
142,351,229634,1,8,0:0:0:0:
210,384,229791,2,0,P|221:349|217:284,1,85,2|0,0:0|3:0,0:0:0:0:
416,66,230103,2,0,P|415:108|427:148,1,85,12|0,1:0|0:0,0:0:0:0:
482,245,230416,2,0,P|441:192|325:175,1,170,2|0,0:0|3:0,0:0:0:0:
243,215,230884,1,2,3:0:0:0:
345,341,231041,38,0,P|365:301|361:252,1,85,4|0,1:0|0:0,0:0:0:0:
281,122,231353,1,2,0:0:0:0:
108,262,231509,5,8,0:0:0:0:
28,200,231666,2,0,P|19:240|-3:316,1,85,2|0,0:0|3:0,0:0:0:0:
239,129,231978,38,0,B|227:79|227:79|231:49|231:49|217:0,1,127.5,10|0,1:0|0:0,0:0:0:0:
194,12,232291,1,0,3:0:0:0:
150,78,232447,1,8,3:0:0:0:
176,162,232603,1,2,3:0:0:0:
108,262,232759,1,2,3:0:0:0:
275,381,232916,38,0,B|402:303|377:116|267:85|208:121|159:157|162:232|229:276|269:235,1,510,4|2,2:0|0:3,0:0:0:0:
256,192,236744,12,0,240416,0:0:0:0:
