osu file format v14

[General]
AudioFilename: 06 - Kyrie.mp3
AudioLeadIn: 0
PreviewTime: 85248
Countdown: 0
SampleSet: Soft
StackLeniency: 0.7
Mode: 0
LetterboxInBreaks: 1
WidescreenStoryboard: 1

[Editor]
Bookmarks: 314102
DistanceSpacing: 1.7
BeatDivisor: 4
GridSize: 32
TimelineZoom: 1.7

[Metadata]
Title:Kyrie
TitleUnicode:Kyrie
Artist:Kalafina
ArtistUnicode:Kalafina
Creator:Vell
Version:Genesis
Source:
Tags:Yuki Kajiura red moon Wakana Ootaki Keiko Kubota Hikaru Masai Cheesecake
BeatmapID:809513
BeatmapSetID:369380

[Difficulty]
HPDrainRate:7
CircleSize:4
OverallDifficulty:8.2
ApproachRate:9
SliderMultiplier:1.8
SliderTickRate:2

[Events]
//Background and Video events
0,0,"bg.jpg",0,0
//Break Periods
2,3781,6314
2,152114,152981
2,155239,156314
2,158781,159648
2,162114,162981
//Storyboard Layer 0 (Background)
//Storyboard Layer 1 (Fail)
//Storyboard Layer 2 (Pass)
//Storyboard Layer 3 (Foreground)
//Storyboard Sound Samples

[TimingPoints]
248,416.666666666667,4,2,3,70,1,0
664,-100,4,2,3,65,0,0
1081,-100,4,2,3,60,0,0
1498,-100,4,2,3,55,0,0
1914,-100,4,2,3,50,0,0
2331,-100,4,2,3,45,0,0
2748,-100,4,2,3,40,0,0
3164,-100,4,2,3,35,0,0
3581,-100,4,2,3,30,0,0
6914,-100,4,2,3,70,0,0
10248,-100,4,2,3,40,0,0
11706,-100,4,2,3,10,0,0
11810,-100,4,2,3,40,0,0
13581,-100,4,2,3,50,0,0
18998,-100,4,2,3,55,0,0
19414,-100,4,2,3,60,0,0
20248,-83.3333333333333,4,2,1,70,0,0
33581,-100,4,2,4,60,0,0
53581,-83.3333333333333,4,2,4,60,0,0
58998,-83.3333333333333,4,2,4,60,0,0
59831,-83.3333333333333,4,2,1,60,0,0
60248,-100,4,2,1,60,0,0
60664,-100,4,2,4,60,0,0
80248,-83.3333333333333,4,2,4,60,0,0
85248,-83.3333333333333,4,2,4,60,0,0
86914,-100,4,2,4,70,0,1
116914,-100,4,2,1,60,0,0
125248,-83.3333333333333,4,2,1,60,0,0
130248,-100,4,2,4,60,0,0
146914,-83.3333333333333,4,2,4,60,0,0
150248,-100,4,2,1,40,0,0
163581,-83.3333333333333,4,2,1,60,0,1
163998,-83.3333333333333,4,2,1,60,0,0
189414,-83.3333333333333,4,2,4,60,0,1
190248,-100,4,2,3,30,0,0
202123,-100,4,2,3,40,0,0
203373,-100,4,2,4,50,0,0
203581,-100,4,2,4,60,0,0
210248,-83.3333333333333,4,2,4,60,0,0
215248,-100,4,2,4,55,0,1
216914,-133.333333333333,4,2,1,40,0,0
229414,-200,4,2,1,20,0,0
230248,-100,4,2,4,60,0,0
245248,-83.3333333333333,4,2,4,60,0,0
246914,-100,4,2,4,70,0,1
276914,-100,4,2,1,60,0,0
290248,-83.3333333333333,4,2,1,70,0,0
323164,-83.3333333333333,4,2,1,70,0,1
323581,-83.3333333333333,4,2,3,70,0,0
324414,-83.3333333333333,4,2,3,60,0,0
325248,-83.3333333333333,4,2,3,40,0,0
326081,-83.3333333333333,4,2,3,30,0,0
326914,-83.3333333333333,4,2,3,20,0,0
327748,-83.3333333333333,4,2,5,10,0,0

[Colours]
Combo1 : 10,164,190
Combo2 : 177,114,116
Combo3 : 166,119,151
Combo4 : 224,50,89
Combo5 : 145,23,96
Combo6 : 205,132,50
Combo7 : 199,177,24

[HitObjects]
185,238,248,5,4,0:0:0:0:
256,192,352,12,0,3581,0:0:0:0:
313,122,6914,5,4,0:0:0:0:
256,192,7018,12,0,10248,0:0:0:0:
356,128,10456,85,0,0:0:0:0:
356,128,10560,2,0,P|312:124|260:132,2,90
436,168,11081,2,0,P|445:124|424:69,1,90
288,68,11393,1,0,0:0:0:0:
288,68,11498,2,0,P|264:132|300:200,1,135
372,236,11914,6,0,L|356:300,1,45
272,280,12123,2,0,L|280:376,1,90
196,336,12435,2,0,P|156:316|112:316,1,90
20,316,12748,2,0,P|57:291|79:253,1,90
96,164,13060,1,0,0:0:0:0:
272,280,13268,1,0,0:0:0:0:
431,118,13477,85,0,0:0:0:0:
431,118,13581,2,0,P|411:114|339:126,1,90,4|0,0:0|0:0,0:0:0:0:
283,190,13893,2,0,L|271:286,2,90,2|2|2,0:0|0:0|0:0,0:0:0:0:
251,106,14414,2,0,P|228:110|207:117,1,45
143,182,14623,2,0,P|119:178|91:166,1,45
59,90,14831,2,0,L|63:242,1,135,2|0,0:0|0:0,0:0:0:0:
142,270,15248,6,0,L|134:330,1,45
59,370,15456,2,0,P|111:362|159:370,1,90,2|0,0:0|0:0,0:0:0:0:
311,314,15768,2,0,P|266:318|222:310,1,90,2|0,0:0|0:0,0:0:0:0:
142,270,16081,2,0,P|150:226|134:162,1,90,2|0,0:0|0:0,0:0:0:0:
95,106,16393,1,2,0:0:0:0:
311,314,16602,1,2,0:0:0:0:
403,82,16810,85,2,0:0:0:0:
403,82,16914,2,0,P|351:78|303:94,1,90,2|0,0:0|0:0,0:0:0:0:
259,158,17227,2,0,P|199:162|163:150,1,90
95,106,17539,2,0,L|83:166,1,45,2|0,0:0|0:0,0:0:0:0:
3,118,17748,2,0,L|11:226,1,90,2|0,0:0|0:0,0:0:0:0:
91,242,18060,5,0,0:0:0:0:
108,255,18164,1,0,0:0:0:0:
125,268,18268,1,0,0:0:0:0:
143,281,18373,1,0,0:0:0:0:
161,294,18477,1,0,0:0:0:0:
179,306,18581,86,0,L|239:298,1,45,2|0,0:0|0:0,0:0:0:0:
387,258,18789,2,0,L|327:250,1,45,2|0,0:0|0:0,0:0:0:0:
203,194,18998,2,0,P|227:186|247:170,1,45,2|2,0:0|0:0,0:0:0:0:
359,130,19206,2,0,P|335:122|315:106,1,45,2|2,0:0|0:0,0:0:0:0:
271,34,19414,1,2,0:0:0:0:
256,192,19518,12,8,20248,0:0:0:0:
424,260,20456,22,0,L|428:204,1,53.9999983520508
344,168,20664,2,0,L|336:300,1,107.999996704102,0|0,1:0|0:0,0:0:0:0:
276,348,20977,1,0,0:0:0:0:
204,292,21081,2,0,P|164:284|100:308,1,107.999996704102
32,368,21393,1,0,0:0:0:0:
8,280,21498,6,0,L|16:216,1,53.9999983520508,2|2,0:0|0:0,0:0:0:0:
100,196,21706,2,0,L|93:142,1,53.9999983520508,2|2,0:0|0:0,0:0:0:0:
28,80,21914,86,0,L|152:100,1,107.999996704102,2|0,0:0|0:0,0:0:0:0:
180,176,22227,1,0,0:0:0:0:
180,176,22331,2,0,L|244:164,1,53.9999983520508,0|0,1:0|0:0,0:0:0:0:
276,84,22539,2,0,L|329:93,1,53.9999983520508
328,188,22748,2,0,L|392:176,1,53.9999983520508
428,100,22956,2,0,L|481:109,1,53.9999983520508
512,192,23164,5,2,0:0:0:0:
508,216,23268,1,2,0:0:0:0:
504,240,23373,1,2,0:0:0:0:
500,264,23477,1,2,0:0:0:0:
484,352,23581,86,0,B|456:352|432:325|432:325|384:371|329:348,1,161.999995056153,2|0,0:0|0:0,0:0:0:0:
360,260,23998,2,0,P|300:264|256:308,1,107.999996704102,0|0,1:0|0:0,0:0:0:0:
248,384,24310,1,0,0:0:0:0:
172,332,24414,2,0,P|116:340|64:312,1,107.999996704102
36,232,24727,1,0,0:0:0:0:
132,244,24831,6,0,L|124:188,1,53.9999983520508,2|2,0:0|0:0,0:0:0:0:
56,80,25039,2,0,L|48:136,1,53.9999983520508,2|2,0:0|0:0,0:0:0:0:
136,100,25248,86,0,P|184:84|256:104,1,107.999996704102,2|0,0:0|0:0,0:0:0:0:
300,164,25560,1,0,0:0:0:0:
431,81,25664,2,2,P|378:92|328:76,1,107.999996704102,2|0,1:0|0:0,0:0:0:0:
268,4,25977,1,0,0:0:0:0:
268,4,26081,1,2,0:1:0:0:
448,288,26289,2,2,B|420:276|388:296|388:296|364:280|364:280|328:308|284:292,1,161.999995056153,2|0,0:1|0:0,0:1:0:0:
224,240,26706,2,0,L|212:304,1,53.9999983520508,2|0,0:1|0:0,0:0:0:0:
136,340,26914,6,0,L|124:232,1,107.999996704102
76,156,27227,1,0,0:0:0:0:
76,156,27331,2,0,P|126:142|186:166,1,107.999996704102,0|0,1:0|0:0,0:0:0:0:
224,240,27643,1,0,0:0:0:0:
224,240,27748,2,0,P|272:248|332:224,1,107.999996704102
356,140,28060,1,0,0:0:0:0:
420,204,28164,86,0,P|424:240|404:280,1,53.9999983520508,2|2,0:0|0:0,0:0:0:0:
264,160,28373,2,0,P|258:133|263:107,1,53.9999983520508,2|2,0:0|0:0,0:0:0:0:
336,52,28581,6,0,L|188:64,1,107.999996704102,2|0,0:0|0:1,0:0:0:0:
64,156,28998,1,0,1:0:0:0:
64,156,29102,2,0,L|212:168,1,107.999996704102,0|0,0:1|0:0,0:0:0:0:
224,240,29414,2,0,P|240:304|216:356,1,107.999996704102,0|0,0:1|0:0,0:0:0:0:
72,348,29727,2,0,P|56:284|72:236,1,107.999996704102,0|2,0:1|0:0,0:0:0:0:
148,292,30039,1,2,0:0:0:0:
226,341,30143,1,2,0:0:0:0:
304,292,30248,86,0,P|356:280|420:304,2,107.999996704102,2|0|0,0:0|0:1|1:0,0:0:0:0:
148,292,30768,2,0,P|132:244|148:184,1,107.999996704102,0|0,0:1|0:0,0:0:0:0:
224,144,31081,2,0,L|292:152,1,53.9999983520508,0|0,0:1|0:0,0:0:0:0:
144,96,31289,2,0,L|90:89,1,53.9999983520508,0|0,0:1|0:0,0:0:0:0:
224,52,31498,1,2,0:0:0:0:
224,52,31602,1,2,0:0:0:0:
224,52,31706,6,0,L|348:68,1,107.999996704102,2|2,0:1|0:1,0:0:0:0:
464,124,32123,2,0,B|436:120|412:140|412:140|388:128|388:128|352:160|305:147,1,161.999995056153,2|8,0:1|0:0,0:1:0:0:
314,149,32539,85,8,0:0:0:0:
467,215,32748,1,8,0:0:0:0:
467,215,32852,1,8,0:0:0:0:
172,224,33060,1,8,0:0:0:0:
192,256,33164,5,0,0:0:0:0:
200,292,33268,1,0,0:0:0:0:
192,328,33373,1,0,0:0:0:0:
175,361,33477,1,0,0:0:0:0:
100,292,33581,54,0,B|148:276|187:299|187:299|224:320|276:300,1,180,12|0,0:1|1:0,0:0:0:0:
331,65,34206,1,0,0:0:0:0:
331,65,34310,1,0,0:0:0:0:
331,65,34414,1,0,0:0:0:0:
424,248,34623,1,0,0:0:0:0:
260,156,34831,6,0,L|253:111,1,45,2|2,0:0|0:0,0:0:0:0:
348,158,35039,2,0,L|341:202,1,45,2|2,0:0|0:0,0:0:0:0:
257,247,35248,86,0,P|217:263|165:259,1,90,2|0,0:0|0:0,0:0:0:0:
113,191,35560,1,0,0:0:0:0:
113,191,35664,2,0,L|120:312,2,90,0|0|0,1:0|0:0|0:0,0:0:0:0:
44,24,36289,1,0,0:0:0:0:
44,24,36498,6,0,L|100:32,1,45,2|2,0:0|0:0,0:0:0:0:
148,96,36706,2,0,L|192:89,1,45,2|2,0:0|0:0,0:0:0:0:
248,20,36914,86,0,L|348:32,1,90,2|0,0:0|0:0,0:0:0:0:
500,112,37331,2,0,L|400:124,1,90,0|0,1:0|0:0,0:0:0:0:
248,196,37748,2,0,L|348:208,1,90
498,291,38164,5,2,0:0:0:0:
476,295,38268,1,2,0:0:0:0:
453,299,38373,1,2,0:0:0:0:
431,303,38477,1,2,0:0:0:0:
409,307,38581,86,0,L|293:323,1,90,2|0,0:0|0:0,0:0:0:0:
230,332,38893,1,0,0:0:0:0:
230,332,38998,1,8,1:0:0:0:
292,165,39206,1,0,0:0:0:0:
384,363,39414,1,0,0:0:0:0:
200,178,39623,1,0,0:0:0:0:
90,325,39831,6,0,P|96:303|107:284,1,45,2|2,0:0|0:0,0:0:0:0:
169,384,40039,2,0,P|169:361|175:340,1,45,2|2,0:0|0:0,0:0:0:0:
256,372,40248,86,0,P|272:368|336:308,1,90,2|0,0:0|0:0,0:0:0:0:
356,240,40560,1,0,0:0:0:0:
356,240,40664,1,0,1:0:0:0:
424,380,40873,1,0,0:0:0:0:
248,280,41081,1,0,0:0:0:0:
424,380,41289,1,0,0:0:0:0:
248,280,41498,6,0,L|244:340,1,45,2|2,0:0|0:0,0:0:0:0:
353,195,41706,2,0,L|355:239,1,45,2|2,0:0|0:0,0:0:0:0:
224,144,41914,86,0,P|164:160|124:156,1,90,2|0,0:0|0:0,0:0:0:0:
52,124,42227,1,0,0:0:0:0:
52,124,42331,1,0,1:0:0:0:
84,248,42539,1,0,0:0:0:0:
164,64,42748,1,0,0:0:0:0:
84,248,42956,1,0,0:0:0:0:
164,64,43164,6,0,L|208:68,1,45,2|2,0:0|0:0,0:0:0:0:
272,132,43373,2,0,L|316:128,1,45,2|2,0:0|0:0,0:0:0:0:
372,56,43581,86,0,L|472:64,2,90,2|0|0,0:0|0:0|1:0,0:0:0:0:
183,158,44206,1,0,0:0:0:0:
400,275,44414,1,0,0:0:0:0:
400,275,44518,2,0,P|364:291|312:287,1,90
248,223,44831,6,0,L|228:271,1,45,2|2,0:0|0:0,0:0:0:0:
164,323,45039,2,0,L|146:281,1,45,2|2,0:0|0:0,0:0:0:0:
108,199,45248,86,0,L|92:307,1,90,2|0,0:0|0:0,0:0:0:0:
28,127,45664,2,0,P|112:155|200:103,1,180,8|0,1:0|0:0,0:0:0:0:
390,65,46289,1,0,0:0:0:0:
383,86,46393,1,0,0:0:0:0:
376,107,46498,1,0,0:0:0:0:
460,296,46706,1,0,0:0:0:0:
448,276,46810,1,0,0:0:0:0:
436,256,46914,6,0,P|392:244|332:256,1,90
285,314,47227,1,0,0:0:0:0:
285,314,47331,2,0,P|245:334|201:334,1,90,0|0,1:0|0:0,0:0:0:0:
133,274,47643,1,0,0:0:0:0:
133,274,47748,2,0,L|141:174,1,90
149,94,48060,1,0,0:0:0:0:
149,94,48164,86,0,P|125:98|93:98,1,45,2|2,0:0|0:0,0:0:0:0:
54,174,48373,2,0,P|34:159|11:137,1,45,2|2,0:0|0:0,0:0:0:0:
124,13,48581,6,0,L|215:19,1,90,2|0,0:0|0:0,0:0:0:0:
439,96,48998,2,0,L|349:101,1,90,0|0,1:0|0:0,0:0:0:0:
140,184,49414,2,0,L|231:190,1,90
406,338,49831,85,2,0:0:0:0:
383,333,49935,1,2,0:0:0:0:
360,330,50039,1,2,0:0:0:0:
337,326,50143,1,2,0:0:0:0:
314,323,50248,6,0,P|269:336|214:335,1,90,2|0,0:0|0:0,0:0:0:0:
155,281,50560,1,0,0:0:0:0:
155,281,50664,2,0,P|108:275|55:298,1,90,0|0,1:0|0:0,0:0:0:0:
235,254,51081,2,0,L|229:150,1,90
224,74,51393,1,0,0:0:0:0:
224,74,51498,86,0,L|281:84,1,45,2|2,0:0|0:0,0:0:0:0:
364,168,51706,2,0,L|319:160,1,45,2|2,0:0|0:0,0:0:0:0:
141,147,51914,6,0,L|230:164,1,90,2|0,0:0|0:0,0:0:0:0:
428,296,52331,2,0,P|348:256|260:292,1,180,8|0,1:0|0:0,0:0:0:0:
100,348,52956,1,0,0:0:0:0:
103,325,53060,1,0,0:0:0:0:
106,302,53164,1,0,0:0:0:0:
192,70,53373,1,0,0:0:0:0:
198,91,53477,1,0,0:0:0:0:
204,108,53581,6,0,P|252:130|305:127,1,107.999996704102,2|0,0:1|0:0,0:0:0:0:
340,44,53893,2,0,P|388:28|456:40,1,107.999996704102,2|0,0:1|0:0,0:0:0:0:
476,120,54206,2,0,P|464:180|476:240,1,107.999996704102,2|0,0:1|0:0,0:0:0:0:
512,308,54518,5,0,0:0:0:0:
512,308,54623,2,0,L|504:368,1,53.9999983520508,2|0,0:0|0:0,0:0:0:0:
339,301,54831,2,0,L|332:248,1,53.9999983520508,2|0,0:0|0:0,0:0:0:0:
180,312,55039,2,0,L|172:372,1,53.9999983520508,2|0,0:0|0:0,0:0:0:0:
35,289,55248,86,0,L|28:236,1,53.9999983520508,2|0,0:0|0:0,0:0:0:0:
156,120,55456,2,0,L|149:173,1,53.9999983520508,2|0,0:1|0:0,0:0:0:0:
63,264,55664,2,0,L|56:211,1,53.9999983520508,2|0,1:0|0:0,0:0:0:0:
184,95,55873,2,0,L|177:148,1,53.9999983520508,2|0,0:1|0:0,0:0:0:0:
199,296,56081,6,0,P|235:308|275:308,1,53.9999983520508,2|0,0:1|0:0,0:0:0:0:
363,196,56289,2,0,P|336:199|311:209,1,53.9999983520508,2|0,0:1|0:0,0:0:0:0:
428,368,56498,85,2,0:0:0:0:
432,340,56602,1,2,0:0:0:0:
436,312,56706,1,2,0:0:0:0:
440,284,56810,1,2,0:0:0:0:
444,256,56914,6,0,L|436:148,1,107.999996704102,2|0,0:1|0:0,0:0:0:0:
392,68,57227,2,0,P|336:60|276:92,1,107.999996704102,2|0,0:1|0:0,0:0:0:0:
240,156,57539,2,0,P|176:160|132:136,1,107.999996704102,2|2,0:1|1:0,0:0:0:0:
80,72,57852,85,0,0:0:0:0:
80,72,57956,1,0,0:0:0:0:
80,72,58060,1,0,0:0:0:0:
80,72,58164,2,0,L|88:4,1,53.9999983520508,2|2,0:0|0:0,0:0:0:0:
52,216,58373,2,0,L|45:162,1,53.9999983520508,2|2,0:0|0:0,0:0:0:0:
136,304,58581,2,0,L|144:236,1,53.9999983520508,2|0,0:1|0:0,0:0:0:0:
28,384,58789,2,0,L|21:330,1,53.9999983520508,2|0,0:1|0:0,0:0:0:0:
142,250,58998,6,0,P|202:242|254:266,1,107.999996704102,0|0,1:0|0:0,0:0:0:0:
300,332,59310,1,0,0:0:0:0:
300,332,59414,2,0,P|364:344|416:316,1,107.999996704102
471,267,59727,1,0,0:0:0:0:
457,231,59831,85,8,0:0:0:0:
482,203,59935,1,8,0:0:0:0:
467,168,60039,1,8,0:0:0:0:
493,140,60143,1,8,0:0:0:0:
476,107,60248,86,0,B|426:96|393:128|393:128|367:108|367:108|341:127|305:122,1,180,10|0,0:0|1:0,0:0:0:0:
60,16,60873,1,0,0:0:0:0:
60,16,60977,1,0,0:0:0:0:
60,16,61081,2,0,L|64:116,1,90
100,312,61498,86,0,L|160:320,1,45,2|2,0:0|0:0,0:0:0:0:
225,230,61706,2,0,L|180:235,1,45,2|2,0:0|0:0,0:0:0:0:
276,316,61914,6,0,P|320:328|380:320,1,90,2|0,0:0|0:0,0:0:0:0:
436,268,62227,1,0,0:0:0:0:
436,268,62331,2,0,L|448:160,2,90,0|0|0,1:0|0:0|0:0,0:0:0:0:
168,192,62956,1,0,0:0:0:0:
168,192,63164,86,0,L|161:236,1,45,2|2,0:0|0:0,0:0:0:0:
246,144,63373,2,0,L|240:100,1,45,2|2,0:0|0:0,0:0:0:0:
248,236,63581,6,0,L|340:232,1,90,2|0,0:0|0:0,0:0:0:0:
432,76,63998,2,0,L|340:72,1,90,0|0,1:0|0:0,0:0:0:0:
84,236,64414,2,0,P|76:192|88:144,1,90
180,16,64831,85,2,0:0:0:0:
200,28,64935,1,2,0:0:0:0:
220,40,65039,1,2,0:0:0:0:
240,52,65143,1,2,0:0:0:0:
260,64,65248,6,0,L|368:60,1,90,2|0,0:0|0:0,0:0:0:0:
440,56,65560,1,0,0:0:0:0:
440,56,65664,1,8,1:0:0:0:
305,219,65873,1,0,0:0:0:0:
512,160,66081,1,0,0:0:0:0:
349,60,66289,1,0,0:0:0:0:
477,316,66498,86,0,P|479:293|476:271,1,45,2|2,0:0|0:0,0:0:0:0:
391,294,66706,2,0,P|387:271|378:251,1,45,2|2,0:0|0:0,0:0:0:0:
301,298,66914,6,0,P|256:298|213:312,1,90,2|0,0:0|0:0,0:0:0:0:
139,364,67227,1,0,0:0:0:0:
139,364,67331,2,0,P|94:365|51:351,1,90,0|0,1:0|0:0,0:0:0:0:
19,267,67643,1,0,0:0:0:0:
19,267,67748,2,0,L|29:177,1,90
107,133,68060,1,0,0:0:0:0:
107,133,68164,86,0,L|118:176,1,45,2|2,0:0|0:0,0:0:0:0:
168,35,68373,2,0,L|180:79,1,45,2|2,0:0|0:0,0:0:0:0:
249,140,68581,6,0,P|321:160|401:116,1,150,2|0,0:0|0:0,0:0:0:0:
400,112,68998,1,0,1:0:0:0:
400,112,69206,1,0,0:0:0:0:
496,308,69414,2,0,P|424:288|344:332,1,150
340,332,69831,86,0,L|344:280,1,45,2|2,0:0|0:0,0:0:0:0:
260,296,70039,2,0,L|264:244,1,45,2|2,0:0|0:0,0:0:0:0:
180,268,70248,6,0,L|188:172,1,90,2|0,0:0|0:0,0:0:0:0:
368,164,70664,2,0,P|420:184|460:180,1,90,0|0,1:0|0:0,0:0:0:0:
212,80,71081,2,0,P|167:79|126:97,1,90
196,356,71498,85,2,0:0:0:0:
224,352,71602,1,2,0:0:0:0:
252,348,71706,1,2,0:0:0:0:
280,344,71810,1,2,0:0:0:0:
308,340,71914,6,0,L|400:352,1,90,2|0,0:0|0:0,0:0:0:0:
212,176,72331,2,0,L|120:188,1,90,8|0,1:0|0:0,0:0:0:0:
368,44,72748,2,0,L|460:56,1,90
122,187,73164,86,0,L|118:143,1,45,2|2,0:0|0:0,0:0:0:0:
178,19,73373,2,0,L|174:63,1,45,2|2,0:0|0:0,0:0:0:0:
210,151,73581,6,0,P|258:171|302:167,1,90,2|0,0:0|0:0,0:0:0:0:
499,61,73998,2,0,P|455:60|414:78,1,90,0|0,1:0|0:0,0:0:0:0:
382,162,74310,1,0,0:0:0:0:
382,162,74414,2,0,L|391:262,1,90
121,47,74831,85,2,0:0:0:0:
145,55,74935,1,2,0:0:0:0:
173,63,75039,1,2,0:0:0:0:
201,71,75143,1,2,0:0:0:0:
229,79,75248,6,0,L|327:72,1,90,2|0,0:0|0:0,0:0:0:0:
509,163,75664,2,0,L|419:157,1,90,0|0,1:0|0:0,0:0:0:0:
326,170,75977,1,0,0:0:0:0:
326,170,76081,2,0,L|330:271,1,90
128,356,76498,85,2,0:0:0:0:
124,328,76602,1,2,0:0:0:0:
120,300,76706,1,2,0:0:0:0:
116,272,76810,1,2,0:0:0:0:
112,244,76914,6,0,P|112:200|128:152,1,90,2|0,0:0|0:0,0:0:0:0:
264,45,77331,2,0,P|277:87|277:132,1,90,0|0,1:0|0:0,0:0:0:0:
253,219,77643,1,0,0:0:0:0:
253,219,77748,1,0,0:0:0:0:
361,92,77956,1,0,0:0:0:0:
504,296,78164,86,0,P|500:273|495:251,1,45,2|2,0:0|0:0,0:0:0:0:
445,134,78373,2,0,P|436:188|436:200,1,45,2|2,0:0|0:0,0:0:0:0:
408,268,78581,6,0,P|369:283|320:277,1,90,2|0,0:0|0:0,0:0:0:0:
253,219,78893,1,0,0:0:0:0:
253,219,78998,2,0,P|211:204|166:210,1,90,8|0,1:0|0:0,0:0:0:0:
97,266,79310,1,0,0:0:0:0:
97,266,79414,2,0,L|94:324,2,45
124,56,79831,85,2,0:0:0:0:
148,64,79935,1,2,0:0:0:0:
172,72,80039,1,2,0:0:0:0:
196,80,80143,1,2,0:0:0:0:
224,88,80248,38,0,P|280:80|336:104,1,107.999996704102,2|0,0:1|0:0,0:0:0:0:
488,160,80560,2,0,P|437:177|384:169,1,107.999996704102,2|0,0:1|0:0,0:0:0:0:
296,184,80873,2,0,L|304:304,1,107.999996704102,2|0,0:1|0:0,0:0:0:0:
232,348,81185,85,0,0:0:0:0:
232,348,81289,2,0,L|172:344,1,53.9999983520508,2|0,0:0|0:0,0:0:0:0:
60,256,81498,2,0,L|120:252,1,53.9999983520508,2|0,0:0|0:0,0:0:0:0:
296,184,81706,2,0,L|236:180,1,53.9999983520508,2|0,0:0|0:0,0:0:0:0:
56,104,81914,2,0,P|87:100|112:92,1,53.9999983520508,2|0,0:0|0:0,0:0:0:0:
200,16,82123,6,0,P|212:48|216:80,1,53.9999983520508,2|0,0:1|0:0,0:0:0:0:
360,264,82331,2,0,P|365:237|375:212,1,53.9999983520508,2|0,1:0|0:0,0:0:0:0:
484,68,82539,2,0,P|464:76|428:80,1,53.9999983520508,2|0,0:1|0:0,0:0:0:0:
138,166,82748,2,0,P|194:162|250:186,1,107.999996704102,2|0,0:1|0:0,0:0:0:0:
272,268,83060,2,0,L|276:388,2,107.999996704102,2|2|0,0:1|0:1|0:0,0:0:0:0:
184,256,83581,2,0,P|179:282|168:307,1,53.9999983520508,2|0,0:1|0:0,0:0:0:0:
48,356,83789,1,0,0:0:0:0:
48,356,83893,1,0,0:0:0:0:
48,356,83998,85,0,1:0:0:0:
51,329,84102,1,0,0:0:0:0:
55,302,84206,1,0,0:0:0:0:
59,275,84310,1,0,0:0:0:0:
63,248,84414,2,0,L|71:188,1,53.9999983520508,2|0,0:1|0:0,0:0:0:0:
146,55,84623,2,0,L|153:108,1,53.9999983520508,2|0,0:1|0:0,0:0:0:0:
188,228,84831,5,2,0:0:0:0:
212,252,84935,1,2,0:0:0:0:
248,268,85039,1,2,0:0:0:0:
284,272,85143,1,2,0:0:0:0:
320,260,85248,86,0,P|345:243|361:217,1,53.9999983520508,10|0,0:3|0:0,0:0:0:0:
472,60,85456,2,0,P|464:88|464:120,1,53.9999983520508
272,176,85664,2,0,L|268:120,1,53.9999983520508,0|0,1:0|0:0,0:0:0:0:
500,256,85873,2,0,L|496:309,1,53.9999983520508
344,360,86081,5,10,0:3:0:0:
306,338,86185,1,8,0:3:0:0:
263,342,86289,1,8,0:3:0:0:
101,286,86498,85,8,0:3:0:0:
134,258,86602,1,8,0:3:0:0:
149,218,86706,1,8,0:3:0:0:
140,176,86810,1,8,0:3:0:0:
72,112,86914,22,0,P|136:84|201:105,1,135,4|0,1:0|0:0,0:0:0:0:
232,184,87331,2,0,P|252:188|288:188,1,45,0|0,1:0|0:0,0:0:0:0:
320,108,87539,2,0,P|340:104|376:104,1,45,2|0,0:3|0:0,0:0:0:0:
441,150,87748,2,0,L|437:245,1,90,0|2,0:0|0:0,0:0:0:0:
376,306,88060,1,2,0:0:0:0:
376,306,88164,2,0,P|323:309|286:291,1,90,2|2,0:3|0:0,0:0:0:0:
228,227,88477,5,2,0:0:0:0:
228,227,88581,2,0,P|164:211|96:251,1,135,2|0,0:3|0:0,0:0:0:0:
17,251,88998,2,0,L|25:199,1,45,0|0,1:0|0:0,0:0:0:0:
81,102,89206,2,0,L|88:147,1,45
173,294,89414,2,0,L|187:201,1,90,2|0,0:3|0:0,0:0:0:0:
393,35,89831,85,2,0:0:0:0:
393,67,89935,1,2,0:0:0:0:
383,97,90039,1,2,0:0:0:0:
364,122,90143,1,2,0:0:0:0:
338,139,90248,6,0,P|271:148|210:123,1,135,2|0,0:3|0:0,0:0:0:0:
166,44,90664,2,0,P|106:44|66:64,1,90,0|2,1:0|0:3,0:0:0:0:
30,132,90977,1,0,0:0:0:0:
30,132,91081,2,0,L|38:236,1,90
152,356,91498,86,0,P|148:344|148:304,1,45,2|2,0:0|0:0,0:0:0:0:
208,192,91706,2,0,P|208:214|202:236,1,45,2|2,0:0|0:0,0:0:0:0:
236,324,91914,6,0,P|288:348|368:332,1,135,2|0,0:3|0:0,0:0:0:0:
436,284,92331,2,0,P|452:340|444:376,1,90,0|0,1:0|0:0,0:0:0:0:
352,248,92643,1,0,0:0:0:0:
352,248,92748,2,0,P|346:203|362:161,1,90,2|0,0:3|0:0,0:0:0:0:
492,40,93164,85,2,0:0:0:0:
468,52,93268,1,2,0:0:0:0:
444,64,93373,1,2,0:0:0:0:
420,76,93477,1,2,0:0:0:0:
396,88,93581,6,0,L|244:76,1,135,2|0,0:3|0:0,0:0:0:0:
204,148,93998,2,0,L|104:140,1,90,0|2,1:0|0:3,0:0:0:0:
24,132,94310,1,0,0:0:0:0:
24,132,94414,1,0,0:0:0:0:
168,59,94623,1,0,0:0:0:0:
304,224,94831,86,0,P|300:196|286:169,1,45,2|2,0:3|0:0,0:0:0:0:
394,251,95039,2,0,P|404:224|405:194,1,45,2|2,0:0|0:0,0:0:0:0:
328,316,95248,6,0,P|272:340|172:312,1,135,2|0,0:3|0:0,0:0:0:0:
128,280,95664,1,0,1:0:0:0:
228,120,95873,1,0,0:0:0:0:
412,342,96081,1,2,0:3:0:0:
243,233,96289,1,0,0:0:0:0:
52,336,96498,85,2,0:0:0:0:
40,312,96602,1,2,0:0:0:0:
36,284,96706,1,2,0:0:0:0:
40,256,96810,1,2,0:0:0:0:
52,232,96914,6,0,P|80:188|84:128,1,90,2|0,0:1|0:0,0:0:0:0:
64,64,97227,2,0,P|108:52|176:68,1,90,2|0,0:1|0:0,0:0:0:0:
228,120,97539,2,0,P|288:132|324:120,1,90,2|0,0:1|0:0,0:0:0:0:
380,60,97852,85,0,0:0:0:0:
380,60,97956,2,0,L|384:0,1,45,2|0,0:0|0:0,0:0:0:0:
484,172,98164,2,0,L|481:127,1,45,2|0,0:3|0:0,0:0:0:0:
364,256,98373,2,0,L|368:196,1,45,2|0,0:0|0:0,0:0:0:0:
472,328,98581,6,0,P|408:304|328:344,1,135,2|0,0:3|0:0,0:0:0:0:
268,372,98998,2,0,P|220:376|176:356,1,90,0|0,1:0|0:0,0:0:0:0:
124,292,99310,1,0,0:0:0:0:
124,292,99414,2,0,P|136:220|92:152,1,135,2|0,0:3|0:0,0:0:0:0:
48,48,99831,85,2,0:0:0:0:
72,56,99935,1,2,0:0:0:0:
96,64,100039,1,2,0:0:0:0:
120,72,100143,1,2,0:0:0:0:
144,80,100248,6,0,L|300:72,1,135,2|0,0:3|0:0,0:0:0:0:
264,160,100664,2,0,L|256:232,1,45,0|0,1:0|0:0,0:0:0:0:
432,108,100873,2,0,L|463:140,1,45,2|0,0:1|0:0,0:0:0:0:
356,160,101081,2,0,L|370:202,1,45,2|0,0:1|0:0,0:0:0:0:
468,24,101289,2,0,L|509:40,1,45,2|0,0:1|0:0,0:0:0:0:
456,296,101498,86,0,L|464:224,1,45,2|2,0:3|0:0,0:0:0:0:
364,296,101706,2,0,L|340:227,1,45,2|2,0:0|0:0,0:0:0:0:
284,336,101914,6,0,P|240:320|152:336,1,135,2|0,0:3|0:0,0:0:0:0:
68,364,102331,2,0,P|56:334|61:266,1,90,0|2,1:0|0:3,0:0:0:0:
140,242,102643,1,0,0:0:0:0:
140,242,102748,2,0,P|152:212|203:166,1,90
432,48,103164,85,10,0:3:0:0:
428,76,103268,1,2,0:0:0:0:
424,104,103373,1,2,0:0:0:0:
420,132,103477,1,2,0:0:0:0:
416,160,103581,6,0,L|432:296,1,135,10|0,0:3|0:0,0:0:0:0:
360,352,103998,2,0,P|308:340|272:348,1,90,0|8,1:0|0:3,0:0:0:0:
188,376,104310,1,0,0:0:0:0:
188,376,104414,2,0,P|140:368|104:332,1,90
92,252,104727,1,0,0:0:0:0:
92,252,104831,1,8,0:3:0:0:
256,104,105039,1,0,0:0:0:0:
472,232,105248,86,0,P|488:188|484:136,1,90,2|0,0:1|0:0,0:0:0:0:
432,60,105560,2,0,P|392:76|340:68,1,90,2|0,0:1|0:0,0:0:0:0:
276,16,105873,2,0,P|224:20|184:48,1,90,2|2,0:1|0:3,0:0:0:0:
164,124,106185,5,0,0:0:0:0:
164,124,106289,2,0,L|168:192,1,45,2|0,0:0|0:0,0:0:0:0:
256,208,106498,2,0,L|253:252,1,45,2|0,0:0|0:0,0:0:0:0:
172,272,106706,2,0,L|176:340,1,45,2|0,0:0|0:0,0:0:0:0:
264,352,106914,86,0,P|328:332|408:352,1,135,2|0,0:3|0:0,0:0:0:0:
476,308,107331,2,0,P|488:252|476:204,1,90,0|0,1:0|0:0,0:0:0:0:
408,168,107643,1,0,0:0:0:0:
408,168,107748,2,0,L|416:32,1,135,2|0,0:3|0:0,0:0:0:0:
384,56,108164,5,2,0:0:0:0:
344,72,108268,1,2,0:0:0:0:
300,80,108373,1,2,0:0:0:0:
256,76,108477,1,2,0:0:0:0:
216,60,108581,86,0,P|164:52|76:92,1,135,2|0,0:3|0:0,0:0:0:0:
100,172,108998,2,0,P|104:220|80:276,1,90,0|0,1:0|0:0,0:0:0:0:
32,328,109310,1,0,0:0:0:0:
32,328,109414,1,2,0:3:0:0:
256,188,109623,1,0,0:0:0:0:
432,304,109831,6,0,P|444:328|448:368,1,45,2|2,0:0|0:0,0:0:0:0:
344,284,110039,2,0,P|349:262|359:242,1,45,2|2,0:0|0:0,0:0:0:0:
444,212,110248,86,0,L|432:72,1,135,2|0,0:3|0:0,0:0:0:0:
352,40,110664,2,0,P|300:56|252:48,1,90,0|0,1:0|0:0,0:0:0:0:
192,108,110977,1,0,0:0:0:0:
192,108,111081,2,0,P|148:96|100:100,1,90,2|0,0:3|0:0,0:0:0:0:
56,344,111498,5,2,0:0:0:0:
84,340,111602,1,2,0:0:0:0:
112,336,111706,1,2,0:0:0:0:
140,332,111810,1,2,0:0:0:0:
168,328,111914,86,0,L|236:316,1,45,10|0,0:3|0:0,0:0:0:0:
280,380,112123,2,0,L|314:350,1,45,8|0,0:3|0:0,0:0:0:0:
404,368,112331,2,0,L|427:303,1,45,8|0,1:3|0:0,0:0:0:0:
504,300,112539,2,0,L|496:255,1,45,8|0,0:3|0:0,0:0:0:0:
404,220,112748,2,0,P|388:160|412:88,1,135,2|0,0:3|0:0,0:0:0:0:
444,64,113164,5,2,0:0:0:0:
400,52,113268,1,2,0:0:0:0:
356,52,113373,1,2,0:0:0:0:
312,68,113477,1,2,0:0:0:0:
276,96,113581,86,0,P|220:112|140:80,1,135,10|0,0:3|0:0,0:0:0:0:
92,16,113998,1,0,1:0:0:0:
0,208,114206,2,0,P|62:184|126:200,1,135,10|0,0:3|0:0,0:0:0:0:
202,264,114623,1,0,0:0:0:0:
428,260,114831,6,0,L|424:308,1,45,10|2,0:3|0:0,0:0:0:0:
344,196,115039,2,0,L|340:151,1,45,2|2,0:0|0:0,0:0:0:0:
444,64,115248,86,0,L|436:176,1,90,10|0,0:3|0:0,0:0:0:0:
208,353,115664,2,0,L|201:263,1,90,0|2,1:0|0:3,0:0:0:0:
180,56,116081,5,8,0:3:0:0:
180,56,116185,1,8,0:3:0:0:
64,220,116393,85,0,0:0:0:0:
64,220,116498,2,0,P|91:228|124:228,1,45,10|8,0:3|0:3,0:0:0:0:
324,96,116706,2,0,P|301:98|280:105,1,45,8|8,0:3|0:3,0:0:0:0:
192,164,116914,1,4,0:1:0:0:
256,192,117018,12,0,119831,0:0:0:0:
256,192,120039,69,0,0:0:0:0:
256,192,120248,1,4,0:1:0:0:
256,192,120352,12,0,121914,0:0:0:0:
320,236,122123,6,0,P|354:225|418:234,2,90,0|0|0,0:0|1:0|0:0,0:0:0:0:
250,292,122643,1,0,0:0:0:0:
250,292,122748,2,0,P|204:285|160:249,1,90
64,76,123164,85,2,0:0:0:0:
88,84,123268,1,2,0:0:0:0:
112,92,123373,1,2,0:0:0:0:
136,100,123477,1,2,0:0:0:0:
160,108,123581,6,0,L|212:100,1,45,2|0,0:0|0:0,0:0:0:0:
280,152,123789,2,0,L|324:145,1,45
320,236,123998,2,0,L|268:244,1,45,0|0,1:0|0:0,0:0:0:0:
200,192,124206,2,0,L|155:198,1,45
68,216,124414,1,0,0:0:0:0:
308,68,124623,1,0,0:0:0:0:
444,300,124831,85,2,0:0:0:0:
416,296,124935,1,2,0:0:0:0:
388,292,125039,1,2,0:0:0:0:
360,288,125143,1,2,0:0:0:0:
332,284,125248,6,0,P|308:284|276:292,1,53.9999983520508,2|0,0:0|0:0,0:0:0:0:
132,264,125456,2,0,P|153:254|176:232,1,53.9999983520508
248,160,125664,2,0,P|248:184|256:216,1,53.9999983520508,0|0,1:0|0:0,0:0:0:0:
228,360,125873,2,0,P|218:339|196:316,1,53.9999983520508
44,284,126081,86,0,P|48:232|89:182,1,107.999996704102
167,161,126393,2,0,P|179:109|155:49,1,107.999996704102,0|2,0:0|0:0,0:0:0:0:
80,24,126706,1,2,0:0:0:0:
80,24,126810,1,2,0:0:0:0:
80,24,126914,2,0,L|224:32,1,107.999996704102,2|0,0:0|0:0,0:0:0:0:
355,154,127331,2,0,L|211:162,1,107.999996704102,0|0,1:0|0:0,0:0:0:0:
44,284,127748,2,0,L|120:292,1,53.9999983520508
144,372,127956,2,0,L|220:380,1,53.9999983520508
280,352,128164,5,2,0:0:0:0:
312,344,128268,1,2,0:0:0:0:
344,336,128373,1,2,0:0:0:0:
376,328,128477,1,2,0:0:0:0:
408,320,128581,86,2,B|416:304|396:272|396:272|412:240|412:240|392:204|420:152,1,161.999995056153,2|0,0:1|0:0,0:1:0:0:
456,88,128998,1,2,1:0:0:0:
256,192,129102,12,0,130039,0:0:0:0:
391,61,130248,69,0,0:0:0:0:
288,187,130456,1,0,0:0:0:0:
220,80,130664,2,0,P|260:100|316:96,1,90,0|0,1:0|0:0,0:0:0:0:
460,140,131081,2,0,P|415:139|375:159,1,90
292,232,131393,1,0,0:0:0:0:
292,232,131498,6,0,L|288:180,1,45,2|2,0:0|0:0,0:0:0:0:
376,260,131706,2,0,L|372:304,1,45,2|2,0:0|0:0,0:0:0:0:
284,324,131914,86,0,P|240:328|180:304,1,90,2|0,0:0|0:0,0:0:0:0:
148,240,132227,1,0,0:0:0:0:
148,240,132331,2,0,P|164:184|152:136,1,90,0|0,1:0|0:0,0:0:0:0:
36,136,132643,1,0,0:0:0:0:
36,136,132748,2,0,P|20:192|32:240,1,90
368,352,133164,5,2,0:0:0:0:
372,324,133268,1,2,0:0:0:0:
376,296,133373,1,2,0:0:0:0:
380,268,133477,1,2,0:0:0:0:
384,240,133581,86,0,L|376:140,1,90,2|0,0:0|0:0,0:0:0:0:
168,56,133998,2,0,L|160:145,1,90,0|0,1:0|0:0,0:0:0:0:
370,64,134414,1,0,0:0:0:0:
150,234,134623,1,0,0:0:0:0:
378,312,134831,5,2,0:0:0:0:
354,328,134935,1,2,0:0:0:0:
330,336,135039,1,2,0:0:0:0:
302,336,135143,1,2,0:0:0:0:
274,332,135248,86,0,P|230:320|178:328,1,90,2|0,0:0|0:0,0:0:0:0:
96,316,135560,1,0,0:0:0:0:
96,316,135664,2,0,P|60:272|56:228,1,90,8|0,1:0|0:0,0:0:0:0:
100,160,135977,1,0,0:0:0:0:
100,160,136081,1,0,0:0:0:0:
186,325,136289,1,2,0:1:0:0:
2,168,136498,6,0,P|2:144|22:100,1,45,2|0,0:1|0:0,0:0:0:0:
81,19,136706,2,0,P|86:40|86:63,1,45,2|0,0:1|0:0,0:0:0:0:
100,160,136914,86,0,P|164:180|228:149,1,135,2|0,0:3|0:0,0:0:0:0:
274,78,137331,1,0,1:0:0:0:
236,267,137539,1,0,0:0:0:0:
160,88,137748,1,2,0:3:0:0:
349,175,137956,1,0,0:0:0:0:
60,312,138164,5,2,0:0:0:0:
84,300,138268,1,2,0:0:0:0:
112,296,138373,1,2,0:0:0:0:
140,300,138477,1,2,0:0:0:0:
164,312,138581,86,0,P|220:344|292:324,1,135,2|0,0:3|0:0,0:0:0:0:
324,246,138998,1,0,1:0:0:0:
111,378,139206,1,2,0:3:0:0:
75,163,139414,1,0,0:0:0:0:
236,252,139623,1,0,0:0:0:0:
455,106,139831,5,2,0:3:0:0:
427,102,139935,1,2,0:0:0:0:
399,106,140039,1,2,0:0:0:0:
375,118,140143,1,2,0:0:0:0:
355,138,140248,86,0,P|295:162|223:146,1,135,2|0,0:3|0:0,0:0:0:0:
160,88,140664,1,0,1:0:0:0:
236,252,140873,1,2,0:3:0:0:
75,163,141081,1,0,0:0:0:0:
283,66,141289,1,0,0:0:0:0:
367,350,141498,5,2,0:3:0:0:
371,322,141602,1,2,0:0:0:0:
375,294,141706,1,2,0:0:0:0:
379,266,141810,1,2,0:0:0:0:
383,238,141914,86,0,L|367:94,1,135,2|0,0:3|0:0,0:0:0:0:
283,66,142331,2,0,P|243:82|171:66,1,90,8|2,1:0|0:3,0:0:0:0:
123,30,142643,1,0,0:0:0:0:
123,30,142748,2,0,P|71:26|27:50,1,90
4,124,143060,1,0,0:0:0:0:
4,124,143164,6,0,L|8:176,1,45,2|2,0:0|0:0,0:0:0:0:
89,242,143373,2,0,L|93:198,1,45,2|2,0:0|0:0,0:0:0:0:
22,303,143581,86,0,P|82:331|150:311,1,135,10|0,0:3|0:0,0:0:0:0:
178,229,143998,2,0,L|294:241,1,90,0|0,1:0|0:0,0:0:0:0:
315,313,144310,1,0,0:0:0:0:
315,313,144414,2,0,L|404:303,1,90
448,100,144831,5,10,0:3:0:0:
420,96,144935,1,2,0:0:0:0:
392,92,145039,1,2,0:0:0:0:
364,88,145143,1,2,0:0:0:0:
336,84,145248,86,0,L|196:92,1,135,10|0,0:3|0:0,0:0:0:0:
116,124,145664,2,0,P|96:164|96:228,1,90,0|0,1:0|0:0,0:0:0:0:
408,328,146081,2,0,P|404:283|384:243,1,90
44,280,146498,5,10,0:3:0:0:
68,292,146602,1,2,0:0:0:0:
96,296,146706,1,2,0:0:0:0:
124,292,146810,1,2,0:0:0:0:
152,280,146914,6,0,P|200:264|268:280,1,107.999996704102,10|0,0:3|0:0,0:0:0:0:
320,340,147227,2,0,P|384:348|428:324,2,107.999996704102,2|2|2,0:1|0:1|0:1,0:0:0:0:
255,273,147748,2,0,L|267:161,1,107.999996704102,2|0,0:1|0:0,0:0:0:0:
280,72,148060,1,0,0:0:0:0:
280,72,148164,2,0,L|288:8,1,53.9999983520508,2|2,0:0|0:0,0:0:0:0:
360,128,148373,2,0,L|368:64,1,53.9999983520508,2|2,0:0|0:0,0:0:0:0:
192,96,148581,6,0,L|185:42,1,53.9999983520508,2|0,0:0|0:0,0:0:0:0:
112,152,148789,2,0,L|105:98,1,53.9999983520508
328,96,148998,2,0,L|336:32,1,53.9999983520508,0|0,1:0|0:0,0:0:0:0:
408,152,149206,2,0,L|416:88,1,53.9999983520508
252,328,149414,86,2,B|236:296|264:264|264:264|240:232|260:200|260:200|252:152,1,161.999995056153,2|0,0:1|0:1,0:1:0:0:
256,68,149831,1,8,0:3:0:0:
256,68,149935,1,8,0:3:0:0:
256,68,150039,1,8,0:3:0:0:
256,68,150143,1,8,0:3:0:0:
256,68,150248,86,0,L|352:60,2,90,8|2|2,0:0|0:0|0:0,0:0:0:0:
104,168,150873,1,2,0:0:0:0:
104,168,150977,1,2,0:0:0:0:
104,168,151081,2,0,L|200:176,1,90,2|2,0:0|0:0,0:0:0:0:
276,212,151393,2,0,P|292:268|276:320,1,90,2|2,0:0|0:0,0:0:0:0:
216,352,151706,2,0,P|200:296|216:244,1,90,2|0,0:0|0:0,0:0:0:0:
396,228,153581,86,0,L|388:324,2,90,2|0|0,0:0|0:0|0:0,0:0:0:0:
500,80,154206,1,2,0:0:0:0:
500,80,154310,1,2,0:0:0:0:
500,80,154414,2,0,P|444:96|404:88,1,90,2|0,0:0|0:0,0:0:0:0:
344,36,154727,2,0,P|301:20|257:24,1,90,2|0,0:0|0:0,0:0:0:0:
176,60,155039,1,2,0:0:0:0:
184,272,156914,6,0,L|88:268,2,90,2|0|0,0:0|0:0|0:0,0:0:0:0:
352,340,157539,1,2,0:0:0:0:
352,340,157643,1,2,0:0:0:0:
352,340,157748,2,0,P|352:296|372:244,1,90,2|0,0:0|0:0,0:0:0:0:
424,184,158060,2,0,P|424:140|404:88,1,90,2|0,0:0|0:0,0:0:0:0:
336,40,158373,2,0,P|296:52|228:44,1,90,2|0,0:0|0:0,0:0:0:0:
120,184,160248,86,0,L|128:92,2,90,2|0|0,0:0|0:0|0:0,0:0:0:0:
272,280,160873,1,2,0:0:0:0:
272,280,160977,1,2,0:0:0:0:
272,280,161081,2,0,P|316:268|368:272,1,90,2|0,0:0|0:0,0:0:0:0:
512,344,161393,2,0,P|467:346|424:334,1,90,2|0,0:0|0:0,0:0:0:0:
448,248,161706,2,0,P|460:208|452:152,1,90,2|0,0:0|0:0,0:0:0:0:
57,52,163581,85,0,0:0:0:0:
161,307,163789,1,0,0:0:0:0:
321,69,163998,1,0,1:0:0:0:
449,212,164206,37,0,0:0:0:0:
449,212,164310,1,0,0:0:0:0:
449,212,164414,2,0,P|385:228|337:212,1,107.999996704102
269,269,164727,1,0,0:0:0:0:
269,269,164831,6,0,P|259:243|257:216,1,53.9999983520508,2|2,0:0|0:0,0:0:0:0:
166,204,165039,2,0,P|170:177|182:153,1,53.9999983520508,2|2,0:0|0:0,0:0:0:0:
200,65,165248,86,0,L|78:73,1,107.999996704102,2|0,0:0|0:0,0:0:0:0:
0,80,165560,1,0,0:0:0:0:
0,80,165664,1,0,1:0:0:0:
95,274,165873,1,0,0:0:0:0:
268,124,166081,2,0,L|390:132,1,107.999996704102
412,47,166393,1,0,0:0:0:0:
412,47,166498,6,0,L|348:43,1,53.9999983520508,2|2,0:0|0:0,0:0:0:0:
214,120,166706,2,0,L|267:123,1,53.9999983520508,2|2,0:0|0:0,0:0:0:0:
504,232,166914,86,0,P|451:221|399:233,1,107.999996704102,2|0,0:0|0:0,0:0:0:0:
324,288,167227,1,0,0:0:0:0:
324,288,167331,2,0,L|312:344,1,53.9999983520508,0|0,1:0|0:0,0:0:0:0:
236,252,167539,2,0,L|224:199,1,53.9999983520508
148,288,167748,2,0,L|136:344,1,53.9999983520508
159,303,167956,2,0,L|147:359,1,53.9999983520508
68,240,168164,5,2,0:0:0:0:
96,207,168268,1,2,0:0:0:0:
103,164,168373,1,2,0:0:0:0:
85,124,168477,1,2,0:0:0:0:
48,101,168581,86,0,P|99:127|168:113,1,107.999996704102,2|0,0:0|0:0,0:0:0:0:
215,60,168893,1,0,0:0:0:0:
215,60,168998,2,0,P|261:34|314:37,1,107.999996704102,0|0,1:0|0:0,0:0:0:0:
283,172,169310,1,0,0:0:0:0:
283,172,169414,2,0,P|279:136|283:112,1,53.9999983520508
403,12,169623,2,0,P|405:38|401:65,1,53.9999983520508
371,152,169831,5,2,0:0:0:0:
379,180,169935,1,2,0:0:0:0:
387,204,170039,1,2,0:0:0:0:
395,228,170143,1,2,0:0:0:0:
403,252,170248,86,0,L|391:360,1,107.999996704102,2|0,0:1|0:0,0:0:0:0:
315,304,170560,2,0,P|263:288|207:296,1,107.999996704102,2|0,0:1|0:0,0:0:0:0:
139,352,170873,2,0,P|85:358|35:342,2,107.999996704102,2|2|2,0:1|0:1|0:1,0:0:0:0:
210,294,171393,1,0,0:0:0:0:
222,258,171498,5,2,0:0:0:0:
223,220,171602,1,2,0:0:0:0:
215,184,171706,1,2,0:0:0:0:
195,152,171810,1,2,0:0:0:0:
163,132,171914,86,0,L|43:144,1,107.999996704102,2|0,0:0|0:0,0:0:0:0:
372,248,172331,2,0,L|425:259,1,53.9999983520508,0|0,1:0|0:0,0:0:0:0:
320,325,172539,2,0,L|268:336,1,53.9999983520508
280,240,172748,2,0,L|300:128,1,107.999996704102
372,72,173060,1,0,0:0:0:0:
336,88,173164,5,2,0:0:0:0:
300,96,173268,1,2,0:0:0:0:
260,96,173373,1,2,0:0:0:0:
224,84,173477,1,2,0:0:0:0:
192,64,173581,86,0,P|140:56|88:76,1,107.999996704102,2|0,0:1|0:0,0:0:0:0:
20,136,173893,1,2,0:1:0:0:
20,136,173998,2,0,L|28:216,1,53.9999983520508,0|0,1:0|0:0,0:0:0:0:
148,316,174206,2,0,L|153:262,1,53.9999983520508,2|0,0:1|0:0,0:0:0:0:
180,156,174414,2,0,L|100:164,1,53.9999983520508,2|0,0:1|0:0,0:0:0:0:
0,284,174623,2,0,L|53:289,1,53.9999983520508,2|0,0:1|0:0,0:0:0:0:
216,360,174831,5,2,0:0:0:0:
244,340,174935,1,2,0:0:0:0:
272,328,175039,1,2,0:0:0:0:
304,324,175143,1,2,0:0:0:0:
336,332,175248,86,0,P|412:356|492:312,1,161.999995056153,2|0,0:0|0:0,0:0:0:0:
456,236,175664,2,0,P|440:176|448:120,1,107.999996704102,0|0,1:0|0:0,0:0:0:0:
476,44,175977,1,0,0:0:0:0:
476,44,176081,1,0,0:0:0:0:
300,240,176289,1,0,0:0:0:0:
92,44,176498,5,2,0:0:0:0:
96,76,176602,1,2,0:0:0:0:
100,108,176706,1,2,0:0:0:0:
104,140,176810,1,2,0:0:0:0:
108,172,176914,86,0,L|96:292,1,107.999996704102,2|0,0:0|0:0,0:0:0:0:
256,96,177331,1,0,1:0:0:0:
433,230,177539,2,0,P|459:237|482:249,1,53.9999983520508
448,330,177748,2,0,P|398:313|346:324,1,107.999996704102
270,377,178060,1,0,0:0:0:0:
270,377,178164,6,0,P|254:341|254:309,1,53.9999983520508,2|2,0:0|0:0,0:0:0:0:
318,189,178373,2,0,P|313:215|300:239,1,53.9999983520508,2|2,0:0|0:0,0:0:0:0:
210,249,178581,86,0,L|82:257,1,107.999996704102,2|0,0:0|0:0,0:0:0:0:
10,261,178893,1,0,0:0:0:0:
10,261,178998,1,0,1:0:0:0:
174,106,179206,2,0,P|175:79|184:53,1,53.9999983520508
266,96,179414,2,0,P|318:89|367:110,1,107.999996704102,2|0,0:1|0:0,0:0:0:0:
408,192,179727,2,0,P|464:208|516:188,2,107.999996704102,2|2|0,0:1|0:1|0:0,0:0:0:0:
321,242,180248,6,0,L|318:189,1,53.9999983520508,2|0,0:1|0:0,0:0:0:0:
399,294,180456,2,0,L|396:348,1,53.9999983520508,0|0,0:1|0:0,0:0:0:0:
312,336,180664,1,0,1:0:0:0:
280,332,180768,1,0,0:0:0:0:
248,328,180873,1,0,0:0:0:0:
220,324,180977,1,0,0:0:0:0:
192,320,181081,86,0,L|132:312,1,53.9999983520508,2|0,0:1|0:0,0:0:0:0:
0,248,181289,2,0,L|60:240,1,53.9999983520508,2|0,0:1|0:0,0:0:0:0:
160,200,181498,5,2,0:0:0:0:
156,172,181602,1,2,0:0:0:0:
144,148,181706,1,2,0:0:0:0:
124,128,181810,1,2,0:0:0:0:
100,120,181914,86,0,P|48:136|-8:124,2,107.999996704102,2|2|0,0:0|0:1|1:0,0:0:0:0:
156,44,182435,2,0,P|208:34|259:50,1,107.999996704102,2|0,0:1|0:0,0:0:0:0:
316,124,182748,2,0,P|368:140|424:128,1,107.999996704102,2|0,0:1|0:0,0:0:0:0:
488,68,183060,1,2,0:1:0:0:
238,179,183268,1,2,0:1:0:0:
508,292,183477,5,0,0:0:0:0:
508,292,183581,2,0,P|460:312|392:300,1,107.999996704102,2|0,0:1|0:0,0:0:0:0:
340,244,183893,1,0,0:0:0:0:
340,244,183998,2,0,L|324:304,1,53.9999983520508,0|0,1:0|0:0,0:0:0:0:
260,360,184206,2,0,L|246:307,1,53.9999983520508
224,220,184414,2,0,P|168:212|112:232,1,107.999996704102,2|2,0:1|0:1,0:0:0:0:
32,260,184727,1,0,0:0:0:0:
32,260,184831,85,2,0:0:0:0:
36,228,184935,1,2,0:0:0:0:
40,196,185039,1,2,0:0:0:0:
44,164,185143,1,2,0:0:0:0:
48,132,185248,6,0,L|54:76,1,53.9999983520508,2|0,0:1|0:0,0:0:0:0:
192,8,185456,2,0,L|197:61,1,53.9999983520508,2|0,0:1|0:0,0:0:0:0:
328,156,185664,2,0,L|334:100,1,53.9999983520508,2|0,1:1|0:0,0:0:0:0:
472,16,185873,2,0,L|477:69,1,53.9999983520508,2|0,0:1|0:0,0:0:0:0:
386,227,186081,86,0,P|332:248|278:232,1,107.999996704102,2|0,0:1|0:0,0:0:0:0:
234,160,186393,2,0,P|184:140|132:150,1,107.999996704102,2|2,0:1|0:1,0:0:0:0:
53,198,186706,1,2,0:0:0:0:
53,198,186810,1,2,0:0:0:0:
53,198,186914,1,2,0:1:0:0:
256,192,187018,12,0,188581,0:0:0:0:
140,272,189414,54,0,P|136:288|136:344,1,53.9999983520508,10|10,0:3|0:3,0:0:0:0:
224,240,189623,2,0,P|223:213|217:186,1,53.9999983520508,10|10,0:3|0:3,0:0:0:0:
88,56,189935,1,10,0:3:0:0:
88,56,190039,1,10,0:3:0:0:
24,224,190248,5,0,0:0:0:0:
303,159,190664,5,0,1:0:0:0:
217,186,191081,1,0,0:0:0:0:
237,98,191498,1,0,0:0:0:0:
303,159,191915,1,0,0:0:0:0:
44,312,192331,85,0,1:0:0:0:
110,251,192748,1,0,0:0:0:0:
130,339,193165,1,0,0:0:0:0:
44,312,193582,1,0,0:0:0:0:
456,196,193997,5,0,1:0:0:0:
428,280,194414,1,0,0:0:0:0:
368,216,194831,1,0,0:0:0:0:
456,196,195248,1,0,0:0:0:0:
276,232,195456,1,0,0:0:0:0:
136,84,195663,85,0,1:0:0:0:
220,112,195873,1,0,0:0:0:0:
156,172,196081,1,0,0:0:0:0:
136,84,196498,1,0,0:0:0:0:
220,112,196914,1,0,0:0:0:0:
16,356,197330,5,0,1:0:0:0:
36,268,197747,1,0,0:0:0:0:
102,329,198164,1,0,0:0:0:0:
16,356,198581,1,0,0:0:0:0:
274,68,198998,85,0,1:0:0:0:
360,95,199415,1,0,0:0:0:0:
294,156,199832,1,0,0:0:0:0:
274,68,200248,1,0,0:0:0:0:
476,292,200663,5,0,1:0:0:0:
449,378,201080,1,0,0:0:0:0:
388,312,201497,1,0,0:0:0:0:
476,292,201914,1,0,0:0:0:0:
304,272,202123,1,0,0:0:0:0:
192,60,202331,85,0,1:0:0:0:
280,40,202539,1,0,0:0:0:0:
253,126,202748,2,0,L|109:110,1,135
118,111,203164,1,0,0:0:0:0:
40,276,203373,2,0,L|88:272,1,45
26,363,203581,6,0,L|116:356,1,90,8|0,0:1|0:0,0:0:0:0:
172,288,203893,1,0,0:0:0:0:
172,288,203998,2,0,P|216:284|272:308,1,90,0|0,1:0|0:0,0:0:0:0:
328,356,204310,1,0,0:0:0:0:
328,356,204414,2,0,P|372:360|428:336,1,90
432,80,204831,86,0,P|428:112|416:144,1,45,2|2,0:0|0:0,0:0:0:0:
340,88,205039,2,0,P|320:113|294:135,1,45,2|2,0:0|0:0,0:0:0:0:
252,56,205248,6,0,P|208:76|152:72,1,90,2|0,0:0|0:0,0:0:0:0:
8,104,205560,1,0,0:0:0:0:
8,104,205664,2,0,P|52:104|93:124,1,90,0|0,1:0|0:0,0:0:0:0:
172,168,205977,1,0,0:0:0:0:
172,168,206081,2,0,L|160:276,1,90
414,345,206498,85,2,0:0:0:0:
412,320,206602,1,2,0:0:0:0:
408,292,206706,1,2,0:0:0:0:
404,264,206810,1,2,0:0:0:0:
400,236,206914,6,0,L|408:140,1,90,2|0,0:0|0:0,0:0:0:0:
368,64,207227,1,0,0:0:0:0:
368,64,207331,2,0,P|320:56|272:72,1,90,0|0,1:0|0:0,0:0:0:0:
12,164,207748,2,0,P|64:188|156:164,1,135
212,124,208164,86,0,P|224:160|224:188,1,45,2|2,0:0|0:0,0:0:0:0:
312,228,208373,2,0,P|316:205|324:185,1,45,2|2,0:0|0:0,0:0:0:0:
400,136,208581,6,0,L|504:148,1,90,2|0,0:0|0:0,0:0:0:0:
216,272,208998,2,0,L|76:288,1,135,8|0,1:0|0:0,0:0:0:0:
12,228,209414,2,0,P|0:172|12:124,1,90
52,60,209727,1,0,0:0:0:0:
52,60,209831,85,2,0:0:0:0:
80,64,209935,1,2,0:0:0:0:
108,68,210039,1,2,0:0:0:0:
136,72,210143,1,2,0:0:0:0:
164,76,210248,38,0,L|284:64,1,107.999996704102,2|0,0:1|0:0,0:0:0:0:
348,12,210560,2,0,P|401:13|451:43,1,107.999996704102,2|0,0:1|0:0,0:0:0:0:
436,132,210873,2,0,P|424:208|440:252,1,107.999996704102,2|0,0:1|0:0,0:0:0:0:
474,316,211185,85,0,0:0:0:0:
474,316,211289,2,0,L|470:372,1,53.9999983520508,2|0,0:0|0:0,0:0:0:0:
330,192,211498,2,0,L|326:248,1,53.9999983520508,2|0,0:0|0:0,0:0:0:0:
170,192,211706,2,0,L|174:248,1,53.9999983520508,2|0,0:0|0:0,0:0:0:0:
26,316,211914,6,0,L|30:372,1,53.9999983520508
181,173,212123,2,0,L|185:229,1,53.9999983520508,2|0,0:1|0:0,0:0:0:0:
341,173,212331,2,0,L|337:229,1,53.9999983520508,2|0,1:0|0:0,0:0:0:0:
159,208,212539,2,0,L|163:264,1,53.9999983520508,2|0,0:1|0:0,0:0:0:0:
26,316,212748,86,0,L|29:262,1,53.9999983520508,2|0,0:1|0:0,0:0:0:0:
190,159,212956,2,0,L|194:215,1,53.9999983520508,2|0,0:1|0:0,0:0:0:0:
274,324,213164,5,2,0:0:0:0:
314,344,213268,1,2,0:0:0:0:
364,344,213373,1,2,0:0:0:0:
400,320,213477,1,2,0:0:0:0:
420,280,213581,86,0,P|416:236|440:168,1,107.999996704102,2|0,0:1|0:0,0:1:0:0:
488,104,213893,1,2,0:1:0:0:
488,104,213998,2,0,L|476:48,1,53.9999983520508,0|2,1:0|0:1,0:0:0:0:
340,180,214206,2,0,L|352:124,1,53.9999983520508
208,88,214414,2,0,L|196:32,1,53.9999983520508,2|0,0:1|0:0,0:0:0:0:
60,136,214623,2,0,L|72:80,1,53.9999983520508,2|0,0:1|0:0,0:0:0:0:
146,186,214831,5,2,0:0:0:0:
118,222,214935,1,2,0:0:0:0:
78,238,215039,1,2,0:0:0:0:
38,238,215143,1,2,0:0:0:0:
0,216,215248,37,10,0:3:0:0:
71,83,215456,1,0,0:0:0:0:
146,186,215664,1,0,0:3:0:0:
217,53,215872,1,0,0:0:0:0:
223,290,216081,1,10,0:3:0:0:
294,157,216289,1,0,0:0:0:0:
363,259,216498,1,10,0:3:0:0:
363,259,216602,1,10,0:3:0:0:
363,259,216706,1,10,0:3:0:0:
136,225,216914,6,0,L|216:230,1,67.5000025749208,12|0,0:0|0:0,0:0:0:0:
361,161,217331,2,0,L|293:156,1,67.5000025749208
58,183,217748,2,0,P|46:229|94:309,1,135,0|2,0:0|0:0,0:0:0:0:
154,357,218373,1,2,0:0:0:0:
226,309,218581,2,0,P|290:289|374:313,1,135.000005149842,2|0,0:0|0:0,0:0:0:0:
430,349,219206,2,0,P|458:289|446:213,1,135.000005149842,2|0,0:0|0:0,0:0:0:0:
388,160,219831,2,0,P|379:116|382:85,1,67.5000025749208,2|2,0:0|0:0,0:0:0:0:
448,39,220248,6,0,B|384:61|384:61|304:50,1,135.000005149842,2|0,0:0|0:0,0:0:0:0:
230,38,220873,1,0,0:0:0:0:
144,57,221081,1,0,0:0:0:0:
58,77,221289,1,0,0:0:0:0:
10,151,221498,2,0,P|1:190|5:233,1,67.5000025749208,2|2,0:0|0:0,0:0:0:0:
44,293,221914,2,0,P|103:265|169:288,1,135.000005149842,2|0,0:0|0:0,0:0:0:0:
108,352,222539,2,0,L|122:212,1,135.000005149842,2|0,0:0|0:0,0:0:0:0:
196,171,223164,2,0,L|203:252,1,67.5000025749208,2|2,0:0|0:0,0:0:0:0:
242,315,223581,86,0,P|306:335|375:299,1,135.000005149842,2|0,0:0|0:0,0:0:0:0:
416,237,224206,1,0,0:0:0:0:
406,149,224414,1,0,0:0:0:0:
392,62,224623,1,0,0:0:0:0:
323,6,224831,2,0,P|286:11|247:33,1,67.5000025749208,2|2,0:0|0:0,0:0:0:0:
219,102,225248,2,0,P|189:113|84:63,1,135.000005149842,2|0,0:0|0:0,0:0:0:0:
44,9,225873,2,0,L|51:152,1,135.000005149842,2|0,0:0|0:0,0:0:0:0:
129,163,226498,2,0,L|121:239,1,67.5000025749208,2|2,0:0|0:0,0:0:0:0:
68,299,226914,6,0,P|97:284|203:279,1,135.000005149842,2|0,0:0|0:0,0:0:0:0:
323,342,227539,1,0,0:0:0:0:
259,215,227748,1,0,0:0:0:0:
237,356,227956,1,0,0:0:0:0:
337,255,228164,1,2,0:0:0:0:
197,277,228373,1,0,0:0:0:0:
89,371,228581,86,0,P|66:307|67:240,1,135.000005149842,2|0,0:0|0:0,0:0:0:0:
276,359,229414,6,0,P|304:339|404:336,1,135,2|0,0:0|0:0,0:0:0:0:
448,260,230248,6,0,P|436:212|440:164,1,90,2|0,0:3|0:3,0:0:0:0:
340,28,230664,2,0,P|341:72|330:116,1,90,0|2,1:0|0:3,0:0:0:0:
64,196,231081,2,0,P|128:176|192:211,1,135,2|0,0:3|0:0,0:0:0:0:
124,312,231498,6,0,P|120:268|124:252,1,45,2|2,0:3|0:0,0:0:0:0:
272,188,231706,2,0,P|272:210|268:232,1,45,2|2,0:0|0:0,0:0:0:0:
232,316,231914,86,0,P|280:324|320:308,1,90,2|0,0:3|0:0,0:0:0:0:
360,228,232227,1,0,0:0:0:0:
360,228,232331,2,0,P|420:224|456:240,1,90,0|2,1:0|0:3,0:0:0:0:
500,308,232643,1,0,0:0:0:0:
500,308,232748,2,0,L|488:172,1,135
456,88,233164,5,2,0:3:0:0:
428,76,233268,1,2,0:0:0:0:
396,72,233373,1,2,0:0:0:0:
364,76,233477,1,2,0:0:0:0:
336,88,233581,86,0,P|280:100|200:60,1,135,2|0,0:3|0:0,0:0:0:0:
152,0,233998,1,0,1:0:0:0:
200,216,234206,1,2,0:3:0:0:
24,160,234414,2,0,P|84:131|149:142,1,135
200,216,234831,6,0,L|192:284,1,45,2|2,0:3|0:0,0:0:0:0:
108,284,235039,2,0,L|113:328,1,45,2|2,0:0|0:0,0:0:0:0:
200,356,235248,86,0,P|248:360|300:336,1,90,2|0,0:1|0:0,0:0:0:0:
324,264,235560,2,0,P|372:260|424:284,1,90,2|0,0:1|0:0,0:0:0:0:
492,312,235873,2,0,P|508:272|496:196,1,90,2|2,0:1|0:3,0:0:0:0:
468,144,236185,5,0,0:0:0:0:
468,144,236289,2,0,L|520:136,1,45,2|0,0:0|0:0,0:0:0:0:
380,64,236498,2,0,L|432:56,1,45,2|0,0:0|0:0,0:0:0:0:
332,172,236706,2,0,L|384:164,1,45,2|0,0:0|0:0,0:0:0:0:
252,88,236914,85,2,0:1:0:0:
176,240,237123,1,0,0:0:0:0:
252,88,237331,1,2,1:0:0:0:
280,268,237539,1,0,0:0:0:0:
319,35,237748,2,0,P|258:4|193:27,1,135,2|0,0:1|0:0,0:0:0:0:
119,71,238164,6,0,P|107:39|107:11,1,45,2|2,0:0|0:0,0:0:0:0:
199,115,238373,2,0,P|195:137|185:157,1,45,2|2,0:0|0:0,0:0:0:0:
95,159,238581,86,0,L|111:307,1,135,2|0,0:3|0:0,0:0:0:0:
179,351,238998,2,0,P|227:359|267:343,1,90,0|0,1:0|0:0,0:0:0:0:
319,275,239310,1,0,0:0:0:0:
319,275,239414,2,0,P|383:259|455:299,1,135,2|0,0:3|0:0,0:0:0:0:
499,359,239831,5,2,0:0:0:0:
495,331,239935,1,2,0:0:0:0:
491,303,240039,1,2,0:0:0:0:
487,275,240143,1,2,0:0:0:0:
483,247,240248,86,0,L|487:199,1,45,2|0,0:3|0:0,0:0:0:0:
423,83,240456,2,0,L|426:127,1,45
395,263,240664,2,0,L|399:215,1,45,0|0,1:0|0:0,0:0:0:0:
327,51,240873,2,0,L|330:95,1,45,2|0,0:1|0:0,0:0:0:0:
303,275,241081,2,0,L|307:227,1,45,2|0,0:1|0:0,0:0:0:0:
231,31,241289,2,0,L|234:75,1,45,2|0,0:1|0:0,0:0:0:0:
211,287,241498,5,2,0:0:0:0:
183,299,241602,1,2,0:0:0:0:
151,303,241706,1,2,0:0:0:0:
119,295,241810,1,2,0:0:0:0:
91,279,241914,86,0,P|43:275|-1:287,1,90,10|0,0:3|0:0,0:0:0:0:
287,343,242331,2,0,P|303:295|295:247,1,90,0|0,1:0|0:0,0:0:0:0:
109,63,242748,2,0,P|169:91|245:67,1,135,2|0,0:3|0:0,0:0:0:0:
293,7,243164,5,2,0:0:0:0:
325,15,243268,1,2,0:0:0:0:
357,23,243373,1,2,0:0:0:0:
389,31,243477,1,2,0:0:0:0:
421,39,243581,85,10,0:3:0:0:
421,264,243789,1,0,0:0:0:0:
288,81,243998,1,0,1:0:0:0:
499,151,244206,1,10,0:3:0:0:
288,220,244414,1,0,0:0:0:0:
421,39,244623,1,0,0:0:0:0:
473,331,244831,5,10,0:3:0:0:
444,344,244935,1,2,0:0:0:0:
414,348,245039,1,2,0:0:0:0:
383,340,245143,1,2,0:0:0:0:
357,323,245248,86,0,P|317:311|287:311,1,53.9999983520508,10|0,0:3|0:0,0:0:0:0:
119,217,245456,2,0,P|146:212|172:203,1,53.9999983520508,2|0,0:3|0:0,0:0:0:0:
427,210,245664,2,0,P|427:236|420:263,1,53.9999983520508,0|0,1:0|0:0,0:0:0:0:
213,346,245873,2,0,P|207:320|207:293,1,53.9999983520508
300,178,246081,2,0,L|294:8,1,161.999995056153,10|0,0:3|0:0,0:0:0:0:
215,54,246498,5,8,0:3:0:0:
247,90,246602,1,8,0:3:0:0:
293,103,246706,1,8,0:3:0:0:
340,91,246810,1,8,0:3:0:0:
385,15,246914,6,0,P|440:-4|515:32,1,135,4|0,1:0|0:0,0:0:0:0:
441,85,247331,2,0,L|449:129,1,45,0|0,1:0|0:0,0:0:0:0:
506,198,247539,2,0,L|497:242,1,45,2|0,0:3|0:0,0:0:0:0:
446,317,247748,2,0,P|402:321|346:297,1,90,0|2,0:0|0:0,0:0:0:0:
306,233,248060,1,2,0:0:0:0:
306,233,248164,2,0,P|261:229|219:243,1,90,2|2,0:3|0:0,0:0:0:0:
154,305,248477,5,2,0:0:0:0:
154,305,248581,2,0,P|130:253|162:173,1,135,2|0,0:3|0:0,0:0:0:0:
238,153,248998,2,0,P|246:121|246:97,1,45,0|0,1:0|0:0,0:0:0:0:
158,13,249206,2,0,P|160:35|166:56,1,45
250,17,249414,2,0,L|339:26,1,90,2|0,0:3|0:0,0:0:0:0:
472,264,249831,85,2,0:0:0:0:
444,268,249935,1,2,0:0:0:0:
416,272,250039,1,2,0:0:0:0:
388,276,250143,1,2,0:0:0:0:
360,280,250248,6,0,P|296:264|224:296,1,135,2|0,0:3|0:0,0:0:0:0:
160,340,250664,2,0,P|112:344|72:328,1,90,0|2,1:0|0:3,0:0:0:0:
32,248,250977,1,0,0:0:0:0:
32,248,251081,2,0,L|40:152,1,90
48,68,251393,1,0,0:0:0:0:
48,68,251498,86,0,L|52:16,1,45,2|2,0:3|0:0,0:0:0:0:
128,124,251706,2,0,L|124:168,1,45,2|2,0:0|0:0,0:0:0:0:
208,72,251914,6,0,P|272:56|344:88,1,135,2|0,0:3|0:0,0:0:0:0:
412,128,252331,2,0,P|424:88|416:36,1,90,0|0,1:0|0:0,0:0:0:0:
268,148,252643,1,0,0:0:0:0:
268,148,252748,2,0,P|261:192|273:235,1,90,2|0,0:3|0:0,0:0:0:0:
460,288,253164,85,2,0:0:0:0:
432,284,253268,1,2,0:0:0:0:
404,280,253373,1,2,0:0:0:0:
376,276,253477,1,2,0:0:0:0:
348,272,253581,6,0,L|212:284,1,135,2|0,0:3|0:0,0:0:0:0:
132,324,253998,2,0,P|124:288|124:268,1,45,0|0,1:0|0:0,0:0:0:0:
184,156,254206,2,0,P|181:178|175:199,1,45,2|0,0:3|0:0,0:0:0:0:
52,364,254414,2,0,P|40:316|48:224,1,135
96,156,254831,85,2,0:3:0:0:
92,128,254935,1,2,0:0:0:0:
88,100,255039,1,2,0:0:0:0:
84,72,255143,1,2,0:0:0:0:
80,44,255248,6,0,P|140:68|216:52,1,135,2|0,0:3|0:0,0:0:0:0:
280,4,255664,2,0,P|340:0|380:20,1,90,0|0,1:0|0:0,0:0:0:0:
436,68,255977,1,0,0:0:0:0:
436,68,256081,1,2,0:3:0:0:
208,152,256289,1,0,0:0:0:0:
400,300,256498,85,2,0:0:0:0:
372,296,256602,1,2,0:0:0:0:
344,292,256706,1,2,0:0:0:0:
316,288,256810,1,2,0:0:0:0:
288,284,256914,6,0,P|244:280|188:296,1,90,2|0,0:1|0:0,0:0:0:0:
132,348,257227,2,0,P|88:352|32:336,1,90,2|0,0:1|0:0,0:0:0:0:
0,264,257539,2,0,L|8:168,1,90,2|0,0:1|0:0,0:0:0:0:
16,84,257852,85,0,0:0:0:0:
16,84,257956,2,0,P|20:60|36:32,1,45,2|0,0:0|0:0,0:0:0:0:
148,16,258164,2,0,P|172:32|184:56,1,45,2|0,0:3|0:0,0:0:0:0:
144,167,258373,2,0,P|124:175|92:175,1,45,2|0,0:0|0:0,0:0:0:0:
104,88,258581,6,0,B|140:72|140:72|232:108,1,135,2|0,0:3|0:0,0:0:0:0:
228,196,258998,2,0,P|278:186|306:153,1,90,0|0,1:0|0:0,0:0:0:0:
312,69,259310,1,0,0:0:0:0:
312,69,259414,2,0,P|376:53|444:85,1,135,2|0,0:3|0:0,0:0:0:0:
484,160,259831,85,2,0:0:0:0:
480,188,259935,1,2,0:0:0:0:
476,216,260039,1,2,0:0:0:0:
472,244,260143,1,2,0:0:0:0:
468,272,260248,6,0,L|456:340,1,45,2|0,0:3|0:0,0:0:0:0:
328,360,260456,2,0,L|320:315,1,45
400,196,260664,2,0,L|388:264,1,45,0|0,1:0|0:0,0:0:0:0:
240,328,260873,2,0,L|232:283,1,45,2|0,0:1|0:0,0:0:0:0:
324,128,261081,2,0,L|312:196,1,45,2|0,0:1|0:0,0:0:0:0:
152,296,261289,2,0,L|144:251,1,45,2|0,0:1|0:0,0:0:0:0:
244,68,261498,85,2,0:3:0:0:
264,48,261602,1,2,0:0:0:0:
288,36,261706,1,2,0:0:0:0:
312,28,261810,1,2,0:0:0:0:
340,28,261914,6,0,P|280:56|192:24,1,135,2|0,0:3|0:0,0:0:0:0:
124,32,262331,2,0,P|104:88|112:128,1,90,0|2,1:0|0:3,0:0:0:0:
148,196,262643,1,0,0:0:0:0:
148,196,262748,2,0,L|136:296,1,90
476,272,263164,85,10,0:3:0:0:
452,256,263268,1,2,0:0:0:0:
428,248,263373,1,2,0:0:0:0:
400,252,263477,1,2,0:0:0:0:
376,264,263581,6,0,P|316:284|244:260,1,135,10|0,0:3|0:0,0:0:0:0:
192,196,263998,2,0,P|148:192|100:208,1,90,0|8,1:0|0:3,0:0:0:0:
24,248,264310,1,0,0:0:0:0:
24,248,264414,1,2,0:3:0:0:
233,110,264623,1,0,0:0:0:0:
456,316,264831,85,10,0:3:0:0:
468,292,264935,1,2,0:0:0:0:
472,264,265039,1,2,0:0:0:0:
468,236,265143,1,2,0:0:0:0:
452,212,265248,6,0,P|428:164|432:116,1,90,2|0,0:1|0:0,0:0:0:0:
440,40,265560,2,0,P|396:24|340:36,1,90,2|0,0:1|0:0,0:0:0:0:
284,88,265873,2,0,P|240:104|184:92,1,90,2|2,0:1|0:3,0:0:0:0:
128,40,266185,85,0,0:0:0:0:
128,40,266289,2,0,L|72:52,1,45,2|0,0:0|0:0,0:0:0:0:
0,84,266498,2,0,L|38:126,1,45,2|0,0:0|0:0,0:0:0:0:
100,176,266706,2,0,L|117:121,1,45,2|0,0:0|0:0,0:0:0:0:
16,208,266914,6,0,L|28:352,1,135,2|0,0:3|0:0,0:0:0:0:
108,300,267331,2,0,P|152:292|196:308,1,90,0|0,1:0|0:0,0:0:0:0:
260,368,267643,1,0,0:0:0:0:
260,368,267748,2,0,P|324:384|396:344,1,135,2|0,0:3|0:0,0:0:0:0:
456,304,268164,85,2,0:0:0:0:
448,276,268268,1,2,0:0:0:0:
440,248,268373,1,2,0:0:0:0:
432,224,268477,1,2,0:0:0:0:
424,200,268581,6,0,L|432:108,1,90,2|0,0:3|0:0,0:0:0:0:
441,20,268893,1,0,0:0:0:0:
441,20,268998,1,0,1:0:0:0:
312,288,269206,1,0,0:0:0:0:
312,288,269310,1,0,0:0:0:0:
312,288,269414,2,0,L|300:152,1,135,2|0,0:3|0:0,0:0:0:0:
276,64,269831,86,0,P|244:76|228:92,1,45,2|2,0:0|0:0,0:0:0:0:
171,149,270039,2,0,P|190:162|212:168,1,45,2|2,0:0|0:0,0:0:0:0:
140,64,270248,6,0,P|96:56|48:76,1,90,2|0,0:3|0:0,0:0:0:0:
16,152,270560,1,0,0:0:0:0:
16,152,270664,2,0,P|24:212|12:256,1,90,0|0,1:0|0:0,0:0:0:0:
4,332,270977,1,0,0:0:0:0:
4,332,271081,2,0,B|67:353|67:353|142:345,1,135,2|0,0:3|0:0,0:0:0:0:
206,289,271498,85,2,0:0:0:0:
231,297,271602,1,2,0:0:0:0:
256,304,271706,1,2,0:0:0:0:
281,311,271810,1,2,0:0:0:0:
306,318,271914,5,10,0:3:0:0:
118,259,272123,1,0,0:0:0:0:
300,155,272331,1,0,1:0:0:0:
216,381,272539,1,0,0:0:0:0:
185,141,272748,1,2,0:3:0:0:
396,289,272956,1,0,0:0:0:0:
344,68,273164,85,2,0:0:0:0:
316,60,273268,1,2,0:0:0:0:
288,60,273373,1,2,0:0:0:0:
264,68,273477,1,2,0:0:0:0:
240,80,273581,6,0,P|176:96|108:64,1,135,10|0,0:3|0:0,0:0:0:0:
56,4,273998,1,0,1:0:0:0:
300,148,274206,1,0,0:0:0:0:
20,228,274414,2,0,P|84:212|152:244,1,135,10|0,0:3|0:0,0:0:0:0:
204,304,274831,85,2,0:0:0:0:
232,300,274935,1,2,0:0:0:0:
260,296,275039,1,2,0:0:0:0:
288,292,275143,1,2,0:0:0:0:
316,288,275248,6,0,L|408:296,1,90,10|0,0:3|0:0,0:0:0:0:
512,144,275664,2,0,L|420:152,1,90,0|2,1:0|0:3,0:0:0:0:
200,172,276081,85,8,0:3:0:0:
200,172,276185,1,8,0:3:0:0:
344,288,276393,5,0,0:0:0:0:
344,288,276498,2,0,P|352:256|352:224,1,45,8|8,0:3|0:3,0:0:0:0:
260,40,276706,2,0,P|262:63|268:84,1,45,8|8,0:3|0:3,0:0:0:0:
312,164,276914,1,4,0:1:0:0:
256,192,277018,12,0,278164,0:0:0:0:
75,94,278581,54,0,B|115:78|115:78|147:118|215:102,1,135,2|0,0:0|0:0,0:0:0:0:
265,17,278998,2,0,P|209:13|173:29,1,90,0|0,1:0|0:0,0:0:0:0:
104,176,279310,1,0,0:0:0:0:
104,176,279414,2,0,L|116:328,1,135
196,352,279831,5,2,0:0:0:0:
220,336,279935,1,2,0:0:0:0:
248,328,280039,1,2,0:0:0:0:
276,328,280143,1,2,0:0:0:0:
300,336,280248,86,0,P|360:368|428:340,1,135,2|0,0:0|0:0,0:0:0:0:
464,268,280664,2,0,P|456:216|464:164,1,90,0|0,1:0|0:0,0:0:0:0:
492,96,280977,1,0,0:0:0:0:
492,96,281081,1,0,0:0:0:0:
364,280,281289,1,0,0:0:0:0:
256,80,281498,5,2,0:0:0:0:
232,72,281602,1,2,0:0:0:0:
204,68,281706,1,2,0:0:0:0:
176,72,281810,1,2,0:0:0:0:
152,80,281914,86,0,P|92:115|23:95,1,135,2|0,0:0|0:0,0:0:0:0:
81,25,282331,1,0,1:0:0:0:
204,164,282539,1,0,0:0:0:0:
36,296,282748,2,0,B|60:284|80:296|80:296|100:292|100:292|128:316|184:296,1,135
244,256,283164,6,0,L|292:268,1,45,2|2,0:0|0:0,0:0:0:0:
340,340,283373,2,0,L|388:328,1,45,2|2,0:0|0:0,0:0:0:0:
452,272,283581,86,0,P|444:224|448:176,1,90,2|0,0:0|0:0,0:0:0:0:
480,100,283893,1,0,0:0:0:0:
480,100,283998,2,0,L|487:40,1,45,0|0,1:0|0:0,0:0:0:0:
386,112,284206,2,0,L|391:67,1,45,2|0,0:1|0:0,0:0:0:0:
267,215,284414,2,0,L|260:275,1,45,2|0,0:1|0:0,0:0:0:0:
361,203,284622,2,0,L|355:247,1,45,2|0,0:1|0:0,0:0:0:0:
415,315,284831,5,2,0:0:0:0:
391,330,284935,1,2,0:0:0:0:
364,339,285039,1,2,0:0:0:0:
338,339,285143,1,2,0:0:0:0:
314,329,285248,85,2,0:0:0:0:
104,160,285456,1,0,0:0:0:0:
104,160,285560,1,0,0:0:0:0:
104,160,285664,1,0,1:0:0:0:
355,247,285873,1,0,0:0:0:0:
88,344,286081,1,0,0:0:0:0:
88,344,286185,2,0,L|96:248,1,90
172,208,286498,5,2,0:0:0:0:
168,180,286602,1,2,0:0:0:0:
164,152,286706,1,2,0:0:0:0:
160,124,286810,1,2,0:0:0:0:
156,96,286914,86,0,L|148:44,1,45,2|0,0:0|0:0,0:0:0:0:
256,172,287123,2,0,L|249:127,1,45
72,128,287331,2,0,L|65:83,1,45,0|0,1:0|0:0,0:0:0:0:
172,208,287539,2,0,L|165:163,1,45,2|0,0:1|0:0,0:0:0:0:
356,96,287748,6,0,L|364:44,1,45,2|0,0:1|0:0,0:0:0:0:
256,172,287956,2,0,L|262:127,1,45,2|0,0:1|0:0,0:0:0:0:
440,128,288164,2,0,L|446:83,1,45,2|0,0:1|0:0,0:0:0:0:
340,208,288373,2,0,L|346:163,1,45,2|0,0:1|0:0,0:0:0:0:
452,256,288581,86,0,P|472:246|494:243,1,45,2|0,0:1|0:0,0:0:0:0:
460,271,288789,2,0,P|480:261|502:258,1,45
336,304,288998,2,0,P|313:301|292:291,1,45,2|0,1:0|0:0,0:0:0:0:
344,319,289206,2,0,P|321:316|300:306,1,45
440,376,289414,1,2,0:1:0:0:
340,208,289623,1,0,0:0:0:0:
238,360,289831,5,2,0:0:0:0:
216,337,289935,1,2,0:0:0:0:
188,321,290039,1,2,0:0:0:0:
156,320,290143,1,2,0:0:0:0:
121,335,290248,53,10,0:0:0:0:
211,121,290456,2,0,P|205:95|192:72,1,53.9999983520508
120,132,290664,2,0,L|112:239,1,107.999996704102,0|0,1:0|0:0,0:0:0:0:
156,320,290977,1,0,0:0:0:0:
236,276,291081,2,0,P|292:268|348:296,1,107.999996704102
404,352,291393,1,0,0:0:0:0:
480,300,291498,6,0,P|488:276|484:240,1,53.9999983520508,2|2,0:0|0:0,0:0:0:0:
408,196,291706,2,0,P|400:168|404:136,1,53.9999983520508,2|2,0:0|0:0,0:0:0:0:
408,52,291914,86,0,P|464:48|520:72,2,107.999996704102,2|2|0,0:0|0:1|1:0,0:0:0:0:
326,95,292435,2,0,P|270:103|210:83,1,107.999996704102,2|0,0:1|0:0,0:0:0:0:
130,103,292748,2,0,P|106:151|114:219,1,107.999996704102,2|0,0:1|0:0,0:0:0:0:
214,275,293060,2,0,P|216:221|192:173,1,107.999996704102,2|2,0:1|0:1,0:0:0:0:
30,235,293373,2,0,P|34:267|58:307,1,53.9999983520508
162,331,293581,6,0,L|274:327,1,107.999996704102
361,322,293893,1,0,0:0:0:0:
361,322,293998,1,0,1:0:0:0:
309,79,294206,2,0,P|275:59|251:58,1,53.9999983520508
180,108,294414,2,0,P|132:129|80:120,1,107.999996704102
18,188,294727,1,0,0:0:0:0:
18,188,294831,86,0,L|25:251,1,53.9999983520508,2|2,0:0|0:0,0:0:0:0:
115,259,295039,2,0,L|109:205,1,53.9999983520508,2|2,0:0|0:0,0:0:0:0:
200,224,295248,6,0,L|210:332,2,107.999996704102,2|2|0,0:0|0:1|1:0,0:0:0:0:
200,224,295768,2,0,L|312:236,1,107.999996704102,2|0,0:1|0:0,0:0:0:0:
384,295,296081,2,0,L|492:284,1,107.999996704102,2|0,0:1|0:0,0:0:0:0:
397,197,296393,2,0,P|409:141|385:69,1,107.999996704102,2|2,0:1|0:1,0:0:0:0:
244,113,296706,2,0,P|240:157|252:185,1,53.9999983520508
307,235,296914,86,0,P|290:228|199:237,1,107.999996704102
122,280,297227,1,0,0:0:0:0:
122,280,297331,1,0,1:0:0:0:
63,70,297539,1,0,0:0:0:0:
63,70,297643,1,0,0:0:0:0:
63,70,297748,2,0,L|179:78,1,107.999996704102
255,118,298060,1,0,0:0:0:0:
331,66,298164,6,0,P|335:38|331:6,1,53.9999983520508,2|2,0:0|0:0,0:0:0:0:
174,171,298373,2,0,P|171:197|175:224,1,53.9999983520508,2|2,0:0|0:0,0:0:0:0:
339,158,298581,86,0,L|451:150,1,107.999996704102,2|0,0:0|0:0,0:0:0:0:
446,150,298893,1,0,0:0:0:0:
446,150,298998,1,0,1:0:0:0:
255,118,299206,1,0,0:0:0:0:
423,307,299414,2,0,P|373:287|321:297,1,107.999996704102
244,348,299727,1,0,0:0:0:0:
244,348,299831,2,0,P|194:367|141:358,1,107.999996704102
74,295,300143,1,0,0:0:0:0:
162,266,300248,6,0,P|168:209|161:143,2,107.999996704102,2|0|0,0:1|0:0|1:0,0:0:0:0:
141,358,300768,1,2,0:1:0:0:
78,156,300977,1,0,0:0:0:0:
78,156,301081,1,2,0:1:0:0:
319,262,301289,1,2,0:1:0:0:
496,84,301498,85,2,0:0:0:0:
468,68,301602,1,2,0:0:0:0:
436,64,301706,1,2,0:0:0:0:
404,76,301810,1,2,0:0:0:0:
380,100,301914,6,0,P|336:118|274:112,1,107.999996704102,2|0,0:0|0:0,0:0:0:0:
198,63,302227,1,0,0:0:0:0:
198,63,302331,1,0,1:0:0:0:
452,148,302539,1,0,0:0:0:0:
452,148,302643,1,0,0:0:0:0:
452,148,302748,2,0,L|444:260,1,107.999996704102
392,332,303060,1,0,0:0:0:0:
392,332,303164,86,0,P|364:304|360:276,1,53.9999983520508,2|2,0:0|0:0,0:0:0:0:
312,192,303373,2,0,P|301:216|280:232,1,53.9999983520508,2|2,0:0|0:0,0:0:0:0:
272,328,303581,6,0,P|196:300|116:348,1,161.999995056153,2|0,0:0|0:0,0:0:0:0:
44,372,303998,2,0,L|36:248,1,107.999996704102,0|0,1:0|0:0,0:0:0:0:
92,192,304310,1,0,0:0:0:0:
92,192,304414,2,0,B|64:176|64:176|-24:184,1,107.999996704102
124,276,304831,85,2,0:0:0:0:
148,256,304935,1,2,0:0:0:0:
180,248,305039,1,2,0:0:0:0:
212,252,305143,1,2,0:0:0:0:
240,268,305248,6,0,P|292:288|344:276,2,107.999996704102,2|2|0,0:0|0:1|1:0,0:0:0:0:
183,339,305768,1,2,0:1:0:0:
80,68,305977,1,0,0:0:0:0:
80,68,306081,2,0,P|132:56|188:80,1,107.999996704102,2|0,0:1|0:0,0:0:0:0:
248,136,306393,2,0,P|300:148|356:124,1,107.999996704102,2|2,0:1|0:1,0:0:0:0:
284,8,306706,2,0,L|292:64,1,53.9999983520508
428,175,306914,86,0,L|436:68,1,107.999996704102
348,220,307227,1,0,0:0:0:0:
348,220,307331,2,0,L|356:340,1,107.999996704102,0|0,1:0|0:0,0:0:0:0:
280,380,307643,1,0,0:0:0:0:
280,380,307748,1,0,0:0:0:0:
349,129,307956,1,0,0:0:0:0:
512,260,308164,5,2,0:0:0:0:
484,272,308268,1,2,0:0:0:0:
452,276,308373,1,2,0:0:0:0:
420,268,308477,1,2,0:0:0:0:
392,252,308581,86,0,P|336:240|284:260,1,107.999996704102,2|2,0:0|0:1,0:0:0:0:
40,360,308998,1,0,1:0:0:0:
40,360,309102,2,0,L|52:252,1,107.999996704102,2|0,0:1|0:0,0:0:0:0:
108,180,309414,2,0,B|128:196|128:196|220:188,1,107.999996704102,2|0,0:1|0:0,0:0:0:0:
260,112,309727,2,0,B|240:96|240:96|148:104,1,107.999996704102,2|2,0:1|0:1,0:0:0:0:
68,104,310039,5,0,0:0:0:0:
48,80,310143,1,0,0:0:0:0:
28,56,310248,1,4,0:1:0:0:
210,188,310456,85,0,0:0:0:0:
234,168,310560,1,0,0:0:0:0:
258,144,310664,1,0,1:0:0:0:
51,252,310873,5,0,0:0:0:0:
59,284,310977,1,0,0:0:0:0:
67,316,311081,2,0,P|131:356|215:332,1,161.999995056153
268,264,311498,86,0,L|328:276,1,53.9999983520508,2|2,0:0|0:0,0:0:0:0:
364,356,311706,2,0,L|416:345,1,53.9999983520508,2|2,0:0|0:0,0:0:0:0:
472,272,311914,6,0,L|460:156,1,107.999996704102,2|0,0:0|0:0,0:0:0:0:
416,84,312227,1,0,0:0:0:0:
368,160,312331,2,0,P|304:164|256:136,1,107.999996704102,0|0,1:0|0:0,0:0:0:0:
204,76,312643,1,0,0:0:0:0:
204,76,312748,1,0,0:0:0:0:
43,162,312956,1,0,0:0:0:0:
240,232,313164,86,0,L|232:304,1,53.9999983520508,2|2,0:0|0:0,0:0:0:0:
328,208,313373,2,0,L|322:261,1,53.9999983520508,2|2,0:0|0:0,0:0:0:0:
416,184,313581,6,0,L|400:320,2,107.999996704102,2|2|0,0:0|0:1|1:0,0:0:0:0:
427,92,314102,1,2,0:1:0:0:
228,172,314310,1,0,0:0:0:0:
228,172,314414,1,2,0:1:0:0:
500,151,314623,1,2,0:1:0:0:
472,356,314831,85,2,0:0:0:0:
444,372,314935,1,2,0:0:0:0:
412,380,315039,1,2,0:0:0:0:
380,380,315143,1,2,0:0:0:0:
352,364,315248,6,0,P|276:340|192:384,1,161.999995056153,2|0,0:0|0:0,0:0:0:0:
136,312,315664,2,0,P|80:332|32:320,1,107.999996704102,0|0,1:0|0:0,0:0:0:0:
4,232,315977,1,0,0:0:0:0:
4,232,316081,2,0,L|16:108,1,107.999996704102
340,20,316498,85,2,0:0:0:0:
344,52,316602,1,2,0:0:0:0:
348,84,316706,1,2,0:0:0:0:
352,116,316810,1,2,0:0:0:0:
356,148,316914,5,2,0:0:0:0:
220,288,317123,1,0,0:0:0:0:
168,104,317331,1,0,1:0:0:0:
328,260,317539,1,0,0:0:0:0:
365,266,317643,1,0,0:0:0:0:
401,253,317748,1,0,0:0:0:0:
276,76,317956,1,0,0:0:0:0:
140,215,318164,86,0,P|112:212|84:196,1,53.9999983520508,2|2,0:0|0:0,0:0:0:0:
0,128,318373,2,0,P|25:121|52:122,1,53.9999983520508,2|2,0:0|0:0,0:0:0:0:
140,128,318581,6,0,L|136:0,1,107.999996704102,2|2,0:0|0:1,0:0:0:0:
336,310,318998,1,0,1:0:0:0:
336,310,319102,2,0,P|284:330|228:318,1,107.999996704102,2|0,0:1|0:0,0:0:0:0:
221,171,319414,2,0,P|273:151|329:163,1,107.999996704102,2|0,0:1|0:0,0:0:0:0:
278,241,319727,1,2,0:1:0:0:
56,308,319935,1,2,0:1:0:0:
108,88,320143,1,0,0:0:0:0:
108,88,320248,86,0,L|116:24,1,53.9999983520508
118,103,320457,2,0,L|126:39,1,53.9999983520508
219,176,320664,2,0,L|208:124,1,53.9999983520508,0|0,1:0|0:0,0:0:0:0:
229,191,320873,2,0,L|218:139,1,53.9999983520508
255,34,321081,38,0,P|267:30|319:30,1,53.9999983520508
423,138,321289,2,0,P|396:138|369:131,1,53.9999983520508,2|0,0:0|0:0,0:0:0:0:
264,48,321498,2,0,P|276:44|328:44,1,53.9999983520508,2|0,0:0|0:0,0:0:0:0:
440,148,321706,2,0,P|413:148|386:141,1,53.9999983520508,2|0,0:0|0:0,0:0:0:0:
300,256,321914,86,0,L|303:202,1,53.9999983520508,2|0,0:0|0:0,0:0:0:0:
420,12,322123,2,0,L|424:72,1,53.9999983520508,2|0,0:1|0:0,0:0:0:0:
496,260,322331,2,0,P|500:228|516:200,1,53.9999983520508,2|0,1:0|0:0,0:0:0:0:
288,104,322539,2,0,P|256:116|224:116,1,53.9999983520508,2|0,0:1|0:0,0:0:0:0:
60,208,322748,2,0,P|86:210|111:221,1,53.9999983520508,2|0,0:1|0:0,0:0:0:0:
380,296,322956,2,0,P|388:264|388:228,1,53.9999983520508,2|0,0:1|0:0,0:0:0:0:
240,32,323164,21,2,0:0:0:0:
188,48,323268,1,2,0:0:0:0:
156,92,323373,1,2,0:0:0:0:
156,144,323477,1,2,0:0:0:0:
236,117,323581,21,4,0:0:0:0:
256,192,323685,12,0,328581,0:0:0:0:
