osu file format v14

[General]
AudioFilename: audio.mp3
AudioLeadIn: 0
PreviewTime: 93418
Countdown: 0
SampleSet: Soft
StackLeniency: 0.9
Mode: 0
LetterboxInBreaks: 0
WidescreenStoryboard: 1

[Editor]
DistanceSpacing: 0.8
BeatDivisor: 4
GridSize: 32
TimelineZoom: 1.4

[Metadata]
Title:Kizuato
TitleUnicode:傷跡
Artist:Kalafina
ArtistUnicode:Kalafina
Creator:iljaaz
Version:Sorrow
Source:劇場版「空の境界」 第三章 痛覚残留
Tags:Kara no Kyoukai Tsuukaku Zanryuu 梶浦由記 Kajiura Yuki oblivious single 両儀式 Shiki Ryougi The Garden of Sinners chapter movie 3 remaining sence of pain borderline of emptiness ever cry never life ufotable kyokai jpop j-pop pop Japanese Kowari Scar Seventh Heaven Album Full Version anime theme
BeatmapID:2590409
BeatmapSetID:1246241

[Difficulty]
HPDrainRate:6
CircleSize:4.7
OverallDifficulty:8
ApproachRate:8.7
SliderMultiplier:1.74
SliderTickRate:1

[Events]
//Background and Video events
0,0,"kizuato.jpg",0,0
//Break Periods
//Storyboard Layer 0 (Background)
//Storyboard Layer 1 (Fail)
//Storyboard Layer 2 (Pass)
//Storyboard Layer 3 (Foreground)
//Storyboard Layer 4 (Overlay)
//Storyboard Sound Samples

[TimingPoints]
2029,370.37037037037,6,2,4,60,1,0
2400,370.37037037037,6,2,4,60,1,0
2400,-156.25,6,2,4,60,0,0
17955,-156.25,6,2,4,65,0,0
24586,370.37037037037,6,2,4,65,1,0
24586,-156.25,6,2,4,65,0,0
25733,370.37037037037,6,2,4,65,1,0
26844,370.37037037037,6,2,4,70,1,0
26844,-119.047619047619,6,2,4,70,0,0
35733,-156.25,6,2,4,50,0,0
52399,-119.047619047619,6,2,4,65,0,0
53511,-119.047619047619,6,2,4,60,0,0
71288,-227.272727272727,6,2,4,50,0,0
80177,-227.272727272727,6,2,4,55,0,0
84622,-156.25,6,2,4,60,0,0
89066,-156.25,6,2,4,65,0,0
94622,370.37037037037,6,2,4,80,1,0
94622,-106.382978723404,6,2,4,80,0,0
127955,-156.25,6,2,4,60,0,0
144622,-119.047619047619,6,2,4,65,0,0
145733,-119.047619047619,6,2,4,70,0,0
162770,361.44578313253,6,2,4,65,1,0
163492,369.913686806412,6,2,4,55,1,0
163492,-227.272727272727,6,2,4,55,0,0
176844,370.37037037037,6,2,4,60,1,0
176844,-156.25,6,2,4,60,0,0
180177,-119.047619047619,6,2,4,65,0,0
181288,-106.382978723404,6,2,4,80,0,1
191164,-106.382978723404,6,2,4,5,0,1
191288,-106.382978723404,6,2,4,80,0,1
203510,-106.382978723404,6,2,4,60,0,0
204621,-185.185185185184,6,2,4,60,0,0
212399,-185.185185185184,6,2,4,65,0,0
220177,-106.382978723404,6,2,4,70,0,0
221288,-106.382978723404,6,2,4,80,0,0
245732,-185.185185185184,6,2,4,45,0,0
249596,370.37037037037,6,2,4,45,1,0
249596,-185.185185185184,6,2,4,45,0,0
251103,370.37037037037,6,2,4,45,1,0
251288,370.37037037037,6,2,4,45,1,0
251288,-185.185185185184,6,2,4,45,0,0
254621,-416.66666666666,6,2,4,35,0,0
256103,378.548895899054,6,2,4,35,1,0
256103,-416.66666666666,6,2,4,35,0,0
260725,342.857142857143,6,2,4,35,1,0
260984,419.58041958042,6,2,4,35,1,0
261196,361.44578313253,6,2,4,35,1,0
261918,382.165605095541,6,2,4,35,1,0
262300,428.571428571429,6,2,4,35,1,0
262514,480,6,2,4,35,1,0
262754,545.454545454546,6,2,4,35,1,0
263026,600,6,2,4,35,1,0
263326,645.161290322581,6,2,4,35,1,0
263648,714.285714285714,6,2,4,35,1,0
264005,800,6,2,4,35,1,0
264405,909.090909090909,6,2,4,35,1,0
264859,384.615384615385,6,2,4,35,1,0

[Colours]
Combo1 : 204,188,205
Combo2 : 187,0,0
Combo3 : 255,100,100
Combo4 : 221,189,190

[HitObjects]
322,308,2029,53,2,0:0:0:0:
424,384,2214,1,2,0:0:0:0:
473,248,2400,38,0,B|395:245|398:317|306:308,1,167.04,4|0,3:1|0:0,0:0:0:0:
322,308,3325,5,2,0:0:0:0:
216,213,3511,2,0,B|232:160|234:99|234:99,1,111.36,2|0,0:0|0:0,0:0:0:0:
313,42,4066,1,0,0:0:0:0:
414,152,4251,38,0,B|390:137|360:132|360:132,1,55.68,2|0,0:0|0:0,0:0:0:0:
215,9,4622,2,0,B|147:-6|124:62|124:62,1,111.36,2|2,0:0|0:0,0:0:0:0:
19,190,5177,1,0,0:0:0:0:
124,144,5362,1,0,0:0:0:0:
50,98,5548,1,2,0:0:0:0:
111,217,5733,6,0,B|196:226|266:279|266:279,1,167.04,2|0,0:0|0:0,0:0:0:0:
360,146,6474,2,0,B|389:140|421:123|421:123,1,55.68,2|0,0:0|0:0,0:0:0:0:
512,295,6844,38,0,B|474:318|431:299|428:254|428:254,2,111.36,0|2|2,1:0|0:0|0:0,0:0:0:0:
371,181,7770,1,0,0:0:0:0:
277,297,7955,6,0,B|273:331|266:354|266:354,1,55.68,2|0,0:0|0:0,0:0:0:0:
426,254,8325,2,0,B|430:288|437:311|437:311,1,55.68,2|0,0:0|0:0,0:0:0:0:
270,196,8696,2,0,B|241:208|210:211|210:211,1,55.68,2|0,0:0|0:0,0:0:0:0:
385,148,9066,38,0,B|396:111|370:74|389:29,1,111.36,2|2,0:0|0:0,0:0:0:0:
458,177,9622,1,0,0:0:0:0:
337,93,9807,1,0,0:0:0:0:
454,27,9992,1,2,0:0:0:0:
375,160,10177,6,0,B|303:144|318:81|232:66,1,167.04,6|0,0:0|0:0,0:0:0:0:
302,259,10918,2,0,B|273:265|246:277|246:277,1,55.68,2|0,0:0|0:0,0:0:0:0:
86,363,11288,38,0,B|24:327|63:263|63:263,1,111.36,4|2,3:1|0:0,0:0:0:0:
39,198,11844,1,0,0:0:0:0:
199,138,12029,1,0,0:0:0:0:
178,210,12214,1,2,0:0:0:0:
108,66,12399,6,0,B|183:27|283:26|283:26,1,167.04,2|0,0:0|0:0,0:0:0:0:
199,138,13140,1,0,0:0:0:0:
318,198,13325,1,0,0:0:0:0:
250,291,13511,38,0,B|242:265|242:234|242:234,1,55.68,2|0,0:0|0:0,0:0:0:0:
427,78,13881,2,0,B|467:141|410:178|410:178,1,111.36,2|0,0:0|0:0,0:0:0:0:
276,50,14437,1,2,0:0:0:0:
212,84,14622,6,0,B|206:115|198:139|198:139,1,55.68,2|0,0:0|0:0,0:0:0:0:
355,293,14992,2,0,B|381:276|370:242|370:242,1,55.68,2|0,0:0|0:0,0:0:0:0:
190,353,15362,2,0,B|218:360|244:374|244:374,1,55.68,2|0,0:0|0:0,0:0:0:0:
156,243,15733,38,0,B|106:271|45:272|45:272,2,111.36,0|2|2,1:2|0:0|0:0,0:0:0:0:
254,359,16659,1,0,0:0:0:0:
446,259,16844,6,0,B|369:240|393:176|299:159,1,167.04,2|0,0:0|0:0,0:0:0:0:
178,39,17585,2,0,B|151:53|122:55|122:55,1,55.68,2|0,0:0|0:0,0:0:0:0:
271,240,17955,38,0,B|278:157|301:70|301:70,1,167.04,4|0,3:1|0:0,0:0:0:0:
249,21,18696,1,0,0:0:0:0:
367,149,18881,5,2,0:0:0:0:
195,283,19066,2,0,B|141:240|176:183|176:183,1,111.36,2|0,0:0|0:0,0:0:0:0:
205,123,19622,1,2,0:0:0:0:
343,277,19807,2,0,B|334:306|328:340|328:340,1,55.68,2|0,0:0|0:0,0:0:0:0:
269,199,20177,38,0,B|322:185|378:164|378:164,2,111.36,2|2|2,0:0|0:0|0:0,0:0:0:0:
178,306,21103,1,2,0:0:0:0:
89,225,21288,6,0,B|47:167|102:127|102:127,1,111.36,2|2,0:0|0:0,0:0:0:0:
42,30,21844,2,0,B|65:44|97:52|97:52,1,55.68,2|0,0:0|0:0,0:0:0:0:
0,129,22214,1,2,0:0:0:0:
173,270,22399,38,0,B|127:228|47:250|41:317|41:317,1,167.04,2|2,1:2|0:0,0:0:0:0:
41,314,23511,6,0,B|69:322|92:343|92:343,1,55.68,2|0,0:0|0:0,0:0:0:0:
173,270,23881,2,0,B|201:262|224:241|224:241,1,55.68,2|0,0:0|0:0,0:0:0:0:
321,325,24251,1,2,0:0:0:0:
332,309,24586,37,2,0:0:0:0:
212,379,24771,1,2,0:0:0:0:
164,324,24956,2,0,B|171:300|172:267|172:267,1,55.68,2|0,0:0|0:0,0:0:0:0:
98,169,25326,1,2,0:0:0:0:
84,157,25733,21,10,0:0:0:0:
204,107,25918,1,8,0:3:0:0:
265,159,26103,5,8,0:3:0:0:
399,210,26288,1,4,3:3:0:0:
442,84,26474,37,4,0:3:0:0:
401,66,26566,1,4,0:3:0:0:
352,86,26659,1,4,0:3:0:0:
331,123,26751,1,4,0:3:0:0:
337,149,26844,6,0,B|335:187|316:227|316:227,1,73.0799977697755,6|2,3:1|0:0,0:0:0:0:
458,324,27214,1,2,0:0:0:0:
422,233,27399,38,0,B|424:271|443:311|443:311,1,73.0799977697755,10|0,0:3|0:0,0:0:0:0:
344,384,27770,1,0,3:2:0:0:
175,233,27955,6,0,B|207:248|248:261|248:261,1,73.0799977697755,12|0,0:0|0:0,0:0:0:0:
283,323,28325,1,2,0:0:0:0:
141,384,28511,1,8,0:0:0:0:
237,237,28696,2,0,B|205:252|164:265|164:265,1,73.0799977697755,2|4,0:0|0:3,0:0:0:0:
83,81,29066,38,0,B|124:67|150:102|150:102,1,73.0799977697755,2|2,1:2|0:0,0:0:0:0:
195,160,29437,1,2,0:0:0:0:
18,310,29622,2,0,B|36:262|41:202|41:202,1,109.619996654663,8|0,0:0|0:0,0:0:0:0:
61,179,29992,1,8,0:3:0:0:
183,289,30177,6,0,B|252:301|238:345|317:357,1,146.159995539551,10|2,0:0|0:0,0:0:0:0:
456,250,30733,1,10,3:3:0:0:
481,361,30918,37,8,0:3:0:0:
443,380,31011,1,8,0:3:0:0:
396,367,31103,1,4,0:3:0:0:
379,325,31196,1,4,0:3:0:0:
369,308,31288,6,0,B|380:275|382:234|382:234,1,73.0799977697755,4|0,3:1|0:0,0:0:0:0:
494,178,31659,1,2,0:0:0:0:
350,28,31844,2,0,B|302:66|317:134|375:147|375:147,1,146.159995539551,10|8,0:0|0:3,0:0:0:0:
491,20,32399,38,0,B|454:16|419:-1|419:-1,1,73.0799977697755,10|0,0:0|0:0,0:0:0:0:
255,122,32770,1,2,0:0:0:0:
381,236,32955,2,0,B|344:240|309:257|309:257,1,73.0799977697755,10|0,0:0|0:0,0:0:0:0:
139,342,33325,1,4,0:3:0:0:
125,311,33418,1,4,0:3:0:0:
146,289,33511,6,0,B|206:292|211:353|274:358,1,146.159995539551,2|0,3:2|0:0,0:0:0:0:
135,186,34066,2,0,B|101:208|61:209|61:209,1,73.0799977697755,8|0,3:0|0:0,0:0:0:0:
24,289,34437,1,0,3:2:0:0:
207,221,34622,37,8,0:0:0:0:
84,122,34807,1,2,0:0:0:0:
195,69,34992,5,0,3:0:0:0:
295,26,35177,1,8,3:0:0:0:
234,0,35362,1,4,1:3:0:0:
446,324,35733,22,0,B|502:286|471:225|471:225,1,111.36,4|0,1:2|0:0,0:0:0:0:
380,144,36288,2,0,B|324:182|355:243|355:243,1,111.36,2|0,0:0|0:0,0:0:0:0:
467,90,36844,38,0,B|412:78|350:47|350:47,1,111.36,10|2,0:1|0:0,0:0:0:0:
309,1,37399,1,0,0:0:0:0:
199,90,37585,1,2,0:0:0:0:
199,90,37955,6,0,B|191:65|191:33|191:33,1,55.68
279,185,38325,2,0,B|296:132|291:75|291:75,1,111.36,2|2,0:0|0:0,0:0:0:0:
155,196,38881,1,2,0:0:0:0:
264,299,39066,38,0,B|261:298|291:305|317:320|317:320,1,55.68,10|0,0:1|0:0,0:0:0:0:
230,238,39437,1,0,0:0:0:0:
313,194,39622,1,0,0:0:0:0:
264,140,39807,1,0,0:0:0:0:
384,351,40177,6,0,B|322:341|280:384|280:384,1,111.36,2|2,0:3|0:0,0:0:0:0:
206,262,40733,2,0,B|177:259|156:239|156:239,1,55.68,0|0,0:3|0:0,0:0:0:0:
92,272,41103,1,0,0:0:0:0:
190,377,41288,38,0,B|249:339|215:279|215:279,1,111.36,10|2,0:1|0:0,0:0:0:0:
119,169,41844,1,0,0:0:0:0:
67,123,42029,2,0,B|57:94|63:65|63:65,1,55.68,2|0,0:0|0:0,0:0:0:0:
253,188,42399,6,0,B|205:194|195:228|135:234,2,111.36,2|2|2,0:0|0:0|0:3,0:0:0:0:
354,94,43325,1,2,0:0:0:0:
247,110,43511,37,10,0:1:0:0:
360,196,43696,1,0,0:0:0:0:
251,266,43881,5,2,0:0:0:0:
172,310,44066,1,2,0:0:0:0:
284,339,44251,37,2,0:0:0:0:
348,380,44437,1,2,0:0:0:0:
478,251,44622,6,0,B|417:235|373:285|373:285,1,111.36,2|2,1:2|0:0,0:0:0:0:
498,370,45177,2,0,B|514:345|504:313|504:313,1,55.68
478,251,45548,1,0,0:0:0:0:
333,171,45733,38,0,B|298:230|349:273|349:273,1,111.36,10|2,0:1|0:0,0:0:0:0:
454,168,46288,1,0,0:0:0:0:
389,94,46474,2,0,B|361:89|330:74|330:74,1,55.68,2|0,0:0|0:0,0:0:0:0:
181,258,46844,6,0,B|232:231|288:236|288:236,1,111.36,2|2,0:0|0:0,0:0:0:0:
179,153,47399,1,0,0:0:0:0:
274,209,47585,37,2,0:0:0:0:
167,284,47770,1,0,0:0:0:0:
267,370,47955,6,0,B|278:345|273:312|273:312,1,55.68,10|0,0:1|0:0,0:0:0:0:
162,174,48325,2,0,B|135:168|106:153|106:153,1,55.68,2|0,0:0|0:0,0:0:0:0:
62,354,48696,37,2,0:0:0:0:
167,284,48881,1,2,0:0:0:0:
273,315,49066,6,0,B|339:317|350:381|425:383,1,167.04,2|0,0:0|0:2,0:0:0:0:
512,301,49807,2,0,B|505:274|505:241|505:241,1,55.68,2|0,0:0|0:0,0:0:0:0:
364,154,50177,38,0,B|383:101|383:39|383:39,1,111.36,10|0,0:1|0:0,0:0:0:0:
448,119,50733,1,0,0:0:0:0:
278,182,50918,5,2,0:0:0:0:
361,61,51103,1,2,0:0:0:0:
482,203,51288,38,0,B|483:236|493:262|493:262,1,55.68,2|0,0:0|0:0,0:0:0:0:
364,154,51659,2,0,B|397:153|423:143|423:143,1,55.68,2|0,0:0|0:0,0:0:0:0:
301,332,52029,2,0,B|300:299|290:273|290:273,1,55.68,2|0,0:0|0:0,0:0:0:0:
437,344,52399,5,12,0:0:0:0:
312,261,52585,1,0,3:2:0:0:
255,170,52770,37,8,0:0:0:0:
107,261,52955,1,8,3:3:0:0:
198,384,53140,5,4,3:3:0:0:
225,367,53233,1,4,3:3:0:0:
234,337,53325,1,4,3:3:0:0:
216,307,53418,1,4,3:3:0:0:
200,303,53511,38,0,B|135:310|131:368|48:358,1,146.159995539551,6|0,3:1|0:0,0:0:0:0:
159,211,54066,1,2,3:2:0:0:
96,172,54251,1,10,0:3:0:0:
131,283,54437,1,6,0:3:0:0:
287,160,54622,38,0,B|296:126|296:126|291:86,1,73.0799977697755,10|0,0:0|0:0,0:0:0:0:
367,226,54992,2,0,B|404:232|442:252|442:252,1,73.0799977697755,2|0,0:0|0:0,0:0:0:0:
336,342,55362,2,0,B|305:362|263:363|263:363,1,73.0799977697755,2|0,0:0|0:0,0:0:0:0:
421,150,55733,6,0,B|474:169|494:233|454:269|454:269,1,146.159995539551,2|2,3:2|0:0,0:0:0:0:
453,340,56288,1,0,0:0:0:0:
281,237,56474,2,0,B|293:204|298:161|298:161,1,73.0799977697755,10|4,0:3|0:3,0:0:0:0:
336,342,56844,38,0,B|260:345|189:379|189:379,1,146.159995539551,6|8,1:3|0:0,0:0:0:0:
361,113,57399,2,0,B|326:105|292:87|292:87,1,73.0799977697755,8|4,0:0|3:3,0:0:0:0:
371,197,57770,1,0,0:1:0:0:
169,285,57955,6,0,B|153:235|203:194|176:127,1,146.159995539551,10|2,1:3|0:0,0:0:0:0:
276,254,58511,1,2,3:2:0:0:
157,108,58696,2,0,B|185:128|227:130|227:130,1,73.0799977697755,2|0,0:0|3:2,0:0:0:0:
66,272,59066,38,0,B|68:236|68:236|56:201|56:201,1,73.0799977697755,8|0,0:0|0:0,0:0:0:0:
224,352,59437,2,0,B|186:353|186:353|148:371,1,73.0799977697755,2|8,0:0|0:1,0:0:0:0:
289,216,59807,2,0,B|288:253|288:253|301:295|301:295,1,73.0799977697755,2|0,0:0|0:0,0:0:0:0:
180,148,60177,6,0,B|195:100|161:57|182:0,1,146.159995539551,2|2,3:2|0:0,0:0:0:0:
94,139,60733,1,2,0:0:0:0:
0,73,60918,2,0,B|10:107|8:153|8:153,1,73.0799977697755,2|0,3:2|0:0,0:0:0:0:
227,349,61288,38,0,B|273:322|284:256|241:221|241:221,1,146.159995539551,6|8,1:3|0:0,0:0:0:0:
85,375,61844,1,8,0:0:0:0:
157,277,62029,5,10,0:3:0:0:
322,372,62214,1,6,0:3:0:0:
360,298,62399,38,0,B|422:246|499:262|499:262,1,146.159995539551,6|0,3:1|0:0,0:0:0:0:
370,179,62955,1,0,3:2:0:0:
479,100,63140,2,0,B|466:134|468:173|468:173,1,73.0799977697755,2|0,0:0|0:0,0:0:0:0:
341,55,63511,6,0,B|266:51|199:19|199:19,1,146.159995539551,10|0,0:0|0:0,0:0:0:0:
77,154,64066,1,8,0:0:0:0:
30,99,64251,2,0,B|21:58|50:32|50:32,1,73.0799977697755,2|0,0:0|0:0,0:0:0:0:
140,215,64622,38,0,B|106:225|69:242|69:242,1,73.0799977697755,2|0,3:2|0:0,0:0:0:0:
216,105,64992,2,0,B|271:119|294:190|249:223|249:223,1,146.159995539551,2|10,0:0|0:3,0:0:0:0:
134,116,65548,1,6,0:3:0:0:
262,239,65733,6,0,B|229:305|234:380|234:380,1,146.159995539551,2|8,0:0|0:0,0:0:0:0:
356,212,66288,1,8,0:0:0:0:
205,299,66474,37,10,0:3:0:0:
308,361,66659,1,6,0:3:0:0:
260,251,66844,6,0,B|193:249|180:298|114:292|114:292,1,146.159995539551,2|2,1:2|0:0,0:0:0:0:
284,158,67399,1,0,3:2:0:0:
383,232,67585,1,10,0:3:0:0:
329,279,67770,37,4,0:3:0:0:
436,80,67955,2,0,B|470:146|457:224|457:224,1,146.159995539551,10|2,0:0|0:0,0:0:0:0:
306,79,68511,1,8,0:0:0:0:
258,140,68696,2,0,B|227:162|185:162|185:162,1,73.0799977697755,2|0,0:0|0:0,0:0:0:0:
248,283,69066,6,0,B|308:283|320:341|389:347,1,146.159995539551,6|0,1:3|0:0,0:0:0:0:
436,384,69622,1,0,0:0:0:0:
510,276,69807,2,0,B|477:294|437:295|437:295,1,73.0799977697755,2|0,0:0|0:0,0:0:0:0:
295,381,70177,38,0,B|324:315|318:238|318:238,1,146.159995539551,10|8,1:2|0:1,0:0:0:0:
417,362,70733,1,8,3:3:0:0:
290,255,70918,1,4,3:3:0:0:
389,187,71103,1,4,0:3:0:0:
323,151,71288,22,0,B|304:79|301:0|301:0,1,153.120004672852,2|0,0:0|0:0,0:0:0:0:
371,33,72214,1,0,0:0:0:0:
199,125,72399,2,0,B|209:88|208:45|208:45,2,76.5600023364259,2|2|2,0:0|0:0|0:0,0:0:0:0:
114,336,73511,38,0,B|60:358|-2:358|-2:358,1,114.840003504639,2|0,0:0|0:0,0:0:0:0:
126,229,74251,2,0,B|148:233|168:249|168:249,1,38.2800011682129,2|0,0:0|0:0,0:0:0:0:
22,248,74622,6,0,B|46:179|46:97|46:97,1,153.120004672852,2|2,0:0|0:0,0:0:0:0:
107,59,75548,1,2,0:0:0:0:
227,181,75733,38,0,B|188:187|157:211|157:211,1,76.5600023364259,2|2,0:0|0:0,0:0:0:0:
234,108,76288,1,0,0:0:0:0:
328,235,76474,2,0,B|313:226|289:221|289:221,1,38.2800011682129,2|0,0:0|0:0,0:0:0:0:
375,52,76844,6,0,B|434:70|450:142|409:175|409:175,1,153.120004672852,2|2,0:0|0:0,0:0:0:0:
452,237,77770,1,2,0:0:0:0:
272,373,77955,2,0,B|287:296|292:218|292:218,1,153.120004672852,2|2,0:0|0:0,0:0:0:0:
372,311,78881,1,2,0:0:0:0:
253,372,79066,37,2,0:0:0:0:
204,317,79251,1,2,0:0:0:0:
263,245,79437,1,2,0:0:0:0:
299,314,79622,5,2,0:0:0:0:
178,201,79807,2,0,B|174:221|166:244|166:244,1,38.2800011682129,2|0,0:0|0:0,0:0:0:0:
66,384,80177,38,0,B|10:371|-11:294|45:264|45:264,1,153.120004672852,2|0,3:2|0:0,0:0:0:0:
44,264,81288,6,0,B|59:275|87:281|87:281,1,38.2800011682129,2|0,0:0|0:0,0:0:0:0:
134,333,81659,2,0,B|152:335|179:326|179:326,1,38.2800011682129,2|0,0:0|0:0,0:0:0:0:
246,347,82029,2,0,B|263:339|282:318|282:318,1,38.2800011682129,2|0,0:0|0:0,0:0:0:0:
354,283,82399,38,0,B|335:208|335:131|335:131,1,153.120004672852,2|2,0:0|0:0,0:0:0:0:
409,196,83325,1,2,0:0:0:0:
265,128,83511,1,2,0:0:0:0:
377,65,83696,5,0,0:3:0:0:
260,201,83881,2,0,B|235:206|212:217|212:217,2,38.2800011682129,2|0|0,0:0|0:0|0:0,0:0:0:0:
96,22,84622,38,0,B|94:53|83:82|83:82,1,55.68,2|0,0:0|0:0,0:0:0:0:
205,191,84992,2,0,B|255:145|219:89|219:89,1,111.36,2|0,0:0|0:0,0:0:0:0:
223,19,85548,1,2,0:0:0:0:
55,160,85733,6,0,B|83:163|112:182|112:182,1,55.68,2|0,0:0|0:0,0:0:0:0:
231,291,86103,2,0,B|173:283|123:321|123:321,1,111.36,2|2,0:0|0:0,0:0:0:0:
125,327,86844,38,0,B|132:303|132:259|132:259,1,55.68,2|0,0:0|0:0,0:0:0:0:
253,382,87214,2,0,B|229:375|185:375|185:375,1,55.68,2|0,0:0|0:0,0:0:0:0:
357,231,87585,2,0,B|350:255|350:299|350:299,1,55.68,2|0,0:0|0:0,0:0:0:0:
226,184,87955,5,2,0:0:0:0:
188,122,88140,1,2,0:0:0:0:
244,59,88325,1,2,0:0:0:0:
300,133,88511,1,0,0:0:0:0:
212,199,88696,1,2,0:0:0:0:
261,253,88881,1,0,0:0:0:0:
408,92,89066,38,0,B|350:78|304:124|304:124,1,111.36,4|0,3:1|0:0,0:0:0:0:
444,212,89622,1,0,0:0:0:0:
394,262,89807,2,0,B|370:250|341:242|341:242,1,55.68,2|0,0:0|0:0,0:0:0:0:
477,152,90177,6,0,B|482:217|494:267|494:267,1,111.36,2|0,0:0|0:0,0:0:0:0:
420,361,90733,1,4,0:2:0:0:
407,288,90918,2,0,B|404:322|396:350|396:350,1,55.68
231,258,91288,38,0,B|266:196|326:226|326:226,1,111.36,2|0,1:0|0:0,0:0:0:0:
222,367,91844,2,0,B|196:353|165:350|165:350,1,55.68,4|0,0:0|0:0,0:0:0:0:
139,284,92214,1,2,0:0:0:0:
247,139,92399,6,0,B|250:171|260:200|260:200,1,55.68,2|0,0:0|0:0,0:0:0:0:
56,77,92770,2,0,B|53:109|43:138|43:138,1,55.68,2|0,0:0|0:0,0:0:0:0:
168,22,93140,1,2,0:0:0:0:
168,22,93511,5,8,0:0:0:0:
168,22,93881,5,8,0:3:0:0:
264,119,94066,1,4,3:3:0:0:
399,88,94251,1,10,0:3:0:0:
427,69,94344,1,8,0:3:0:0:
435,36,94437,1,6,0:3:0:0:
419,6,94529,1,4,0:3:0:0:
400,0,94622,38,0,B|367:29|316:34|316:34,1,81.7799987521363,6|0,3:1|0:0,0:0:0:0:
446,152,94992,1,2,0:0:0:0:
294,257,95177,2,0,B|373:245|450:295|450:295,1,163.559997504273,8|10,0:0|0:3,0:0:0:0:
251,143,95733,6,0,B|183:134|158:194|91:185,1,163.559997504273,14|0,0:0|0:0,0:0:0:0:
272,271,96288,1,0,3:2:0:0:
143,360,96474,1,8,0:3:0:0:
181,296,96659,1,4,0:3:0:0:
298,361,96844,38,0,B|339:367|376:384|376:384,1,81.7799987521363,2|0,1:2|0:0,0:0:0:0:
490,276,97214,1,2,0:0:0:0:
389,230,97399,1,10,0:3:0:0:
397,306,97585,1,6,0:3:0:0:
506,192,97770,1,2,3:2:0:0:
349,90,97955,6,0,B|313:111|259:117|259:117,1,81.7799987521363,8|0,0:0|0:0,0:0:0:0:
391,21,98325,1,8,0:0:0:0:
258,107,98511,1,8,0:3:0:0:
406,207,98696,1,6,0:3:0:0:
280,17,98881,1,8,3:2:0:0:
101,158,99066,38,0,B|100:200|82:248|82:248,1,81.7799987521363,6|0,1:2|0:0,0:0:0:0:
253,93,99437,2,0,B|211:92|163:74|163:74,1,81.7799987521363,2|8,0:0|0:3,0:0:0:0:
316,303,99807,2,0,B|317:261|335:213|335:213,1,81.7799987521363,6|0,0:3|3:0,0:0:0:0:
102,353,100177,6,0,B|105:310|89:261|89:261,1,81.7799987521363,12|0,0:0|0:0,0:0:0:0:
234,184,100548,1,12,0:0:0:0:
175,151,100733,1,8,0:3:0:0:
283,340,100918,2,0,B|321:320|361:318|361:318,1,81.7799987521363,2|0,0:0|0:0,0:0:0:0:
485,180,101288,38,0,B|458:125|390:107|345:146|345:146,1,163.559997504273,2|0,3:2|0:0,0:0:0:0:
472,271,101844,1,8,0:0:0:0:
366,338,102029,1,2,0:0:0:0:
465,197,102214,1,0,3:2:0:0:
292,80,102399,5,12,3:2:0:0:
350,217,102585,1,4,0:3:0:0:
209,251,102770,37,8,3:3:0:0:
162,376,102955,1,4,0:3:0:0:
289,274,103140,5,8,1:3:0:0:
124,183,103325,1,4,1:3:0:0:
275,2,103511,38,0,B|304:40|289:89|289:89,1,81.7799987521363,4|0,3:1|0:0,0:0:0:0:
334,140,103881,1,2,0:0:0:0:
138,228,104066,2,0,B|133:188|158:151|158:151,1,81.7799987521363,8|0,0:0|0:0,0:0:0:0:
312,302,104437,1,10,0:3:0:0:
255,350,104622,6,0,B|182:387|95:375|95:375,1,163.559997504273,10|0,0:0|0:0,0:0:0:0:
240,239,105177,1,8,0:3:0:0:
127,162,105362,1,4,0:3:0:0:
176,289,105548,1,0,3:0:0:0:
306,156,105733,38,0,B|316:114|287:76|287:76,1,81.7799987521363,2|0,3:2|0:0,0:0:0:0:
57,217,106103,2,0,B|-13:304|77:358|77:358,1,163.559997504273,2|2,0:0|0:0,0:0:0:0:
247,256,106659,1,6,0:3:0:0:
150,153,106844,6,0,B|147:193|133:243|133:243,1,81.7799987521363,10|0,0:0|0:0,0:0:0:0:
347,364,107214,2,0,B|333:310|332:237|332:237,1,122.669998128204,10|0,0:0|0:0,0:0:0:0:
351,217,107585,1,10,0:3:0:0:
225,328,107770,1,6,0:3:0:0:
55,102,107955,38,0,B|96:99|138:131|138:131,1,81.7799987521363,6|0,1:2|0:0,0:0:0:0:
239,238,108325,1,2,0:0:0:0:
376,90,108511,1,4,0:3:0:0:
323,47,108696,2,0,B|279:44|242:79|242:79,1,81.7799987521363,2|8,0:0|0:3,0:0:0:0:
351,217,109066,6,0,B|425:228|431:279|503:293,1,163.559997504273,14|8,0:0|0:0,0:0:0:0:
379,118,109622,1,8,0:0:0:0:
495,206,109807,1,10,3:3:0:0:
358,312,109992,1,4,0:3:0:0:
449,379,110177,38,0,B|481:348|465:302|465:302,1,81.7799987521363,6|0,3:1|0:0,0:0:0:0:
420,246,110548,1,0,0:0:0:0:
253,148,110733,2,0,B|233:194|265:223|265:223,1,81.7799987521363,2|0,3:2|0:0,0:0:0:0:
273,296,111103,1,4,0:3:0:0:
430,172,111288,6,0,B|411:97|409:10|409:10,1,163.559997504273,12|0,1:2|0:0,0:0:0:0:
495,122,111844,1,8,0:3:0:0:
293,31,112029,1,4,0:3:0:0:
247,14,112122,1,4,0:3:0:0:
198,33,112214,1,4,0:3:0:0:
186,76,112307,1,4,0:3:0:0:
194,95,112399,38,0,B|271:97|351:150|351:150,1,163.559997504273,4|0,3:2|0:0,0:0:0:0:
165,275,112955,2,0,B|122:282|88:303|88:303,1,81.7799987521363,8|0,0:3|0:0,0:0:0:0:
197,187,113325,1,4,0:3:0:0:
350,361,113511,6,0,B|354:320|375:272|375:272,1,81.7799987521363,12|0,1:2|0:0,0:0:0:0:
164,65,113881,2,0,B|111:110|118:183|175:201|175:201,1,163.559997504273,12|0,0:0|3:2,0:0:0:0:
334,63,114437,1,0,0:0:0:0:
473,177,114622,38,0,B|474:218|484:268|484:268,1,81.7799987521363,4|0,3:2|0:0,0:0:0:0:
396,186,114992,1,0,0:0:0:0:
250,317,115177,2,0,B|261:277|261:233|261:233,1,81.7799987521363,8|8,0:0|0:3,0:0:0:0:
382,374,115548,1,4,3:3:0:0:
299,146,115733,6,0,B|249:108|176:137|174:203|174:203,1,163.559997504273,12|8,0:0|0:3,0:0:0:0:
66,299,116288,1,4,3:3:0:0:
192,383,116474,1,8,0:3:0:0:
217,354,116566,1,8,0:3:0:0:
213,316,116659,1,4,0:3:0:0:
177,286,116751,1,4,0:3:0:0:
160,283,116844,38,0,B|127:306|75:315|75:315,1,81.7799987521363,0|0,1:2|0:0,0:0:0:0:
197,187,117214,1,0,3:0:0:0:
287,343,117399,1,8,0:0:0:0:
404,219,117585,2,0,B|406:262|420:304|420:304,1,81.7799987521363,2|0,3:2|0:0,0:0:0:0:
312,134,117955,5,12,3:2:0:0:
160,283,118140,1,0,3:2:0:0:
47,123,118325,37,8,1:3:0:0:
173,178,118511,1,8,3:3:0:0:
33,367,118696,5,4,1:3:0:0:
5,299,118881,1,4,1:3:0:0:
193,354,119066,38,0,B|235:353|276:377|276:377,1,81.7799987521363,6|0,3:1|0:0,0:0:0:0:
142,264,119437,1,2,0:0:0:0:
268,103,119622,2,0,B|203:154|112:145|112:145,1,163.559997504273,0|8,3:2|0:3,0:0:0:0:
323,286,120177,6,0,B|359:252|334:208|334:208,1,81.7799987521363,10|0,0:0|0:0,0:0:0:0:
186,60,120548,1,2,0:0:0:0:
341,131,120733,37,8,0:0:0:0:
172,249,120918,1,8,0:3:0:0:
248,142,121103,1,4,0:3:0:0:
411,282,121288,6,0,B|411:326|430:365|430:365,1,81.7799987521363,2|2,1:2|0:0,0:0:0:0:
250,218,121659,1,2,0:0:0:0:
343,165,121844,2,0,B|322:229|322:294|322:294,1,122.669998128204,8|0,0:0|0:0,0:0:0:0:
305,305,122214,1,4,0:3:0:0:
497,155,122399,38,0,B|457:147|406:117|406:117,1,81.7799987521363,8|0,0:0|0:0,0:0:0:0:
293,0,122770,1,2,0:0:0:0:
385,48,122955,1,8,0:3:0:0:
222,211,123140,1,4,0:3:0:0:
186,186,123233,1,4,0:3:0:0:
184,139,123325,1,4,0:3:0:0:
218,105,123418,1,4,0:3:0:0:
235,102,123511,6,0,B|269:125|315:135|315:135,1,81.7799987521363,4|0,1:2|0:0,0:0:0:0:
403,261,123881,1,0,3:0:0:0:
320,369,124066,2,0,B|392:332|481:342|481:342,1,163.559997504273,8|8,0:0|0:3,0:0:0:0:
292,209,124622,38,0,B|261:241|277:286|277:286,1,81.7799987521363,12|0,0:0|0:0,0:0:0:0:
398,148,124992,2,0,B|385:105|383:57|383:57,1,81.7799987521363,2|8,0:0|0:0,0:0:0:0:
512,205,125362,2,0,B|467:210|433:229|433:229,1,81.7799987521363,2|4,0:0|0:3,0:0:0:0:
288,12,125733,6,0,B|323:34|380:40|380:40,1,81.7799987521363,2|0,3:2|0:0,0:0:0:0:
257,191,126103,1,2,0:0:0:0:
145,105,126288,2,0,B|184:93|225:67|225:67,1,81.7799987521363,8|0,0:0|0:0,0:0:0:0:
277,117,126659,1,0,3:2:0:0:
335,264,126844,37,8,0:0:0:0:
180,208,127029,1,0,3:2:0:0:
158,278,127214,5,8,1:3:0:0:
38,337,127399,1,4,3:3:0:0:
53,223,127585,37,8,3:3:0:0:
64,149,127770,1,8,3:3:0:0:
254,329,127955,38,0,B|307:328|358:365|358:365,1,111.36,6|2,3:2|0:0,0:0:0:0:
420,326,128511,1,2,0:0:0:0:
282,256,128881,37,2,0:0:0:0:
387,169,129066,2,0,B|424:234|362:264|362:264,2,111.36,10|2|2,0:1|0:0|0:0,0:0:0:0:
387,169,130177,6,0,B|361:164|334:141|334:141,1,55.68,2|0,0:0|0:0,0:0:0:0:
223,62,130548,2,0,B|231:93|232:125|232:125,1,55.68,2|0,0:0|0:0,0:0:0:0:
318,24,130918,2,0,B|345:19|376:1|376:1,1,55.68,2|0,0:0|0:0,0:0:0:0:
222,140,131288,37,10,0:1:0:0:
148,108,131474,1,2,0:0:0:0:
81,188,131659,5,2,0:0:0:0:
0,238,131844,1,2,0:0:0:0:
134,291,132029,37,2,0:0:0:0:
195,319,132214,1,2,0:0:0:0:
69,384,132399,6,0,B|16:340|59:283|59:283,1,111.36,2|2,0:0|0:0,0:0:0:0:
193,213,132955,2,0,B|216:230|254:240|254:240,1,55.68
271,303,133325,1,2,0:0:0:0:
178,195,133511,38,0,B|174:138|164:82|164:82,2,111.36,10|2|2,0:1|0:0|0:0,0:0:0:0:
242,147,134437,1,0,0:0:0:0:
374,308,134622,6,0,B|378:280|395:252|395:252,1,55.68,2|0,0:0|0:0,0:0:0:0:
309,364,134992,2,0,B|282:370|256:384|256:384,1,55.68,2|0,0:0|0:0,0:0:0:0:
412,243,135362,2,0,B|432:261|466:268|466:268,1,55.68,2|0,0:0|0:0,0:0:0:0:
340,138,135733,38,0,B|314:111|323:55|364:47|364:47,1,111.36,10|2,0:1|0:0,0:0:0:0:
434,126,136288,1,2,0:0:0:0:
317,216,136474,2,0,B|284:219|257:237|257:237,1,55.68,2|0,0:0|0:0,0:0:0:0:
409,334,136844,6,0,B|465:333|512:369|512:369,1,111.36,2|2,3:2|0:0,0:0:0:0:
440,263,137399,1,2,0:0:0:0:
440,263,137770,37,2,0:0:0:0:
512,171,137955,2,0,B|484:178|452:193|452:193,1,55.68,10|0,0:1|0:0,0:0:0:0:
329,350,138325,2,0,B|336:321|339:290|339:290,1,55.68,2|0,0:0|0:0,0:0:0:0:
286,146,138696,2,0,B|258:136|233:120|233:120,1,55.68,2|0,0:0|0:0,0:0:0:0:
78,290,139066,6,0,B|121:286|131:250|193:241,1,111.36,2|2,0:0|0:0,0:0:0:0:
240,279,139622,1,0,0:0:0:0:
101,172,139807,2,0,B|108:142|112:108|112:108,1,55.68,2|0,0:0|0:0,0:0:0:0:
233,8,140177,38,0,B|292:47|255:105|255:105,1,111.36,10|2,0:1|0:0,0:0:0:0:
303,162,140733,1,2,0:0:0:0:
185,86,140918,1,2,0:0:0:0:
333,19,141103,1,2,0:0:0:0:
386,73,141288,6,0,B|439:77|493:103|493:103,1,111.36,2|0,0:0|0:0,0:0:0:0:
434,151,141844,1,0,0:0:0:0:
501,255,142029,2,0,B|512:231|509:201|509:201,1,55.68,2|0,0:0|0:0,0:0:0:0:
320,275,142399,38,0,B|285:333|338:375|338:375,1,111.36,10|0,0:1|0:0,0:0:0:0:
398,335,142955,1,0,0:0:0:0:
315,199,143140,2,0,B|284:191|259:173|259:173,1,55.68,2|2,0:0|0:0,0:0:0:0:
93,323,143511,6,0,B|142:317|140:280|205:273,1,111.36,2|2,0:0|0:0,0:0:0:0:
80,186,144066,1,0,0:0:0:0:
189,109,144251,1,2,0:0:0:0:
165,172,144437,37,0,3:2:0:0:
60,49,144622,2,0,B|84:-7|146:-17|187:28|187:28,1,146.159995539551,10|8,0:0|0:0,0:0:0:0:
27,136,145177,1,8,0:3:0:0:
193,274,145362,1,8,0:3:0:0:
230,284,145455,1,8,0:3:0:0:
265,267,145548,1,4,0:3:0:0:
276,221,145640,1,4,0:3:0:0:
262,212,145733,38,0,B|245:281|247:362|247:362,1,146.159995539551,6|0,3:1|0:0,0:0:0:0:
127,215,146288,1,10,3:3:0:0:
28,310,146474,2,0,B|40:274|35:237|35:237,1,73.0799977697755,2|6,0:0|0:3,0:0:0:0:
159,354,146844,6,0,B|197:353|236:383|236:383,1,73.0799977697755,10|0,0:0|0:0,0:0:0:0:
340,217,147214,2,0,B|375:209|410:189|410:189,1,73.0799977697755,2|0,0:0|0:0,0:0:0:0:
501,364,147585,2,0,B|471:344|427:336|427:336,1,73.0799977697755,10|0,0:3|0:3,0:0:0:0:
439,108,147955,38,0,B|526:150|485:230|485:230,1,146.159995539551,2|2,3:2|0:0,0:0:0:0:
325,329,148511,1,2,0:0:0:0:
278,271,148696,2,0,B|291:234|291:191|291:191,1,73.0799977697755,2|0,0:0|0:0,0:0:0:0:
405,346,149066,6,0,B|332:339|263:376|263:376,1,146.159995539551,2|8,3:2|0:0,0:0:0:0:
406,209,149622,1,8,0:0:0:0:
333,126,149807,2,0,B|298:119|261:99|261:99,1,73.0799977697755,8|4,0:3|0:3,0:0:0:0:
73,223,150177,38,0,B|135:232|136:280|215:289,1,146.159995539551,2|0,1:2|0:0,0:0:0:0:
65,361,150733,1,10,3:3:0:0:
153,223,150918,2,0,B|155:186|146:148|146:148,1,73.0799977697755,2|4,0:0|0:3,0:0:0:0:
287,299,151288,6,0,B|319:319|362:323|362:323,1,73.0799977697755,10|0,0:0|0:0,0:0:0:0:
233,355,151659,1,2,0:0:0:0:
349,246,151844,1,8,0:0:0:0:
243,157,152029,2,0,B|243:191|254:238|254:238,1,73.0799977697755,10|0,0:3|0:0,0:0:0:0:
481,113,152399,38,0,B|464:55|402:37|363:83|363:83,1,146.159995539551,2|2,3:2|0:0,0:0:0:0:
480,256,152955,1,0,0:0:0:0:
427,302,153140,2,0,B|390:305|351:322|351:322,1,73.0799977697755,10|0,0:3|0:0,0:0:0:0:
243,157,153511,6,0,B|168:151|102:118|102:118,1,146.159995539551,2|8,1:2|0:0,0:0:0:0:
268,52,154066,1,8,0:0:0:0:
112,208,154251,2,0,B|81:227|40:230|40:230,1,73.0799977697755,2|0,0:0|0:0,0:0:0:0:
209,315,154622,38,0,B|266:391|342:350|342:350,1,146.159995539551,2|0,1:2|0:0,0:0:0:0:
244,239,155177,1,8,3:3:0:0:
364,169,155362,2,0,B|346:206|344:246|344:246,1,73.0799977697755,2|4,0:0|0:3,0:0:0:0:
217,100,155733,6,0,B|285:89|366:56|366:56,1,146.159995539551,10|0,0:0|0:0,0:0:0:0:
280,164,156288,1,8,0:0:0:0:
367,257,156474,2,0,B|403:266|441:283|441:283,1,73.0799977697755,6|2,0:3|0:0,0:0:0:0:
496,243,156751,1,2,0:0:0:0:
505,233,156844,38,0,B|492:193|489:157|489:157,1,73.0799977697755,2|0,3:2|0:0,0:0:0:0:
334,330,157214,2,0,B|350:267|356:174|356:174,1,146.159995539551,2|10,0:0|0:3,0:0:0:0:
445,299,157770,1,6,0:3:0:0:
243,130,157955,6,0,B|280:127|313:104|313:104,1,73.0799977697755,2|0,0:0|0:0,0:0:0:0:
206,249,158325,1,8,0:0:0:0:
354,342,158511,1,8,0:0:0:0:
303,290,158696,1,10,0:3:0:0:
167,360,158881,1,4,0:3:0:0:
115,303,159066,38,0,B|99:270|99:229|99:229,1,73.0799977697755,6|0,1:3|0:0,0:0:0:0:
259,59,159437,2,0,B|244:96|242:137|242:137,1,73.0799977697755,2|0,0:0|0:0,0:0:0:0:
55,40,159807,2,0,B|93:35|133:15|133:15,1,73.0799977697755,10|0,0:3|0:3,0:0:0:0:
296,201,160177,6,0,B|245:120|167:167|167:167,1,146.159995539551,10|6,0:0|0:3,0:0:0:0:
259,59,160733,1,0,0:0:0:0:
316,108,160918,2,0,B|349:124|391:129|391:129,1,73.0799977697755,10|0,0:3|0:0,0:0:0:0:
277,309,161288,38,0,B|341:304|347:252|435:243,1,146.159995539551,2|0,1:2|0:0,0:0:0:0:
296,201,161844,1,0,0:0:0:0:
427,338,162029,2,0,B|392:318|352:311|352:311,1,73.0799977697755,2|0,0:0|0:0,0:0:0:0:
228,159,162399,6,0,B|175:133|113:176|126:237|126:237,1,146.159995539551,10|8,1:2|0:0,0:0:0:0:
29,366,162950,1,8,1:3:0:0:
139,296,163131,1,4,3:3:0:0:
57,158,163312,1,4,0:3:0:0:
111,113,163492,6,0,B|126:58|129:-1|129:-1,1,114.840003504639,6|2,0:0|0:0,0:0:0:0:
118,3,164416,37,2,0:0:0:0:
209,74,164601,2,0,B|242:90|289:99|289:99,1,76.5600023364259,10|2,0:1|0:0,0:0:0:0:
105,253,165341,1,2,0:0:0:0:
162,307,165711,6,0,B|217:314|274:343|274:343,1,114.840003504639,2|2,0:0|0:0,0:0:0:0:
435,176,166821,2,0,B|417:186|390:190|390:190,2,38.2800011682129,10|0|0,0:1|0:3|0:0,0:0:0:0:
487,227,167376,1,2,0:0:0:0:
339,105,167561,38,0,B|349:72|356:26|356:26,1,76.5600023364259,2|2,0:0|0:3,0:0:0:0:
197,178,168300,1,2,0:0:0:0:
390,324,168670,1,2,0:0:0:0:
401,250,169040,6,0,B|340:248|294:287|294:287,1,114.840003504639,10|0,0:1|0:0,0:0:0:0:
194,360,169780,2,0,B|172:355|153:347|153:347,1,38.2800011682129,2|2,0:0|0:0,0:0:0:0:
56,246,170150,38,0,B|73:173|74:132|74:132,1,114.840003504639,2|0,0:0|0:0,0:0:0:0:
193,34,170890,2,0,B|193:54|199:75|199:75,1,38.2800011682129,2|2,0:3|0:0,0:0:0:0:
48,26,171260,5,10,0:1:0:0:
111,9,171445,1,2,0:0:0:0:
212,156,171630,1,2,0:0:0:0:
152,133,171815,1,2,0:0:0:0:
285,19,172000,2,0,B|287:41|293:65|293:65,1,38.2800011682129,2|0,0:0|0:0,0:0:0:0:
421,215,172369,38,0,B|483:174|446:111|446:111,1,114.840003504639,6|2,0:0|0:3,0:0:0:0:
381,93,173109,1,2,0:0:0:0:
493,190,173294,1,2,0:0:0:0:
379,272,173479,6,0,B|356:277|336:288|336:288,1,38.2800011682129,10|0,0:1|0:0,0:0:0:0:
439,353,173849,2,0,B|479:361|516:377|516:377,1,76.5600023364259,2|0,0:0|0:0,0:0:0:0:
379,272,174404,1,2,0:0:0:0:
272,355,174589,38,0,B|237:377|189:362|178:319|178:319,1,114.840003504639,2|2,0:0|0:0,0:0:0:0:
272,355,175514,5,2,0:0:0:0:
112,226,175699,2,0,B|117:248|120:273|120:273,1,38.2800011682129,10|0,0:1|0:3,0:0:0:0:
217,189,176069,1,2,0:0:0:0:
268,237,176254,2,0,B|262:258|262:279|262:279,1,38.2800011682129,2|2,0:0|0:0,0:0:0:0:
469,105,176844,38,0,B|413:106|362:77|362:77,2,111.36,2|2|2,3:2|0:0|0:0,0:0:0:0:
395,168,177769,1,0,0:0:0:0:
490,247,177955,2,0,B|482:219|480:182|480:182,1,55.68,10|0,0:1|0:0,0:0:0:0:
374,293,178325,2,0,B|320:301|266:327|266:327,1,111.36,2|0,0:0|0:0,0:0:0:0:
135,239,178881,1,2,0:0:0:0:
334,70,179066,6,0,B|285:62|224:37|224:37,1,111.36,10|2,0:0|0:0,0:0:0:0:
373,169,179621,1,8,1:3:0:0:
307,198,179806,1,6,0:3:0:0:
149,332,180177,6,0,B|198:269|312:288|313:384|313:384,1,219.239993309326,12|8,1:2|0:3,0:0:0:0:
150,219,180918,2,0,B|144:177|134:139|134:139,1,73.0799977697755,6|0,3:3|0:3,0:0:0:0:
309,36,181288,6,0,B|282:95|331:148|302:209,1,163.559997504273,6|0,3:1|0:0,0:0:0:0:
184,52,181844,2,0,B|143:39|106:20|106:20,1,81.7799987521363,8|0,3:3|0:0,0:0:0:0:
0,123,182214,1,4,0:3:0:0:
150,219,182399,38,0,B|91:199|30:227|17:289|17:289,1,163.559997504273,12|0,3:2|0:0,0:0:0:0:
231,147,182955,1,8,3:3:0:0:
356,256,183140,2,0,B|398:268|436:288|436:288,1,81.7799987521363,4|4,3:3|0:3,0:0:0:0:
264,384,183510,6,0,B|283:324|241:278|272:222,1,163.559997504273,4|0,3:2|0:0,0:0:0:0:
146,36,184066,2,0,B|130:78|162:113|162:113,1,81.7799987521363,0|0,3:2|0:0,0:0:0:0:
77,249,184436,1,0,3:2:0:0:
12,143,184621,38,0,B|69:155|138:189|138:189,1,122.669998128204,12|0,0:0|0:0,0:0:0:0:
174,234,184992,1,2,0:0:0:0:
275,124,185177,5,0,3:2:0:0:
391,91,185362,1,8,0:3:0:0:
464,191,185547,1,4,0:3:0:0:
371,315,185732,38,0,B|312:292|300:206|353:176|353:176,1,163.559997504273,4|0,1:2|0:0,0:0:0:0:
490,30,186288,2,0,B|472:68|471:114|471:114,1,81.7799987521363,8|4,1:3|3:3,0:0:0:0:
328,0,186658,1,0,3:2:0:0:
231,116,186844,6,0,B|163:118|134:168|55:161,1,163.559997504273,12|0,0:0|0:0,0:0:0:0:
259,281,187399,1,4,0:3:0:0:
120,375,187584,2,0,B|130:335|134:286|134:286,1,81.7799987521363,8|0,0:3|0:0,0:0:0:0:
279,384,187955,37,6,0:3:0:0:
75,239,188232,5,2,0:0:0:0:
316,90,188510,37,10,0:3:0:0:
120,375,188788,5,2,0:0:0:0:
208,28,189066,37,14,0:0:0:0:
459,243,189344,5,2,0:0:0:0:
154,151,189621,37,10,3:3:0:0:
222,122,189806,1,8,0:3:0:0:
139,126,189992,5,4,0:3:0:0:
263,221,190177,2,0,B|173:197|115:275|115:275,1,163.559997504273,12|0,1:2|0:0,0:0:0:0:
330,106,190732,38,0,B|367:121|411:131|411:131,1,81.7799987521363,4|0,0:3|0:0,0:0:0:0:
468,174,191041,6,0,B|480:155|482:121|482:121,1,54.5199991680908,2|0,0:0|0:0,0:0:0:0:
301,21,191288,38,0,B|314:86|322:194|322:194,1,163.559997504273,4|2,3:2|0:0,0:0:0:0:
129,346,191843,1,0,3:2:0:0:
75,297,192029,2,0,B|73:255|95:211|95:211,1,81.7799987521363,10|0,0:3|0:0,0:0:0:0:
303,317,192399,6,0,B|366:323|385:373|469:379,1,163.559997504273,4|0,3:2|0:0,0:0:0:0:
312,196,192955,1,10,1:3:0:0:
207,272,193140,1,4,3:3:0:0:
268,317,193325,1,0,3:2:0:0:
176,142,193510,38,0,B|185:105|190:55|190:55,1,81.7799987521363,4|0,3:2|0:0,0:0:0:0:
249,28,193881,1,4,0:3:0:0:
107,176,194066,2,0,B|65:188|28:208|28:208,1,81.7799987521363,10|8,3:3|0:3,0:0:0:0:
197,310,194436,1,4,0:3:0:0:
25,201,194621,6,0,B|83:167|142:190|156:256|156:256,1,163.559997504273,4|0,1:2|0:0,0:0:0:0:
312,130,195177,2,0,B|351:120|395:97|395:97,1,81.7799987521363,10|4,3:3|0:3,0:0:0:0:
254,36,195547,1,0,3:2:0:0:
443,179,195732,38,0,B|424:114|416:18|416:18,1,163.559997504273,6|0,3:2|0:0,0:0:0:0:
224,128,196288,2,0,B|216:167|205:207|205:207,1,81.7799987521363,10|4,3:3|0:3,0:0:0:0:
142,100,196658,1,0,3:2:0:0:
298,238,196843,6,0,B|245:208|184:228|159:295|159:295,1,163.559997504273,4|0,1:2|0:0,0:0:0:0:
330,360,197399,2,0,B|370:366|411:385|411:385,1,81.7799987521363,10|4,3:3|0:3,0:0:0:0:
473,347,197769,1,0,3:2:0:0:
307,221,197955,38,0,B|373:220|391:156|469:147,1,163.559997504273,4|8,1:2|0:3,0:0:0:0:
304,20,198510,1,4,0:3:0:0:
201,128,198695,1,8,0:3:0:0:
159,136,198788,1,8,0:3:0:0:
117,113,198881,1,4,0:3:0:0:
110,71,198973,1,4,0:3:0:0:
123,58,199066,6,0,B|163:54|209:35|209:35,1,81.7799987521363,6|2,3:2|0:0,0:0:0:0:
69,171,199436,1,2,0:0:0:0:
221,273,199621,1,10,3:3:0:0:
153,253,199806,1,4,0:3:0:0:
274,153,199992,1,0,3:2:0:0:
85,355,200177,38,0,B|122:337|162:328|162:328,1,81.7799987521363,4|0,3:2|0:0,0:0:0:0:
77,150,200547,2,0,B|40:131|-1:125|-1:125,1,81.7799987521363,2|8,0:0|0:3,0:0:0:0:
162,236,200918,2,0,B|221:188|187:123|187:123,1,122.669998128204,6|0,0:3|0:0,0:0:0:0:
223,62,201288,6,0,B|258:79|314:92|314:92,1,81.7799987521363,6|0,1:2|0:0,0:0:0:0:
407,228,201658,2,0,B|364:237|321:262|321:262,1,81.7799987521363,2|8,0:0|0:3,0:0:0:0:
460,49,202029,1,8,0:3:0:0:
500,76,202121,1,8,0:3:0:0:
512,117,202214,1,4,0:3:0:0:
492,157,202306,1,4,0:3:0:0:
477,170,202399,38,0,B|302:104|357:308|180:243,1,327.119995008545,12|2,1:2|0:0,0:0:0:0:
101,196,203325,1,2,0:0:0:0:
0,308,203510,37,2,0:0:0:0:
0,308,204621,38,0,B|67:314|143:344|143:344,1,140.940003440918,2|2,0:0|0:0,0:0:0:0:
202,305,205362,1,2,0:0:0:0:
107,164,205732,6,0,B|104:192|97:212|97:212,1,46.9800011469727,2|0,0:0|0:0,0:0:0:0:
232,81,206103,2,0,B|242:126|244:181|244:181,1,93.9600022939454,2|0,0:0|0:0,0:0:0:0:
147,92,206658,1,2,0:0:0:0:
260,193,206843,38,0,B|302:203|356:225|356:225,1,93.9600022939454,2|0,0:0|0:0,0:0:0:0:
405,178,207399,1,2,0:0:0:0:
486,286,207584,2,0,B|460:292|440:301|440:301,1,46.9800011469727,2|0,0:0|0:0,0:0:0:0:
347,383,207955,6,0,B|308:343|335:295|335:295,2,93.9600022939454,2|2|2,0:0|0:0|0:0,0:0:0:0:
239,188,209066,38,0,B|191:177|143:159|143:159,1,93.9600022939454,2|2,0:0|0:0,0:0:0:0:
245,103,209621,1,2,0:0:0:0:
157,19,209806,2,0,B|162:43|162:72|162:72,1,46.9800011469727,2|0,0:0|0:0,0:0:0:0:
63,276,210177,6,0,B|21:237|57:184|57:184,1,93.9600022939454,2|2,0:0|0:0,0:0:0:0:
191,282,210732,2,0,B|215:287|245:304|245:304,1,46.9800011469727
133,370,211103,1,2,0:0:0:0:
255,285,211288,38,0,B|302:275|354:257|354:257,1,93.9600022939454,2|0,0:0|0:0,0:0:0:0:
406,291,211843,1,0,0:0:0:0:
308,162,212029,6,0,B|286:156|254:143|254:143,1,46.9800011469727,2|2,0:0|0:0,0:0:0:0:
383,17,212399,2,0,B|433:57|402:108|402:108,1,93.9600022939454,2|2,0:0|0:0,0:0:0:0:
478,132,212955,2,0,B|480:159|486:188|486:188,1,46.9800011469727,2|0,0:0|0:0,0:0:0:0:
435,227,213325,1,2,0:0:0:0:
308,162,213510,38,0,B|258:149|219:194|219:194,1,93.9600022939454,10|2,0:1|0:0,0:0:0:0:
137,310,214066,1,2,0:0:0:0:
206,290,214251,1,2,0:0:0:0:
138,281,214436,1,2,0:0:0:0:
219,366,214621,6,0,B|244:371|268:383|268:383,1,46.9800011469727,2|0,0:0|0:0,0:0:0:0:
138,281,214992,2,0,B|129:218|118:177|118:177,1,93.9600022939454,2|0,0:0|0:0,0:0:0:0:
243,102,215547,1,2,0:0:0:0:
138,4,215732,38,0,B|91:40|117:87|117:87,2,93.9600022939454,10|2|2,0:1|0:0|0:0,0:0:0:0:
200,37,216658,1,0,0:0:0:0:
88,167,216843,6,0,B|62:175|35:188|35:188,1,46.9800011469727,2|0,0:0|0:0,0:0:0:0:
170,279,217214,2,0,B|193:282|215:293|215:293,1,46.9800011469727,2|0,0:0|0:0,0:0:0:0:
72,384,217584,2,0,B|65:365|66:333|66:333,1,46.9800011469727,2|0,0:0|0:0,0:0:0:0:
258,194,217955,38,0,B|245:241|239:297|239:297,1,93.9600022939454,10|2,0:1|0:0,0:0:0:0:
288,335,218510,1,0,0:0:0:0:
171,210,218695,1,2,0:0:0:0:
320,143,218881,1,2,0:0:0:0:
261,98,219066,6,0,B|255:75|255:47|255:47,2,46.9800011469727,2|0|0,0:0|0:0|0:0,0:0:0:0:
398,195,219621,1,2,0:0:0:0:
415,125,219806,1,2,0:0:0:0:
275,213,219992,1,0,3:2:0:0:
424,318,220177,6,0,B|336:308|259:366|259:366,1,163.559997504273,12|10,0:0|0:1,0:0:0:0:
103,225,220732,1,0,3:2:0:0:
226,295,220918,5,8,0:3:0:0:
198,337,221010,1,8,0:3:0:0:
152,349,221103,1,4,0:3:0:0:
109,337,221195,1,4,0:3:0:0:
97,318,221288,38,0,B|108:280|116:233|116:233,1,81.7799987521363,4|0,3:1|0:0,0:0:0:0:
269,93,221658,1,2,0:0:0:0:
157,7,221843,2,0,B|162:49|172:90|172:90,1,81.7799987521363,8|4,0:3|3:3,0:0:0:0:
123,147,222214,1,2,0:0:0:0:
271,219,222399,6,0,B|332:214|356:265|447:252,1,163.559997504273,8|0,1:2|0:0,0:0:0:0:
286,340,222955,1,8,0:0:0:0:
449,235,223140,1,8,0:3:0:0:
470,200,223232,1,8,0:3:0:0:
462,162,223325,1,4,0:3:0:0:
430,132,223418,1,4,0:3:0:0:
408,123,223510,38,0,B|374:144|327:154|327:154,1,81.7799987521363,2|0,3:2|0:0,0:0:0:0:
471,255,223881,1,2,0:0:0:0:
310,327,224066,2,0,B|370:329|434:365|434:365,1,122.669998128204,2|0,3:2|0:0,0:0:0:0:
446,381,224436,1,10,0:3:0:0:
290,233,224621,6,0,B|215:264|131:281|131:281,1,163.559997504273,10|8,0:0|0:0,0:0:0:0:
332,152,225177,1,8,0:0:0:0:
201,18,225362,1,10,0:3:0:0:
270,39,225547,1,4,0:3:0:0:
127,169,225732,38,0,B|138:129|138:129|138:76,1,81.7799987521363,6|0,1:2|0:0,0:0:0:0:
291,255,226103,2,0,B|247:257|247:257|194:282,1,81.7799987521363,2|8,0:0|0:2,0:0:0:0:
352,70,226473,2,0,B|349:110|349:110|361:150,1,81.7799987521363,2|0,0:0|3:2,0:0:0:0:
176,344,226843,6,0,B|195:262|203:175|203:175,1,163.559997504273,6|2,1:2|0:0,0:0:0:0:
340,315,227399,1,0,3:2:0:0:
202,182,227584,2,0,B|240:172|279:145|279:145,1,81.7799987521363,10|0,0:3|0:0,0:0:0:0:
151,361,227955,38,0,B|90:379|30:332|45:267|45:267,1,163.559997504273,2|2,3:2|0:0,0:0:0:0:
167,121,228510,1,8,0:0:0:0:
202,182,228695,2,0,B|188:223|180:262|180:262,1,81.7799987521363,0|8,0:0|0:3,0:0:0:0:
55,53,229066,6,0,B|94:45|139:25|139:25,1,81.7799987521363,12|0,0:0|0:0,0:0:0:0:
330,162,229436,2,0,B|292:151|254:131|254:131,1,81.7799987521363,8|8,0:0|0:0,0:0:0:0:
117,319,229806,37,8,0:3:0:0:
256,258,229992,1,4,0:3:0:0:
139,215,230177,6,0,B|150:290|152:378|152:378,1,163.559997504273,4|2,3:1|0:0,0:0:0:0:
342,241,230732,2,0,B|331:279|326:332|326:332,1,81.7799987521363,8|0,0:0|0:0,0:0:0:0:
216,191,231103,1,10,0:3:0:0:
335,93,231288,38,0,B|375:83|416:64|416:64,1,81.7799987521363,12|0,1:2|0:0,0:0:0:0:
256,255,231658,2,0,B|181:220|99:215|99:215,1,163.559997504273,12|4,1:2|0:3,0:0:0:0:
30,94,232214,1,4,0:3:0:0:
30,94,232306,1,4,0:3:0:0:
30,94,232399,6,0,B|60:113|106:131|106:131,1,81.7799987521363,2|0,3:2|0:0,0:0:0:0:
0,247,232769,1,2,0:0:0:0:
141,319,232955,2,0,B|104:335|61:362|61:362,1,81.7799987521363,8|0,0:0|0:0,0:0:0:0:
172,207,233325,1,10,0:3:0:0:
298,360,233510,38,0,B|287:321|284:277|284:277,1,81.7799987521363,14|0,1:2|0:0,0:0:0:0:
148,95,233881,2,0,B|124:168|119:261|119:261,1,163.559997504273,12|2,1:2|0:0,0:0:0:0:
306,90,234436,1,2,0:0:0:0:
467,226,234621,6,0,B|414:262|342:232|344:166|344:166,1,163.559997504273,6|2,1:2|0:0,0:0:0:0:
207,42,235177,1,8,3:3:0:0:
148,95,235362,2,0,B|108:113|64:116|64:116,1,81.7799987521363,2|4,0:0|3:3,0:0:0:0:
221,297,235732,38,0,B|242:247|202:187|234:133,1,163.559997504273,10|8,0:0|1:3,0:0:0:0:
90,262,236288,1,8,3:3:0:0:
190,209,236473,5,12,3:0:0:0:
320,302,236658,1,4,0:3:0:0:
388,263,236843,38,0,B|301:239|236:315|236:315,1,163.559997504273,4|8,1:2|0:3,0:0:0:0:
148,95,237399,2,0,B|183:113|225:125|225:125,1,81.7799987521363,8|0,0:0|0:0,0:0:0:0:
74,251,237769,1,6,0:3:0:0:
182,360,237955,6,0,B|173:320|173:320|176:279|176:279,1,81.7799987521363,12|0,1:2|0:0,0:0:0:0:
10,153,238325,2,0,B|10:193|10:193|-2:240,1,81.7799987521363,2|8,0:0|0:3,0:0:0:0:
145,64,238695,1,4,0:3:0:0:
184,41,238788,1,4,0:3:0:0:
230,45,238881,1,4,0:3:0:0:
260,85,238973,1,4,0:3:0:0:
268,102,239066,38,0,B|328:109|343:167|427:180,1,163.559997504273,4|0,1:2|0:0,0:0:0:0:
475,48,239621,2,0,B|436:67|397:75|397:75,1,81.7799987521363,8|0,0:3|0:0,0:0:0:0:
512,157,239992,1,4,0:3:0:0:
373,271,240177,6,0,B|383:235|383:181|383:181,1,81.7799987521363,8|0,0:0|0:0,0:0:0:0:
510,352,240547,2,0,B|495:312|495:266|495:266,1,81.7799987521363,8|0,0:0|0:0,0:0:0:0:
363,367,240918,1,8,0:3:0:0:
316,384,241010,1,8,0:3:0:0:
274,364,241103,1,4,0:3:0:0:
258,317,241195,1,4,0:3:0:0:
250,305,241288,38,0,B|264:226|265:139|265:139,1,163.559997504273,4|4,1:2|0:3,0:0:0:0:
43,268,241843,2,0,B|31:310|54:349|54:349,1,81.7799987521363,8|0,0:0|0:0,0:0:0:0:
121,371,242214,1,8,0:3:0:0:
172,159,242399,6,0,B|101:149|95:98|18:85,1,163.559997504273,12|2,1:2|0:0,0:0:0:0:
179,248,242955,1,8,0:0:0:0:
309,128,243140,1,8,0:3:0:0:
332,81,243232,1,8,0:3:0:0:
306,38,243325,1,4,0:3:0:0:
253,31,243418,1,4,0:3:0:0:
239,52,243510,38,0,B|309:64|403:113|403:113,1,163.559997504273,4|0,1:2|0:0,0:0:0:0:
225,259,244066,2,0,B|185:270|144:291|144:291,1,81.7799987521363,8|0,0:0|0:0,0:0:0:0:
319,375,244436,1,0,3:2:0:0:
327,356,244529,1,0,3:2:0:0:
321,340,244621,6,0,B|295:333|268:318|268:318,1,54.5199991680908,8|8,0:0|3:0,0:0:0:0:
225,259,244868,1,8,0:3:0:0:
296,188,244992,38,0,B|322:181|349:166|349:166,1,54.5199991680908,8|4,0:3|0:3,0:0:0:0:
392,107,245239,1,4,0:3:0:0:
273,34,245362,6,0,B|228:52|216:103|247:137|247:137,1,122.669998128204,8|0,1:3|0:0,0:0:0:0:
296,188,245732,21,4,0:2:0:0:
152,313,246103,2,0,B|107:321|59:343|59:343,1,93.9600022939454,2|0,0:0|0:0,0:0:0:0:
5,309,246658,1,2,0:0:0:0:
218,369,246843,38,0,B|264:330|232:286|232:286,1,93.9600022939454,2|0,0:0|0:0,0:0:0:0:
180,203,247399,2,0,B|157:198|129:186|129:186,1,46.9800011469727,2|2,0:0|0:0,0:0:0:0:
71,217,247769,1,2,0:0:0:0:
195,102,247955,6,0,B|241:92|293:74|293:74,1,93.9600022939454,2|2,0:0|0:0,0:0:0:0:
195,102,248881,37,2,0:0:0:0:
304,192,249066,2,0,B|351:202|391:225|391:225,1,93.9600022939454,2|0,0:0|0:0,0:0:0:0:
452,188,249596,1,2,0:0:0:0:
324,275,249781,6,0,B|326:299|334:321|334:321,1,46.9800011469727,2|0,0:0|0:0,0:0:0:0:
228,173,250151,2,0,B|296:158|362:130|362:130,1,140.940003440918,2|2,0:0|0:0,0:0:0:0:
168,361,251103,37,2,0:0:0:0:
123,302,251288,2,0,B|131:278|133:247|133:247,1,46.9800011469727,2|0,0:0|0:0,0:0:0:0:
229,172,251658,2,0,B|242:216|246:270|246:270,1,93.9600022939454,2|0,0:0|0:0,0:0:0:0:
110,125,252213,5,2,0:0:0:0:
156,71,252399,2,0,B|181:66|209:53|209:53,2,46.9800011469727,2|0|0,0:0|0:0|0:0,0:0:0:0:
261,168,252954,38,0,B|289:174|307:183|307:183,1,46.9800011469727,2|2,0:0|0:0,0:0:0:0:
370,151,253325,1,2,0:0:0:0:
450,229,253510,1,2,0:0:0:0:
288,367,253881,5,2,0:0:0:0:
265,304,254066,1,2,0:0:0:0:
323,267,254251,1,2,0:0:0:0:
342,330,254436,1,2,0:0:0:0:
207,209,254621,38,0,B|123:217|146:267|70:269|70:269,1,146.160003568359,2|2,0:0|0:0,0:0:0:0:
65,266,256010,1,2,0:0:0:0:
62,258,256103,6,0,B|132:202|222:226|254:305|216:300|273:395|378:413|427:381|427:309|351:303|328:337,1,459.360011214844,2|2,0:0|0:0,0:0:0:0:
438,242,260725,37,2,0:0:0:0:
236,119,260984,5,2,0:0:0:0:
460,0,261196,37,2,0:0:0:0:
410,51,261376,1,2,0:0:0:0:
479,100,261557,1,2,0:0:0:0:
426,148,261738,1,2,0:0:0:0:
509,267,261918,5,2,0:0:0:0:
453,316,262109,1,2,0:0:0:0:
383,291,262300,1,2,0:0:0:0:
300,196,262514,37,2,0:0:0:0:
231,164,262754,1,2,0:0:0:0:
126,261,263026,5,2,0:0:0:0:
0,171,263326,1,2,0:0:0:0:
159,80,263648,1,2,0:0:0:0:
28,53,264005,37,2,0:0:0:0:
238,240,264405,1,2,0:0:0:0:
5,359,264859,2,0,L|14:312,4,29,2|0|0|0|0,0:0|0:0|0:0|0:0|0:0,0:0:0:0:
0,383,265179,5,2,0:0:0:0:
