osu file format v14

[General]
AudioFilename: audio.mp3
AudioLeadIn: 0
PreviewTime: -1
Countdown: 0
SampleSet: None
StackLeniency: 0.7
Mode: 0
LetterboxInBreaks: 0
WidescreenStoryboard: 1

[Editor]
Bookmarks: 385,19844,39303,63628,87952,107412
DistanceSpacing: 0.9
BeatDivisor: 2
GridSize: 4
TimelineZoom: 1

[Metadata]
Title:Kimi no Gin no Niwa
TitleUnicode:君の銀の庭
Artist:Kalafina
ArtistUnicode:Kalafina
Creator:MillhioreF
Version:~
Source:魔法少女まどか☆マギカ
Tags:Any words which can be used to identify this beatmap. Separate with spaces.
BeatmapID:1188475
BeatmapSetID:562132

[Difficulty]
HPDrainRate:3
CircleSize:6.4
OverallDifficulty:5
ApproachRate:5
SliderMultiplier:1
SliderTickRate:1

[Events]
//Background and Video events
0,0,"bg.png",0,0
//Break Periods
//Storyboard Layer 0 (Background)
//Storyboard Layer 1 (Fail)
//Storyboard Layer 2 (Pass)
//Storyboard Layer 3 (Foreground)
//Storyboard Sound Samples

[TimingPoints]
385,405.405405405405,4,1,1,40,1,0
385,-100,4,1,1,40,0,0
19844,-100,4,1,1,40,0,0
39303,-100,4,1,1,40,0,0
63628,-66.6666666666667,4,1,1,50,0,1
107412,-100,4,1,1,40,0,0

[Colours]
Combo1 : 128,0,128
Combo2 : 128,0,64
Combo3 : 255,128,255
Combo4 : 255,0,128

[HitObjects]
160,88,249,6,0,L|144:72,2,16.6666666666667,0|0|2,0:0|0:0|0:0,0:0:0:0:
216,144,790,1,0,0:0:0:0:
296,144,1195,1,0,0:0:0:0:
352,88,1601,2,0,P|414:118|416:192,1,150
416,192,2412,1,0,0:0:0:0:
344,232,2817,5,0,0:0:0:0:
296,296,3222,1,0,0:0:0:0:
216,296,3628,1,0,0:0:0:0:
168,232,4033,1,0,0:0:0:0:
156,193,4236,1,0,0:0:0:0:
189,170,4439,1,0,0:0:0:0:
221,194,4641,1,0,0:0:0:0:
207,232,4844,1,0,0:0:0:0:
136,272,5249,5,2,0:0:0:0:
64,232,5655,1,0,0:0:0:0:
64,152,6060,1,0,0:0:0:0:
136,112,6466,1,0,0:0:0:0:
256,112,7074,1,0,0:0:0:0:
256,112,7276,1,0,0:0:0:0:
256,192,7682,5,0,0:0:0:0:
296,261,8087,1,0,0:0:0:0:
216,261,8493,1,0,0:0:0:0:
176,192,8898,1,8,0:0:0:0:
216,122,9303,2,0,P|260:102|290:118,1,50,0|8,0:0|0:0,0:0:0:0:
296,122,9709,1,8,0:0:0:0:
336,192,10114,6,0,P|346:213|376:232,2,50,4|0|0,0:0|0:0|0:0,0:0:0:0:
320,112,10925,1,0,0:0:0:0:
256,160,11330,1,8,0:0:0:0:
336,192,11736,2,0,P|408:176|437:111,1,150,2|0,0:0|0:0,0:0:0:0:
432,72,12547,6,0,L|390:27,2,50,2|0|0,0:0|0:0|0:0,0:0:0:0:
488,128,13357,1,8,0:0:0:0:
440,192,13763,1,8,0:0:0:0:
416,224,13966,1,0,0:0:0:0:
392,192,14168,1,0,0:0:0:0:
368,224,14371,1,8,0:0:0:0:
344,192,14574,1,8,0:0:0:0:
288,248,14979,6,0,L|312:296,2,50,2|0|0,0:0|0:0|0:0,0:0:0:0:
256,176,15790,1,0,0:0:0:0:
224,248,16195,1,8,0:0:0:0:
192,176,16601,2,0,P|192:113|252:140,1,150,2|0,0:0|0:0,0:0:0:0:
256,176,17412,6,0,L|224:224,2,50
304,112,18222,1,0,0:0:0:0:
336,184,18628,1,8,0:0:0:0:
256,176,19033,2,0,L|208:144,2,50,2|0|0,0:0|0:0|0:0,0:0:0:0:
296,248,19844,5,4,0:0:0:0:
216,248,20249,1,0,0:0:0:0:
112,192,20857,1,0,0:0:0:0:
112,192,21060,2,0,L|8:192,2,100
216,136,22276,5,2,0:0:0:0:
256,136,22479,1,0,0:0:0:0:
296,136,22682,1,0,0:0:0:0:
400,192,23290,1,0,0:0:0:0:
400,192,23493,2,0,L|504:192,2,100
328,224,24709,5,2,0:0:0:0:
304,192,24912,1,0,0:0:0:0:
328,160,25114,1,0,0:0:0:0:
256,192,25520,1,0,0:0:0:0:
184,224,25925,5,0,0:0:0:0:
208,192,26128,1,0,0:0:0:0:
184,160,26330,1,0,0:0:0:0:
256,192,26736,1,0,0:0:0:0:
256,112,27141,6,0,L|256:56,2,50,2|0|0,0:0|0:0|0:0,0:0:0:0:
256,192,27952,1,0,0:0:0:0:
256,272,28357,2,0,L|256:376,2,100
256,192,29574,5,2,0:0:0:0:
232,160,29776,1,0,0:0:0:0:
200,136,29979,2,0,P|141:161|179:234,1,150
200,248,30790,2,0,P|152:280|112:262,2,100
256,192,32006,5,2,0:0:0:0:
280,160,32209,1,0,0:0:0:0:
312,136,32412,2,0,P|371:161|333:234,1,150
312,248,33222,2,0,P|360:280|400:262,2,100
256,192,34439,5,2,0:0:0:0:
232,160,34641,1,0,0:0:0:0:
208,128,34844,2,0,L|177:87,2,50
256,192,35655,5,0,0:0:0:0:
232,224,35857,1,0,0:0:0:0:
208,256,36060,2,0,L|177:297,2,50
256,192,36871,5,2,0:0:0:0:
296,192,37074,1,0,0:0:0:0:
336,192,37276,2,0,L|440:192,1,100
504,152,38087,1,0,0:0:0:0:
504,232,38493,1,0,0:0:0:0:
448,288,38898,1,0,0:0:0:0:
416,312,39101,1,0,0:0:0:0:
384,288,39303,6,0,B|293:197|253:378|163:288,1,250,4|0,0:0|0:0,0:0:0:0:
138,256,40520,6,0,L|82:168,2,100,8|0|0,0:0|0:0|0:0,0:0:0:0:
162,287,41533,1,0,0:0:0:0:
188,256,41736,2,0,L|244:168,2,100,8|0|0,0:0|0:0|0:0,0:0:0:0:
162,287,42749,1,0,0:0:0:0:
162,287,42952,2,0,B|162:343|146:367|122:368|122:368|98:367|82:343|82:287,1,200,8|0,0:0|0:0,0:0:0:0:
82,206,44168,6,0,B|74:184|65:117|144:69|219:118|251:180|173:261|119:219|137:181,1,300,2|0,0:0|0:0,0:0:0:0:
137,182,45790,1,8,0:0:0:0:
138,64,46398,5,0,0:0:0:0:
138,64,46601,1,2,0:0:0:0:
184,0,47006,2,0,P|217:70|174:135,1,150,8|0,0:0|0:0,0:0:0:0:
147,144,47817,2,0,P|94:130|65:95,2,100,0|0|8,0:0|0:0|0:0,0:0:0:0:
216,104,49033,5,2,0:0:0:0:
296,104,49439,1,0,0:0:0:0:
236,1,50047,1,0,0:0:0:0:
276,1,50249,1,0,0:0:0:0:
256,79,50655,1,0,0:0:0:0:
256,159,51060,1,0,0:0:0:0:
296,228,51466,5,2,0:0:0:0:
216,228,51872,1,0,0:0:0:0:
276,334,52480,1,0,0:0:0:0:
236,334,52682,1,0,0:0:0:0:
256,256,53088,1,0,0:0:0:0:
256,176,53493,1,0,0:0:0:0:
287,102,53898,6,0,B|332:73|368:82|462:154|352:236|352:236|480:324|320:460|256:332|256:332|192:460|32:324|160:236|160:236|50:154|144:82|180:73|225:102,1,1100,2|8,0:0|0:0,0:0:0:0:
268,188,58763,6,0,B|285:201|324:160|324:160|304:212|304:236|304:236|304:260|324:312|324:312|288:284|256:284|256:284|224:284|188:312|188:312|208:260|208:236|208:236|208:212|188:160|188:160|226:201|244:188,1,600,8|8,0:0|0:0,0:0:0:0:
256,236,61803,5,8,0:0:0:0:
256,236,62006,1,0,0:0:0:0:
256,168,62412,1,0,0:0:0:0:
316,272,62817,1,0,0:0:0:0:
196,272,63222,1,0,0:0:0:0:
256,168,63628,6,0,B|254:108|311:72|352:98|302:140,1,150.000005722046,4|0,0:0|0:0,0:0:0:0:
256,168,64236,2,0,B|254:228|311:264|352:238|302:196,1,150.000005722046
256,168,64844,1,8,0:0:0:0:
204,132,65047,1,0,0:0:0:0:
144,104,65249,1,0,0:0:0:0:
76,88,65452,1,0,0:0:0:0:
0,80,65655,5,0,0:0:0:0:
56,124,65857,1,0,0:0:0:0:
108,168,66060,2,0,P|128:212|48:260,2,150.000005722046,8|0|0,0:0|0:0|0:0,0:0:0:0:
76,108,67074,5,0,0:0:0:0:
100,44,67276,1,8,0:0:0:0:
164,20,67479,1,0,0:0:0:0:
222,54,67682,1,0,0:0:0:0:
290,54,67884,1,0,0:0:0:0:
348,20,68087,1,0,0:0:0:0:
412,44,68290,1,0,0:0:0:0:
436,108,68493,6,0,P|416:148|376:164,1,75.0000028610231,8|0,0:0|0:0,0:0:0:0:
436,108,68898,2,0,P|404:188|324:220,1,150.000005722046,2|0,0:0|0:0,0:0:0:0:
436,326,69709,6,0,P|416:286|376:270,1,75.0000028610231,8|0,0:0|0:0,0:0:0:0:
436,326,70114,2,0,P|404:246|324:214,1,150.000005722046,2|0,0:0|0:0,0:0:0:0:
216,208,70925,6,0,P|180:213|157:242,1,75.0000028610231
157,309,71330,2,0,P|179:337|215:342,1,75.0000028610231
274,309,71736,2,0,P|287:275|273:241,1,75.0000028610231
215,207,72141,1,8,0:0:0:0:
216,275,72547,5,0,0:0:0:0:
216,275,72750,1,8,0:0:0:0:
216,275,72953,1,8,0:0:0:0:
102,346,73357,6,0,P|50:298|34:222,1,150.000005722046,4|0,0:0|0:0,0:0:0:0:
34,162,73966,2,0,P|48:89|102:38,1,150.000005722046
158,16,74574,1,8,0:0:0:0:
221,11,74777,1,0,0:0:0:0:
286,18,74979,1,0,0:0:0:0:
353,40,75182,1,0,0:0:0:0:
422,72,75385,5,0,0:0:0:0:
352,76,75587,1,0,0:0:0:0:
300,120,75790,2,0,P|272:168|328:240,2,150.000005722046,8|0|8,0:0|0:0|0:0,0:0:0:0:
368,108,76803,6,0,L|444:132,1,75.0000028610231,0|8,0:0|0:0,0:0:0:0:
488,180,77209,2,0,L|412:204,1,75.0000028610231
416,257,77614,1,0,0:0:0:0:
488,280,77817,2,0,L|412:256,1,75.0000028610231
439,329,78222,6,0,L|368:352,1,75.0000028610231,8|0,0:0|0:0,0:0:0:0:
439,329,78628,2,0,L|288:340,1,150.000005722046,2|0,0:0|0:0,0:0:0:0:
72,329,79439,6,0,L|144:352,1,75.0000028610231,8|0,0:0|0:0,0:0:0:0:
72,329,79845,2,0,L|224:340,1,150.000005722046,2|0,0:0|0:0,0:0:0:0:
304,192,80655,5,8,0:0:0:0:
256,144,80857,1,0,0:0:0:0:
208,192,81060,1,2,0:0:0:0:
340,160,81466,1,0,0:0:0:0:
256,52,81871,1,8,0:0:0:0:
172,160,82276,1,0,0:0:0:0:
256,264,82682,2,0,L|256:340,1,75.0000028610231,8|0,0:0|0:0,0:0:0:0:
256,264,83087,2,0,B|425:158|87:158|256:52,1,300.000011444092,2|0,0:0|0:0,0:0:0:0:
380,4,84303,5,8,0:0:0:0:
484,88,84709,1,0,0:0:0:0:
356,124,85114,1,0,0:0:0:0:
356,260,85520,5,8,0:0:0:0:
484,296,85925,1,0,0:0:0:0:
380,380,86331,1,0,0:0:0:0:
256,332,86736,2,0,P|192:284|180:216,1,150.000005722046,8|0,0:0|0:0,0:0:0:0:
179,218,87344,1,8,0:0:0:0:
179,218,87547,1,8,0:0:0:0:
180,84,87952,5,4,0:0:0:0:
144,28,88155,1,0,0:0:0:0:
212,28,88357,2,0,P|310:96|283:195,1,225.000008583069
240,228,89168,2,0,P|189:193|220:124,2,150.000005722046,8|0|0,0:0|0:0|0:0,0:0:0:0:
376,228,90384,5,2,0:0:0:0:
444,228,90587,1,0,0:0:0:0:
412,168,90790,2,0,P|360:128|296:168,1,150.000005722046
180,235,91601,2,0,P|232:275|296:235,2,150.000005722046,8|0|0,0:0|0:0|0:0,0:0:0:0:
148,104,92817,5,2,0:0:0:0:
88,72,93020,1,0,0:0:0:0:
148,40,93222,2,0,L|376:40,1,225.000008583069
412,96,94033,2,0,L|256:96,2,150.000005722046,8|0|0,0:0|0:0|0:0,0:0:0:0:
288,152,95249,6,0,L|368:152,1,75.0000028610231,2|0,0:0|0:0,0:0:0:0:
326,209,95655,2,0,B|326:243|326:243|326:267|300:267|300:267|274:267|274:243|274:243|274:209,1,150.000005722046
274,73,96466,2,0,B|274:39|274:39|274:15|300:15|300:15|326:15|326:39|326:39|326:73,1,150.000005722046,8|0,0:0|0:0,0:0:0:0:
326,142,97074,1,8,0:0:0:0:
326,209,97276,1,8,0:0:0:0:
392,328,97682,5,4,0:0:0:0:
452,296,97884,1,0,0:0:0:0:
392,328,98087,2,0,P|320:356|176:324,1,225.000008583069
128,280,98898,2,0,P|100:232|104:140,2,150.000005722046,8|0|0,0:0|0:0|0:0,0:0:0:0:
248,344,100114,5,2,0:0:0:0:
192,384,100317,1,0,0:0:0:0:
248,344,100520,2,0,P|300:288|308:216,1,150.000005722046
256,92,101330,1,8,0:0:0:0:
204,48,101533,1,0,0:0:0:0:
268,28,101736,1,0,0:0:0:0:
320,72,101939,1,8,0:0:0:0:
256,92,102141,1,8,0:0:0:0:
128,136,102547,5,4,0:0:0:0:
76,96,102749,1,0,0:0:0:0:
128,136,102952,2,0,P|192:204|320:232,1,225.000008583069
384,216,103763,2,0,P|352:176|248:164,2,150.000005722046,8|0|0,0:0|0:0|0:0,0:0:0:0:
312,332,104979,5,2,0:0:0:0:
256,368,105182,1,0,0:0:0:0:
200,332,105384,1,0,0:0:0:0:
88,256,105790,1,0,0:0:0:0:
150,136,106195,2,0,P|256:225|362:136,1,300.000011444092,8|8,0:0|0:0,0:0:0:0:
256,117,107412,5,4,0:0:0:0:
