osu file format v14

[General]
AudioFilename: audio.mp3
AudioLeadIn: 0
PreviewTime: 63599
Countdown: 0
SampleSet: Soft
StackLeniency: 0.5
Mode: 0
LetterboxInBreaks: 0
WidescreenStoryboard: 0

[Editor]
Bookmarks: 356,8869,10085,19815,39275,63599,87923,107383,126842,151167,170626,175491,180356,185221,190085,194950,199815,209545,219275,224139,253329,263058,272788,284950,289815,300761
DistanceSpacing: 1.2
BeatDivisor: 4
GridSize: 32
TimelineZoom: 1.000005

[Metadata]
Title:Kimi no Gin no Niwa
TitleUnicode:君の銀の庭
Artist:Kalafina
ArtistUnicode:Kalafina
Creator:Kaitjuh
Version:Waltz
Source:劇場版 魔法少女まどかマギカ[新編]叛逆の物語
Tags:gekijouban puella magi mahou shoujo maho shojo madoka magica [shinpen] hangyaku no monogatari movie rebellion
BeatmapID:1654300
BeatmapSetID:788198

[Difficulty]
HPDrainRate:6
CircleSize:4
OverallDifficulty:6
ApproachRate:8
SliderMultiplier:2
SliderTickRate:1

[Events]
//Background and Video events
0,0,"mahoshojo2.jpg",0,0
//Break Periods
//Storyboard Layer 0 (Background)
//Storyboard Layer 1 (Fail)
//Storyboard Layer 2 (Pass)
//Storyboard Layer 3 (Foreground)
//Storyboard Sound Samples

[TimingPoints]
347,405.405405405405,3,2,1,20,1,0
347,-333.333333333333,4,2,1,20,0,0
9671,-500,4,2,2,20,0,0
9975,-500,4,2,1,5,0,0
10076,-133.333333333333,4,2,2,40,0,0
14840,-133.333333333333,4,2,2,5,0,0
14941,-133.333333333333,4,2,2,40,0,0
19806,-200,4,2,3,30,0,0
27813,-200,4,2,1,5,0,0
27914,-200,4,2,1,30,0,0
31968,-200,4,2,3,30,0,0
39265,-166.666666666667,4,2,1,35,0,0
41698,-166.666666666667,4,2,3,35,0,0
48995,-166.666666666667,4,2,1,35,0,0
58319,-166.666666666667,4,2,2,40,0,0
62779,-153.846153846154,4,2,1,45,0,0
63184,-142.857142857143,4,2,1,50,0,0
63590,-133.333333333333,4,2,1,55,0,1
63995,-133.333333333333,4,2,2,55,0,0
73218,-133.333333333333,4,2,1,5,0,0
73319,-133.333333333333,4,2,1,55,0,1
73725,-133.333333333333,4,2,2,55,0,0
87509,-500,4,2,1,55,0,0
87813,-500,4,2,1,5,0,0
87914,-133.333333333333,4,2,1,50,0,1
88117,-133.333333333333,4,2,2,50,0,0
97644,-133.333333333333,4,2,1,50,0,1
97846,-133.333333333333,4,2,2,50,0,0
101191,-133.333333333333,4,2,1,5,0,0
101292,-133.333333333333,4,2,2,50,0,0
102407,-133.333333333333,4,2,1,5,0,0
102509,-133.333333333333,4,2,2,50,0,0
107374,-200,4,2,1,30,0,0
109806,-200,4,2,3,30,0,0
115380,-200,4,2,1,5,0,0
115482,-200,4,2,1,30,0,0
119536,-200,4,2,3,30,0,0
125617,-200,4,2,2,30,0,0
126833,-166.666666666667,4,2,2,40,0,0
131698,-166.666666666667,4,2,3,40,0,0
132914,-166.666666666667,4,2,2,40,0,0
134130,-166.666666666667,4,2,3,40,0,0
135346,-166.666666666667,4,2,2,40,0,0
149941,-166.666666666667,4,2,2,45,0,0
150346,-166.666666666667,4,2,2,50,0,0
150752,-500,4,2,1,20,0,0
151056,-500,4,2,1,5,0,0
151157,-133.333333333333,4,2,1,55,0,1
151563,-133.333333333333,4,2,2,55,0,0
160482,-200,4,2,1,55,0,0
160786,-200,4,2,1,5,0,0
160887,-133.333333333333,4,2,1,55,0,1
161292,-133.333333333333,4,2,2,55,0,0
170617,-133.333333333333,4,2,2,45,0,0
175482,-285.714285714286,4,2,2,40,0,0
177914,-285.714285714286,4,2,3,40,0,0
179941,-285.714285714286,4,2,1,40,0,0
180346,-142.857142857143,4,2,3,55,0,1
180549,-142.857142857143,4,2,2,55,0,0
182779,-142.857142857143,4,2,3,55,0,0
183995,-142.857142857143,4,2,2,55,0,0
185211,-285.714285714286,4,2,2,40,0,0
187644,-285.714285714286,4,2,3,40,0,0
189265,-285.714285714286,4,2,1,40,0,0
189975,-285.714285714286,4,2,1,5,0,0
190076,-142.857142857143,4,2,1,55,0,1
190279,-142.857142857143,4,2,2,55,0,0
192509,-142.857142857143,4,2,3,55,0,0
193117,-142.857142857143,4,2,2,55,0,0
194130,-142.857142857143,4,2,1,55,0,0
194536,-285.714285714286,4,2,1,55,0,0
194840,-285.714285714286,4,2,1,5,0,0
194941,-142.857142857143,4,2,1,60,0,1
195144,-142.857142857143,4,2,1,60,0,0
198184,-133.333333333333,4,2,1,60,0,0
198590,-125,4,2,1,60,0,0
198995,-117.647058823529,4,2,1,60,0,0
199806,-133.333333333333,4,2,1,60,0,1
200211,-133.333333333333,4,2,2,40,0,0
202238,-133.333333333333,4,2,3,40,0,0
203455,-133.333333333333,4,2,2,40,0,0
204671,-133.333333333333,4,2,3,40,0,0
205887,-133.333333333333,4,2,2,40,0,0
207103,-133.333333333333,4,2,3,40,0,0
207509,-133.333333333333,4,2,2,40,0,0
209130,-200,4,2,1,40,0,0
209434,-200,4,2,1,5,0,0
209536,-133.333333333333,4,2,2,60,0,1
211968,-133.333333333333,4,2,3,60,0,1
212576,-133.333333333333,4,2,2,60,0,1
214401,-133.333333333333,4,2,3,60,0,1
215617,-133.333333333333,4,2,2,60,0,1
216833,-133.333333333333,4,2,3,60,0,1
217441,-133.333333333333,4,2,2,60,0,1
219265,-133.333333333333,4,2,2,40,0,0
220482,-133.333333333333,4,2,2,45,0,0
220887,-133.333333333333,4,2,2,50,0,0
223725,-500,4,2,1,50,0,0
224029,-500,4,2,1,5,0,0
224130,-133.333333333333,4,2,1,55,0,1
224536,-133.333333333333,4,2,2,55,0,0
228387,-133.333333333333,4,2,1,55,0,0
230211,-133.333333333333,4,2,2,55,0,0
233455,-500,4,2,1,55,0,0
233759,-500,4,2,1,5,0,0
233860,-133.333333333333,4,2,1,55,0,1
234265,-133.333333333333,4,2,2,55,0,0
238117,-133.333333333333,4,2,1,55,0,0
238725,-133.333333333333,4,2,2,55,0,0
250887,-133.333333333333,4,2,3,55,0,0
252103,-133.333333333333,4,2,2,55,0,0
252914,-500,4,2,1,55,0,0
253218,-500,4,2,1,5,0,0
253319,-133.333333333333,4,2,1,50,0,1
253522,-133.333333333333,4,2,2,50,0,0
263049,-133.333333333333,4,2,2,60,0,1
265482,-133.333333333333,4,2,3,60,0,1
266090,-133.333333333333,4,2,2,60,0,1
267914,-133.333333333333,4,2,3,60,0,1
268522,-133.333333333333,4,2,2,60,0,1
270346,-133.333333333333,4,2,3,60,0,1
270955,-133.333333333333,4,2,2,60,0,1
271157,-133.333333333333,4,2,1,60,0,1
271563,-133.333333333333,4,2,2,60,0,1
272374,-500,4,2,1,60,0,1
272678,-500,4,2,1,5,0,1
272779,-333.333333333333,4,2,1,20,0,0
281292,397.350993377483,3,2,1,20,1,0
282484,419.58041958042,3,2,1,20,1,0
282484,-333.333333333333,3,2,1,20,0,0
283323,405.405405405405,3,2,1,20,1,0
283728,405.405405405405,3,2,1,20,1,0
284539,425.531914893617,3,2,1,20,1,0
284964,434.782608695652,3,2,1,20,1,0
284964,-615.006150061501,4,2,1,20,0,0
286268,465.116279069767,3,2,1,20,1,0
286491,-734.214390602056,4,2,1,20,0,0
286500,555.555555555556,3,2,1,20,1,0
286500,-734.214390602056,4,2,1,20,0,0
289868,697.674418604651,3,2,1,20,1,0
289868,-181.356546971346,4,2,1,20,0,0
290216,582.52427184466,3,2,1,20,1,0
290507,512.820512820513,3,2,1,20,1,0
291019,631.578947368421,3,2,1,20,1,0
291334,681.818181818182,3,2,1,20,1,0
291674,750,3,2,1,20,1,0
292049,810.810810810811,3,2,1,20,1,0
292859,821.917808219178,3,2,1,20,1,0
294502,705.882352941176,3,2,1,20,1,0
294854,923.076923076923,3,2,1,20,1,0
295084,810.810810810811,3,2,1,20,1,0
295440,-100,4,2,1,15,0,0
296138,-100,4,2,1,13,0,0
296835,-100,4,2,1,11,0,0
297533,-100,4,2,1,9,0,0
298231,-100,4,2,1,7,0,0
298928,-100,4,2,1,5,0,0

[Colours]
Combo1 : 129,116,156
Combo2 : 255,128,192
Combo3 : 255,217,236
Combo4 : 79,83,111

[HitObjects]
125,71,347,5,2,0:0:0:0:
93,148,752,1,0,0:0:0:0:
147,212,1157,1,2,0:0:0:0:
71,366,1563,2,0,P|58:322|68:275,1,89.9999972534181,2|0,0:0|0:0,0:0:0:0:
80,259,2374,1,0,0:0:0:0:
189,363,2779,5,2,0:0:0:0:
256,312,3184,1,0,0:0:0:0:
327,356,3590,1,2,0:0:0:0:
440,286,3995,2,0,L|399:297,1,29.9999990844727,0|2,0:0|0:0,0:0:0:0:
427,199,4401,2,0,L|392:223,1,29.9999990844727,2|0,0:0|0:0,0:0:0:0:
385,121,4806,2,0,L|361:155,1,29.9999990844727
359,157,5110,1,0,0:0:0:0:
351,169,5211,5,2,0:0:0:0:
282,120,5617,1,0,0:0:0:0:
211,165,6022,1,2,0:0:0:0:
128,69,6428,2,0,P|137:110|124:161,1,89.9999972534181,2|0,0:0|0:0,0:0:0:0:
110,174,7238,1,0,0:0:0:0:
154,311,7644,5,2,0:0:0:0:
223,264,8049,1,0,0:0:0:0:
291,313,8455,1,0,0:0:0:0:
368,73,8860,5,8,3:0:0:0:
368,73,9468,1,8,3:0:0:0:
462,144,9671,6,0,L|493:141,1,30,8|0,0:0|0:0,0:0:0:0:
501,133,10076,6,0,L|409:141,1,75.0000028610231,6|2,0:0|0:0,0:0:0:0:
225,200,10482,2,0,B|300:170|297:236|376:204,1,150.000005722046,2|2,0:0|0:0,0:0:0:0:
369,206,11292,1,8,0:0:0:0:
135,156,11698,2,0,P|131:229|176:288,1,150.000005722046,2|0,0:0|3:0,0:0:0:0:
259,298,12306,1,0,0:0:0:0:
136,157,12509,6,0,P|181:107|215:97,1,75.0000028610231,2|0,0:0|0:0,0:0:0:0:
392,48,12914,2,0,P|320:72|247:45,1,150.000005722046,2|2,0:0|0:0,0:0:0:0:
252,49,13725,1,10,0:0:0:0:
186,104,13928,1,2,0:0:0:0:
200,188,14130,1,2,0:0:0:0:
279,217,14333,1,0,0:0:0:0:
200,188,14536,2,0,P|140:232|131:274,1,112.500004291535,0|0,3:0|0:0,0:0:0:0:
134,278,14941,5,2,0:0:0:0:
161,355,15144,1,2,0:0:0:0:
361,283,15346,2,0,B|286:253|289:319|210:287,1,150.000005722046,2|2,0:0|0:0,0:0:0:0:
216,289,16157,1,8,0:0:0:0:
436,345,16563,2,0,P|457:278|417:203,1,150.000005722046,2|0,0:0|3:0,0:0:0:0:
355,159,17171,1,0,0:0:0:0:
194,186,17374,6,0,L|288:198,1,75.0000028610231,2|0,0:0|0:0,0:0:0:0:
140,262,17779,2,0,B|105:221|105:221|112:125,1,150.000005722046,2|0,0:0|0:0,0:0:0:0:
112,125,18590,1,8,0:0:0:0:
90,330,18995,1,8,3:0:0:0:
140,262,19198,1,0,3:0:0:0:
90,330,19401,1,4,3:0:0:0:
38,107,19806,5,6,0:0:0:0:
201,150,20211,2,0,P|152:163|97:152,1,100,2|0,0:0|0:0,0:0:0:0:
38,107,20819,1,2,0:0:0:0:
32,188,21022,2,0,L|25:293,2,100,2|2|2,0:0|0:0|0:0,0:0:0:0:
205,64,22238,6,0,P|236:59|273:68,1,50,6|0,0:0|0:0,0:0:0:0:
321,106,22644,2,0,L|436:105,1,100,2|0,0:0|0:0,0:0:0:0:
491,63,23252,1,2,0:0:0:0:
494,145,23455,2,0,L|494:247,2,100,2|2|2,0:0|0:0|0:0,0:0:0:0:
262,354,24671,5,6,0:0:0:0:
203,299,24874,1,2,0:0:0:0:
126,324,25076,2,0,L|76:324,2,50,2|0|0,0:0|0:0|0:0,0:0:0:0:
74,138,25887,5,2,0:0:0:0:
124,200,26090,1,2,0:0:0:0:
178,141,26292,2,0,L|176:81,2,50,2|0|0,0:0|0:0|0:0,0:0:0:0:
470,107,27103,5,6,0:0:0:0:
410,52,27306,1,2,0:0:0:0:
340,92,27509,2,0,P|332:139|348:180,1,75,2|0,0:0|0:0,0:0:0:0:
346,176,27914,1,2,0:0:0:0:
456,288,28319,6,0,P|437:306|403:316,1,50,2|0,0:0|0:0,0:0:0:0:
336,330,28725,2,0,P|310:328|288:317,1,50,2|0,0:0|0:0,0:0:0:0:
241,252,29130,1,0,0:0:0:0:
39,365,29536,5,6,0:0:0:0:
90,302,29738,1,2,0:0:0:0:
165,346,29941,2,0,B|172:296|172:296|155:226,1,100,2|0,0:0|0:0,0:0:0:0:
93,203,30549,1,2,0:0:0:0:
147,142,30752,2,0,P|107:123|41:139,2,100,2|2|2,0:0|0:0|0:0,0:0:0:0:
379,124,31968,5,6,0:0:0:0:
379,124,32171,1,2,0:0:0:0:
452,161,32374,2,0,L|504:155,2,50,2|0|0,0:0|0:0|0:0,0:0:0:0:
379,124,32982,1,2,0:0:0:0:
336,194,33184,2,0,P|290:213|242:204,2,100,2|2|2,0:0|0:0|0:0,0:0:0:0:
141,61,34401,5,6,0:0:0:0:
192,121,34603,1,2,0:0:0:0:
114,135,34806,1,2,0:0:0:0:
128,98,35009,1,0,0:0:0:0:
153,127,35211,1,0,0:0:0:0:
401,166,35617,5,2,0:0:0:0:
350,226,35819,1,2,0:0:0:0:
428,240,36022,1,2,0:0:0:0:
414,203,36225,1,0,0:0:0:0:
389,232,36428,1,0,0:0:0:0:
142,268,36833,5,6,0:0:0:0:
193,328,37036,1,2,0:0:0:0:
115,342,37238,2,0,P|82:342|50:330,1,50,2|0,0:0|0:0,0:0:0:0:
30,265,37644,1,2,0:0:0:0:
201,145,38049,6,0,P|148:128|88:148,2,100,2|2|2,0:0|0:0|0:0,0:0:0:0:
252,206,39063,1,2,0:0:0:0:
302,83,39265,6,0,L|438:73,1,119.999996337891,6|0,0:0|0:0,0:0:0:0:
421,74,40076,1,0,0:0:0:0:
336,194,40279,1,2,0:0:0:0:
336,194,40482,2,0,P|287:220|213:207,1,119.999996337891,2|0,0:0|0:0,0:0:0:0:
224,213,41292,1,0,0:0:0:0:
95,110,41495,1,2,0:0:0:0:
95,110,41698,6,0,P|144:136|218:123,1,119.999996337891,6|2,0:0|0:0,0:0:0:0:
207,129,42509,1,0,0:0:0:0:
165,42,42711,1,2,0:0:0:0:
16,159,42914,2,0,P|4:95|36:39,2,119.999996337891,2|0|0,0:0|0:0|0:0,0:0:0:0:
206,292,44130,6,0,L|84:302,2,119.999996337891,6|0|0,0:0|0:0|0:0,0:0:0:0:
281,123,45346,1,2,0:0:0:0:
304,341,45752,2,0,B|393:346|393:346|460:286,1,179.999994506836,2|0,0:0|0:0,0:0:0:0:
474,268,46563,5,6,0:0:0:0:
344,117,46968,2,0,P|331:176|358:246,1,119.999996337891,2|0,0:0|0:0,0:0:0:0:
365,247,47576,1,2,0:0:0:0:
402,49,47779,2,0,P|353:27|279:55,2,119.999996337891,2|0|0,0:0|0:0|0:0,0:0:0:0:
177,95,48995,5,6,0:0:0:0:
208,283,49401,2,0,L|222:164,1,119.999996337891,2|0,0:0|0:0,0:0:0:0:
177,95,50009,1,2,0:0:0:0:
58,173,50211,5,2,0:0:0:0:
103,241,50617,1,2,3:2:0:0:
186,237,51022,1,2,0:0:0:0:
352,95,51428,5,2,3:2:0:0:
321,283,51833,2,0,L|307:164,1,119.999996337891,2|0,0:0|0:0,0:0:0:0:
352,95,52441,1,2,0:0:0:0:
471,173,52644,5,2,0:0:0:0:
426,241,53049,1,2,3:2:0:0:
343,237,53455,1,2,0:0:0:0:
256,41,53860,6,0,L|256:168,2,119.999996337891,2|0|0,3:2|0:0|0:0,0:0:0:0:
256,22,54874,1,0,0:0:0:0:
143,161,55076,2,0,B|199:140|199:140|263:163,1,119.999996337891,2|0,0:0|3:2,0:0:0:0:
255,160,55887,1,0,0:0:0:0:
398,325,56292,6,0,P|418:259|404:199,2,119.999996337891,2|0|0,3:2|0:0|0:0,0:0:0:0:
388,341,57306,1,0,0:0:0:0:
359,139,57509,2,0,P|413:123|476:156,1,119.999996337891,2|0,0:0|3:2,0:0:0:0:
469,148,58319,1,8,0:0:0:0:
117,181,58725,6,0,B|216:153|198:218|296:184,1,179.999994506836,6|0,0:0|0:0,0:0:0:0:
310,174,59536,1,0,3:2:0:0:
213,36,59941,1,0,3:0:0:0:
160,266,60346,2,0,L|147:338,1,59.9999981689454,10|0,0:0|0:0,0:0:0:0:
232,157,60752,2,0,L|245:229,1,59.9999981689454,10|0,0:0|0:0,0:0:0:0:
213,36,61157,5,6,0:0:0:0:
213,36,61563,1,0,0:0:0:0:
165,105,61765,1,8,0:0:0:0:
352,136,61968,1,2,0:0:0:0:
340,52,62171,1,2,0:0:0:0:
244,204,62374,6,0,L|230:275,1,59.9999981689454,10|0,0:0|0:0,0:0:0:0:
352,356,62779,2,0,L|338:285,1,64.9999970245363,2|8,0:0|3:0,0:0:0:0:
432,135,63184,2,0,L|418:206,1,69.9999978637696,6|0,3:0|0:0,0:0:0:0:
465,343,63590,6,0,P|458:276|404:189,1,150.000005722046,6|2,0:0|0:0,0:0:0:0:
337,164,64198,2,0,P|347:127|341:90,1,75.0000028610231,2|0,0:0|0:0,0:0:0:0:
242,48,64603,1,2,3:2:0:0:
261,123,64806,1,10,0:0:0:0:
217,187,65009,1,2,0:0:0:0:
140,192,65211,5,2,0:0:0:0:
245,205,65414,1,2,0:0:0:0:
273,307,65617,1,2,3:2:0:0:
189,373,65819,1,2,0:0:0:0:
97,321,66022,6,0,B|55:266|55:266|51:171,1,150.000005722046,2|0,3:2|0:0,0:0:0:0:
51,87,66630,1,8,0:0:0:0:
51,87,67036,1,2,0:0:0:0:
114,131,67238,1,8,0:0:0:0:
192,130,67441,1,2,0:0:0:0:
255,83,67644,5,2,0:0:0:0:
216,173,67846,1,2,3:2:0:0:
273,253,68049,1,2,3:2:0:0:
371,247,68252,1,2,0:0:0:0:
417,161,68455,6,0,L|408:81,1,75.0000028610231,6|0,0:0|0:0,0:0:0:0:
462,196,68860,2,0,L|445:36,1,150.000005722046,2|0,0:0|0:0,0:0:0:0:
204,282,69671,5,10,0:0:0:0:
245,193,69874,1,2,0:0:0:0:
261,342,70076,2,0,L|244:182,1,150.000005722046,2|0,0:0|3:0,0:0:0:0:
36,94,70887,5,2,3:2:0:0:
106,161,71090,1,2,0:0:0:0:
183,101,71292,2,0,L|179:10,1,75.0000028610231,2|8,0:0|0:0,0:0:0:0:
250,177,71698,2,0,P|293:171|335:150,1,75.0000028610231,2|0,0:0|0:0,0:0:0:0:
445,31,72103,6,0,P|430:65|407:94,1,75.0000028610231,10|0,0:0|0:0,0:0:0:0:
334,262,72509,1,8,3:0:0:0:
422,208,72711,1,0,3:0:0:0:
429,353,72914,2,0,B|366:334|378:377|317:356,1,112.500004291535,4|0,3:0|0:0,0:0:0:0:
312,350,73319,6,0,P|254:328|150:338,1,150.000005722046,6|2,0:0|0:0,0:0:0:0:
40,364,73928,2,0,P|78:332|89:292,1,75.0000028610231,2|0,0:0|0:0,0:0:0:0:
117,181,74333,1,2,3:2:0:0:
157,248,74536,1,10,0:0:0:0:
232,270,74738,1,2,0:0:0:0:
302,232,74941,5,2,0:0:0:0:
264,142,75144,1,2,0:0:0:0:
314,58,75346,1,2,3:2:0:0:
412,52,75549,1,2,0:0:0:0:
473,129,75752,6,0,L|464:283,1,150.000005722046,2|0,3:2|0:0,0:0:0:0:
507,366,76360,1,8,0:0:0:0:
507,366,76765,1,2,0:0:0:0:
451,309,76968,1,10,0:0:0:0:
372,295,77171,1,2,0:0:0:0:
301,330,77374,5,2,0:0:0:0:
366,252,77576,1,2,3:2:0:0:
337,154,77779,1,2,3:2:0:0:
239,125,77982,1,2,0:0:0:0:
161,190,78184,6,0,P|153:229|164:277,1,75.0000028610231,6|0,0:0|0:0,0:0:0:0:
126,157,78590,2,0,P|105:219|129:305,1,150.000005722046,2|0,0:0|0:0,0:0:0:0:
258,116,79401,5,10,0:0:0:0:
322,188,79603,1,2,0:0:0:0:
321,46,79806,2,0,P|342:108|317:194,1,150.000005722046,2|0,0:0|3:2,0:0:0:0:
493,280,80617,5,2,3:2:0:0:
417,329,80819,1,2,0:0:0:0:
335,293,81022,2,0,L|244:304,1,75.0000028610231,2|8,0:0|0:0,0:0:0:0:
136,202,81428,2,0,P|168:225|187:273,1,75.0000028610231,2|0,0:0|3:2,0:0:0:0:
0,294,81833,6,0,P|3:254|35:214,1,75.0000028610231,10|0,0:0|0:0,0:0:0:0:
94,287,82238,1,2,3:2:0:0:
94,287,82441,1,0,3:2:0:0:
65,145,82644,1,2,3:2:0:0:
136,202,82846,1,2,0:0:0:0:
307,98,83049,6,0,B|232:68|235:134|156:102,1,150.000005722046,6|0,0:0|0:0,0:0:0:0:
146,94,83657,1,0,0:0:0:0:
191,7,83860,1,0,0:0:0:0:
352,168,84265,6,0,B|427:138|424:204|503:172,1,150.000005722046,10|2,0:0|0:0,0:0:0:0:
512,164,84874,1,0,0:0:0:0:
466,77,85076,1,2,3:2:0:0:
225,256,85482,6,0,B|165:250|165:250|128:268|128:268|64:261,2,150.000005722046,6|0|2,0:0|0:0|0:0,0:0:0:0:
243,260,86495,1,0,3:2:0:0:
272,153,86698,5,10,0:0:0:0:
272,153,87103,1,8,3:0:0:0:
316,345,87306,1,0,3:0:0:0:
370,212,87509,6,0,L|335:217,1,30,4|0,3:0|0:0,0:0:0:0:
328,210,87914,6,0,L|402:199,1,75.0000028610231,6|2,0:0|0:0,0:0:0:0:
284,282,88319,2,0,P|246:217|278:147,1,150.000005722046,2|0,0:0|0:0,0:0:0:0:
271,152,89130,1,10,0:0:0:0:
87,367,89536,2,0,L|98:293,1,75.0000028610231,2|0,3:2|0:0,0:0:0:0:
121,144,89941,2,0,L|110:218,1,75.0000028610231,2|0,3:2|0:0,0:0:0:0:
93,53,90346,6,0,P|131:49|173:63,1,75.0000028610231,6|0,0:0|0:0,0:0:0:0:
381,104,90752,2,0,P|311:130|238:116,1,150.000005722046,2|0,0:0|0:0,0:0:0:0:
239,116,91563,1,8,0:0:0:0:
493,215,91968,2,0,L|406:223,1,75.0000028610231,2|0,3:2|0:0,0:0:0:0:
268,233,92374,2,0,L|343:227,1,75.0000028610231,2|0,3:2|0:0,0:0:0:0:
174,275,92779,6,0,P|166:228|181:189,1,75.0000028610231,6|0,0:0|0:0,0:0:0:0:
240,128,93184,1,2,0:0:0:0:
103,132,93387,2,0,P|177:104|252:140,1,150.000005722046,8|2,0:0|0:0,0:0:0:0:
240,128,93995,1,10,0:0:0:0:
350,350,94401,2,0,L|355:255,1,75.0000028610231,2|0,3:2|0:0,0:0:0:0:
360,123,94806,2,0,L|357:198,1,75.0000028610231,2|0,3:2|0:0,0:0:0:0:
175,375,95211,6,0,P|165:342|169:300,1,75.0000028610231,6|2,0:0|0:0,0:0:0:0:
240,158,95617,2,0,L|230:242,1,75.0000028610231,2|8,0:0|0:0,0:0:0:0:
134,64,96022,2,0,L|146:237,2,150.000005722046,2|10|2,0:0|0:0|3:2,0:0:0:0:
134,64,97238,1,8,0:0:0:0:
462,149,97644,6,0,P|427:160|390:163,1,75.0000028610231,6|2,0:0|0:0,0:0:0:0:
316,87,98049,1,2,0:0:0:0:
269,246,98252,2,0,B|344:216|341:282|420:250,1,150.000005722046,8|2,0:0|0:0,0:0:0:0:
413,252,98860,1,10,0:0:0:0:
185,281,99265,2,0,P|179:236|192:193,1,75.0000028610231,2|0,3:2|0:0,0:0:0:0:
232,55,99671,2,0,P|238:91|232:128,1,75.0000028610231,2|0,3:2|0:0,0:0:0:0:
131,27,100076,5,6,0:0:0:0:
73,91,100279,2,0,L|-15:108,1,75.0000028610231,2|2,0:0|0:0,0:0:0:0:
129,9,100684,1,8,0:0:0:0:
219,51,100887,2,0,B|278:56|278:56|344:17,1,112.500004291535,2|0,0:0|0:0,0:0:0:0:
333,23,101292,5,10,0:0:0:0:
331,120,101495,1,2,0:0:0:0:
414,170,101698,1,2,3:2:0:0:
498,123,101901,1,2,0:0:0:0:
414,170,102103,2,0,L|410:298,1,112.500004291535,2|0,3:2|0:0,0:0:0:0:
408,292,102509,6,0,P|366:309|316:301,1,75.0000028610231,6|2,0:0|0:0,0:0:0:0:
266,240,102914,1,2,0:0:0:0:
59,307,103117,2,0,B|134:277|131:343|210:311,1,150.000005722046,8|2,0:0|3:2,0:0:0:0:
203,313,103725,1,10,0:0:0:0:
30,177,104130,2,0,P|64:160|117:154,1,75.0000028610231,2|0,3:2|0:0,0:0:0:0:
253,191,104536,2,0,P|220:171|168:160,1,75.0000028610231,2|0,3:2|0:0,0:0:0:0:
0,339,104941,5,6,0:0:0:0:
53,258,105144,1,2,0:0:0:0:
131,317,105346,2,0,L|206:310,2,75.0000028610231,2|8|0,0:0|0:0|0:0,0:0:0:0:
131,317,106157,1,10,0:0:0:0:
346,202,106563,1,8,3:0:0:0:
357,293,106765,1,0,3:0:0:0:
346,202,106968,1,4,3:0:0:0:
462,52,107374,5,6,0:0:0:0:
462,52,107576,1,2,0:0:0:0:
462,52,107779,2,0,P|414:69|358:58,1,100,2|0,0:0|0:0,0:0:0:0:
304,14,108387,1,2,0:0:0:0:
337,164,108590,2,0,L|439:158,1,100,2|2,0:0|0:0,0:0:0:0:
436,158,109401,1,2,0:0:0:0:
260,221,109806,5,6,0:0:0:0:
260,221,110009,1,2,0:0:0:0:
260,221,110211,2,0,P|198:214|160:232,1,100,2|0,0:0|0:0,0:0:0:0:
119,294,110819,1,2,0:0:0:0:
66,188,111022,2,0,L|70:84,1,100,2|2,0:0|0:0,0:0:0:0:
70,88,111833,1,2,0:0:0:0:
248,120,112238,5,6,0:0:0:0:
309,69,112441,1,2,0:0:0:0:
382,101,112644,2,0,L|392:156,2,50,2|0|0,0:0|0:0|0:0,0:0:0:0:
480,299,113455,5,2,0:0:0:0:
411,340,113657,1,2,0:0:0:0:
335,312,113860,2,0,L|271:315,2,50,2|0|0,0:0|0:0|0:0,0:0:0:0:
55,247,114671,5,6,0:0:0:0:
113,302,114874,1,2,0:0:0:0:
169,246,115076,2,0,P|179:208|169:170,1,75,2|0,0:0|0:0,0:0:0:0:
165,164,115482,1,2,0:0:0:0:
25,55,115887,6,0,L|97:57,1,50,2|0,0:0|0:0,0:0:0:0:
143,14,116292,2,0,L|215:16,1,50,2|0,0:0|0:0,0:0:0:0:
252,70,116698,1,0,0:0:0:0:
470,166,117103,5,6,0:0:0:0:
494,88,117306,1,2,0:0:0:0:
470,166,117509,2,0,L|355:181,1,100,2|0,0:0|0:0,0:0:0:0:
286,187,118117,1,2,0:0:0:0:
338,351,118319,2,0,P|349:308|338:254,1,100,2|2,0:0|0:0,0:0:0:0:
338,254,119130,1,2,0:0:0:0:
82,213,119536,5,6,0:0:0:0:
154,169,119738,1,2,0:0:0:0:
82,213,119941,2,0,P|71:168|90:116,1,100,2|0,0:0|0:0,0:0:0:0:
166,84,120549,1,2,0:0:0:0:
270,183,120752,2,0,L|371:178,1,100,2|2,0:0|0:0,0:0:0:0:
370,178,121563,1,2,0:0:0:0:
183,267,121968,5,6,0:0:0:0:
102,292,122171,1,2,0:0:0:0:
164,349,122374,1,2,0:0:0:0:
172,308,122576,1,0,0:0:0:0:
132,319,122779,1,0,0:0:0:0:
344,158,123184,5,2,3:2:0:0:
425,183,123387,1,2,0:0:0:0:
363,240,123590,1,2,0:0:0:0:
355,199,123792,1,0,0:0:0:0:
395,210,123995,1,0,0:0:0:0:
174,54,124401,5,6,0:0:0:0:
93,79,124603,1,2,0:0:0:0:
155,136,124806,2,0,P|185:138|221:128,1,50,2|0,0:0|0:0,0:0:0:0:
259,69,125211,1,2,0:0:0:0:
259,69,125617,5,10,0:0:0:0:
432,159,126022,1,0,3:0:0:0:
384,228,126225,1,8,3:2:0:0:
432,159,126428,1,4,3:0:0:0:
449,338,126833,6,0,B|397:366|397:366|335:359,1,119.999996337891,6|0,0:0|0:0,0:0:0:0:
336,359,127644,1,0,0:0:0:0:
162,278,127846,1,2,0:0:0:0:
162,278,128049,6,0,B|223:271|223:271|275:299,1,119.999996337891,10|0,0:0|0:0,0:0:0:0:
274,298,128860,1,0,3:2:0:0:
83,335,129063,1,2,0:0:0:0:
83,335,129265,6,0,P|67:277|89:221,1,119.999996337891,2|0,3:2|0:0,0:0:0:0:
88,223,130076,1,0,0:0:0:0:
196,181,130279,1,2,0:0:0:0:
88,27,130482,2,0,P|72:84|94:140,2,119.999996337891,10|0|0,0:0|0:0|3:2,0:0:0:0:
306,90,131698,6,0,L|186:98,2,119.999996337891,6|0|2,0:0|0:0|0:0,0:0:0:0:
493,180,132914,1,10,0:0:0:0:
314,297,133319,2,0,P|305:242|330:178,1,119.999996337891,2|0,0:0|3:2,0:0:0:0:
340,168,133928,1,2,0:0:0:0:
405,248,134130,5,6,0:0:0:0:
233,322,134536,2,0,B|105:307,1,119.999996337891,2|0,0:0|0:0,0:0:0:0:
92,304,135144,1,2,3:2:0:0:
27,132,135346,2,0,P|15:180|33:251,2,119.999996337891,10|0|0,0:0|0:0|3:2,0:0:0:0:
255,28,136563,5,6,0:0:0:0:
325,194,136968,2,0,P|342:136|314:74,1,119.999996337891,2|0,0:0|0:0,0:0:0:0:
255,28,137576,1,2,3:2:0:0:
265,201,137779,2,0,L|332:192,1,59.9999981689454,10|0,0:0|0:0,0:0:0:0:
317,99,138184,2,0,L|379:124,1,59.9999981689454,2|0,0:0|0:0,0:0:0:0:
413,36,138590,2,0,L|454:89,1,59.9999981689454,2|0,3:2|0:0,0:0:0:0:
255,28,138995,5,2,3:2:0:0:
185,194,139401,2,0,P|168:136|196:74,1,119.999996337891,2|0,0:0|0:0,0:0:0:0:
255,28,140009,1,2,3:2:0:0:
245,201,140211,2,0,L|178:192,1,59.9999981689454,10|0,0:0|0:0,0:0:0:0:
193,99,140617,2,0,L|130:124,1,59.9999981689454,2|0,0:0|0:0,0:0:0:0:
97,36,141022,2,0,L|55:89,1,59.9999981689454,2|0,3:2|0:0,0:0:0:0:
138,267,141428,6,0,L|17:246,2,119.999996337891,2|0|0,0:0|0:0|0:0,0:0:0:0:
156,272,142441,1,2,3:2:0:0:
326,205,142644,2,0,P|269:186|214:208,1,119.999996337891,10|0,0:0|0:0,0:0:0:0:
216,207,143455,1,0,3:2:0:0:
394,353,143860,6,0,L|399:232,2,119.999996337891,2|0|0,0:0|0:0|0:0,0:0:0:0:
393,372,144874,1,2,3:2:0:0:
345,168,145076,2,0,B|402:148|402:148|462:171,1,119.999996337891,10|0,0:0|3:2,0:0:0:0:
472,180,145684,1,8,0:0:0:0:
404,69,145887,1,4,3:0:0:0:
118,197,146292,6,0,B|170:192|192:156|192:156|227:187|288:175,1,179.999994506836,6|0,0:0|0:0,0:0:0:0:
298,176,147103,1,0,3:2:0:0:
115,31,147509,1,8,0:0:0:0:
65,234,147914,2,0,L|47:301,1,59.9999981689454,10|0,0:0|0:0,0:0:0:0:
148,143,148319,2,0,L|166:210,1,59.9999981689454,10|0,0:0|0:0,0:0:0:0:
115,31,148725,5,6,0:0:0:0:
115,31,149130,1,2,3:0:0:0:
64,112,149333,1,8,3:0:0:0:
260,112,149536,1,2,3:2:0:0:
209,31,149738,1,2,0:0:0:0:
150,236,149941,6,0,L|143:311,1,59.9999981689454,10|0,0:0|0:0,0:0:0:0:
159,150,150346,1,8,3:2:0:0:
134,373,150549,1,8,3:0:0:0:
340,284,150752,6,0,L|310:284,1,30,4|0,3:0|0:0,0:0:0:0:
298,282,151157,6,0,B|366:257|368:311|458:282,1,150.000005722046,6|2,0:0|0:0,0:0:0:0:
511,214,151765,2,0,P|509:165|489:128,1,75.0000028610231,2|0,0:0|0:0,0:0:0:0:
416,192,152171,1,2,3:2:0:0:
377,116,152374,1,10,0:0:0:0:
404,35,152576,1,2,0:0:0:0:
479,0,152779,5,2,3:2:0:0:
404,77,152982,1,2,0:0:0:0:
304,118,153184,1,2,3:2:0:0:
197,116,153387,1,2,0:0:0:0:
99,70,153590,6,0,P|148:20|249:21,1,150.000005722046,2|0,3:2|0:0,0:0:0:0:
295,78,154198,1,8,0:0:0:0:
295,78,154603,1,2,3:2:0:0:
248,149,154806,1,10,0:0:0:0:
264,232,155009,1,2,0:0:0:0:
337,284,155211,5,2,3:2:0:0:
298,177,155414,1,2,0:0:0:0:
190,153,155617,1,2,3:2:0:0:
115,234,155819,1,2,0:0:0:0:
146,339,156022,6,0,P|180:324|205:297,1,75.0000028610231,6|0,0:0|0:0,0:0:0:0:
19,286,156428,2,0,P|72:336|146:339,1,150.000005722046,2|0,0:0|0:0,0:0:0:0:
247,68,157238,6,0,P|213:83|188:110,1,75.0000028610231,10|0,0:0|0:0,0:0:0:0:
374,121,157644,2,0,P|321:71|247:68,1,150.000005722046,2|0,0:0|3:2,0:0:0:0:
278,172,158252,1,2,0:0:0:0:
374,121,158455,6,0,L|372:45,1,75.0000028610231,2|2,3:2|0:0,0:0:0:0:
457,179,158860,2,0,L|459:255,2,75.0000028610231,2|8|2,0:0|0:0|0:0,0:0:0:0:
255,334,159671,5,10,0:0:0:0:
56,188,160076,1,0,0:0:0:0:
95,277,160279,1,8,3:0:0:0:
120,115,160482,6,0,B|162:108|162:108|210:123,1,75,4|0,3:0|0:0,0:0:0:0:
200,126,160887,6,0,P|195:76|291:71,1,150.000005722046,6|2,0:0|0:0,0:0:0:0:
333,133,161495,2,0,P|372:139|413:134,1,75.0000028610231,2|0,3:2|0:0,0:0:0:0:
483,73,161901,1,2,3:2:0:0:
428,136,162103,1,10,0:0:0:0:
414,218,162306,1,2,0:0:0:0:
447,294,162509,5,2,0:0:0:0:
389,204,162711,1,2,0:0:0:0:
290,164,162914,1,2,3:2:0:0:
186,189,163117,1,2,0:0:0:0:
116,269,163319,6,0,P|107:207|21:164,1,150.000005722046,2|0,0:0|0:0,0:0:0:0:
30,253,163928,1,8,0:0:0:0:
30,253,164333,1,2,3:2:0:0:
26,170,164536,1,10,0:0:0:0:
73,104,164738,1,2,0:0:0:0:
151,79,164941,5,2,0:0:0:0:
90,183,165144,1,2,3:2:0:0:
143,291,165346,1,2,3:2:0:0:
264,303,165549,1,2,0:0:0:0:
339,208,165752,6,0,P|348:167|369:141,1,75.0000028610231,6|0,0:0|0:0,0:0:0:0:
439,295,166157,2,0,P|369:274|339:208,1,150.000005722046,2|0,0:0|0:0,0:0:0:0:
139,30,166968,6,0,P|180:39|206:60,1,75.0000028610231,10|2,0:0|0:0,0:0:0:0:
52,130,167374,2,0,P|72:60|138:30,1,150.000005722046,2|0,0:0|3:2,0:0:0:0:
139,119,167982,1,2,0:0:0:0:
223,146,168184,5,2,3:2:0:0:
284,70,168387,1,2,0:0:0:0:
372,112,168590,2,0,L|455:107,1,75.0000028610231,2|8,0:0|0:0,0:0:0:0:
311,244,168995,2,0,P|301:208|308:167,1,75.0000028610231,2|0,0:0|3:2,0:0:0:0:
459,291,169401,6,0,L|376:296,1,75.0000028610231,10|0,0:0|0:0,0:0:0:0:
295,336,169806,1,2,0:0:0:0:
295,336,170009,1,8,3:0:0:0:
239,175,170211,1,4,3:0:0:0:
218,270,170414,1,2,0:0:0:0:
1,206,170617,6,0,B|73:176|70:242|145:212,1,150.000005722046,6|0,0:0|0:0,0:0:0:0:
159,200,171225,1,0,0:0:0:0:
119,110,171428,1,0,0:0:0:0:
427,132,171833,6,0,B|355:102|358:168|283:138,1,150.000005722046,8|2,0:0|0:0,0:0:0:0:
266,129,172441,1,8,0:0:0:0:
306,39,172644,1,2,0:0:0:0:
397,216,173049,6,0,P|436:221|485:205,1,75.0000028610231,6|0,0:0|0:0,0:0:0:0:
318,268,173455,2,0,P|279:273|230:257,2,75.0000028610231,2|8|0,0:0|0:0|0:0,0:0:0:0:
334,260,174063,1,2,0:0:0:0:
185,334,174265,6,0,P|155:263|186:200,2,150.000005722046,10|4|0,0:0|3:3|3:3,0:0:0:0:
199,347,175279,1,2,0:0:0:0:
271,180,175482,5,6,0:0:0:0:
271,180,175887,2,0,L|265:70,1,104.999996795654,2|0,0:0|0:0,0:0:0:0:
265,59,176698,5,2,0:0:0:0:
175,98,177103,1,2,0:0:0:0:
85,137,177509,2,0,L|88:92,1,34.9999989318848,0|2,0:0|0:0,0:0:0:0:
90,84,177914,5,6,0:0:0:0:
90,84,178319,2,0,L|95:188,1,104.999996795654,2|2,0:0|0:0,0:0:0:0:
97,212,179130,5,2,0:0:0:0:
172,274,179536,1,2,0:0:0:0:
247,336,179941,1,10,3:0:0:0:
247,336,180346,6,0,P|286:342|330:332,1,69.9999978637696,6|0,0:0|0:0,0:0:0:0:
393,304,180752,1,0,0:0:0:0:
330,184,180955,2,0,L|325:254,1,69.9999978637696
395,134,181360,1,2,3:2:0:0:
219,42,181563,6,0,B|269:37|269:37|303:54|303:54|361:51,2,139.999995727539,10|0|0,0:0|0:0|3:2,0:0:0:0:
136,56,182576,1,2,0:0:0:0:
188,122,182779,6,0,L|190:221,1,69.9999978637696,6|0,0:0|0:0,0:0:0:0:
104,285,183184,2,0,L|105:215,2,69.9999978637696
154,352,183792,1,2,3:2:0:0:
284,186,183995,5,10,0:0:0:0:
472,267,184401,1,0,3:0:0:0:
454,348,184603,1,8,3:0:0:0:
472,267,184806,1,4,3:0:0:0:
326,80,185211,5,6,0:0:0:0:
326,80,185617,2,0,L|245:89,1,69.9999978637696,2|0,0:0|0:0,0:0:0:0:
235,91,186225,1,2,0:0:0:0:
184,19,186428,5,2,0:0:0:0:
153,112,186833,1,2,0:0:0:0:
122,205,187238,1,2,0:0:0:0:
6,142,187644,6,0,L|46:144,1,34.9999989318848,6|0,0:0|0:0,0:0:0:0:
63,147,188049,2,0,P|40:201|57:255,1,104.999996795654,2|2,0:0|0:0,0:0:0:0:
62,262,188860,5,2,0:0:0:0:
152,300,189265,1,10,3:0:0:0:
242,338,189671,2,0,L|249:281,1,52.4999983978272,6|0,3:0|0:0,0:0:0:0:
250,275,190076,5,6,0:0:0:0:
328,302,190279,1,2,0:0:0:0:
460,247,190482,2,0,P|425:239|371:254,1,69.9999978637696,2|0,0:0|0:0,0:0:0:0:
387,366,190887,2,0,P|422:374|476:359,1,69.9999978637696,0|0,0:0|3:2,0:0:0:0:
510,178,191292,5,10,0:0:0:0:
460,247,191495,1,2,0:0:0:0:
443,93,191698,2,0,L|517:86,1,69.9999978637696,2|0,0:0|0:0,0:0:0:0:
370,132,192103,2,0,P|360:101|369:58,1,69.9999978637696,0|0,3:2|0:0,0:0:0:0:
293,177,192509,5,4,0:0:0:0:
293,177,192914,2,0,P|253:191|196:185,1,69.9999978637696,2|8,0:0|0:0,0:0:0:0:
277,32,193319,2,0,P|309:59|332:112,1,69.9999978637696,2|0,0:0|3:2,0:0:0:0:
160,119,193725,6,0,P|167:77|201:30,1,69.9999978637696,10|0,0:0|0:0,0:0:0:0:
293,177,194130,1,2,3:0:0:0:
160,119,194333,1,10,3:0:0:0:
177,264,194536,6,0,L|185:322,1,52.4999983978272,6|0,3:0|0:0,0:0:0:0:
186,326,194941,5,6,0:0:0:0:
94,314,195144,1,2,0:0:0:0:
256,209,195346,2,0,L|266:279,1,69.9999978637696,2|0,0:0|0:0,0:0:0:0:
355,379,195752,2,0,L|345:309,1,69.9999978637696,0|0,3:2|3:2,0:0:0:0:
389,165,196157,5,6,0:0:0:0:
409,255,196360,1,2,0:0:0:0:
410,81,196563,2,0,P|373:78|339:93,1,69.9999978637696,2|0,0:0|0:0,0:0:0:0:
215,159,196968,2,0,P|252:162|286:147,1,69.9999978637696,0|0,3:2|0:0,0:0:0:0:
141,113,197374,5,4,3:0:0:0:
141,113,197779,2,0,L|133:199,1,69.9999978637696,2|0,1:2|0:0,0:0:0:0:
81,343,198184,2,0,L|73:257,1,75.0000028610231,2|0,1:2|0:0,0:0:0:0:
222,99,198590,6,0,L|214:185,1,80,2|8,1:2|3:0,0:0:0:0:
158,367,198995,2,0,L|150:281,1,85.0000016212464,6|0,3:0|0:0,0:0:0:0:
303,85,199401,5,2,0:0:0:0:
226,296,199603,1,2,0:0:0:0:
475,184,199806,6,0,B|419:167|419:167|316:188,1,150.000005722046,6|0,0:0|0:0,0:0:0:0:
242,210,200414,1,0,0:0:0:0:
192,107,200617,2,0,P|234:101|278:120,1,75.0000028610231,2|0,0:0|3:2,0:0:0:0:
264,110,201022,5,8,0:0:0:0:
226,296,201428,1,2,3:2:0:0:
157,237,201630,1,2,0:0:0:0:
59,334,201833,2,0,P|100:336|142:321,1,75.0000028610231,2|0,3:2|0:0,0:0:0:0:
50,195,202238,6,0,B|26:268|26:268|65:347,1,150.000005722046,6|0,0:0|0:0,0:0:0:0:
112,261,202846,2,0,L|157:257,2,37.5000014305115,0|0|2,3:2|0:0|0:0,0:0:0:0:
112,261,203455,5,8,0:0:0:0:
398,93,203860,1,0,3:2:0:0:
308,104,204063,1,0,0:0:0:0:
361,175,204265,2,0,P|398:181|435:172,1,75.0000028610231,2|2,3:2|0:0,0:0:0:0:
334,262,204671,5,6,0:0:0:0:
279,190,204874,1,2,0:0:0:0:
221,259,205076,2,0,P|180:273|131:267,1,75.0000028610231,2|2,0:0|0:0,0:0:0:0:
6,232,205482,2,0,P|47:218|96:224,1,75.0000028610231,2|0,0:0|3:2,0:0:0:0:
81,223,205887,6,0,L|70:136,1,75.0000028610231,8|2,0:0|0:0,0:0:0:0:
68,129,206191,1,2,0:0:0:0:
66,111,206292,2,0,B|138:140|135:74|210:104,1,150.000005722046,2|2,0:0|3:2,0:0:0:0:
274,167,206901,1,2,0:0:0:0:
340,226,207103,6,0,P|400:186|483:215,1,150.000005722046,6|0,0:0|0:0,0:0:0:0:
471,204,207711,1,10,0:0:0:0:
415,274,207914,1,2,3:2:0:0:
504,288,208117,1,2,3:2:0:0:
359,345,208319,5,10,0:0:0:0:
415,274,208522,1,2,0:0:0:0:
382,189,208725,1,2,3:2:0:0:
415,274,208928,1,8,3:0:0:0:
359,345,209130,6,0,B|323:360|320:329|276:352,1,75,4|0,3:0|0:0,0:0:0:0:
278,352,209536,6,0,B|220:357|220:357|192:344|192:344|103:353,1,150.000005722046,6|2,0:0|0:0,0:0:0:0:
0,263,210144,2,0,B|58:258|58:258|85:270|85:270|175:262,1,150.000005722046,2|2,0:0|3:2,0:0:0:0:
131,350,210752,1,10,0:0:0:0:
147,264,210955,1,2,0:0:0:0:
227,233,211157,1,2,0:0:0:0:
246,225,211563,1,2,3:2:0:0:
265,217,211968,6,0,L|354:223,1,75.0000028610231,6|0,0:0|0:0,0:0:0:0:
430,225,212374,1,2,0:0:0:0:
457,140,212576,1,10,0:0:0:0:
418,59,212779,1,2,0:0:0:0:
336,26,212982,1,2,0:0:0:0:
251,56,213184,5,10,0:0:0:0:
336,26,213387,1,2,0:0:0:0:
418,59,213590,2,0,L|505:51,1,75.0000028610231,2|8,0:0|3:0,0:0:0:0:
456,139,213995,2,0,L|382:146,1,75.0000028610231,6|0,3:0|0:0,0:0:0:0:
149,150,214401,6,0,B|220:173|224:120|298:151,1,150.000005722046,6|2,0:0|0:0,0:0:0:0:
486,229,215009,2,0,B|415:205|411:258|339:229,1,150.000005722046,2|2,0:0|3:2,0:0:0:0:
296,150,215617,1,10,0:0:0:0:
340,229,215819,1,2,0:0:0:0:
294,306,216022,1,2,0:0:0:0:
282,326,216428,1,2,3:2:0:0:
270,346,216833,6,0,L|177:337,1,75.0000028610231,6|0,0:0|0:0,0:0:0:0:
128,278,217238,1,2,0:0:0:0:
214,251,217441,1,10,0:0:0:0:
249,168,217644,1,2,0:0:0:0:
209,87,217846,1,2,3:2:0:0:
123,64,218049,5,10,0:0:0:0:
209,87,218252,1,2,0:0:0:0:
249,168,218455,2,0,L|337:175,1,75.0000028610231,2|8,0:0|3:0,0:0:0:0:
452,107,218860,2,0,L|378:102,1,75.0000028610231,6|0,3:0|0:0,0:0:0:0:
305,314,219265,6,0,B|339:246|339:246|324:174,1,150.000005722046,6|0,0:0|3:2,0:0:0:0:
324,173,220076,2,0,P|277:189|234:183,1,75.0000028610231,2|2,3:2|0:0,0:0:0:0:
104,121,220482,6,0,L|209:135,1,75.0000028610231,2|0,1:2|0:0,0:0:0:0:
308,41,220887,2,0,L|203:55,1,75.0000028610231,2|0,1:2|0:0,0:0:0:0:
98,233,221292,2,0,L|203:219,1,75.0000028610231,2|0,1:2|0:0,0:0:0:0:
396,92,221698,5,6,1:2:0:0:
396,92,222103,2,0,L|407:199,1,75.0000028610231,2|0,3:2|0:0,0:0:0:0:
419,255,222509,1,10,0:0:0:0:
487,196,222711,1,2,3:2:0:0:
456,341,222914,6,0,P|418:350|355:330,1,75.0000028610231,6|0,1:2|0:0,0:0:0:0:
403,166,223319,1,0,3:0:0:0:
309,371,223522,1,8,3:0:0:0:
178,187,223725,6,0,L|210:185,1,30,4|0,3:0|0:0,0:0:0:0:
217,181,224130,6,0,B|149:156|147:210|57:181,1,150.000005722046,6|2,0:0|0:0,0:0:0:0:
2,126,224738,2,0,P|-1:88|17:36,1,75.0000028610231,2|0,0:0|0:0,0:0:0:0:
82,1,225144,1,2,3:2:0:0:
95,88,225346,1,10,0:0:0:0:
79,175,225549,1,2,0:0:0:0:
34,251,225752,5,2,3:2:0:0:
153,223,225955,1,2,0:0:0:0:
270,259,226157,1,2,3:2:0:0:
386,300,226360,1,2,0:0:0:0:
498,248,226563,6,0,L|472:89,1,150.000005722046,2|0,3:2|0:0,0:0:0:0:
412,34,227171,1,8,0:0:0:0:
412,34,227576,1,2,3:2:0:0:
373,116,227779,1,10,0:0:0:0:
379,207,227982,1,2,0:0:0:0:
428,283,228184,5,2,0:0:0:0:
318,254,228387,1,10,3:0:0:0:
213,289,228590,1,6,3:0:0:0:
109,326,228792,1,2,0:0:0:0:
10,272,228995,6,0,L|4:190,1,75.0000028610231,6|2,0:0|0:0,0:0:0:0:
72,40,229401,2,0,L|84:214,1,150.000005722046,2|0,0:0|0:0,0:0:0:0:
153,245,230009,1,2,3:2:0:0:
226,111,230211,6,0,L|221:186,1,75.0000028610231,10|2,0:0|0:0,0:0:0:0:
309,383,230617,2,0,L|298:233,1,150.000005722046,2|4,0:0|3:0,0:0:0:0:
362,169,231225,1,2,0:0:0:0:
494,239,231428,6,0,P|450:252|409:242,1,75.0000028610231,6|0,0:0|0:0,0:0:0:0:
408,83,231833,2,0,P|452:70|493:80,2,75.0000028610231,2|8|0,0:0|0:0|0:0,0:0:0:0:
408,83,232644,5,10,0:0:0:0:
337,138,232846,1,2,0:0:0:0:
257,95,233049,2,0,L|159:102,1,75.0000028610231,2|8,0:0|3:0,0:0:0:0:
45,170,233455,6,0,L|82:167,1,30,4|0,3:0|0:0,0:0:0:0:
86,166,233860,6,0,P|62:218|96:336,1,150.000005722046,6|2,0:0|0:0,0:0:0:0:
151,355,234468,2,0,P|194:357|252:324,1,75.0000028610231,2|0,0:0|0:0,0:0:0:0:
232,256,234874,1,2,3:2:0:0:
313,307,235076,1,10,0:0:0:0:
410,297,235279,1,2,0:0:0:0:
479,230,235482,5,2,3:2:0:0:
369,210,235684,1,2,0:0:0:0:
265,248,235887,1,2,3:2:0:0:
160,281,236090,1,2,0:0:0:0:
52,252,236292,6,0,L|62:95,1,150.000005722046,2|0,3:2|0:0,0:0:0:0:
123,36,236901,1,8,0:0:0:0:
123,36,237306,1,2,3:2:0:0:
205,96,237509,1,10,0:0:0:0:
308,103,237711,1,2,0:0:0:0:
398,52,237914,5,2,0:0:0:0:
273,59,238117,1,10,3:0:0:0:
225,175,238319,1,6,3:0:0:0:
307,269,238522,1,2,3:2:0:0:
427,236,238725,6,0,P|453:211|468:177,1,75.0000028610231,6|0,0:0|0:0,0:0:0:0:
416,49,239130,2,0,P|466:102|469:176,1,150.000005722046,2|0,0:0|0:0,0:0:0:0:
135,301,239941,6,0,P|161:328|195:343,1,75.0000028610231,10|2,0:0|0:0,0:0:0:0:
322,290,240346,2,0,P|269:340|195:343,1,150.000005722046,2|0,0:0|3:2,0:0:0:0:
227,240,240955,1,2,0:0:0:0:
322,290,241157,6,0,L|401:301,1,75.0000028610231,6|0,0:0|0:0,0:0:0:0:
512,202,241563,2,0,L|433:213,2,75.0000028610231,2|8|2,0:0|0:0|0:0,0:0:0:0:
512,202,242374,5,10,0:0:0:0:
185,111,242779,2,0,P|176:74|181:38,1,75.0000028610231,2|8,0:0|3:0,0:0:0:0:
259,157,243184,2,0,P|268:193|263:230,1,75.0000028610231,4|2,3:0|0:0,0:0:0:0:
41,286,243590,6,0,B|113:256|110:322|185:292,1,150.000005722046,6|0,0:0|0:0,0:0:0:0:
200,281,244198,1,0,0:0:0:0:
155,185,244401,1,0,0:0:0:0:
155,185,244806,6,0,P|117:168|-1:192,2,150.000005722046,10|2|2,0:0|0:0|3:2,0:0:0:0:
167,200,245819,1,0,0:0:0:0:
195,115,246022,6,0,P|238:131|291:121,1,75.0000028610231,2|0,3:2|0:0,0:0:0:0:
336,71,246428,1,2,0:0:0:0:
336,71,246833,2,0,L|434:75,1,75.0000028610231,0|2,0:0|3:2,0:0:0:0:
506,137,247238,6,0,P|468:137|434:151,1,75.0000028610231,10|0,0:0|0:0,0:0:0:0:
274,265,247644,2,0,P|322:216|404:225,1,150.000005722046,2|0,0:0|3:2,0:0:0:0:
465,282,248252,1,2,0:0:0:0:
303,347,248455,6,0,B|231:377|234:311|159:341,1,150.000005722046,6|0,0:0|0:0,0:0:0:0:
142,348,249063,1,0,0:0:0:0:
174,237,249265,1,0,0:0:0:0:
174,237,249671,5,8,0:0:0:0:
56,87,250076,2,0,P|95:72|139:79,1,75.0000028610231,2|0,0:0|0:0,0:0:0:0:
205,120,250482,2,0,L|279:114,1,75.0000028610231,2|0,3:2|0:0,0:0:0:0:
340,48,250887,5,6,0:0:0:0:
340,48,251292,2,0,P|367:99|339:184,1,150.000005722046,2|0,0:0|0:0,0:0:0:0:
280,115,251901,1,2,0:0:0:0:
322,272,252103,6,0,L|411:265,1,75.0000028610231,10|0,0:0|0:0,0:0:0:0:
291,358,252509,1,2,3:0:0:0:
209,167,252711,1,8,3:0:0:0:
85,334,252914,6,0,L|52:338,1,30,4|0,3:0|0:0,0:0:0:0:
45,337,253319,6,0,L|120:346,1,75.0000028610231,6|2,0:0|0:0,0:0:0:0:
342,370,253725,2,0,B|267:340|270:406|191:374,1,150.000005722046,2|0,0:0|0:0,0:0:0:0:
197,376,254536,5,10,0:0:0:0:
53,209,254941,2,0,L|149:198,1,75.0000028610231,2|0,3:2|0:0,0:0:0:0:
275,185,255346,2,0,L|200:194,1,75.0000028610231,2|0,3:2|0:0,0:0:0:0:
349,138,255752,6,0,P|364:181|357:215,1,75.0000028610231,6|2,0:0|0:0,0:0:0:0:
148,106,256157,2,0,P|213:111|289:64,1,150.000005722046,2|2,0:0|0:0,0:0:0:0:
284,69,256968,5,10,0:0:0:0:
508,195,257374,2,0,L|433:204,1,75.0000028610231,2|0,3:2|0:0,0:0:0:0:
284,221,257779,2,0,L|358:212,1,75.0000028610231,2|0,3:2|0:0,0:0:0:0:
231,290,258184,6,0,L|156:298,1,75.0000028610231,6|2,0:0|0:0,0:0:0:0:
76,239,258590,1,2,0:0:0:0:
91,376,258792,2,0,P|58:312|94:220,1,150.000005722046,8|2,0:0|0:0,0:0:0:0:
76,239,259401,5,10,0:0:0:0:
214,24,259806,2,0,L|223:99,1,75.0000028610231,2|0,3:2|0:0,0:0:0:0:
241,247,260211,2,0,L|232:172,1,75.0000028610231,2|0,3:2|0:0,0:0:0:0:
349,59,260617,5,6,0:0:0:0:
293,129,260819,1,2,0:0:0:0:
343,203,261022,2,0,P|379:210|422:201,2,75.0000028610231,2|8|2,0:0|0:0|0:0,0:0:0:0:
343,203,261833,5,10,0:0:0:0:
69,284,262238,1,0,3:0:0:0:
103,367,262441,1,8,3:0:0:0:
69,284,262644,1,4,3:0:0:0:
139,39,263049,6,0,B|196:46|196:46|226:30|226:30|293:37,1,150.000005722046,6|2,0:0|0:0,0:0:0:0:
398,122,263657,2,0,B|341:115|341:115|311:131|311:131|244:124,1,150.000005722046,2|2,0:0|0:0,0:0:0:0:
284,36,264265,1,10,0:0:0:0:
253,125,264468,1,2,0:0:0:0:
292,208,264671,1,2,3:2:0:0:
301,228,265076,1,2,3:2:0:0:
310,248,265482,6,0,L|392:252,1,75.0000028610231,4|0,0:0|0:0,0:0:0:0:
470,224,265887,1,2,0:0:0:0:
454,317,266090,1,10,0:0:0:0:
388,378,266292,1,2,0:0:0:0:
296,384,266495,1,2,3:2:0:0:
220,337,266698,5,10,0:0:0:0:
296,384,266901,1,2,0:0:0:0:
388,378,267103,2,0,L|476:356,1,75.0000028610231,2|0,3:2|0:0,0:0:0:0:
470,224,267509,2,0,L|382:246,1,75.0000028610231,2|0,3:2|0:0,0:0:0:0:
336,93,267914,6,0,P|330:160|233:208,1,150.000005722046,6|0,0:0|0:0,0:0:0:0:
208,46,268522,2,0,P|166:106|183:178,1,150.000005722046,10|0,0:0|3:2,0:0:0:0:
253,122,269130,1,10,0:0:0:0:
182,176,269333,1,2,0:0:0:0:
201,263,269536,1,2,3:2:0:0:
205,284,269941,1,2,3:2:0:0:
209,305,270346,6,0,L|112:314,1,75.0000028610231,4|0,0:0|0:0,0:0:0:0:
58,362,270752,1,2,0:0:0:0:
123,298,270955,1,10,0:0:0:0:
131,208,271157,1,10,3:0:0:0:
80,134,271360,1,2,3:2:0:0:
0,111,271563,5,10,0:0:0:0:
80,134,271765,1,2,0:0:0:0:
131,208,271968,2,0,L|235:199,1,75.0000028610231,2|8,0:0|3:0,0:0:0:0:
339,117,272374,6,0,L|305:120,1,30,4|0,3:0|0:0,0:0:0:0:
298,121,272779,6,0,P|295:154|308:186,1,59.9999981689454,2|0,0:0|0:0,0:0:0:0:
339,211,273387,2,0,P|347:239|344:269,1,59.9999981689454,2|0,0:0|0:0,0:0:0:0:
314,306,273995,2,0,L|275:315,2,29.9999990844727,2|0|2,0:0|0:0|0:0,0:0:0:0:
459,267,274806,1,2,0:0:0:0:
459,267,275211,5,2,0:0:0:0:
382,137,275617,2,0,L|417:141,1,29.9999990844727,2|0,0:0|0:0,0:0:0:0:
491,77,276022,2,0,L|456:81,1,29.9999990844727,2|0,0:0|0:0,0:0:0:0:
395,44,276428,2,0,P|389:25|388:8,2,29.9999990844727,2|0|2,0:0|0:0|0:0,0:0:0:0:
395,44,277238,1,2,0:0:0:0:
249,81,277644,5,2,0:0:0:0:
26,45,278252,2,0,L|28:15,2,29.9999990844727,0|2|0,0:0|0:0|0:0,0:0:0:0:
28,92,278860,2,0,L|30:122,1,29.9999990844727,2|0,0:0|0:0,0:0:0:0:
57,161,279265,2,0,L|52:234,1,59.9999981689454,2|0,0:0|0:0,0:0:0:0:
154,331,280076,5,2,0:0:0:0:
228,322,280482,1,0,0:0:0:0:
302,313,280887,1,0,0:0:0:0:
376,304,281292,1,2,0:0:0:0:
376,304,282086,1,2,0:0:0:0:
436,166,282484,6,0,L|499:155,2,59.9999981689454,2|0|0,0:0|0:0|0:0,0:0:0:0:
366,206,283728,1,2,0:0:0:0:
330,115,284133,1,2,0:0:0:0:
214,125,284539,1,2,0:0:0:0:
182,278,284964,6,0,L|175:377,1,97.4999970245362,2|0,0:0|0:0,0:0:0:0:
175,375,286500,6,0,P|100:366|64:299,1,156.666666666667,2|0,0:0|0:0,0:0:0:0:
64,292,289868,6,0,B|88:236|136:204|136:204|232:168|284:48|172:-8|120:72|120:72|44:24|-16:84|4:184|136:204|136:204|180:180|256:192|256:192|332:204|376:180|376:180|508:200|528:300|468:360|392:312|392:312|340:392|228:336|280:216|376:180|376:180|424:148|448:92,1,1657.50003591385,2|0,0:0|0:0,0:0:0:0:
