osu file format v14

[General]
AudioFilename: audio.mp3
AudioLeadIn: 0
PreviewTime: 224109
Countdown: 0
SampleSet: Soft
StackLeniency: 0.3
Mode: 0
LetterboxInBreaks: 0
WidescreenStoryboard: 1

[Editor]
DistanceSpacing: 0.8
BeatDivisor: 4
GridSize: 4
TimelineZoom: 3.699999

[Metadata]
Title:Kimi no Gin no Niwa
TitleUnicode:君の銀の庭
Artist:Kalafina
ArtistUnicode:Kalafina
Creator:Bearizm
Version:Mirage
Source:劇場版 魔法少女まどか☆マギカ [新編] 叛逆の物語
Tags:puella magi magical girl gekijouban mahou shoujo madoka magika magica shinpen hangyaku no monogatari rebellion Ending ED Quartet SHAFT 梶浦由記 Kajiura Yuki 虚淵玄 Urobuchi Gen 新房昭之 Shinbo Akiyuki Your Silver Garden
BeatmapID:1831801
BeatmapSetID:876259

[Difficulty]
HPDrainRate:4.6
CircleSize:3.6
OverallDifficulty:8
ApproachRate:9
SliderMultiplier:2.6
SliderTickRate:1

[Events]
//Background and Video events
Video,-1141,"Madohomu.flv"
0,0,"LOVE.jpg",0,0
//Break Periods
//Storyboard Layer 0 (Background)
//Storyboard Layer 1 (Fail)
//Storyboard Layer 2 (Pass)
//Storyboard Layer 3 (Foreground)
//Storyboard Sound Samples

[TimingPoints]
-890,405.405405405405,3,2,1,40,1,0
157,-200,3,2,1,40,0,0
10055,-100,3,2,1,60,0,1
10765,-100,3,2,1,5,0,1
10866,-100,3,2,1,60,0,1
11170,-100,3,2,1,5,0,1
11272,-200,3,2,1,60,0,1
11576,-200,3,2,1,5,0,1
11677,-200,3,2,1,60,0,1
12488,-100,3,2,1,60,0,1
13096,-133.333333333333,3,2,1,60,0,1
15326,-100,3,2,1,60,0,1
15630,-100,3,2,1,5,0,1
15731,-100,3,2,1,60,0,1
16035,-100,3,2,1,5,0,1
16137,-200,3,2,1,60,0,1
16441,-200,3,2,1,5,0,1
16542,-200,3,2,1,60,0,1
17353,-100,3,2,1,60,0,1
18164,-133.333333333333,3,2,1,60,0,1
18468,-133.333333333333,3,2,1,5,0,1
18569,-100,3,2,1,60,0,1
18873,-100,3,2,1,5,0,1
18974,-100,3,2,1,60,0,1
19785,-200,3,2,1,40,0,0
20089,-200,3,2,1,5,0,0
20191,-100,3,2,1,40,0,0
20241,-100,3,2,1,5,0,0
20596,-100,3,2,1,40,0,0
20647,-100,3,2,1,5,0,0
20799,-100,3,2,1,40,0,0
21001,-200,3,2,1,40,0,0
22218,-100,3,2,1,40,0,0
22623,-100,3,2,1,40,0,0
22674,-100,3,2,1,5,0,0
23028,-100,3,2,1,40,0,0
23079,-100,3,2,1,5,0,0
23231,-100,3,2,1,40,0,0
23738,-100,3,2,1,5,0,0
23839,-133.333333333333,3,2,1,40,0,0
24143,-133.333333333333,3,2,1,5,0,0
24245,-133.333333333333,3,2,1,40,0,0
24549,-133.333333333333,3,2,1,5,0,0
24650,-133.333333333333,3,2,1,40,0,0
27488,-100,3,2,1,40,0,0
27539,-100,3,2,1,5,0,0
27893,-100,3,2,1,40,0,0
27944,-100,3,2,1,5,0,0
28299,-100,3,2,1,40,0,0
29109,-400,3,2,1,40,0,0
29414,-400,3,2,1,5,0,0
29515,-100,3,2,1,40,0,0
29566,-100,3,2,1,5,0,0
29718,-100,3,2,1,40,0,0
31035,-100,3,2,1,5,0,0
31137,-133.333333333333,3,2,1,40,0,0
31441,-133.333333333333,3,2,1,5,0,0
31542,-200,3,2,1,40,0,0
31846,-200,3,2,1,5,0,0
31947,-100,3,2,1,40,0,0
33164,-200,3,2,1,40,0,0
33468,-200,3,2,1,5,0,0
33569,-200,3,2,1,40,0,0
37218,-100,3,2,1,40,0,0
37268,-100,3,2,1,5,0,0
37623,-100,3,2,1,40,0,0
37674,-100,3,2,1,5,0,0
38028,-200,3,2,1,40,0,0
38332,-200,3,2,1,5,0,0
38434,-100,3,2,1,40,0,0
38738,-100,3,2,1,5,0,0
38839,-80,3,2,1,40,0,0
38941,-80,3,2,1,5,0,0
39042,-66.6666666666667,3,2,1,40,0,0
39245,-133.333333333333,3,2,1,50,0,0
40664,-133.333333333333,3,2,1,5,0,0
40866,-200,3,2,1,50,0,0
41677,-133.333333333333,3,2,1,50,0,0
41981,-133.333333333333,3,2,1,5,0,0
42082,-100,3,2,1,50,0,0
42893,-400,3,2,1,50,0,0
44109,-133.333333333333,3,2,1,50,0,0
44920,-200,3,2,1,50,0,0
45326,-133.333333333333,3,2,1,50,0,0
45731,-200,3,2,1,50,0,0
46542,-100,3,2,1,50,0,0
46846,-100,3,2,1,5,0,0
46947,-80,3,2,1,50,0,0
47758,-166.666666666667,3,2,1,50,0,0
48974,-80,3,2,1,50,0,0
49278,-80,3,2,1,5,0,0
49380,-400,3,2,1,50,0,0
50191,-1000,3,2,1,50,0,0
51407,-80,3,2,1,50,0,0
51711,-80,3,2,1,5,0,0
51812,-400,3,2,1,50,0,0
52623,-166.666666666667,3,2,1,50,0,0
52927,-166.666666666667,3,2,1,5,0,0
53028,-250,3,2,1,50,0,0
53332,-250,3,2,1,5,0,0
53434,-500,3,2,1,50,0,0
53839,-200,3,2,1,50,0,0
54143,-200,3,2,1,5,0,0
54245,-166.666666666667,3,2,1,50,0,0
54549,-166.666666666667,3,2,1,5,0,0
54650,-142.857142857143,3,2,1,50,0,0
54954,-142.857142857143,3,2,1,5,0,0
55055,-125,3,2,1,55,0,0
55359,-125,3,2,1,5,0,0
55461,-111.111111111111,3,2,1,55,0,0
55765,-111.111111111111,3,2,1,5,0,0
55866,-200,3,2,1,55,0,0
56170,-200,3,2,1,5,0,0
56272,-500,3,2,1,60,0,0
57488,-1000,3,2,1,65,0,0
58704,-200,3,2,1,70,0,0
59312,-200,3,2,1,5,0,0
59515,-200,3,2,1,40,0,0
59920,-133.333333333333,3,2,1,50,0,0
60224,-133.333333333333,3,2,1,5,0,0
60326,-100,3,2,1,60,0,0
60630,-100,3,2,1,5,0,0
60731,-80,3,2,1,70,0,0
61035,-80,3,2,1,5,0,0
61137,-100,3,2,1,70,0,0
62657,-100,3,2,1,5,0,0
62758,-80,3,2,1,70,0,0
63164,-400,3,2,1,70,0,0
63468,-400,3,2,1,5,0,0
63569,-100,3,2,1,70,0,1
64177,-200,3,2,1,70,0,1
64785,-100,3,2,1,70,0,1
66001,-133.333333333333,3,2,1,70,0,1
66609,-100,3,2,1,70,0,1
67218,-200,3,2,1,70,0,1
68028,-400,3,2,1,70,0,1
68434,-100,3,2,1,70,0,1
69650,-133.333333333333,3,2,1,70,0,1
70055,-333.333333333333,3,2,1,70,0,1
71272,-133.333333333333,3,2,1,70,0,1
71677,-166.666666666667,3,2,1,70,0,1
72082,-80,3,2,1,70,0,1
72387,-80,3,2,1,5,0,1
72488,-80,3,2,1,70,0,1
72589,-80,3,2,1,5,0,1
72691,-80,3,2,1,70,0,1
72792,-80,3,2,1,5,0,1
72893,-400,3,2,1,70,0,1
73197,-400,3,2,1,5,0,1
73299,-100,3,2,1,70,0,1
73907,-200,3,2,1,70,0,1
74211,-100,3,2,1,5,0,1
74312,-100,3,2,1,70,0,1
75731,-133.333333333333,3,2,1,70,0,1
76339,-100,3,2,1,70,0,1
76643,-100,3,2,1,5,0,1
76745,-100,3,2,1,70,0,1
77758,-400,3,2,1,70,0,1
78164,-100,3,2,1,70,0,1
78772,-200,3,2,1,70,0,1
79380,-100,3,2,1,70,0,1
79785,-80,3,2,1,70,0,1
80089,-80,3,2,1,5,0,1
80191,-200,3,2,1,70,0,1
80495,-200,3,2,1,5,0,1
80596,-100,3,2,1,70,0,1
81204,-200,3,2,1,70,0,1
81812,-100,3,2,1,70,0,1
82116,-100,3,2,1,5,0,1
82218,-133.333333333333,3,2,1,70,0,1
83028,-100,3,2,1,70,0,1
84245,-133.333333333333,3,2,1,70,0,1
84549,-133.333333333333,3,2,1,5,0,1
84650,-133.333333333333,3,2,1,70,0,1
84954,-133.333333333333,3,2,1,5,0,1
85055,-80,3,2,1,70,0,1
85157,-80,3,2,1,5,0,1
85258,-66.6666666666667,3,2,1,70,0,1
85359,-66.6666666666667,3,2,1,5,0,1
85461,-100,3,2,1,70,0,1
85765,-100,3,2,1,5,0,1
85866,-100,3,2,1,70,0,1
86981,-100,3,2,1,5,0,1
87082,-66.6666666666667,3,2,1,70,0,1
87133,-66.6666666666667,3,2,1,5,0,1
87285,-66.6666666666667,3,2,1,70,0,1
87336,-66.6666666666667,3,2,1,5,0,1
87488,-400,3,2,1,70,0,1
87792,-400,3,2,1,5,0,0
87893,-80,3,2,1,70,0,1
87995,-80,3,2,1,70,0,0
88501,-133.333333333333,3,2,1,70,0,0
88805,-133.333333333333,3,2,1,5,0,0
88907,-133.333333333333,3,2,1,70,0,0
89109,-80,3,2,1,70,0,0
89414,-80,3,2,1,5,0,0
89515,-100,3,2,1,70,0,0
89819,-100,3,2,1,5,0,0
89920,-133.333333333333,3,2,1,70,0,0
90224,-133.333333333333,3,2,1,5,0,0
90326,-80,3,2,1,70,0,0
90934,-133.333333333333,3,2,1,70,0,0
91542,-80,3,2,1,70,0,0
91846,-80,3,2,1,5,0,0
91947,-100,3,2,1,70,0,0
92251,-100,3,2,1,5,0,0
92353,-133.333333333333,3,2,1,70,0,0
92657,-133.333333333333,3,2,1,5,0,0
92758,-80,3,2,1,70,0,0
93366,-133.333333333333,3,2,1,70,0,0
93670,-133.333333333333,3,2,1,5,0,0
93772,-133.333333333333,3,2,1,70,0,0
93974,-80,3,2,1,70,0,0
94278,-80,3,2,1,5,0,0
94380,-100,3,2,1,70,0,0
94684,-100,3,2,1,5,0,0
94785,-133.333333333333,3,2,1,70,0,0
95089,-133.333333333333,3,2,1,5,0,0
95191,-100,3,2,1,70,0,0
95799,-133.333333333333,3,2,1,70,0,0
96407,-200,3,2,1,70,0,0
97218,-200,3,2,1,40,0,0
97623,-80,3,2,1,70,0,0
98231,-133.333333333333,3,2,1,70,0,0
98535,-133.333333333333,3,2,1,5,0,0
98637,-133.333333333333,3,2,1,70,0,0
98839,-80,3,2,1,70,0,0
99143,-80,3,2,1,5,0,0
99245,-100,3,2,1,70,0,0
99549,-100,3,2,1,5,0,0
99650,-133.333333333333,3,2,1,70,0,0
99954,-133.333333333333,3,2,1,5,0,0
100055,-100,3,2,1,70,0,0
100866,-133.333333333333,3,2,1,70,0,0
101272,-80,3,2,1,70,0,0
102082,-400,3,2,1,70,0,0
102387,-400,3,2,1,5,0,0
102488,-80,3,2,1,70,0,0
103096,-133.333333333333,3,2,1,70,0,0
103400,-133.333333333333,3,2,1,5,0,0
103501,-133.333333333333,3,2,1,70,0,0
103704,-80,3,2,1,70,0,0
104008,-80,3,2,1,5,0,0
104109,-100,3,2,1,70,0,0
104414,-100,3,2,1,5,0,0
104515,-133.333333333333,3,2,1,70,0,0
104819,-133.333333333333,3,2,1,5,0,0
104920,-100,3,2,1,70,0,0
106137,-133.333333333333,3,2,1,70,0,0
107353,-100,3,2,1,40,0,0
107809,-100,3,2,1,5,0,0
108164,-100,3,2,1,40,0,0
108214,-100,3,2,1,5,0,0
108366,-100,3,2,1,40,0,0
108569,-200,3,2,1,40,0,0
109785,-100,3,2,1,40,0,0
110241,-100,3,2,1,5,0,0
110596,-100,3,2,1,40,0,0
110647,-100,3,2,1,5,0,0
110799,-100,3,2,1,40,0,0
111305,-100,3,2,1,5,0,0
111407,-133.333333333333,3,2,1,40,0,0
111711,-133.333333333333,3,2,1,5,0,0
111812,-133.333333333333,3,2,1,40,0,0
112116,-133.333333333333,3,2,1,5,0,0
112218,-100,3,2,1,40,0,0
115106,-100,3,2,1,5,0,0
115461,-100,3,2,1,40,0,0
115512,-100,3,2,1,5,0,0
115866,-100,3,2,1,40,0,0
116677,-400,3,2,1,40,0,0
116981,-400,3,2,1,5,0,0
117082,-100,3,2,1,40,0,0
117133,-100,3,2,1,5,0,0
117285,-100,3,2,1,40,0,0
117539,-100,3,2,1,5,0,0
117893,-100,3,2,1,40,0,0
117944,-100,3,2,1,5,0,0
118096,-100,3,2,1,40,0,0
118603,-100,3,2,1,5,0,0
118704,-133.333333333333,3,2,1,40,0,0
119008,-133.333333333333,3,2,1,5,0,0
119109,-200,3,2,1,40,0,0
119414,-200,3,2,1,5,0,0
119515,-100,3,2,1,40,0,0
119971,-100,3,2,1,5,0,0
120326,-100,3,2,1,40,0,0
120376,-100,3,2,1,5,0,0
120528,-100,3,2,1,40,0,0
121035,-100,3,2,1,5,0,0
121137,-133.333333333333,3,2,1,40,0,0
121441,-133.333333333333,3,2,1,5,0,0
121542,-200,3,2,1,40,0,0
121846,-200,3,2,1,5,0,0
121947,-100,3,2,1,40,0,0
124785,-100,3,2,1,40,0,0
124836,-100,3,2,1,5,0,0
125191,-100,3,2,1,40,0,0
125241,-100,3,2,1,5,0,0
125596,-400,3,2,1,40,0,0
126812,-133.333333333333,3,2,1,50,0,0
128434,-200,3,2,1,50,0,0
129245,-133.333333333333,3,2,1,50,0,0
129549,-133.333333333333,3,2,1,5,0,0
129650,-200,3,2,1,50,0,0
130461,-133.333333333333,3,2,1,50,0,0
130765,-133.333333333333,3,2,1,5,0,0
130866,-80,3,2,1,50,0,0
131170,-80,3,2,1,5,0,0
131272,-200,3,2,1,50,0,0
131576,-200,3,2,1,5,0,0
131677,-133.333333333333,3,2,1,50,0,0
132488,-158.730158730159,3,2,1,50,0,0
132893,-200,3,2,1,50,0,0
133299,-303.030303030303,3,2,1,50,0,0
134109,-133.333333333333,3,2,1,50,0,0
134515,-100,3,2,1,50,0,0
135326,-80,3,2,1,50,0,0
135630,-80,3,2,1,5,0,0
135731,-100,3,2,1,50,0,0
136035,-100,3,2,1,5,0,0
136137,-200,3,2,1,50,0,0
136441,-200,3,2,1,5,0,0
136542,-80,3,2,1,50,0,0
136846,-80,3,2,1,5,0,0
136947,-200,3,2,1,50,0,0
137758,-100,3,2,1,50,0,0
138062,-100,3,2,1,5,0,0
138164,-133.333333333333,3,2,1,50,0,0
138468,-133.333333333333,3,2,1,5,0,0
138569,-200,3,2,1,50,0,0
138873,-200,3,2,1,5,0,0
138974,-100,3,2,1,50,0,0
139278,-100,3,2,1,5,0,0
139380,-400,3,2,1,50,0,0
140191,-133.333333333333,3,2,1,50,0,0
140495,-133.333333333333,3,2,1,5,0,0
140596,-200,3,2,1,50,0,0
140900,-200,3,2,1,5,0,0
141001,-400,3,2,1,50,0,0
141305,-400,3,2,1,5,0,0
141407,-166.666666666667,3,2,1,50,0,0
141711,-166.666666666667,3,2,1,5,0,0
141812,-142.857142857143,3,2,1,50,0,0
142116,-142.857142857143,3,2,1,5,0,0
142218,-125,3,2,1,50,0,0
142623,-111.111111111111,3,2,1,55,0,0
142927,-111.111111111111,3,2,1,5,0,0
143028,-100,3,2,1,55,0,0
143332,-100,3,2,1,5,0,0
143434,-166.666666666667,3,2,1,55,0,0
143738,-166.666666666667,3,2,1,5,0,0
143839,-500,3,2,1,60,0,0
145055,-200,3,2,1,65,0,0
146272,-400,3,2,1,70,0,0
146576,-400,3,2,1,5,0,0
146677,-263.157894736842,3,2,1,40,0,0
146981,-263.157894736842,3,2,1,5,0,0
147082,-200,3,2,1,45,0,0
147387,-200,3,2,1,5,0,0
147488,-133.333333333333,3,2,1,50,0,0
147792,-133.333333333333,3,2,1,5,0,0
147893,-100,3,2,1,60,0,0
148197,-100,3,2,1,5,0,0
148299,-80,3,2,1,70,0,0
148603,-80,3,2,1,5,0,0
148704,-100,3,2,1,70,0,0
150326,-80,3,2,1,70,0,0
150731,-400,3,2,1,70,0,0
151035,-400,3,2,1,5,0,0
151137,-100,3,2,1,70,0,1
151745,-200,3,2,1,70,0,1
152353,-100,3,2,1,70,0,1
152758,-133.333333333333,3,2,1,70,0,1
153164,-200,3,2,1,70,0,1
153569,-100,3,2,1,70,0,1
155191,-200,3,2,1,70,0,1
156001,-100,3,2,1,70,0,1
157218,-133.333333333333,3,2,1,70,0,1
157623,-100,3,2,1,70,0,1
158028,-200,3,2,1,70,0,1
158434,-133.333333333333,3,2,1,70,0,1
159245,-200,3,2,1,70,0,1
159650,-80,3,2,1,70,0,1
159751,-80,3,2,1,5,0,1
159853,-80,3,2,1,70,0,1
159954,-80,3,2,1,5,0,1
160055,-100,3,2,1,70,0,1
160461,-400,3,2,1,70,0,1
160765,-400,3,2,1,5,0,1
160866,-100,3,2,1,70,0,1
161677,-90.9090909090909,3,2,1,70,0,1
162082,-83.3333333333333,3,2,1,70,0,1
162387,-83.3333333333333,3,2,1,5,0,1
162488,-100,3,2,1,70,0,1
163197,-100,3,2,1,5,0,1
163299,-76.9230769230769,3,2,1,70,0,1
163400,-76.9230769230769,3,2,1,5,0,1
163501,-83.3333333333333,3,2,1,65,0,1
163603,-83.3333333333333,3,2,1,5,0,1
163704,-90.9090909090909,3,2,1,60,0,1
163805,-90.9090909090909,3,2,1,5,0,1
163907,-100,3,2,1,55,0,1
164008,-100,3,2,1,5,0,1
164109,-200,3,2,1,70,0,1
164515,-100,3,2,1,70,0,1
164819,-100,3,2,1,5,0,1
164920,-100,3,2,1,70,0,1
165326,-400,3,2,1,70,0,1
165630,-400,3,2,1,5,0,1
165731,-133.333333333333,3,2,1,70,0,1
166035,-133.333333333333,3,2,1,5,0,1
166137,-100,3,2,1,70,0,1
166947,-133.333333333333,3,2,1,70,0,1
167251,-133.333333333333,3,2,1,5,0,1
167353,-100,3,2,1,70,0,1
167657,-100,3,2,1,5,0,1
167758,-80,3,2,1,70,0,1
168062,-80,3,2,1,5,0,1
168164,-133.333333333333,3,2,1,70,0,1
169380,-100,3,2,1,70,0,1
169684,-100,3,2,1,5,0,1
169785,-133.333333333333,3,2,1,70,0,1
170191,-113.636363636364,3,2,1,70,0,1
170596,-100,3,2,1,70,0,1
170900,-100,3,2,1,5,0,1
171001,-100,3,2,1,70,0,1
171508,-100,3,2,1,5,0,1
171609,-100,3,2,1,70,0,1
171812,-88.4955752212389,3,2,1,70,0,1
172116,-88.4955752212389,3,2,1,5,0,1
172218,-80,3,2,1,70,0,1
172623,-72.463768115942,3,2,1,70,0,1
172927,-72.463768115942,3,2,1,5,0,1
173028,-66.6666666666667,3,2,1,70,0,1
173332,-66.6666666666667,3,2,1,5,0,1
173434,-100,3,2,1,70,0,1
173637,-100,3,2,1,70,0,1
174245,-133.333333333333,3,2,1,70,0,1
174650,-200,3,2,1,70,0,1
175461,-250,3,2,1,70,0,0
175866,-250,3,2,1,50,0,0
179920,-400,3,2,1,60,0,0
180224,-400,3,2,1,5,0,0
180326,-133.333333333333,3,2,1,70,0,0
183164,-158.730158730159,3,2,1,70,0,0
183569,-200,3,2,1,70,0,0
183974,-133.333333333333,3,2,1,70,0,0
185191,-250,3,2,1,70,0,0
185596,-250,3,2,1,50,0,0
189245,-250,3,2,1,60,0,0
189549,-250,3,2,1,5,0,0
189650,-400,3,2,1,60,0,0
189954,-400,3,2,1,5,0,0
190055,-133.333333333333,3,2,1,70,0,0
194515,-400,3,2,1,70,0,0
194819,-400,3,2,1,5,0,0
194920,-120.481927710843,3,2,1,70,0,0
195528,-400,3,2,1,70,0,0
196137,-120.481927710843,3,2,1,70,0,0
196846,-120.481927710843,3,2,1,5,0,0
196947,-100,3,2,1,70,0,0
197251,-100,3,2,1,5,0,0
197353,-200,3,2,1,70,0,0
197657,-200,3,2,1,5,0,0
197758,-166.666666666667,3,2,1,70,0,0
198164,-142.857142857143,3,2,1,70,0,0
198569,-125,3,2,1,70,0,0
198974,-111.111111111111,3,2,1,70,0,0
199380,-100,3,2,1,70,0,0
199481,-100,3,2,1,5,0,0
199582,-100,3,2,1,70,0,0
199684,-100,3,2,1,5,0,0
199785,-80,3,2,1,70,0,1
199887,-80,3,2,1,70,0,0
200089,-80,3,2,1,5,0,0
200191,-133.333333333333,3,2,1,70,0,0
201305,-133.333333333333,3,2,1,5,0,0
201407,-133.333333333333,3,2,1,70,0,0
201812,-400,3,2,1,70,0,0
202116,-400,3,2,1,5,0,0
202218,-100,3,2,1,70,0,0
203003,-133.333333333333,3,2,1,70,0,0
209109,-400,3,2,1,70,0,0
209414,-400,3,2,1,5,0,0
209515,-80,3,2,1,80,0,1
209819,-80,3,2,1,5,0,1
209920,-80,3,2,1,80,0,1
210427,-80,3,2,1,5,0,1
210528,-80,3,2,1,80,0,1
211137,-200,3,2,1,80,0,1
211441,-200,3,2,1,5,0,1
211542,-133.333333333333,3,2,1,80,0,1
211846,-133.333333333333,3,2,1,5,0,1
211947,-133.333333333333,3,2,1,80,0,1
212353,-80,3,2,1,80,0,1
212454,-80,3,2,1,5,0,1
212555,-80,3,2,1,80,0,1
212657,-80,3,2,1,5,0,1
212758,-80,3,2,1,80,0,1
212859,-80,3,2,1,5,0,1
212961,-80,3,2,1,80,0,1
213062,-80,3,2,1,5,0,1
213164,-80,3,2,1,80,0,1
213265,-80,3,2,1,5,0,1
213366,-80,3,2,1,80,0,1
213468,-80,3,2,1,5,0,1
213569,-80,3,2,1,80,0,1
214684,-80,3,2,1,5,0,1
214785,-80,3,2,1,80,0,1
215292,-80,3,2,1,5,0,1
215393,-80,3,2,1,80,0,1
216001,-200,3,2,1,80,0,1
216305,-200,3,2,1,5,0,1
216407,-133.333333333333,3,2,1,80,0,1
216711,-133.333333333333,3,2,1,5,0,1
216812,-133.333333333333,3,2,1,80,0,1
217218,-80,3,2,1,80,0,1
217319,-80,3,2,1,5,0,1
217420,-80,3,2,1,80,0,1
217522,-80,3,2,1,5,0,1
217623,-80,3,2,1,80,0,1
217724,-80,3,2,1,5,0,1
217826,-80,3,2,1,80,0,1
217927,-80,3,2,1,5,0,1
218028,-80,3,2,1,80,0,1
218130,-80,3,2,1,5,0,1
218231,-80,3,2,1,80,0,1
218332,-80,3,2,1,5,0,1
218434,-80,3,2,1,80,0,1
219245,-133.333333333333,3,2,1,80,0,0
219346,-133.333333333333,3,2,1,60,0,0
220461,-113.636363636364,3,2,1,65,0,0
220765,-113.636363636364,3,2,1,5,0,0
220866,-113.636363636364,3,2,1,65,0,0
221170,-113.636363636364,3,2,1,5,0,0
221272,-113.636363636364,3,2,1,65,0,0
221576,-113.636363636364,3,2,1,5,0,0
221677,-100,3,2,1,70,0,0
221981,-100,3,2,1,5,0,0
222082,-100,3,2,1,70,0,0
222387,-100,3,2,1,5,0,0
222488,-100,3,2,1,70,0,0
222893,-88.4955752212389,3,2,1,75,0,0
223197,-88.4955752212389,3,2,1,5,0,0
223299,-80,3,2,1,75,0,0
223400,-80,3,2,1,5,0,0
223501,-80,3,2,1,75,0,0
223603,-80,3,2,1,5,0,0
223704,-400,3,2,1,75,0,0
224008,-400,3,2,1,5,0,0
224109,-100,3,2,1,70,0,1
224718,-200,3,2,1,70,0,1
225326,-100,3,2,1,70,0,1
226542,-133.333333333333,3,2,1,70,0,1
226846,-133.333333333333,3,2,1,5,0,1
226947,-133.333333333333,3,2,1,70,0,1
228164,-100,3,2,1,70,0,1
229582,-133.333333333333,3,2,1,70,0,1
230596,-400,3,2,1,70,0,1
231204,-100,3,2,1,70,0,1
232015,-133.333333333333,3,2,1,70,0,1
232623,-100,3,2,1,70,0,1
233028,-133.333333333333,3,2,1,70,0,1
233434,-400,3,2,1,70,0,1
233738,-400,3,2,1,5,0,1
233839,-100,3,2,1,70,0,1
234447,-200,3,2,1,70,0,1
234751,-200,3,2,1,5,0,1
234853,-200,3,2,1,70,0,1
235055,-100,3,2,1,70,0,1
236272,-76.9230769230769,3,2,1,70,0,1
236373,-76.9230769230769,3,2,1,5,0,1
236474,-83.3333333333333,3,2,1,70,0,1
236576,-83.3333333333333,3,2,1,5,0,1
236677,-90.9090909090909,3,2,1,70,0,1
236778,-90.9090909090909,3,2,1,5,0,1
236880,-100,3,2,1,70,0,1
236981,-100,3,2,1,5,0,1
237082,-200,3,2,1,70,0,1
237488,-100,3,2,1,70,0,1
238299,-400,3,2,1,70,0,1
238704,-100,3,2,1,70,0,1
239109,-80,3,2,1,70,0,1
239920,-100,3,2,1,70,0,1
240731,-133.333333333333,3,2,1,70,0,1
241137,-250,3,2,1,70,0,1
241745,-133.333333333333,3,2,1,70,0,1
242353,-100,3,2,1,70,0,1
242657,-100,3,2,1,5,0,1
242758,-100,3,2,1,70,0,1
243569,-100,3,2,1,70,0,1
243873,-100,3,2,1,5,0,1
243974,-100,3,2,1,70,0,1
244785,-133.333333333333,3,2,1,70,0,1
245089,-133.333333333333,3,2,1,5,0,1
245191,-133.333333333333,3,2,1,70,0,1
245495,-133.333333333333,3,2,1,5,0,1
245596,-133.333333333333,3,2,1,70,0,1
249650,-113.636363636364,3,2,1,70,0,1
250055,-100,3,2,1,70,0,1
250461,-88.4955752212389,3,2,1,70,0,1
250562,-88.4955752212389,3,2,1,5,0,1
250664,-80,3,2,1,70,0,1
250765,-80,3,2,1,5,0,1
250866,-66.6666666666667,3,2,1,70,0,1
251170,-66.6666666666667,3,2,1,5,0,1
251272,-133.333333333333,3,2,1,70,0,1
252082,-100,3,2,1,70,0,1
252387,-100,3,2,1,5,0,1
252488,-66.6666666666667,3,2,1,70,0,1
252539,-66.6666666666667,3,2,1,5,0,1
252691,-66.6666666666667,3,2,1,70,0,1
252741,-66.6666666666667,3,2,1,5,0,1
252893,-400,3,2,1,70,0,1
253197,-400,3,2,1,70,0,0
253299,-80,3,2,1,75,0,1
253400,-80,3,2,1,75,0,0
253907,-133.333333333333,3,2,1,75,0,0
254211,-133.333333333333,3,2,1,5,0,0
254312,-133.333333333333,3,2,1,75,0,0
254515,-80,3,2,1,75,0,0
254819,-80,3,2,1,5,0,0
254920,-100,3,2,1,75,0,0
255224,-100,3,2,1,5,0,0
255326,-133.333333333333,3,2,1,75,0,0
255630,-133.333333333333,3,2,1,5,0,0
255731,-80,3,2,1,75,0,0
256339,-133.333333333333,3,2,1,75,0,0
256947,-80,3,2,1,75,0,0
257251,-80,3,2,1,5,0,0
257353,-100,3,2,1,75,0,0
257657,-100,3,2,1,5,0,0
257758,-133.333333333333,3,2,1,75,0,0
258062,-133.333333333333,3,2,1,5,0,0
258164,-80,3,2,1,75,0,0
258772,-133.333333333333,3,2,1,75,0,0
259076,-133.333333333333,3,2,1,5,0,0
259177,-133.333333333333,3,2,1,75,0,0
259380,-80,3,2,1,75,0,0
259684,-80,3,2,1,5,0,0
259785,-100,3,2,1,75,0,0
260089,-100,3,2,1,5,0,0
260191,-133.333333333333,3,2,1,75,0,0
260495,-133.333333333333,3,2,1,5,0,0
260596,-100,3,2,1,75,0,0
261179,-133.333333333333,3,2,1,75,0,0
261812,-200,3,2,1,75,0,0
262116,-200,3,2,1,5,0,0
262218,-66.6666666666667,3,2,1,75,0,0
262268,-66.6666666666667,3,2,1,5,0,0
262420,-66.6666666666667,3,2,1,75,0,0
262471,-66.6666666666667,3,2,1,5,0,0
262623,-400,3,2,1,75,0,0
262927,-66.6666666666667,3,2,1,5,0,0
263028,-80,3,2,1,85,0,1
263130,-80,3,2,1,5,0,1
263231,-80,3,2,1,85,0,1
263332,-80,3,2,1,5,0,1
263434,-80,3,2,1,85,0,1
263941,-80,3,2,1,5,0,1
264042,-80,3,2,1,85,0,1
264650,-200,3,2,1,85,0,1
264954,-200,3,2,1,5,0,1
265055,-133.333333333333,3,2,1,85,0,1
265359,-133.333333333333,3,2,1,5,0,1
265461,-100,3,2,1,85,0,1
265866,-80,3,2,1,85,0,1
265968,-80,3,2,1,5,0,1
266069,-80,3,2,1,85,0,1
266170,-80,3,2,1,5,0,1
266272,-80,3,2,1,85,0,1
266373,-80,3,2,1,5,0,1
266474,-80,3,2,1,85,0,1
266576,-80,3,2,1,5,0,1
266677,-80,3,2,1,85,0,1
266778,-80,3,2,1,5,0,1
266880,-80,3,2,1,85,0,1
266981,-80,3,2,1,5,0,1
267082,-133.333333333333,3,2,1,85,0,1
267387,-133.333333333333,3,2,1,5,0,1
267488,-200,3,2,1,85,0,1
267792,-200,3,2,1,5,0,1
267893,-80,3,2,1,85,0,1
268197,-80,3,2,1,5,0,1
268299,-80,3,2,1,85,0,1
268805,-80,3,2,1,5,0,1
268907,-80,3,2,1,85,0,1
269515,-200,3,2,1,85,0,1
269819,-200,3,2,1,5,0,1
269920,-133.333333333333,3,2,1,85,0,1
270224,-133.333333333333,3,2,1,5,0,1
270326,-100,3,2,1,85,0,1
270731,-80,3,2,1,85,0,1
270832,-80,3,2,1,5,0,1
270934,-80,3,2,1,85,0,1
271035,-80,3,2,1,5,0,1
271137,-80,3,2,1,85,0,1
271238,-80,3,2,1,5,0,1
271339,-80,3,2,1,85,0,1
271441,-80,3,2,1,5,0,1
271542,-80,3,2,1,85,0,1
271643,-80,3,2,1,5,0,1
271745,-80,3,2,1,85,0,1
271846,-80,3,2,1,5,0,1
271947,-80,3,2,1,85,0,1
272049,-80,3,2,1,5,0,1
272150,-80,3,2,1,85,0,1
272251,-80,3,2,1,5,0,1
272353,-166.666666666667,3,2,1,85,0,1
272623,-200,3,2,1,50,0,1
272792,-200,3,2,1,50,0,0
281271,397.350993377483,3,2,1,50,1,0
281271,-200,3,2,1,50,0,0
282463,419.58041958042,3,2,1,50,1,0
282463,-200,3,2,1,50,0,0
283302,405.405405405405,3,2,1,50,1,0
283707,405.405405405405,3,2,1,40,1,0
283707,-100,3,2,1,40,0,0
284112,-100,3,2,1,35,0,0
284518,425.531914893617,3,2,1,30,1,0
284943,434.782608695652,3,2,1,30,1,0
284943,-666.666666666667,3,2,1,30,0,0
285024,-666.666666666667,3,2,1,20,0,0
286247,465.116279069767,3,2,1,20,1,0
286247,-400,3,2,1,20,0,0
286479,555.555555555556,3,2,1,15,1,0
286479,-1000,3,2,1,15,0,0
289812,-1000,3,2,1,25,0,0
289847,697.674418604651,3,2,1,10,1,0
290195,582.52427184466,3,2,1,10,1,0
290486,512.820512820513,3,2,1,10,1,0
290998,631.578947368421,3,2,1,10,1,0
291313,681.818181818182,3,2,1,10,1,0
291653,750,3,2,1,10,1,0
292028,810.810810810811,3,2,1,10,1,0
292838,821.917808219178,3,2,1,10,1,0
294481,705.882352941176,3,2,1,10,1,0
294833,923.076923076923,3,2,1,10,1,0
295063,810.810810810811,3,2,1,10,1,0
300738,-100,3,2,1,5,0,0

[Colours]
Combo1 : 143,132,190
Combo2 : 192,192,192
Combo3 : 128,128,128
Combo4 : 255,85,85
Combo5 : 255,128,128
Combo6 : 93,87,135

[HitObjects]
152,193,157,6,0,L|148:171,1,21.6666666666667
132,90,326,5,2,0:0:0:0:
177,11,528,1,0,0:0:0:0:
267,0,731,1,0,0:0:0:0:
346,42,1137,1,2,0:0:0:0:
375,134,1407,1,0,0:0:0:0:
375,134,1474,1,0,0:0:0:0:
375,134,1542,2,0,P|365:198|358:266,1,130,2|0,0:0|0:0,0:0:0:0:
422,327,2150,1,2,0:0:0:0:
508,298,2353,1,0,0:0:0:0:
3,234,2631,69,0,0:0:0:0:
0,213,2758,2,0,L|-2:187,1,16.25,2|0,0:0|0:0,0:0:0:0:
101,192,2961,1,2,0:0:0:0:
153,380,3163,1,0,0:0:0:0:
153,380,3569,2,0,L|217:374,1,65,2|0,0:0|0:0,0:0:0:0:
243,372,3839,2,0,L|276:370,1,21.6666666666667,2|0,0:0|0:0,0:0:0:0:
345,363,3974,5,2,0:0:0:0:
225,272,4177,1,2,0:0:0:0:
463,215,4380,1,2,0:0:0:0:
462,227,4582,1,2,0:0:0:0:
461,240,4785,1,0,0:0:0:0:
201,73,4988,69,0,0:0:0:0:
202,85,5089,1,0,0:0:0:0:
203,98,5190,1,2,0:0:0:0:
112,92,5393,1,0,0:0:0:0:
21,86,5596,1,0,0:0:0:0:
72,11,6001,1,2,0:0:0:0:
277,350,6272,5,0,0:0:0:0:
277,350,6339,1,0,0:0:0:0:
277,350,6407,2,0,P|340:340|407:332,1,130,2|0,0:0|0:0,0:0:0:0:
205,278,7015,1,2,0:0:0:0:
205,278,7218,2,0,P|153:269|97:261,1,108.333333333333
98,261,7623,69,2,0:0:0:0:
81,171,7826,1,2,0:0:0:0:
98,261,8028,5,0,0:0:0:0:
65,81,8434,1,2,0:0:0:0:
235,139,8637,1,0,0:0:0:0:
235,139,8772,1,2,0:0:0:0:
235,139,8839,70,0,P|240:72|248:10,1,130,4|2,3:0|0:0,0:0:0:0:
248,9,9447,1,4,3:0:0:0:
343,216,9650,5,10,3:0:0:0:
432,197,9853,1,0,0:0:0:0:
107,311,10055,5,6,3:2:0:0:
107,311,10258,1,2,0:0:0:0:
106,310,10461,2,0,P|30:258|42:166,1,195,2|0,0:0|0:0,0:0:0:0:
71,267,10866,2,0,P|159:291|224:225,1,195,2|0,0:0|0:0,0:0:0:0:
142,108,11272,2,0,P|135:156|133:205,1,97.5,8|0,1:2|0:0,0:0:0:0:
26,36,11677,2,0,B|41:100|42:180,1,130,2|0,0:0|3:0,0:0:0:0:
41,164,12285,1,0,0:0:0:0:
458,37,12488,21,2,3:2:0:0:
366,6,12691,1,2,0:0:0:0:
458,37,12893,1,2,0:0:0:0:
315,168,13096,2,0,P|358:146|408:149,1,97.50000371933,0|2,1:0|0:0,0:0:0:0:
406,148,13501,1,0,3:0:0:0:
417,384,13704,1,10,1:2:0:0:
323,330,13907,1,2,0:0:0:0:
377,237,14109,1,2,0:0:0:0:
469,291,14312,1,2,0:0:0:0:
396,310,14515,1,2,3:2:0:0:
99,377,14768,53,0,0:0:0:0:
99,377,14844,1,0,0:0:0:0:
99,377,14920,1,2,3:2:0:0:
7,347,15123,1,2,0:0:0:0:
197,264,15326,2,0,P|207:193|229:66,1,195,2|0,0:0|0:0,0:0:0:0:
66,0,15731,2,0,P|82:96|96:192,1,195,2|0,0:0|0:0,0:0:0:0:
13,230,16137,2,0,P|53:196|98:192,1,97.5,8|0,1:2|0:0,0:0:0:0:
191,138,16542,2,0,P|146:93|83:87,1,130,2|0,0:0|3:0,0:0:0:0:
179,228,17150,1,2,0:0:0:0:
450,100,17353,21,2,3:2:0:0:
337,215,17555,1,2,0:0:0:0:
363,128,17758,1,2,0:0:0:0:
373,298,17961,1,0,1:0:0:0:
456,334,18164,1,2,0:0:0:0:
290,334,18366,1,0,3:0:0:0:
469,350,18569,2,0,P|462:302|454:155,1,195,8|0,1:2|0:0,0:0:0:0:
453,155,18974,1,2,0:0:0:0:
512,275,19177,1,8,3:0:0:0:
453,155,19380,1,0,3:0:0:0:
124,60,19785,54,0,P|72:81|32:72,1,97.5,4|0,0:0|0:0,0:0:0:0:
205,102,20191,2,0,P|199:117|195:132,1,32.5,2|0,0:0|0:0,0:0:0:0:
101,173,20596,2,0,P|107:187|111:203,1,32.5,2|0,0:0|0:0,0:0:0:0:
97,297,20800,1,0,0:0:0:0:
38,360,21001,2,0,P|9:303|28:242,2,130,0|2|2,0:0|0:0|0:0,0:0:0:0:
424,242,22218,21,8,0:1:0:0:
339,273,22420,1,0,0:0:0:0:
504,305,22623,2,0,L|508:273,1,32.5,2|0,0:0|0:0,0:0:0:0:
411,158,23028,2,0,L|407:126,1,32.5,2|0,0:0|0:0,0:0:0:0:
391,29,23231,1,0,0:0:0:0:
406,125,23434,2,0,L|431:319,1,195
431,319,23839,2,0,P|374:277|307:300,1,146.250005578995,2|0,0:0|0:0,0:0:0:0:
307,300,24245,2,0,P|363:341|430:318,1,146.250005578995,2|0,0:0|0:0,0:0:0:0:
68,356,24650,53,8,0:1:0:0:
39,183,24853,1,0,0:0:0:0:
10,10,25055,1,2,0:0:0:0:
24,96,25258,1,0,0:0:0:0:
54,270,25461,1,2,0:0:0:0:
54,270,25866,1,0,0:0:0:0:
135,114,26069,1,0,0:0:0:0:
229,262,26272,1,2,0:0:0:0:
139,215,26474,1,0,0:0:0:0:
54,270,26677,1,2,0:0:0:0:
487,245,27082,21,8,0:1:0:0:
390,231,27285,1,0,0:0:0:0:
293,217,27488,2,0,L|255:212,1,32.5,2|0,0:0|0:0,0:0:0:0:
512,249,27893,2,0,L|474:244,1,32.5,2|0,0:0|0:0,0:0:0:0:
293,217,28299,1,0,0:0:0:0:
350,296,28501,1,0,0:0:0:0:
443,265,28704,1,2,0:0:0:0:
443,168,28907,1,2,0:0:0:0:
350,138,29109,2,0,L|356:90,1,48.75
123,15,29515,54,0,L|126:47,1,32.5,12|0,0:1|0:0,0:0:0:0:
164,270,29718,1,0,0:0:0:0:
180,364,29920,1,2,0:0:0:0:
145,175,30123,1,0,0:0:0:0:
164,270,30325,1,2,0:0:0:0:
164,270,30596,1,0,0:0:0:0:
164,270,30731,2,0,P|90:280|33:188,1,195
210,148,31137,2,0,P|195:217|132:250,1,146.250005578995,2|0,0:0|0:0,0:0:0:0:
62,96,31542,2,0,P|103:121|126:163,1,97.5,2|0,0:0|0:0,0:0:0:0:
387,0,31947,21,8,0:1:0:0:
322,67,32150,1,0,0:0:0:0:
369,256,32353,1,2,0:0:0:0:
326,85,32555,1,0,0:0:0:0:
364,237,32758,1,2,0:0:0:0:
502,163,32961,1,0,0:0:0:0:
502,163,33164,2,0,P|458:142|409:146,1,97.5
410,145,33569,1,2,0:0:0:0:
341,361,33772,1,0,0:0:0:0:
410,146,33974,1,2,0:0:0:0:
19,309,34380,53,8,0:1:0:0:
21,328,34582,1,0,0:0:0:0:
206,41,34785,1,2,0:0:0:0:
204,60,34988,1,0,0:0:0:0:
202,79,35191,1,2,0:0:0:0:
204,60,35596,1,0,0:0:0:0:
202,79,35799,1,0,0:0:0:0:
19,309,36001,1,2,0:0:0:0:
21,328,36203,1,0,0:0:0:0:
23,347,36407,1,2,0:0:0:0:
473,88,36812,21,8,0:1:0:0:
382,74,37015,1,0,0:0:0:0:
293,333,37218,2,0,L|325:329,1,32.5,2|0,0:0|0:0,0:0:0:0:
430,360,37623,2,0,L|462:356,1,32.5,2|0,0:0|0:0,0:0:0:0:
462,355,38028,2,0,P|465:306|434:256,1,97.5
292,225,38434,2,0,P|375:184|455:232,1,195,2|0,0:0|0:0,0:0:0:0:
371,138,38839,2,0,P|368:89|383:48,1,81.25,2|0,0:0|0:0,0:0:0:0:
392,37,39042,1,0,0:0:0:0:
167,367,39245,54,0,P|95:374|10:295,2,195.00000743866,4|2|0,3:2|0:0|0:0,0:0:0:0:
121,78,40258,1,2,0:0:0:0:
121,78,40461,2,0,P|73:75|32:101,1,97.50000371933,2|0,0:0|0:0,0:0:0:0:
223,224,40866,2,0,P|220:168|105:104,1,195,2|2,0:0|0:0,0:0:0:0:
365,328,41677,22,0,P|423:334|483:266,1,146.250005578995,8|0,0:1|0:0,0:0:0:0:
328,196,42082,2,0,P|334:269|454:201,1,260,2|0,0:0|0:0,0:0:0:0:
365,328,42691,1,2,0:0:0:0:
411,124,42893,2,0,P|412:97|402:58,2,65,2|0|2,0:0|0:0|0:0,0:0:0:0:
156,24,44109,54,0,P|100:4|44:172,1,292.50001115799,8|0,0:1|0:0,0:0:0:0:
101,193,44920,2,0,P|57:180|33:162,1,65,2|0,0:0|0:0,0:0:0:0:
199,128,45326,2,0,P|215:173|214:224,1,97.50000371933,2|0,0:0|0:0,0:0:0:0:
38,384,45731,2,0,P|21:330|144:314,1,195,2|2,0:0|0:0,0:0:0:0:
410,362,46542,22,0,P|491:364|480:275,1,195,8|0,0:1|0:0,0:0:0:0:
340,151,46947,2,0,P|293:100|439:109,1,325,2|0,0:0|0:0,0:0:0:0:
368,79,47555,1,2,0:0:0:0:
319,251,47758,2,0,P|323:211|423:176,2,155.999995239258,2|0|0,0:0|0:0|0:0,0:0:0:0:
0,98,48974,54,0,P|80:82|151:213,1,243.75,12|0,0:1|0:0,0:0:0:0:
233,238,49380,2,0,P|216:276|213:303,1,65,2|0,0:0|0:0,0:0:0:0:
215,321,49988,1,2,0:0:0:0:
41,253,50191,2,0,P|30:248|16:246,2,26,2|2|0,0:0|0:0|0:0,0:0:0:0:
488,169,51407,22,0,P|474:87|321:66,1,243.75,8|0,0:1|0:0,0:0:0:0:
447,194,51812,2,0,P|453:163|448:131,1,65,2|0,0:0|0:0,0:0:0:0:
439,110,52420,1,2,0:0:0:0:
325,260,52623,2,0,P|370:251|430:291,1,116.999996429443,2|0,0:0|0:0,0:0:0:0:
508,325,53028,2,0,P|517:287|508:250,1,78,2|0,3:2|0:0,0:0:0:0:
435,372,53434,1,2,0:0:0:0:
88,110,53839,54,0,P|47:105|-3:134,1,97.5,8|0,0:1|0:0,0:0:0:0:
167,169,54245,2,0,P|161:127|105:82,1,116.999996429443,2|0,0:0|0:0,0:0:0:0:
139,260,54650,2,0,P|187:233|202:156,1,136.499995834351,2|0,0:0|0:0,0:0:0:0:
29,27,55055,2,0,P|48:102|59:179,1,156,2|0,0:0|0:0,0:0:0:0:
168,329,55461,2,0,P|177:241|203:158,1,175.499994644165,0|0,3:0|0:0,0:0:0:0:
0,284,55866,2,0,B|15:331|17:380,1,97.5,2|0,0:0|0:0,0:0:0:0:
423,136,56272,22,0,P|474:134|513:167,1,104,0|2,3:0|0:0,0:0:0:0:
316,384,57488,2,0,L|288:380,2,26,2|0|0,0:0|3:0|1:0,0:0:0:0:
184,40,58704,54,0,B|144:44|116:24|116:24|160:88|116:152,1,195,4|0,3:2|0:0,0:0:0:0:
51,86,59515,1,8,0:1:0:0:
0,348,59920,2,0,P|32:288|124:308,1,146.250005578995,8|0,0:1|0:0,0:0:0:0:
235,383,60326,2,0,P|164:322|166:228,1,195,8|0,0:1|0:0,0:0:0:0:
8,0,60731,2,0,P|64:36|88:200,1,243.75,8|0,0:1|0:0,0:0:0:0:
382,55,61137,22,0,B|398:19|438:7|438:7|490:51|494:119|450:175,1,260,12|0,3:1|0:0,0:0:0:0:
301,374,61745,1,0,1:0:0:0:
512,355,61947,1,0,0:0:0:0:
404,334,62150,1,0,3:0:0:0:
298,228,62353,6,0,P|282:144|368:143,1,195,2|0,1:3|0:0,0:0:0:0:
182,302,62758,54,0,P|104:274|26:269,1,162.5,8|8,3:0|3:0,0:0:0:0:
260,0,63164,22,0,P|269:20|276:51,1,48.75,4|0,3:0|0:0,0:0:0:0:
8,136,63569,54,0,P|72:112|240:212,1,260,6|2,3:2|0:0,0:0:0:0:
487,141,64177,2,0,P|439:104|372:107,1,130,2|2,0:0|3:2,0:0:0:0:
0,307,64785,21,8,1:2:0:0:
68,269,64988,1,2,0:0:0:0:
145,276,65191,1,2,0:0:0:0:
251,351,65393,1,0,0:0:0:0:
471,269,65596,1,2,3:2:0:0:
390,48,65798,1,2,0:0:0:0:
169,130,66001,54,0,P|73:136|10:65,1,195.00000743866,2|0,3:2|0:0,0:0:0:0:
321,250,66609,2,0,P|406:269|513:142,1,260,0|2,1:0|3:2,0:0:0:0:
244,0,67218,22,0,P|233:33|232:64,1,65,10|2,1:2|0:0,0:0:0:0:
310,110,67623,1,2,0:0:0:0:
232,380,67826,1,8,3:0:0:0:
154,334,68028,2,0,P|134:336|110:342,1,32.5,4|0,3:0|0:0,0:0:0:0:
512,152,68434,54,0,P|467:110|386:106,1,130,4|0,3:1|0:0,0:0:0:0:
85,252,68839,1,2,0:0:0:0:
5,156,69042,2,0,B|56:106|123:103|123:103|178:134|197:203,1,260,0|0,3:0|3:0,0:0:0:0:
349,384,69650,22,0,P|369:336|369:288,1,97.50000371933,10|2,1:2|0:0,0:0:0:0:
295,35,70055,2,0,P|282:74|286:115,1,77.999997619629,2|0,0:0|3:0,0:0:0:0:
369,291,70866,53,2,3:2:0:0:
160,84,71069,1,2,0:0:0:0:
394,11,71272,2,0,P|378:55|370:108,1,97.50000371933,2|0,0:0|1:0,0:0:0:0:
125,234,71677,2,0,P|139:273|147:310,1,77.999997619629,2|0,0:0|3:0,0:0:0:0:
270,384,72082,22,0,P|270:225|279:137,1,243.75,10|0,1:2|0:0,0:0:0:0:
278,141,72488,2,0,P|242:159|202:161,1,81.25,2|0,0:0|0:0,0:0:0:0:
22,106,72691,2,0,P|53:131|91:144,1,81.25,8|0,3:0|0:0,0:0:0:0:
390,114,72893,54,0,P|383:91|371:71,1,48.75,4|0,3:0|0:0,0:0:0:0:
72,361,73299,22,0,B|32:365|0:321|0:321|16:272|88:248|142:306,1,260,6|2,3:2|0:0,0:0:0:0:
463,317,73907,2,0,P|421:291|371:290,1,97.5,2|0,0:0|0:0,0:0:0:0:
395,375,74312,53,2,3:2:0:0:
445,79,74515,1,8,1:2:0:0:
325,33,74718,21,2,0:0:0:0:
374,289,74920,1,2,0:0:0:0:
172,113,75123,53,2,0:0:0:0:
80,82,75326,1,2,3:2:0:0:
0,138,75528,1,2,0:0:0:0:
211,366,75731,22,0,P|258:353|306:347,1,97.50000371933,2|0,3:2|0:0,0:0:0:0:
407,39,76137,1,0,0:0:0:0:
492,142,76339,2,0,P|397:127|290:118,1,195,0|0,1:0|0:0,0:0:0:0:
298,118,76745,1,2,3:2:0:0:
126,335,76947,53,10,1:2:0:0:
37,313,77150,1,2,0:0:0:0:
1,229,77353,1,2,0:0:0:0:
228,0,77555,1,8,3:0:0:0:
126,335,77758,2,0,P|120:360|117:380,1,32.5,4|2,3:0|0:0,0:0:0:0:
512,87,78164,22,0,P|448:59|288:147,1,260,4|2,3:1|0:0,0:0:0:0:
9,41,78772,2,0,P|63:74|141:56,1,130,0|0,3:0|3:0,0:0:0:0:
225,9,79380,1,10,1:2:0:0:
37,301,79582,1,2,0:0:0:0:
401,294,79785,2,0,B|392:342|340:354|340:354|306:332|297:249|359:218,1,243.75,2|0,0:0|0:0,0:0:0:0:
383,126,80191,2,0,P|334:121|290:140,1,97.5,0|0,3:0|0:0,0:0:0:0:
442,205,80596,53,2,3:2:0:0:
171,383,80799,1,2,0:0:0:0:
37,301,81001,1,2,0:0:0:0:
68,200,81204,2,0,P|66:170|60:133,1,65,0|2,1:0|0:0,0:0:0:0:
55,113,81609,1,0,3:0:0:0:
368,299,81812,22,0,P|377:202|397:105,1,195,14|0,1:2|0:0,0:0:0:0:
397,106,82218,2,0,P|340:109|298:81,1,97.50000371933,2|8,3:2|3:0,0:0:0:0:
366,24,82623,1,4,3:0:0:0:
478,347,82826,1,2,0:0:0:0:
202,130,83028,54,0,P|126:101|-3:220,1,260,4|0,3:1|0:0,0:0:0:0:
46,352,83637,2,0,P|122:381|251:262,1,260,0|0,3:0|3:0,0:0:0:0:
260,12,84245,2,0,P|226:56|218:151,1,146.250005578995,10|0,1:2|0:0,0:0:0:0:
469,49,84650,2,0,P|413:56|341:117,1,146.250005578995,2|0,0:0|0:0,0:0:0:0:
248,279,85055,22,0,P|286:258|323:253,1,81.25,2|0,3:2|0:0,0:0:0:0:
435,263,85258,2,0,P|480:280|512:317,1,97.50000371933,2|0,0:0|0:0,0:0:0:0:
96,368,85461,54,0,P|75:291|166:291,1,195,4|0,3:1|0:0,0:0:0:0:
164,288,85866,21,2,3:2:0:0:
142,161,86069,1,0,3:0:0:0:
512,36,86272,53,6,1:2:0:0:
495,165,86474,1,0,3:0:0:0:
199,50,86677,22,0,P|102:42|32:102,1,195,4|0,1:0|0:0,0:0:0:0:
32,102,87082,54,0,P|44:121|51:149,1,48.750001859665,0|0,3:0|0:0,0:0:0:0:
200,143,87285,2,0,P|201:164|193:192,1,48.750001859665,8|0,3:0|0:0,0:0:0:0:
325,261,87488,22,0,P|315:280|294:300,1,48.750001859665,6|0,3:0|0:0,0:0:0:0:
55,333,87893,54,0,P|136:341|217:355,1,162.5,6|2,3:2|0:0,0:0:0:0:
469,239,88299,1,2,0:0:0:0:
469,239,88501,2,0,P|407:246|323:260,1,146.250005578995,0|0,1:0|0:0,0:0:0:0:
324,260,88907,1,2,3:2:0:0:
0,47,89109,22,0,P|82:13|205:92,1,243.75,10|0,1:2|0:0,0:0:0:0:
284,179,89515,2,0,P|324:93|291:5,1,195,2|2,3:2|0:0,0:0:0:0:
89,134,89920,2,0,P|80:206|73:280,1,146.250005578995,2|0,3:2|0:0,0:0:0:0:
73,280,90326,54,0,P|159:308|209:266,1,162.5,6|2,3:2|0:0,0:0:0:0:
494,353,90731,1,2,0:0:0:0:
494,353,90934,2,0,P|446:322|375:328,1,97.50000371933,0|2,1:0|0:0,0:0:0:0:
280,375,91339,1,0,3:0:0:0:
309,133,91542,22,0,P|293:253|281:375,1,243.75,10|0,1:2|0:0,0:0:0:0:
227,82,91947,2,0,P|308:37|391:82,1,195,2|0,3:2|0:0,0:0:0:0:
383,197,92353,2,0,P|319:229|251:210,1,146.250005578995,2|0,3:2|0:0,0:0:0:0:
166,163,92758,54,0,P|84:169|-1:178,1,162.5,6|2,3:2|0:0,0:0:0:0:
178,355,93164,1,2,0:0:0:0:
227,82,93366,2,0,P|291:50|359:69,1,146.250005578995,0|0,1:0|0:0,0:0:0:0:
359,69,93772,1,2,3:2:0:0:
420,383,93974,22,0,P|299:367|177:354,1,243.75,10|0,1:2|0:0,0:0:0:0:
117,291,94380,2,0,P|116:218|221:185,1,195,2|0,3:2|0:0,0:0:0:0:
297,227,94785,2,0,P|371:239|425:192,1,146.250005578995,2|0,3:2|0:0,0:0:0:0:
346,155,95191,53,6,3:2:0:0:
177,354,95393,1,2,0:0:0:0:
117,291,95596,1,2,0:0:0:0:
117,291,95799,2,0,P|69:297|19:306,1,97.50000371933,0|2,1:0|0:0,0:0:0:0:
20,305,96204,1,0,3:0:0:0:
219,48,96407,22,0,P|271:38|339:81,2,130,10|2|4,1:2|3:2|3:1,0:0:0:0:
219,48,97623,54,0,P|229:126|236:209,1,162.5,6|2,3:2|0:0,0:0:0:0:
508,135,98028,1,2,0:0:0:0:
508,135,98231,2,0,P|498:207|492:280,1,146.250005578995,0|0,1:0|0:0,0:0:0:0:
492,280,98637,1,2,3:2:0:0:
236,209,98839,22,0,P|156:197|74:320,1,243.75,10|0,1:2|0:0,0:0:0:0:
304,277,99245,2,0,P|282:208|162:169,1,195,2|0,3:2|0:0,0:0:0:0:
309,359,99650,2,0,P|339:294|321:224,1,146.250005578995,2|0,3:2|0:0,0:0:0:0:
180,300,100055,53,6,3:2:0:0:
468,344,100258,1,2,0:0:0:0:
363,73,100461,2,0,P|406:44|481:49,1,130,2|0,0:0|1:0,0:0:0:0:
168,104,100866,2,0,P|119:97|71:92,1,97.50000371933,2|0,0:0|3:0,0:0:0:0:
202,378,101272,21,10,1:2:0:0:
440,135,101474,1,2,0:0:0:0:
105,188,101677,1,2,3:2:0:0:
411,344,101880,1,2,0:0:0:0:
253,39,102082,2,0,P|254:13|258:-9,1,48.75,2|0,3:2|0:0,0:0:0:0:
280,218,102488,54,0,P|286:299|292:381,1,162.5,6|2,3:2|0:0,0:0:0:0:
53,206,102893,1,2,0:0:0:0:
53,205,103096,2,0,P|113:167|185:180,1,146.250005578995,0|0,1:0|0:0,0:0:0:0:
184,180,103501,1,2,3:2:0:0:
475,156,103704,22,0,P|401:194|268:124,1,243.75,10|0,1:2|0:0,0:0:0:0:
363,46,104109,2,0,P|388:109|339:225,1,195,2|0,3:2|0:0,0:0:0:0:
398,326,104515,2,0,P|351:286|267:298,1,146.250005578995,2|0,3:2|0:0,0:0:0:0:
320,368,104920,53,4,3:2:0:0:
342,221,105123,1,2,0:0:0:0:
216,152,105326,1,2,0:0:0:0:
113,250,105528,1,0,1:0:0:0:
174,383,105731,1,2,0:0:0:0:
320,368,105934,1,0,3:0:0:0:
234,275,106137,22,0,P|239:171|246:80,1,195.00000743866,10|0,1:2|3:0,0:0:0:0:
359,23,106745,1,8,3:0:0:0:
474,74,106947,1,6,3:0:0:0:
40,80,107353,37,4,0:0:0:0:
184,115,107555,1,2,0:0:0:0:
40,80,107758,2,0,L|46:111,1,32.5,2|0,0:0|0:0,0:0:0:0:
184,115,108164,2,0,L|178:146,1,32.5,2|0,0:0|0:0,0:0:0:0:
134,365,108366,1,0,0:0:0:0:
62,309,108569,2,0,P|121:274|192:293,2,130,0|2|2,0:0|0:0|0:0,0:0:0:0:
388,195,109785,21,8,0:1:0:0:
475,170,109988,1,0,0:0:0:0:
301,220,110191,2,0,B|306:252,1,32.5,2|0,0:0|0:0,0:0:0:0:
475,170,110596,2,0,B|469:202,1,32.5,2|0,0:0|0:0,0:0:0:0:
450,306,110799,1,0,0:0:0:0:
469,202,111001,2,0,L|508:10,1,195
398,96,111407,2,0,P|341:99|293:32,1,146.250005578995,2|0,0:0|0:0,0:0:0:0:
292,31,111812,2,0,P|349:28|397:95,1,146.250005578995,2|0,0:0|0:0,0:0:0:0:
176,252,112218,53,8,0:1:0:0:
4,214,112421,1,0,0:0:0:0:
57,381,112624,1,2,0:0:0:0:
79,283,112826,1,0,0:0:0:0:
176,252,113029,1,2,0:0:0:0:
176,252,113434,1,0,0:0:0:0:
198,154,113636,1,0,0:0:0:0:
0,120,113839,1,2,0:0:0:0:
178,150,114042,1,0,0:0:0:0:
19,123,114245,1,2,0:0:0:0:
404,7,114650,21,8,0:1:0:0:
458,80,114853,1,0,0:0:0:0:
512,153,115055,2,0,L|507:185,1,32.5,2|0,0:0|0:0,0:0:0:0:
404,7,115461,2,0,L|399:39,1,32.5,2|0,0:0|0:0,0:0:0:0:
346,327,115866,1,0,0:0:0:0:
267,270,116069,1,0,0:0:0:0:
298,177,116272,1,2,0:0:0:0:
395,177,116474,1,2,0:0:0:0:
425,270,116677,2,0,L|422:319,1,48.75
117,363,117082,54,0,L|119:326,1,32.5,4|0,3:1|0:0,0:0:0:0:
131,135,117285,1,0,0:0:0:0:
137,37,117488,2,0,L|139:0,1,32.5,2|0,0:0|0:0,0:0:0:0:
129,167,117893,2,0,L|131:130,1,32.5,2|0,0:0|0:0,0:0:0:0:
0,240,118096,1,0,0:0:0:0:
235,307,118299,2,0,P|205:247|87:246,1,195
88,244,118704,2,0,P|152:216|172:147,1,146.250005578995,2|0,0:0|0:0,0:0:0:0:
172,147,119109,2,0,P|175:217|196:241,1,97.5,2|0,0:0|0:0,0:0:0:0:
500,183,119515,21,8,0:1:0:0:
485,92,119718,1,0,0:0:0:0:
471,2,119920,2,0,L|476:35,1,32.5,2|0,0:0|0:0,0:0:0:0:
500,183,120326,2,0,L|505:216,1,32.5,2|0,0:0|0:0,0:0:0:0:
387,348,120528,1,0,0:0:0:0:
295,354,120731,2,0,P|305:305|435:271,1,195
429,267,121137,2,0,P|370:257|345:158,1,146.250005578995,2|0,0:0|0:0,0:0:0:0:
369,76,121542,2,0,P|359:136|356:175,1,97.5,2|0,0:0|0:0,0:0:0:0:
172,361,121947,53,8,0:1:0:0:
150,212,122150,1,0,0:0:0:0:
128,63,122353,1,2,0:0:0:0:
125,41,122555,1,0,0:0:0:0:
123,19,122758,1,2,0:0:0:0:
123,19,123164,1,0,0:0:0:0:
125,41,123367,1,0,0:0:0:0:
128,63,123569,1,2,0:0:0:0:
150,212,123772,1,0,0:0:0:0:
172,361,123975,1,2,0:0:0:0:
502,95,124380,21,8,0:1:0:0:
414,70,124582,1,0,0:0:0:0:
433,251,124785,2,0,L|437:284,1,32.5,2|0,0:0|0:0,0:0:0:0:
349,326,125191,2,0,L|353:359,1,32.5,2|0,0:0|0:0,0:0:0:0:
314,73,125596,2,0,L|306:7,1,65,0|2,1:0|0:0,0:0:0:0:
398,136,126204,1,0,1:0:0:0:
353,359,126407,2,0,L|349:326,1,32.5,4|0,3:0|0:0,0:0:0:0:
164,39,126812,54,0,P|92:24|8:99,2,195.00000743866,4|2|0,3:2|0:0|0:0,0:0:0:0:
214,304,127826,1,2,0:0:0:0:
214,304,128028,2,0,P|168:280|124:280,1,97.50000371933,2|0,1:2|0:0,0:0:0:0:
41,370,128434,2,0,P|67:312|122:280,1,130,2|0,0:0|3:0,0:0:0:0:
145,384,129042,1,2,0:0:0:0:
500,216,129245,22,0,P|464:176|364:180,1,146.250005578995,2|0,3:2|0:0,0:0:0:0:
495,76,129650,2,0,P|403:85|376:173,1,195,2|2,0:0|0:0,0:0:0:0:
375,172,130461,2,0,P|363:244|291:280,1,146.250005578995,0|0,1:0|0:0,0:0:0:0:
304,279,130866,2,0,P|392:256|392:376,1,243.75,2|0,0:0|0:0,0:0:0:0:
394,373,131272,2,0,P|379:331|391:279,1,97.5,0|0,3:0|0:0,0:0:0:0:
0,304,131677,54,0,P|16:244|216:196,1,292.50001115799,2|0,3:2|0:0,0:0:0:0:
213,194,132488,2,0,P|200:156|200:112,1,81.8999975006104,2|0,0:0|0:0,0:0:0:0:
105,47,132893,2,0,P|124:22|153:7,1,65,2|0,1:2|0:0,0:0:0:0:
180,295,133299,2,0,P|142:274|119:239,1,85.7999997381592,2|0,0:0|3:0,0:0:0:0:
119,239,133907,1,2,0:0:0:0:
478,37,134109,22,0,P|499:81|493:128,1,97.50000371933,2|0,3:2|0:0,0:0:0:0:
278,372,134515,2,0,P|360:306|492:360,1,260,2|0,0:0|0:0,0:0:0:0:
491,359,135123,1,2,3:2:0:0:
260,239,135326,2,0,P|344:202|494:226,1,243.75,0|0,1:0|0:0,0:0:0:0:
512,137,135731,2,0,P|451:118|408:4,1,195,2|0,0:0|0:0,0:0:0:0:
315,44,136137,2,0,P|305:96|271:132,1,97.5,2|0,3:2|0:0,0:0:0:0:
8,86,136542,54,0,P|95:73|128:206,1,243.75,6|0,3:2|0:0,0:0:0:0:
132,199,136947,2,0,P|128:158|195:98,1,130,2|0,0:0|0:0,0:0:0:0:
208,326,137555,1,2,3:2:0:0:
132,199,137758,2,0,P|65:189|9:289,1,195,2|0,1:2|0:0,0:0:0:0:
8,287,138164,2,0,P|75:294|101:364,1,146.250005578995,2|0,0:0|0:0,0:0:0:0:
101,360,138569,2,0,P|68:353|12:383,1,97.5,2|0,3:2|0:0,0:0:0:0:
372,231,138974,22,0,P|464:235|513:318,1,195,2|0,3:2|0:0,0:0:0:0:
274,256,139380,2,0,P|271:222|280:190,1,65,2|0,0:0|0:0,0:0:0:0:
364,128,139988,1,2,3:2:0:0:
416,320,140191,2,0,P|369:313|303:378,1,146.250005578995,2|0,1:2|0:0,0:0:0:0:
506,292,140596,2,0,P|512:244|493:197,1,97.5,2|0,0:0|0:0,0:0:0:0:
479,182,141001,2,0,P|457:168|428:163,1,48.75,2|0,3:2|0:0,0:0:0:0:
122,383,141407,54,0,P|62:377|-3:368,1,116.999996429443,2|0,3:2|0:0,0:0:0:0:
71,270,141812,2,0,P|141:264|210:256,1,136.499995834351,2|0,0:0|0:0,0:0:0:0:
103,78,142218,2,0,P|51:73|0:67,1,104,2|0,0:0|3:0,0:0:0:0:
224,0,142623,2,0,P|209:74|193:177,1,175.499994644165,2|0,1:2|0:0,0:0:0:0:
16,261,143028,2,0,P|12:173|-1:67,1,195,2|0,0:0|0:0,0:0:0:0:
183,270,143434,2,0,P|146:316|145:379,1,116.999996429443,2|0,3:2|0:0,0:0:0:0:
505,48,143839,22,0,P|457:33|405:51,1,104,2|2,3:2|0:0,0:0:0:0:
370,129,144853,1,0,3:0:0:0:
501,352,145055,2,0,P|453:309|390:312,1,130,4|0,1:0|3:0,0:0:0:0:
321,362,145664,1,0,1:0:0:0:
457,120,145866,1,4,3:0:0:0:
49,9,146272,54,0,P|23:2|0:2,1,48.75,4|0,3:2|0:0,0:0:0:0:
134,51,146677,2,0,P|167:36|204:35,1,74.099999095459,8|0,0:1|0:0,0:0:0:0:
68,123,147082,2,0,P|48:162|53:220,1,97.5,8|0,0:1|0:0,0:0:0:0:
238,249,147488,2,0,P|215:200|115:188,1,146.250005578995,8|0,0:1|0:0,0:0:0:0:
10,370,147893,2,0,P|85:367|119:264,1,195,8|0,0:1|0:0,0:0:0:0:
49,9,148299,2,0,P|35:118|23:251,1,243.75,8|0,0:1|0:0,0:0:0:0:
428,344,148704,22,0,B|450:320|482:309|482:309|457:260|366:239|308:296,1,260,12|0,3:1|0:0,0:0:0:0:
279,35,149312,1,4,3:0:0:0:
375,122,149515,1,0,0:0:0:0:
491,62,149718,1,0,3:0:0:0:
144,148,149920,6,0,P|84:132|16:124,1,130,2|0,1:3|0:0,0:0:0:0:
346,249,150326,54,0,P|430:217|502:209,1,162.5,0|8,1:0|3:0,0:0:0:0:
140,384,150731,22,0,P|132:360|129:337,1,48.75,4|0,3:0|0:0,0:0:0:0:
388,60,151137,54,0,P|453:98|342:130,1,260,6|2,3:2|0:0,0:0:0:0:
26,167,151745,2,0,P|82:135|154:155,1,130,2|0,0:0|3:0,0:0:0:0:
491,340,152353,22,0,P|433:312|371:326,1,130,10|0,1:2|0:0,0:0:0:0:
276,201,152758,54,0,P|236:233|220:281,1,97.50000371933,0|0,3:2|0:0,0:0:0:0:
0,273,153164,21,2,3:2:0:0:
16,377,153366,1,2,0:0:0:0:
216,129,153569,54,0,P|223:57|231:0,2,130,2|0|0,3:2|0:0|0:0,0:0:0:0:
512,228,154177,21,0,1:0:0:0:
400,162,154380,1,2,0:0:0:0:
276,201,154582,1,2,3:2:0:0:
152,359,154785,1,10,1:2:0:0:
73,370,154988,1,2,0:0:0:0:
10,67,155191,54,0,P|15:28|25:0,1,65,8|0,3:0|0:0,0:0:0:0:
47,144,155596,2,0,P|36:111|32:77,1,65,4|0,3:0|0:0,0:0:0:0:
511,220,156001,22,0,P|391:197|326:300,1,260,4|2,3:2|0:0,0:0:0:0:
204,13,156609,53,2,1:2:0:0:
314,81,156812,1,2,0:0:0:0:
428,19,157015,1,0,3:0:0:0:
121,187,157218,22,0,P|74:173|27:165,1,97.50000371933,10|0,1:2|0:0,0:0:0:0:
326,300,157623,2,0,P|390:278|454:263,1,130,2|0,0:0|0:0,0:0:0:0:
253,0,158028,54,0,P|243:31|240:67,1,65,2|0,3:2|0:0,0:0:0:0:
301,375,158434,22,0,P|272:288|180:281,1,195.00000743866,2|2,3:2|0:0,0:0:0:0:
89,382,159042,1,0,1:0:0:0:
15,328,159245,2,0,P|12:296|7:264,1,65,2|0,0:0|3:0,0:0:0:0:
93,22,159650,54,0,P|74:58|74:97,1,81.25,10|0,1:2|0:0,0:0:0:0:
119,231,159853,2,0,P|143:262|179:280,1,81.25,2|0,0:0|0:0,0:0:0:0:
512,251,160055,22,0,P|458:216|394:216,1,130,2|8,0:0|3:0,0:0:0:0:
429,385,160461,2,0,P|429:360|424:336,1,48.75,4|0,3:0|0:0,0:0:0:0:
512,57,160866,54,0,P|454:87|301:0,1,260,6|0,3:2|0:0,0:0:0:0:
69,179,161474,1,0,3:0:0:0:
16,87,161677,2,0,P|80:72|148:109,1,143.000004364014,2|0,0:0|3:0,0:0:0:0:
243,384,162082,22,0,P|251:267|265:151,1,233.999992858887,10|0,1:2|0:0,0:0:0:0:
264,151,162488,1,0,0:0:0:0:
286,22,162691,1,0,0:0:0:0:
483,207,162893,2,0,P|425:278|336:254,1,195,2|0,3:2|0:0,0:0:0:0:
335,253,163299,54,0,P|295:246|253:254,1,84.4999961318971,2|0,3:2|0:0,0:0:0:0:
120,324,163501,2,0,P|85:356|73:384,1,77.999997619629,2|0,0:0|0:0,0:0:0:0:
167,96,163704,22,0,P|200:114|234:118,1,71.5000021820069,2|0,0:0|0:0,0:0:0:0:
327,116,163907,2,0,P|360:109|388:91,1,65,2|0,1:2|0:0,0:0:0:0:
51,22,164109,54,0,P|35:49|29:82,1,65,2|0,0:0|3:0,0:0:0:0:
454,216,164515,22,0,P|438:150|310:124,1,195,8|0,1:2|0:0,0:0:0:0:
326,115,164920,1,0,3:0:0:0:
209,349,165123,1,8,3:0:0:0:
120,324,165326,2,0,P|95:318|68:314,1,48.75,4|0,3:0|0:0,0:0:0:0:
357,227,165731,54,0,P|404:219|504:211,1,146.250005578995,4|0,3:1|0:0,0:0:0:0:
266,164,166137,1,0,0:0:0:0:
159,238,166339,1,0,1:0:0:0:
41,181,166542,1,2,0:0:0:0:
50,51,166745,1,2,3:2:0:0:
357,227,166947,22,0,P|350:299|346:372,1,146.250005578995,14|0,1:2|0:0,0:0:0:0:
262,311,167353,2,0,P|201:281|106:360,1,195,2|0,0:0|0:0,0:0:0:0:
292,159,167758,2,0,P|376:194|492:110,1,243.75,2|0,3:2|0:0,0:0:0:0:
153,187,168164,54,0,P|87:194|-9:111,1,195.00000743866,2|0,3:2|0:0,0:0:0:0:
107,70,168772,1,0,1:0:0:0:
317,76,168974,21,2,0:0:0:0:
256,12,169177,1,2,3:2:0:0:
232,96,169380,2,0,P|241:191|249:291,1,195,10|0,1:2|0:0,0:0:0:0:
386,248,169785,2,0,P|377:296|371:344,1,97.50000371933,0|8,3:0|3:0,0:0:0:0:
106,256,170191,2,0,P|121:302|138:366,1,114.400003491211,4|0,3:0|0:0,0:0:0:0:
318,51,170596,54,0,P|236:-1|153:36,1,195,4|0,3:2|0:0,0:0:0:0:
154,35,171001,1,0,0:0:0:0:
145,140,171204,2,0,P|226:192|309:154,1,195,0|0,1:0|0:0,0:0:0:0:
309,156,171609,1,0,3:0:0:0:
494,384,171812,22,0,P|414:370|276:355,1,220.350000672455,10|0,1:2|0:0,0:0:0:0:
1,288,172218,54,0,P|63:233|136:243,1,162.5,2|0,0:0|1:0,0:0:0:0:
500,298,172623,22,0,P|516:207|386:252,1,269.100000410614,2|0,3:2|0:0,0:0:0:0:
23,145,173028,54,0,P|1:49|116:112,1,292.50001115799,6|0,3:2|0:0,0:0:0:0:
275,354,173434,21,0,0:0:0:0:
275,354,173637,2,0,P|283:286|293:226,1,130,0|0,1:0|0:0,0:0:0:0:
23,145,174042,53,0,3:0:0:0:
23,145,174245,2,0,P|32:194|38:241,1,97.50000371933,2|0,1:3|0:0,0:0:0:0:
421,176,174650,22,0,P|450:182|482:196,2,65,2|8|4,3:2|3:0|3:0,0:0:0:0:
395,174,175258,1,2,0:0:0:0:
7,334,175461,37,6,0:0:0:0:
7,334,175866,2,0,P|58:337|103:314,1,104,2|0,0:0|0:0,0:0:0:0:
201,369,176474,1,2,0:0:0:0:
201,369,176677,1,2,0:0:0:0:
201,369,177082,2,0,P|194:325|188:263,1,104,2|0,0:0|0:0,0:0:0:0:
189,243,177691,1,2,0:0:0:0:
214,27,177893,5,8,0:1:0:0:
214,27,178299,2,0,P|172:48|115:40,1,104,2|0,0:0|0:0,0:0:0:0:
44,124,178907,1,2,0:0:0:0:
44,124,179109,2,0,P|37:71|28:20,1,104,2|2,0:0|0:0,0:0:0:0:
141,133,179920,2,0,P|134:162|132:182,1,48.75,8|0,3:0|0:0,0:0:0:0:
144,384,180326,70,0,P|133:281|118:190,1,195.00000743866,4|0,3:2|0:0,0:0:0:0:
225,113,180934,2,0,P|234:65|250:19,1,97.50000371933,2|0,0:0|0:0,0:0:0:0:
250,19,181339,1,0,3:0:0:0:
118,190,181542,2,0,P|56:202|1:93,2,195.00000743866,10|0|0,1:2|3:0|3:0,0:0:0:0:
141,180,182555,1,2,0:0:0:0:
50,288,182758,6,0,P|37:334|32:383,1,97.50000371933,2|0,3:2|0:0,0:0:0:0:
158,259,183164,2,0,P|153:219|140:179,1,81.8999975006104,2|0,0:0|0:0,0:0:0:0:
239,127,183569,2,0,P|219:102|189:81,1,65,2|0,0:0|3:0,0:0:0:0:
88,326,183974,2,0,P|136:354|248:292,1,195.00000743866,10|0,1:2|3:0,0:0:0:0:
38,158,184582,1,8,3:0:0:0:
20,254,184785,1,4,3:0:0:0:
504,68,185191,5,6,3:2:0:0:
504,68,185596,2,0,P|462:45|406:48,1,104,2|0,0:0|0:0,0:0:0:0:
304,7,186204,1,2,0:0:0:0:
304,7,186407,2,0,P|316:68|321:114,1,104,2|2,0:0|0:0,0:0:0:0:
320,109,187218,1,2,0:0:0:0:
277,382,187623,5,8,0:1:0:0:
277,382,188028,2,0,P|324:360|374:364,1,104,2|0,0:0|0:0,0:0:0:0:
470,246,188637,1,2,0:0:0:0:
470,246,188839,1,2,0:0:0:0:
470,246,189245,2,0,P|459:284|455:326,1,78,8|0,3:0|0:0,0:0:0:0:
365,271,189650,2,0,P|363:247|359:219,1,48.75,4|0,3:0|0:0,0:0:0:0:
501,144,190055,70,0,P|448:154|408:133,1,97.50000371933,4|0,3:2|0:0,0:0:0:0:
310,8,190461,1,2,0:0:0:0:
310,8,190664,2,0,P|325:108|335:203,1,195.00000743866,0|0,0:0|3:0,0:0:0:0:
430,365,191272,2,0,P|437:319|448:269,1,97.50000371933,10|2,1:2|0:0,0:0:0:0:
334,201,191677,2,0,P|330:148|325:101,1,97.50000371933,2|0,0:0|0:0,0:0:0:0:
465,8,192082,2,0,P|454:55|447:103,1,97.50000371933,0|0,3:0|0:0,0:0:0:0:
430,365,192488,6,0,P|382:384|297:292,1,195.00000743866,2|0,3:2|0:0,0:0:0:0:
296,292,193096,2,0,P|344:273|429:365,1,195.00000743866,2|0,1:2|3:0,0:0:0:0:
296,292,193704,2,0,P|310:238|315:194,1,97.50000371933,8|0,1:2|0:0,0:0:0:0:
490,178,194109,2,0,P|476:124|471:80,1,97.50000371933,0|8,3:0|3:0,0:0:0:0:
374,11,194515,2,0,P|372:38|368:59,1,48.75,4|0,3:0|0:0,0:0:0:0:
492,274,194920,69,6,3:2:0:0:
314,196,195123,1,2,0:0:0:0:
471,82,195326,1,2,0:0:0:0:
492,274,195528,2,0,P|494:291|495:311,2,32.5,0|0|0,0:0|3:0|3:0,0:0:0:0:
313,384,196137,5,10,1:2:0:0:
490,252,196339,1,2,0:0:0:0:
288,162,196542,2,0,P|280:81|270:1,1,161.850002346153,2|0,0:0|0:0,0:0:0:0:
508,58,196947,2,0,P|499:138|490:254,1,195,0|0,3:0|0:0,0:0:0:0:
313,384,197353,70,0,P|338:349|392:335,1,97.5,12|0,3:1|0:0,0:0:0:0:
412,338,197758,5,2,1:2:0:0:
265,238,197961,1,0,1:0:0:0:
462,131,198164,69,2,3:2:0:0:
426,213,198366,1,0,3:0:0:0:
372,32,198569,5,2,1:2:0:0:
378,109,198772,1,8,3:0:0:0:
258,0,198974,69,2,3:0:0:0:
270,20,199177,1,4,3:0:0:0:
506,313,199380,6,0,P|479:298|441:291,1,65,2|0,3:2|0:0,0:0:0:0:
341,279,199582,2,0,P|310:279|273:292,1,65,2|0,0:0|0:0,0:0:0:0:
28,362,199785,38,0,P|9:283|160:253,1,243.75,4|0,3:2|0:0,0:0:0:0:
136,231,200191,1,2,0:0:0:0:
215,47,200393,1,0,1:0:0:0:
231,142,200596,2,0,P|220:95|215:47,1,97.50000371933,2|0,0:0|3:0,0:0:0:0:
466,146,201001,2,0,P|460:201|443:302,1,146.250005578995,8|0,1:2|0:0,0:0:0:0:
445,290,201407,1,2,0:0:0:0:
356,329,201609,1,2,0:0:0:0:
87,237,201812,2,0,P|114:232|140:230,1,48.750001859665,2|0,3:2|0:0,0:0:0:0:
372,120,202218,22,0,P|345:14|264:86,1,260,2|0,3:2|0:0,0:0:0:0:
356,329,202826,1,0,1:0:0:0:
356,329,202927,1,2,0:0:0:0:
356,329,203003,2,0,P|316:318|251:311,1,97.50000371933,2|0,0:0|3:0,0:0:0:0:
87,237,203434,2,0,P|95:168|105:32,1,195.00000743866,8|2,1:2|0:0,0:0:0:0:
248,214,204042,1,0,0:0:0:0:
248,214,204245,2,0,P|253:267|260:312,1,97.50000371933,2|0,3:2|0:0,0:0:0:0:
372,348,204650,53,2,3:2:0:0:
440,253,204853,1,0,0:0:0:0:
372,158,205055,1,2,0:0:0:0:
260,194,205258,1,2,1:2:0:0:
260,311,205461,1,2,0:0:0:0:
372,348,205664,1,0,3:0:0:0:
275,47,205866,21,8,1:2:0:0:
171,102,206069,1,2,0:0:0:0:
171,102,206170,1,2,0:0:0:0:
171,102,206272,2,0,P|122:93|75:89,1,97.50000371933,0|0,3:0|0:0,0:0:0:0:
14,350,206677,1,2,3:2:0:0:
118,297,206880,1,2,0:0:0:0:
359,347,207082,2,0,P|372:252|388:153,1,195.00000743866,6|0,3:2|0:0,0:0:0:0:
261,15,207691,53,2,1:2:0:0:
281,159,207893,1,2,0:0:0:0:
124,138,208096,21,0,3:0:0:0:
191,221,208299,1,8,1:2:0:0:
80,304,208501,53,2,0:0:0:0:
165,325,208704,1,2,3:2:0:0:
459,158,208907,21,8,3:0:0:0:
435,162,209109,2,0,P|414:156|388:151,1,48.75,6|0,3:0|0:0,0:0:0:0:
0,330,209515,70,0,P|110:310|243:292,1,243.75,6|0,3:2|0:0,0:0:0:0:
241,293,209920,1,2,0:0:0:0:
459,158,210123,2,0,P|425:80|281:74,1,243.75,2|0,1:2|0:0,0:0:0:0:
281,73,210528,1,2,3:2:0:0:
167,355,210731,1,10,1:2:0:0:
92,58,210934,1,2,0:0:0:0:
325,253,211137,2,0,P|334:204|353:155,1,97.5,2|0,3:2|0:0,0:0:0:0:
21,231,211542,2,0,P|19:175|5:85,1,146.250005578995,2|0,3:2|0:0,0:0:0:0:
5,85,211947,1,8,3:1:0:0:
399,159,212353,22,0,P|383:198|353:225,1,81.25,2|0,0:0|0:0,0:0:0:0:
265,274,212556,2,0,P|226:290|185:288,1,81.25,2|0,1:2|0:0,0:0:0:0:
86,274,212759,2,0,P|46:258|19:228,1,81.25,2|0,0:0|0:0,0:0:0:0:
273,54,212961,54,0,P|289:91|290:131,1,81.25,2|0,3:2|0:0,0:0:0:0:
32,354,213164,22,0,P|56:319|91:300,1,81.25,10|0,1:2|0:0,0:0:0:0:
186,265,213367,2,0,P|227:260|265:273,1,81.25,2|0,0:0|0:0,0:0:0:0:
350,328,213569,1,2,3:2:0:0:
347,344,213772,1,8,3:0:0:0:
344,360,213974,1,4,3:0:0:0:
344,360,214380,54,0,P|362:229|381:118,1,243.75,6|0,3:2|0:0,0:0:0:0:
380,119,214785,1,2,0:0:0:0:
112,284,214988,2,0,P|94:153|75:42,1,243.75,0|0,1:0|0:0,0:0:0:0:
76,44,215393,1,2,3:2:0:0:
310,252,215596,1,10,1:2:0:0:
6,230,215799,1,2,0:0:0:0:
266,72,216001,2,0,P|312:80|366:86,1,97.5,2|0,3:2|0:0,0:0:0:0:
152,354,216407,2,0,P|233:344|301:340,1,146.250005578995,2|0,3:2|0:0,0:0:0:0:
297,340,216812,1,8,3:1:0:0:
297,340,217218,22,0,P|315:307|322:260,1,81.25,2|0,0:0|0:0,0:0:0:0:
198,264,217420,54,0,P|180:231|173:184,1,81.25,2|0,1:2|0:0,0:0:0:0:
424,213,217623,22,0,P|405:180|368:159,1,81.25,2|0,0:0|0:0,0:0:0:0:
79,149,217826,54,0,P|98:116|135:95,1,81.25,2|0,3:2|0:0,0:0:0:0:
392,56,218028,22,0,P|374:89|367:136,1,81.25,10|0,1:2|0:0,0:0:0:0:
172,188,218231,54,0,P|190:221|197:268,1,81.25,2|0,0:0|0:0,0:0:0:0:
338,362,218434,21,2,3:2:0:0:
336,346,218637,1,8,3:0:0:0:
334,330,218839,1,4,3:0:0:0:
334,330,219245,38,0,P|237:305|161:369,1,195.00000743866,6|0,3:2|3:0,0:0:0:0:
166,358,220055,2,0,P|181:314|177:262,1,97.50000371933,2|2,3:2|0:0,0:0:0:0:
32,100,220461,22,0,P|103:145|193:116,1,171.600005236817,4|0,3:2|0:0,0:0:0:0:
280,6,220866,2,0,P|205:44|185:137,1,171.600005236817,2|0,3:2|0:0,0:0:0:0:
237,267,221272,2,0,P|240:183|170:119,1,171.600005236817,2|0,3:2|0:0,0:0:0:0:
441,0,221677,54,0,P|397:51|392:175,1,195,6|0,1:2|0:0,0:0:0:0:
504,359,222082,2,0,P|474:302|354:301,1,195,2|0,3:2|0:0,0:0:0:0:
415,368,222488,1,2,1:2:0:0:
130,301,222691,1,2,3:2:0:0:
339,80,222893,22,0,P|346:186|355:300,1,220.350000672455,4|0,1:2|0:0,0:0:0:0:
3,217,223299,54,0,P|31:187|67:172,1,81.25,0|0,3:0|0:0,0:0:0:0:
180,152,223501,2,0,P|220:154|255:172,1,81.25,8|0,3:0|0:0,0:0:0:0:
139,348,223704,22,0,P|131:323|130:291,1,48.75,6|0,3:0|0:0,0:0:0:0:
392,14,224109,70,0,P|385:120|376:278,1,260,6|2,3:2|0:0,0:0:0:0:
139,91,224718,2,0,P|152:163|162:224,1,130,2|0,0:0|3:0,0:0:0:0:
474,309,225326,21,10,1:2:0:0:
376,273,225528,1,2,0:0:0:0:
266,342,225731,1,2,0:0:0:0:
93,283,225934,1,2,0:0:0:0:
164,10,226137,1,2,3:2:0:0:
437,81,226339,1,2,0:0:0:0:
366,354,226542,2,0,P|303:343|221:332,1,146.250005578995,2|0,3:2|0:0,0:0:0:0:
221,332,226947,1,0,0:0:0:0:
7,168,227150,53,2,1:2:0:0:
92,227,227353,1,2,0:0:0:0:
190,193,227555,1,2,3:2:0:0:
254,0,227758,2,0,P|246:49|240:101,1,97.50000371933,10|2,1:2|0:0,0:0:0:0:
413,246,228164,21,2,3:2:0:0:
512,222,228366,1,8,3:0:0:0:
441,146,228569,1,4,3:0:0:0:
149,301,228772,1,2,0:0:0:0:
295,4,228974,1,6,3:2:0:0:
352,330,229177,1,2,0:0:0:0:
113,99,229380,1,2,0:0:0:0:
237,146,229582,2,0,P|285:137|334:131,1,97.50000371933,0|2,1:0|0:0,0:0:0:0:
238,383,229988,53,2,3:2:0:0:
113,99,230191,1,10,1:2:0:0:
419,133,230393,1,2,0:0:0:0:
95,345,230596,1,0,3:0:0:0:
70,341,230799,1,8,3:0:0:0:
45,337,231001,1,4,3:0:0:0:
197,15,231204,21,2,0:0:0:0:
326,264,231407,1,6,3:2:0:0:
409,201,231609,1,2,0:0:0:0:
507,235,231812,1,2,0:0:0:0:
333,369,232015,2,0,P|286:358|234:351,2,97.50000371933,0|2|0,1:0|0:0|3:0,0:0:0:0:
256,20,232623,53,8,1:2:0:0:
118,350,232826,1,2,0:0:0:0:
473,304,233028,1,2,3:2:0:0:
470,285,233231,1,8,3:0:0:0:
314,239,233434,2,0,P|290:244|263:253,1,48.75,4|0,3:0|0:0,0:0:0:0:
0,85,233839,22,0,P|63:108|208:8,1,260,6|2,3:2|0:0,0:0:0:0:
491,168,234447,2,0,P|442:169|400:145,1,97.5,2|0,1:2|0:0,0:0:0:0:
465,79,234853,53,2,3:2:0:0:
345,380,235055,1,10,1:2:0:0:
434,324,235258,21,2,0:0:0:0:
304,25,235461,1,2,0:0:0:0:
199,212,235664,53,2,0:0:0:0:
103,252,235866,1,2,3:2:0:0:
14,197,236069,1,2,0:0:0:0:
304,25,236272,22,0,P|322:62|326:109,1,84.4999961318971,2|0,3:2|0:0,0:0:0:0:
311,260,236474,2,0,P|298:296|273:326,1,77.999997619629,2|0,0:0|0:0,0:0:0:0:
14,197,236677,54,0,P|45:177|84:168,1,71.5000021820069,2|0,0:0|0:0,0:0:0:0:
196,157,236880,2,0,P|232:158|270:170,1,65,0|0,1:0|0:0,0:0:0:0:
505,235,237082,21,2,0:0:0:0:
445,149,237285,1,0,3:0:0:0:
401,244,237488,2,0,P|408:308|415:378,1,130,8|2,1:2|0:0,0:0:0:0:
74,273,237893,1,2,3:2:0:0:
322,57,238096,1,8,3:0:0:0:
248,378,238299,1,4,3:0:0:0:
120,75,238501,1,2,0:0:0:0:
401,244,238704,54,0,P|410:179|421:115,1,130,4|0,3:1|0:0,0:0:0:0:
131,342,239109,2,0,P|120:253|107:175,1,162.5,2|0,0:0|1:0,0:0:0:0:
199,87,239515,1,2,0:0:0:0:
323,124,239718,1,2,3:2:0:0:
131,342,239920,21,12,1:2:0:0:
38,66,240123,1,2,0:0:0:0:
323,124,240326,2,0,P|386:109|450:100,1,130,2|0,3:2|0:0,0:0:0:0:
140,249,240731,2,0,P|93:236|45:228,1,97.50000371933,2|0,3:2|0:0,0:0:0:0:
262,50,241137,54,0,P|270:26|275:-4,2,52,4|2|2,3:1|0:0|0:0,0:0:0:0:
221,340,241745,21,0,1:0:0:0:
332,306,241947,2,0,P|380:311|429:321,1,97.50000371933,2|0,0:0|3:0,0:0:0:0:
176,128,242353,54,0,P|124:144|25:61,1,195,14|0,1:2|0:0,0:0:0:0:
272,176,242758,1,2,3:2:0:0:
269,199,242961,1,8,3:0:0:0:
266,222,243164,1,4,3:0:0:0:
119,49,243366,1,2,0:0:0:0:
375,2,243569,22,0,P|383:74|392:198,1,195,6|0,3:2|0:0,0:0:0:0:
391,196,243974,1,0,0:0:0:0:
493,179,244176,1,0,1:0:0:0:
413,344,244380,1,0,0:0:0:0:
311,327,244582,1,0,3:0:0:0:
97,378,244785,54,0,P|103:289|108:226,1,146.250005578995,10|0,1:2|0:0,0:0:0:0:
17,48,245191,2,0,P|22:120|27:193,1,146.250005578995,2|0,0:0|0:0,0:0:0:0:
107,232,245596,2,0,P|154:237|199:219,1,97.50000371933,2|0,3:2|0:0,0:0:0:0:
512,298,246001,22,0,P|466:247|341:258,1,195.00000743866,2|2,3:2|0:0,0:0:0:0:
296,0,246609,2,0,P|289:99|282:196,1,195.00000743866,0|0,1:0|3:0,0:0:0:0:
107,232,247218,2,0,P|102:183|97:135,1,97.50000371933,10|0,1:2|0:0,0:0:0:0:
214,321,247623,2,0,P|265:303|374:374,1,195.00000743866,2|0,0:0|3:0,0:0:0:0:
374,374,248231,1,2,0:0:0:0:
108,208,248434,54,0,P|116:158|126:109,1,97.50000371933,6|0,3:2|0:0,0:0:0:0:
220,180,248839,1,0,0:0:0:0:
315,112,249042,1,0,1:0:0:0:
279,0,249245,1,0,0:0:0:0:
162,0,249447,1,0,3:0:0:0:
339,104,249650,22,0,P|392:92|453:85,1,114.400003491211,10|0,1:2|0:0,0:0:0:0:
128,239,250055,2,0,P|64:225|1:216,1,130,2|0,0:0|0:0,0:0:0:0:
220,376,250461,54,0,P|247:352|282:340,1,73.4500002241516,2|0,3:2|0:0,0:0:0:0:
500,339,250664,2,0,P|465:321|425:318,1,81.25,2|0,0:0|0:0,0:0:0:0:
82,136,250866,22,0,P|72:40|191:104,1,292.50001115799,4|0,3:1|0:0,0:0:0:0:
0,338,251272,53,2,0:0:0:0:
0,338,251474,2,0,P|48:329|97:322,1,97.50000371933,0|0,1:0|0:0,0:0:0:0:
209,371,251880,1,2,3:2:0:0:
501,285,252082,2,0,P|464:221|345:220,1,195,12|0,1:2|0:0,0:0:0:0:
353,216,252488,22,0,P|341:197|334:169,1,48.750001859665,0|0,3:0|0:0,0:0:0:0:
185,175,252691,2,0,P|184:154|192:126,1,48.750001859665,8|0,3:0|0:0,0:0:0:0:
60,56,252894,54,0,P|67:41|76:28,1,32.5,6|2,3:0|0:0,0:0:0:0:
340,22,253299,22,0,P|258:30|177:36,1,162.5,6|2,3:2|0:0,0:0:0:0:
1,206,253704,1,2,0:0:0:0:
1,206,253907,2,0,P|56:250|126:238,1,146.250005578995,0|0,1:0|0:0,0:0:0:0:
126,238,254312,1,2,3:2:0:0:
486,152,254515,54,0,P|404:118|281:197,1,243.75,10|0,1:2|0:0,0:0:0:0:
202,284,254920,2,0,P|162:198|195:110,1,195,2|2,3:2|0:0,0:0:0:0:
397,239,255326,2,0,P|406:311|413:385,1,146.250005578995,2|0,3:2|0:0,0:0:0:0:
282,194,255731,22,0,P|289:112|294:32,1,162.5,6|2,3:2|0:0,0:0:0:0:
122,252,256137,1,2,0:0:0:0:
122,252,256339,2,0,P|117:203|111:155,1,97.50000371933,0|2,1:0|0:0,0:0:0:0:
22,354,256745,1,0,3:0:0:0:
282,194,256947,54,0,P|362:182|444:305,1,243.75,10|0,1:2|0:0,0:0:0:0:
214,262,257353,2,0,P|236:193|356:154,1,195,2|0,3:2|0:0,0:0:0:0:
209,344,257758,2,0,P|179:279|197:209,1,146.250005578995,2|0,3:2|0:0,0:0:0:0:
338,285,258164,22,0,P|327:202|319:121,1,162.5,4|2,3:2|0:0,0:0:0:0:
60,94,258569,1,2,0:0:0:0:
60,93,258772,2,0,P|103:36|173:25,1,146.250005578995,0|0,1:0|0:0,0:0:0:0:
173,25,259177,1,2,3:2:0:0:
287,264,259380,54,0,P|167:248|45:236,1,243.75,10|0,1:2|0:0,0:0:0:0:
338,345,259785,2,0,P|383:263|338:182,1,195,2|0,3:2|0:0,0:0:0:0:
270,23,260191,2,0,P|255:94|243:167,1,146.250005578995,2|0,3:2|0:0,0:0:0:0:
287,264,260596,21,6,3:2:0:0:
110,314,260799,1,2,0:0:0:0:
44,235,261001,1,2,0:0:0:0:
44,235,261179,2,0,P|52:187|59:121,1,109.687504184246,0|2,1:0|0:0,0:0:0:0:
58,126,261609,1,0,3:0:0:0:
258,352,261812,54,0,P|294:330|362:329,1,97.5,14|0,1:2|0:0,0:0:0:0:
348,325,262218,22,0,P|347:302|355:274,1,48.750001859665,2|0,3:2|0:0,0:0:0:0:
223,205,262421,2,0,P|232:186|253:166,1,48.750001859665,8|0,3:0|0:0,0:0:0:0:
173,40,262624,54,0,P|191:28|219:21,1,48.750001859665,6|0,3:0|0:0,0:0:0:0:
465,70,263028,22,0,P|424:67|385:78,1,81.25,6|0,3:2|0:0,0:0:0:0:
273,143,263231,2,0,P|241:169|222:205,1,81.25,2|0,0:0|0:0,0:0:0:0:
185,331,263434,1,2,0:0:0:0:
511,320,263637,54,0,P|440:227|323:236,1,243.75,2|0,1:2|0:0,0:0:0:0:
390,344,264042,1,2,3:2:0:0:
204,88,264245,1,10,1:2:0:0:
504,186,264447,1,2,0:0:0:0:
204,283,264650,2,0,P|155:274|104:268,1,97.5,2|0,3:2|0:0,0:0:0:0:
390,28,265055,2,0,P|328:40|245:48,1,146.250005578995,2|0,3:2|0:0,0:0:0:0:
245,47,265461,2,0,P|273:97|263:173,1,130,8|2,3:1|0:0,0:0:0:0:
6,301,265866,22,0,P|15:263|42:229,1,81.25,2|0,0:0|0:0,0:0:0:0:
164,121,266069,2,0,P|200:106|243:108,1,81.25,2|0,1:2|0:0,0:0:0:0:
401,146,266272,2,0,P|433:167|456:203,1,81.25,2|0,0:0|0:0,0:0:0:0:
125,378,266474,54,0,P|104:343|100:302,1,81.25,2|0,3:2|0:0,0:0:0:0:
466,102,266677,22,0,P|439:130|398:146,1,81.25,10|0,1:2|0:0,0:0:0:0:
238,158,266880,2,0,P|198:152|162:128,1,81.25,2|0,0:0|0:0,0:0:0:0:
26,32,267082,54,0,P|41:116|49:199,1,146.250005578995,2|0,3:2|0:0,0:0:0:0:
105,360,267488,2,0,B|108:327|110:308|121:264,1,97.5,2|0,3:2|0:0,0:0:0:0:
47,176,267893,22,0,P|125:149|235:257,1,243.75,6|0,3:2|0:0,0:0:0:0:
121,264,268299,1,2,0:0:0:0:
505,88,268501,54,0,P|427:61|317:169,1,243.75,2|0,1:2|0:0,0:0:0:0:
431,176,268907,1,2,3:2:0:0:
106,70,269109,1,10,1:2:0:0:
307,347,269312,1,2,0:0:0:0:
307,5,269515,2,0,P|298:47|291:105,1,97.5,2|0,3:2|0:0,0:0:0:0:
106,281,269920,2,0,P|101:229|87:134,1,146.250005578995,2|0,3:2|0:0,0:0:0:0:
87,136,270326,2,0,P|146:106|208:118,1,130,8|2,3:1|0:0,0:0:0:0:
341,371,270731,22,0,P|348:330|368:296,1,81.25,2|0,0:0|0:0,0:0:0:0:
168,338,270934,54,0,P|159:297|139:263,1,81.25,2|0,1:2|0:0,0:0:0:0:
467,259,271137,22,0,P|447:223|410:201,1,81.25,8|0,3:0|0:0,0:0:0:0:
42,225,271339,54,0,P|62:189|99:167,1,81.25,4|0,3:0|0:0,0:0:0:0:
417,82,271542,22,0,P|377:85|337:109,1,81.25,8|0,1:2|0:0,0:0:0:0:
88,51,271745,54,0,P|127:54|167:78,1,81.25,2|0,0:0|0:0,0:0:0:0:
356,0,271947,22,0,P|359:41|346:80,1,81.25,2|0,3:2|0:0,0:0:0:0:
130,185,272150,54,0,P|127:226|140:265,1,81.25,8|0,3:0|0:0,0:0:0:0:
453,345,272353,22,0,P|407:303|356:296,1,103.999996826172,6|2,3:0|0:0,0:0:0:0:
351,298,272707,1,2,0:0:0:0:
335,303,272792,6,0,L|346:182,1,119.166666666667,2|2,0:0|0:0,0:0:0:0:
345,184,273366,1,2,0:0:0:0:
345,184,273772,1,2,0:0:0:0:
258,207,273974,1,2,0:0:0:0:
176,165,274177,1,0,0:0:0:0:
156,75,274380,1,2,0:0:0:0:
156,75,274785,1,2,0:0:0:0:
41,351,275191,5,2,0:0:0:0:
41,351,275596,69,2,0:0:0:0:
84,270,275799,1,2,0:0:0:0:
171,247,276001,1,2,0:0:0:0:
254,282,276204,1,2,0:0:0:0:
248,303,276407,5,2,0:0:0:0:
167,260,276610,1,2,0:0:0:0:
144,173,276812,1,2,0:0:0:0:
179,90,277218,1,2,0:0:0:0:
270,191,277454,70,0,L|230:173,2,21.6666666666667,0|2|2,0:0|0:0|0:0,0:0:0:0:
282,207,277623,6,0,P|343:200|411:195,1,130,2|0,0:0|0:0,0:0:0:0:
248,303,278231,69,2,0:0:0:0:
158,315,278434,1,2,0:0:0:0:
80,270,278637,1,2,0:0:0:0:
60,181,278839,5,2,0:0:0:0:
80,270,279042,1,2,0:0:0:0:
158,315,279245,1,2,0:0:0:0:
248,303,279650,69,2,0:0:0:0:
385,42,280055,6,0,P|448:55|517:67,2,130,2|2|2,0:0|0:0|0:0,0:0:0:0:
64,136,281271,70,0,P|27:73|138:97,1,260,2|2,0:0|0:0,0:0:0:0:
22,242,282463,6,0,P|90:226|150:217,1,130,2|2,0:0|0:0,0:0:0:0:
149,217,283302,1,2,0:0:0:0:
149,217,283707,1,0,0:0:0:0:
231,250,284112,1,2,0:0:0:0:
318,237,284518,1,2,0:0:0:0:
273,66,284801,69,2,0:0:0:0:
273,66,284943,1,0,0:0:0:0:
273,66,285024,2,0,P|265:113|261:166,1,99.9374969501496,2|0,0:0|0:0,0:0:0:0:
342,237,286247,6,0,P|349:235|359:233,2,10.8333333333333,2|0|0,0:0|0:0|0:0,0:0:0:0:
321,253,286479,70,0,P|237:243|164:238,1,156,2|2,0:0|0:3,0:0:0:0:
256,192,289847,12,0,300738,0:0:0:0:
