osu file format v14

[General]
AudioFilename: audio.mp3
AudioLeadIn: 0
PreviewTime: 46478
Countdown: 1
SampleSet: Normal
StackLeniency: 0.7
Mode: 0
LetterboxInBreaks: 0
WidescreenStoryboard: 1

[Editor]
Bookmarks: 385,4135,24135,34135,41635,46635,66635,84135,86635
DistanceSpacing: 1
BeatDivisor: 4
GridSize: 32
TimelineZoom: 1

[Metadata]
Title:Hikari no Senritsu
TitleUnicode:光の旋律
Artist:Kalafina
ArtistUnicode:カラフィナ
Creator:MagicDragon
Version:Normal
Source:
Tags:
BeatmapID:1467729
BeatmapSetID:693696

[Difficulty]
HPDrainRate:4
CircleSize:3.2
OverallDifficulty:5
ApproachRate:5.5
SliderMultiplier:1.7
SliderTickRate:1

[Events]
//Background and Video events
//Break Periods
//Storyboard Layer 0 (Background)
//Storyboard Layer 1 (Fail)
//Storyboard Layer 2 (Pass)
//Storyboard Layer 3 (Foreground)
//Storyboard Sound Samples

[TimingPoints]
385,625,4,1,0,100,1,0
4135,625,4,1,0,100,1,0

[HitObjects]
101,271,385,5,0,0:0:0:0:
167,323,697,2,0,L|209:317,1,42.5
228,279,1010,2,0,P|266:295|308:291,1,85
384,252,1635,1,0,0:0:0:0:
436,185,1947,2,0,L|430:143,1,42.5
425,100,2260,2,0,P|386:116|344:111,1,85
275,61,2885,2,0,L|233:55,1,42.5
212,18,3197,2,0,L|170:24,1,42.5
151,62,3510,2,0,P|113:46|71:50,1,85
16,116,4135,6,0,P|0:197|45:266,1,170
118,311,5072,1,0,0:0:0:0:
185,259,5385,2,0,L|273:274,1,85
312,346,6010,2,0,L|400:330,1,85
435,255,6635,6,0,P|480:185|464:104,1,170
422,29,7572,1,0,0:0:0:0:
336,30,7885,1,0,0:0:0:0:
291,194,8510,2,0,B|249:200|249:200|209:187,1,85
198,102,9135,6,0,P|128:56|47:72,1,170
21,153,10072,1,0,0:0:0:0:
106,170,10385,2,0,L|90:258,1,85
17,297,11010,2,0,L|32:385,1,85
116,373,11635,6,0,P|197:388|267:343,1,170
287,261,12572,1,0,0:0:0:0:
214,217,12885,2,0,L|243:49,1,170
324,23,13822,1,0,0:0:0:0:
405,46,14135,6,0,P|450:115|434:196,1,170
381,263,15072,1,0,0:0:0:0:
307,219,15385,2,0,L|218:234,1,85
178,306,16010,2,0,L|89:290,1,85
25,241,16635,6,0,P|9:159|54:90,1,170
141,92,17572,1,0,0:0:0:0:
193,159,17885,1,0,0:0:0:0:
362,166,18510,2,0,B|374:206|374:206|368:247,1,85
313,313,19135,6,0,P|243:358|162:342,1,170
114,271,20072,1,0,0:0:0:0:
181,218,20385,2,0,L|165:129,1,85
86,105,21010,2,0,L|101:16,1,85
185,32,21635,6,0,P|266:16|335:61,1,170
306,140,22572,1,0,0:0:0:0:
342,216,22885,2,0,L|174:245,1,170
98,207,23822,2,0,L|90:165,1,42.5
81,123,24135,5,0,0:0:0:0:
152,77,24447,2,0,P|235:87|318:68,1,170
401,48,25385,1,0,0:0:0:0:
470,96,25697,1,0,0:0:0:0:
455,265,26322,1,0,0:0:0:0:
387,315,26635,6,0,P|327:329|267:295,1,127.5
263,258,27260,2,0,B|221:245|221:245|180:252,1,85
99,276,27885,1,0,0:0:0:0:
25,234,28197,1,0,0:0:0:0:
64,68,28822,2,0,L|106:75,1,42.5
147,82,29135,5,0,0:0:0:0:
231,70,29447,2,0,P|250:152|239:236,1,170
182,299,30385,1,0,0:0:0:0:
225,371,30697,1,0,0:0:0:0:
388,325,31322,1,0,0:0:0:0:
377,239,31635,6,0,P|374:197|385:156,1,85
469,139,32260,2,0,P|472:96|461:55,1,85
383,21,32885,2,0,B|300:51|300:51|218:44,1,170
135,27,33822,1,0,0:0:0:0:
68,80,34135,6,0,P|60:126|76:171,1,85
155,170,34760,2,0,P|163:216|147:261,1,85
87,307,35385,1,0,0:0:0:0:
251,347,36010,1,0,0:0:0:0:
326,307,36323,1,0,0:0:0:0:
284,233,36635,6,0,P|273:192|281:150,1,85
365,143,37260,2,0,P|375:102|367:60,1,85
300,8,37885,2,0,P|217:10|160:71,1,170
201,145,38822,1,0,0:0:0:0:
128,190,39135,6,0,L|143:273,1,85
208,327,39760,1,0,0:0:0:0:
278,280,40072,1,0,0:0:0:0:
343,332,40385,2,0,P|385:328|418:302,1,85
406,261,40853,2,0,P|423:222|416:181,1,85
374,171,41322,1,0,0:0:0:0:
294,138,41635,6,0,P|214:133|186:58,1,170
248,0,42572,1,0,0:0:0:0:
316,50,42885,2,0,L|399:34,1,85
480,60,43510,1,0,0:0:0:0:
487,144,43822,1,0,0:0:0:0:
415,189,44135,6,0,P|358:249|275:251,1,170
259,167,45072,1,0,0:0:0:0:
192,113,45385,2,0,P|150:117|117:143,1,85
66,211,46010,2,0,L|73:252,1,42.5
85,293,46322,1,0,0:0:0:0:
147,350,46635,6,0,P|188:357|227:342,1,85
245,259,47260,2,0,P|284:244|325:251,1,85
352,332,47885,2,0,L|435:347,1,85
490,282,48510,1,0,0:0:0:0:
453,205,48822,1,0,0:0:0:0:
467,121,49135,6,0,P|474:79|459:40,1,85
374,45,49760,2,0,P|334:59|293:52,1,85
221,5,50385,2,0,L|138:20,1,85
77,80,51010,1,0,0:0:0:0:
134,142,51322,1,0,0:0:0:0:
97,219,51635,6,0,P|89:291|161:276,1,170
214,208,52572,1,0,0:0:0:0:
265,275,52885,1,0,0:0:0:0:
333,225,53197,1,0,0:0:0:0:
389,288,53510,1,0,0:0:0:0:
462,243,53822,1,0,0:0:0:0:
453,158,54135,6,0,P|461:85|389:100,1,170
321,150,55072,1,0,0:0:0:0:
262,88,55385,2,0,L|179:103,1,85
116,161,56010,1,0,0:0:0:0:
134,243,56322,1,0,0:0:0:0:
213,272,56635,6,0,P|254:279|293:264,1,85
355,205,57260,2,0,P|394:190|435:197,1,85
494,258,57885,2,0,L|479:341,1,85
394,354,58510,1,0,0:0:0:0:
310,341,58822,1,0,0:0:0:0:
229,367,59135,6,0,P|187:374|148:359,1,85
149,274,59760,1,0,0:0:0:0:
102,203,60072,1,0,0:0:0:0:
134,123,60385,2,0,P|173:109|215:116,1,85
259,188,61010,1,0,0:0:0:0:
342,173,61322,1,0,0:0:0:0:
380,97,61635,6,0,P|395:25|322:32,1,170
259,88,62572,1,0,0:0:0:0:
180,55,62884,1,0,0:0:0:0:
104,93,63197,1,0,0:0:0:0:
157,159,63510,1,0,0:0:0:0:
96,219,63822,1,0,0:0:0:0:
149,286,64135,6,0,P|179:352|233:303,1,170
260,221,65072,1,0,0:0:0:0:
342,241,65385,2,0,B|416:290|428:219|502:269,1,170
497,99,66635,6,0,P|456:106|417:91,1,85
399,8,67260,2,0,P|360:-7|319:0,1,85
291,80,67885,2,0,L|208:65,1,85
123,51,68510,1,0,0:0:0:0:
110,135,68822,1,0,0:0:0:0:
191,160,69135,6,0,P|198:202|183:241,1,85
98,250,69760,2,0,P|83:289|90:330,1,85
158,381,70385,2,0,L|241:366,1,85
272,286,71010,1,0,0:0:0:0:
348,322,71322,1,0,0:0:0:0:
416,271,71635,6,0,P|489:279|473:208,1,170
441,129,72572,1,0,0:0:0:0:
362,160,72885,1,0,0:0:0:0:
291,112,73197,1,0,0:0:0:0:
220,159,73510,1,0,0:0:0:0:
139,131,73822,1,0,0:0:0:0:
81,194,74135,6,0,P|19:233|76:280,1,170
152,318,75072,1,0,0:0:0:0:
216,262,75385,2,0,L|299:277,1,85
384,277,76010,1,0,0:0:0:0:
397,193,76322,1,0,0:0:0:0:
383,108,76635,6,0,P|342:101|303:116,1,85
241,175,77260,2,0,P|202:190|161:183,1,85
102,122,77885,2,0,L|117:39,1,85
194,1,78510,1,0,0:0:0:0:
278,14,78822,1,0,0:0:0:0:
345,66,79135,6,0,P|352:107|337:146,1,85
285,214,79760,1,0,0:0:0:0:
216,164,80072,1,0,0:0:0:0:
134,188,80385,2,0,B|92:266|163:271|121:350,1,170
36,357,81322,1,0,0:0:0:0:
2,278,81635,5,0,0:0:0:0:
42,203,81947,1,0,0:0:0:0:
0,129,82260,1,0,0:0:0:0:
16,45,82572,1,0,0:0:0:0:
97,69,82885,2,0,P|136:84|177:76,1,85
225,6,83510,2,0,P|266:-2|305:12,1,85
375,62,84135,5,0,0:0:0:0:
427,128,84447,2,0,L|421:170,1,42.5
383,189,84760,2,0,P|399:227|395:269,1,85
331,326,85385,2,0,L|289:332,1,42.5
268,369,85697,2,0,L|226:363,1,42.5
207,325,86010,2,0,P|169:341|127:337,1,85
88,261,86635,5,0,0:0:0:0:
256,192,86791,12,0,88510,0:0:0:0:
