osu file format v14

[General]
AudioFilename: audio.mp3
AudioLeadIn: 0
PreviewTime: 143841
Countdown: 1
SampleSet: Soft
StackLeniency: 0.7
Mode: 0
LetterboxInBreaks: 0
WidescreenStoryboard: 1

[Editor]
Bookmarks: 56802,81834,143458,143841,200879,226484
DistanceSpacing: 2
BeatDivisor: 4
GridSize: 4
TimelineZoom: 1.5

[Metadata]
Title:Heavenly Blue
TitleUnicode:Heavenly Blue
Artist:Kalafina
ArtistUnicode:Kalafina
Creator:_Acerola
Version:Lemrina
Source:アルドノア・ゼロ
Tags:aldnoah.zero aldnoah zero opening kajiura yuki 梶浦由記 大滝若菜 otaki wakana 窪田啓子 kubota keiko 政井光 masai hikaru full ver lemrina hime slaine troyard
BeatmapID:1857863
BeatmapSetID:888841

[Difficulty]
HPDrainRate:5.2
CircleSize:4
OverallDifficulty:8.7
ApproachRate:9.2
SliderMultiplier:1.8
SliderTickRate:1

[Events]
//Background and Video events
0,0,"lemrina.png",0,0
//Break Periods
2,87576,91378
2,226683,231250
//Storyboard Layer 0 (Background)
//Storyboard Layer 1 (Fail)
//Storyboard Layer 2 (Pass)
//Storyboard Layer 3 (Foreground)
//Storyboard Sound Samples

[TimingPoints]
274,382.165605095541,4,2,0,45,1,0
6197,-100,4,2,0,5,0,0
6357,382.165605095541,4,2,0,45,1,0
6357,-100,4,2,1,45,0,0
6548,-100,4,2,11,45,0,0
18586,-100,4,2,1,45,0,0
18777,-100,4,2,11,45,0,0
30815,-133.333333333333,4,2,11,45,0,0
33777,-133.333333333333,4,2,11,5,0,0
33872,-133.333333333333,4,2,11,45,0,0
39892,-133.333333333333,4,2,11,5,0,0
39987,-133.333333333333,4,2,11,45,0,0
43044,-133.333333333333,4,2,1,45,0,0
46006,-133.333333333333,4,2,1,5,0,0
46102,-133.333333333333,4,2,1,45,0,0
55274,-100,4,2,11,45,0,0
56802,-83.3333333333333,4,2,1,45,0,1
56993,-83.3333333333333,4,2,11,45,0,1
69032,-83.3333333333333,4,2,1,45,0,1
69223,-83.3333333333333,4,2,11,45,0,1
75146,-83.3333333333333,4,2,11,45,0,1
80879,-83.3333333333333,4,2,11,45,0,0
81261,-76.9230769230769,4,2,11,45,0,1
84127,-90.9090909090909,4,2,11,45,0,0
87376,-100,4,2,1,45,0,0
91962,-100,4,2,11,45,0,0
93490,-100,4,2,1,45,0,0
93681,-100,4,2,11,45,0,0
105720,-100,4,2,1,45,0,0
105911,-100,4,2,11,45,0,0
117949,-133.333333333333,4,2,11,45,0,0
120911,-133.333333333333,4,2,11,5,0,0
121006,-133.333333333333,4,2,11,45,0,0
124064,-133.333333333333,4,2,11,45,0,0
127025,-133.333333333333,4,2,11,5,0,0
127121,-133.333333333333,4,2,11,45,0,0
130178,-133.333333333333,4,2,11,45,0,0
133140,-133.333333333333,4,2,11,5,0,0
133235,-133.333333333333,4,2,11,45,0,0
136293,-133.333333333333,4,2,11,45,0,0
142407,-100,4,2,11,45,0,0
143936,-83.3333333333333,4,2,1,45,0,1
144127,-83.3333333333333,4,2,11,45,0,1
155401,-83.3333333333333,4,2,1,45,0,1
156165,-83.3333333333333,4,2,1,45,0,1
156356,-83.3333333333333,4,2,11,45,0,1
162280,-83.3333333333333,4,2,11,45,0,1
168013,-83.3333333333333,4,2,11,45,0,0
168395,-76.9230769230769,4,2,11,45,0,1
171452,-100,4,2,11,45,0,0
183681,-100,4,2,11,45,0,0
189796,-100,4,2,11,45,0,0
192758,-100,4,2,11,5,0,0
192853,-100,4,2,11,45,0,0
195911,-100,4,2,11,45,0,0
208140,-100,4,2,11,45,0,0
220369,-153.846153846153,4,2,11,45,0,0
226484,-100,4,2,11,45,0,0
232599,-83.3333333333333,4,2,1,45,0,1
232790,-83.3333333333333,4,2,11,45,0,1
237949,-83.3333333333333,4,2,1,45,0,1
238713,-83.3333333333333,4,2,1,45,0,1
238904,-83.3333333333333,4,2,11,45,0,1
241293,-83.3333333333333,4,2,11,5,0,1
241388,-83.3333333333333,4,2,11,45,0,1
241675,-83.3333333333333,4,2,11,5,0,1
241771,-83.3333333333333,4,2,11,45,0,1
244828,-83.3333333333333,4,2,1,45,0,1
245019,-83.3333333333333,4,2,11,45,0,1
247885,-83.3333333333333,4,2,1,45,0,1
248267,-83.3333333333333,4,2,11,45,0,1
248649,-83.3333333333333,4,2,1,45,0,1
249032,-83.3333333333333,4,2,11,45,0,1
250369,-83.3333333333333,4,2,1,45,0,0
250942,-80,4,2,1,45,0,1
251134,-80,4,2,11,45,0,1
257057,-80,4,2,1,45,0,1
257439,-80,4,2,11,45,0,1
262407,-80,4,2,1,45,0,1
263172,-80,4,2,1,45,0,1
263363,-80,4,2,11,45,0,1
269286,-80,4,2,1,45,0,1
269478,-80,4,2,11,45,0,1
275401,-80,4,2,1,45,0,1
275592,-80,4,2,11,45,0,1
281516,-156.25,4,2,1,45,0,0
287439,-181.818181818181,4,2,1,5,0,0
287630,-181.818181818181,4,2,11,20,0,0
287917,-181.818181818181,4,2,11,5,0,0
288013,-181.818181818181,4,2,11,20,0,0
288299,-181.818181818181,4,2,11,5,0,0
288395,-181.818181818181,4,2,11,20,0,0
288681,-181.818181818181,4,2,11,5,0,0
288777,-181.818181818181,4,2,11,20,0,0
289064,-181.818181818181,4,2,11,5,0,0
289159,-181.818181818181,4,2,11,20,0,0
289828,-181.818181818181,4,2,11,5,0,0
289923,-181.818181818181,4,2,11,20,0,0
290592,-181.818181818181,4,2,11,5,0,0
290688,-181.818181818181,4,2,11,20,0,0
291356,-181.818181818181,4,2,11,5,0,0
291452,-181.818181818181,4,2,11,20,0,0
292121,-181.818181818181,4,2,11,5,0,0
292216,-181.818181818181,4,2,11,20,0,0
292885,-181.818181818181,4,2,11,5,0,0
292981,-181.818181818181,4,2,11,20,0,0
293649,-181.818181818181,4,2,11,5,0,0
293745,-181.818181818181,4,2,11,20,0,0
294414,-181.818181818181,4,2,11,5,0,0
294509,-181.818181818181,4,2,11,20,0,0
295178,-181.818181818181,4,2,11,5,0,0
295274,-181.818181818181,4,2,11,20,0,0
296707,-181.818181818181,4,2,11,5,0,0
296802,-181.818181818181,4,2,11,20,0,0
298235,-181.818181818181,4,2,11,5,0,0
298331,-181.818181818181,4,2,11,20,0,0
301388,-181.818181818181,4,2,11,5,0,0
302917,-303.030303030303,4,2,1,45,0,0
315146,-303.030303030303,4,2,1,5,0,0

[Colours]
Combo1 : 0,0,0
Combo2 : 255,255,255
Combo3 : 0,128,255
Combo4 : 128,0,0

[HitObjects]
256,192,3331,12,0,6197,0:0:0:0:
256,192,6357,37,12,0:0:0:0:
359,106,6548,1,0,0:0:0:0:
217,122,6739,5,8,0:0:0:0:
404,183,6930,1,0,0:0:0:0:
245,200,7121,37,0,0:0:0:0:
369,95,7312,1,0,0:0:0:0:
199,126,7503,5,0,0:0:0:0:
422,188,7694,2,0,P|423:241|403:283,1,90,0|0,0:0|0:3,0:0:0:0:
144,287,8076,37,0,0:0:0:0:
74,109,8267,1,8,0:0:0:0:
34,263,8458,5,0,0:0:0:0:
154,75,8649,1,0,0:0:0:0:
154,75,8841,1,0,0:0:0:0:
112,205,9032,2,0,P|122:254|150:293,1,90
346,286,9414,37,0,0:0:0:0:
244,110,9605,1,0,0:0:0:0:
143,286,9796,1,8,0:0:0:0:
346,286,9987,2,0,P|369:248|377:204,1,90
314,52,10369,5,0,0:0:0:0:
124,118,10560,1,0,0:0:0:0:
244,110,10751,37,0,0:0:0:0:
42,56,10942,1,0,0:0:0:0:
184,53,11134,5,0,0:0:0:0:
37,175,11325,1,8,0:0:0:0:
244,110,11516,2,0,P|293:105|345:112,1,90
173,195,11898,37,0,0:0:0:0:
374,203,12089,1,0,0:0:0:0:
173,195,12280,1,0,0:0:0:0:
484,161,12471,5,0,0:0:0:0:
275,315,12662,1,0,0:0:0:0:
244,110,12853,1,8,0:0:0:0:
374,203,13044,2,0,P|330:227|281:234,1,90
70,271,13427,2,0,P|118:283|159:311,1,90
296,197,13809,37,0,0:0:0:0:
93,166,14000,1,0,0:0:0:0:
219,253,14191,5,0,0:0:0:0:
99,82,14382,1,8,0:0:0:0:
36,234,14573,2,0,P|79:250|127:249,1,90
272,118,14955,2,0,P|316:118|358:133,1,90
179,176,15337,37,0,0:0:0:0:
389,237,15528,2,0,P|433:236|475:221,1,90
136,248,15911,1,8,0:0:0:0:
272,139,16102,2,0,P|309:114|336:78,1,90
69,60,16484,2,0,P|31:84|4:120,1,90
191,313,16866,5,0,0:0:0:0:
272,139,17057,2,0,P|296:92|331:62,1,90
382,283,17439,37,8,0:0:0:0:
219,205,17630,2,0,P|168:193|116:201,1,90
71,288,18013,1,0,0:0:0:0:
382,283,18204,1,8,0:3:0:0:
219,230,18395,1,8,0:3:0:0:
454,212,18586,5,12,0:0:0:0:
329,86,18777,1,0,0:0:0:0:
281,161,18968,37,8,0:0:0:0:
482,130,19159,1,0,0:0:0:0:
455,228,19350,5,0,0:0:0:0:
312,84,19541,1,0,0:0:0:0:
263,164,19732,37,0,0:0:0:0:
504,126,19923,1,0,0:0:0:0:
345,251,20114,5,0,0:0:0:0:
312,84,20306,1,0,0:0:0:0:
455,228,20497,1,8,0:0:0:0:
263,164,20688,2,0,P|214:151|155:148,1,90
182,289,21070,37,0,0:0:0:0:
345,251,21261,1,0,0:0:0:0:
182,289,21452,1,0,0:0:0:0:
405,318,21643,5,0,0:0:0:0:
121,214,21834,1,0,0:0:0:0:
418,301,22025,1,8,0:0:0:0:
54,269,22216,2,0,P|36:212|47:170,1,90
311,132,22599,37,0,0:0:0:0:
213,237,22790,1,0,0:0:0:0:
311,132,22981,1,0,0:0:0:0:
333,296,23172,5,0,0:0:0:0:
174,69,23363,1,0,0:0:0:0:
360,295,23554,1,8,0:0:0:0:
141,70,23745,2,0,P|85:62|32:67,1,90
75,212,24127,37,0,0:0:0:0:
160,342,24318,1,0,0:0:0:0:
186,163,24509,1,0,0:0:0:0:
368,222,24700,6,0,P|387:170|423:130,1,90
288,126,25083,1,8,0:0:0:0:
280,303,25274,2,0,P|260:251|224:211,1,90
394,369,25656,2,0,P|413:317|449:277,1,90
186,163,26038,37,0,0:0:0:0:
83,295,26229,2,0,P|48:252|31:201,1,90
195,296,26611,1,8,0:0:0:0:
312,201,26802,2,0,P|363:177|416:175,1,90
473,258,27185,1,0,0:0:0:0:
334,100,27376,2,0,B|263:57|263:113|175:70,1,135
132,48,27758,5,0,0:0:0:0:
56,222,27949,1,0,0:0:0:0:
261,163,28140,37,8,0:0:0:0:
52,123,28331,2,0,L|109:127,1,45
315,237,28522,6,0,P|347:203|393:185,1,90
249,324,28904,2,0,P|217:290|171:272,1,90
386,186,29286,37,0,0:0:0:0:
178,252,29478,1,0,0:0:0:0:
275,72,29669,5,0,0:0:0:0:
338,276,29860,1,8,0:0:0:0:
159,72,30051,37,0,0:0:0:0:
387,187,30242,1,8,0:3:0:0:
377,86,30433,1,8,0:3:0:0:
275,72,30624,1,8,0:3:0:0:
177,259,30815,38,0,P|144:266|110:268,1,67.5000025749208,4|0,0:0|0:0,0:0:0:0:
56,159,31197,2,0,P|94:152|133:151,1,67.5000025749208
239,197,31579,2,0,P|272:195|305:188,1,67.5000025749208
406,91,31962,6,0,P|340:71|268:73,1,135.000005149842
185,100,32535,1,0,0:0:0:0:
239,197,32726,2,0,P|274:166|284:136,1,67.5000025749208
185,100,33108,2,0,L|103:108,1,67.5000025749208
11,115,33490,2,0,P|29:152|31:231,1,101.250003862381
34,260,33872,38,0,P|63:281|104:289,1,67.5000025749208
239,197,34255,2,0,P|203:193|163:206,1,67.5000025749208
315,294,34637,2,0,P|347:279|375:247,1,67.5000025749208
271,71,35019,6,0,P|250:100|242:206,1,135.000005149842
315,294,35592,1,0,0:0:0:0:
381,171,35783,2,0,P|341:153|300:154,1,67.5000025749208
169,101,36165,2,0,P|181:60|208:29,1,67.5000025749208
345,41,36548,1,0,0:0:0:0:
381,171,36739,1,0,0:0:0:0:
169,101,36930,38,4,P|112:108|56:171,1,135.000005149842,4|0,0:0|0:0,0:0:0:0:
158,210,37503,1,0,0:0:0:0:
299,219,37694,2,0,B|380:195|353:246|442:219,1,135.000005149842
333,298,38267,1,0,0:0:0:0:
109,285,38458,6,0,P|133:313|168:327,1,67.5000025749208
246,204,38841,2,0,P|222:232|187:246,1,67.5000025749208
112,121,39223,2,0,P|136:149|171:163,1,67.5000025749208
249,40,39606,2,0,P|225:68|173:41,1,101.250003862381
249,8,39987,38,0,P|299:0|363:59,1,135.000005149842
333,146,40560,1,0,0:0:0:0:
430,230,40751,2,0,P|380:222|316:281,1,135.000005149842
250,344,41325,1,0,0:0:0:0:
109,285,41516,6,0,P|108:245|50:152,1,135.000005149842
139,106,42089,1,0,0:0:0:0:
212,201,42280,1,0,0:0:0:0:
345,70,42471,37,8,0:3:0:0:
306,216,42662,1,8,0:3:0:0:
139,106,42853,1,8,0:3:0:0:
345,70,43044,6,0,P|397:83|413:99,1,67.5000025749208,4|0,0:0|0:0,0:0:0:0:
367,194,43427,2,0,P|315:207|299:223,1,67.5000025749208
202,306,43809,2,0,P|184:277|156:259,1,67.5000025749208
42,194,44191,38,0,P|66:156|142:104,1,135.000005149842
245,85,44764,1,0,0:0:0:0:
241,192,44955,2,0,P|193:184|174:155,1,67.5000025749208
245,85,45337,2,0,L|340:67,1,67.5000025749208
462,71,45720,2,0,P|440:113|452:178,1,101.250003862381
474,204,46102,6,0,P|453:234|419:253,1,67.5000025749208
241,192,46484,2,0,P|262:162|296:143,1,67.5000025749208
348,318,46866,2,0,P|311:314|278:294,1,67.5000025749208
376,123,47248,38,0,P|437:149|478:219,1,135.000005149842
370,235,47821,1,0,0:0:0:0:
241,192,48013,2,0,P|205:170|164:162,1,67.5000025749208
59,119,48395,2,0,P|75:78|74:41,1,67.5000025749208
204,45,48777,1,0,0:0:0:0:
320,79,48968,1,0,0:0:0:0:
180,163,49159,6,0,P|140:180|91:270,1,135.000005149842,4|0,0:0|0:0,0:0:0:0:
227,318,49732,1,0,0:0:0:0:
313,210,49923,2,0,B|343:142|290:142|323:73,1,135.000005149842
471,121,50497,1,0,0:0:0:0:
413,228,50688,38,0,P|420:265|416:306,1,67.5000025749208
242,171,51070,2,0,P|235:208|239:249,1,67.5000025749208
376,48,51452,2,0,P|383:85|379:126,1,67.5000025749208
186,23,51834,2,0,P|179:60|183:101,1,67.5000025749208
355,310,52216,5,0,0:0:0:0:
117,332,52407,2,0,P|133:297|168:275,1,67.5000025749208
341,319,52790,2,0,P|299:335|265:332,1,67.5000025749208
359,161,53172,2,0,P|380:186|388:218,1,67.5000025749208
141,203,53554,2,0,P|151:167|195:134,1,67.5000025749208
359,142,53936,5,0,0:0:0:0:
245,188,54127,1,0,0:0:0:0:
432,190,54318,21,0,0:0:0:0:
241,53,54509,1,0,0:0:0:0:
462,173,54700,21,0,0:0:0:0:
220,207,54892,1,0,0:0:0:0:
436,97,55083,21,0,0:0:0:0:
81,75,55274,1,12,0:0:0:0:
115,174,55656,5,8,0:0:0:0:
115,174,55751,2,0,L|115:237,1,45
35,251,55942,1,0,0:0:0:0:
67,284,56037,5,8,0:0:0:0:
105,272,56133,1,0,0:0:0:0:
149,261,56228,1,0,0:0:0:0:
193,263,56324,1,0,0:0:0:0:
236,277,56419,1,0,0:0:0:0:
328,337,56611,1,0,0:3:0:0:
396,210,56802,5,14,0:0:0:0:
205,141,56993,1,0,0:0:0:0:
391,99,57185,1,8,0:0:0:0:
154,70,57376,2,0,P|121:123|127:182,1,107.999996704102
260,137,57758,2,0,L|269:78,1,53.9999983520508
306,253,57949,2,0,L|315:312,1,53.9999983520508,8|0,0:0|0:0,0:0:0:0:
258,149,58140,2,0,L|199:140,1,53.9999983520508
307,263,58331,6,0,P|367:263|420:244,1,107.999996704102
482,117,58713,2,0,P|418:81|392:26,1,107.999996704102,8|0,0:0|0:0,0:0:0:0:
290,65,59095,37,0,0:0:0:0:
374,222,59286,1,0,0:0:0:0:
185,26,59478,1,8,0:0:0:0:
269,183,59669,1,0,0:0:0:0:
86,98,59860,6,0,P|40:131|26:218,1,107.999996704102
133,294,60242,1,8,0:0:0:0:
269,183,60433,2,0,B|327:170|327:199|390:179,1,107.999996704102
407,77,60815,1,0,0:0:0:0:
359,268,61006,1,8,0:0:0:0:
297,49,61197,1,0,0:0:0:0:
375,182,61388,38,0,P|324:151|247:144,1,107.999996704102
133,311,61771,2,0,P|184:280|261:273,1,107.999996704102,8|0,0:0|0:0,0:0:0:0:
387,173,62153,2,0,P|329:138|243:130,1,107.999996704102
113,315,62535,1,8,0:0:0:0:
76,123,62726,1,0,0:0:0:0:
76,123,62821,1,0,0:0:0:0:
76,123,62917,6,0,P|133:122|192:102,1,107.999996704102,4|0,0:0|0:0,0:0:0:0:
329,109,63299,1,8,0:0:0:0:
167,202,63490,1,0,0:0:0:0:
386,220,63681,2,0,P|428:252|449:304,1,107.999996704102
287,290,64064,2,0,L|348:295,1,53.9999983520508,8|0,0:0|0:0,0:0:0:0:
206,340,64255,2,0,L|145:345,1,53.9999983520508
45,263,64446,37,0,0:0:0:0:
143,79,64637,1,0,0:0:0:0:
170,239,64828,5,8,0:0:0:0:
56,38,65019,1,0,0:0:0:0:
45,275,65210,37,0,0:0:0:0:
143,64,65401,1,0,0:0:0:0:
170,249,65592,2,0,P|192:196|231:157,1,107.999996704102,8|0,0:0|0:0,0:0:0:0:
458,112,65974,6,0,B|406:84|406:123|347:99,1,107.999996704102
250,39,66356,1,8,0:0:0:0:
261,235,66548,2,0,P|314:207|386:218,1,107.999996704102
451,292,66930,1,0,0:0:0:0:
256,335,67121,2,0,B|202:342|202:310|140:327,1,107.999996704102,8|0,0:0|0:0,0:0:0:0:
156,188,67503,37,0,0:0:0:0:
307,38,67694,1,0,0:0:0:0:
337,220,67885,5,8,0:0:0:0:
216,38,68076,1,0,0:0:0:0:
240,230,68267,37,0,0:0:0:0:
390,68,68458,1,0,0:0:0:0:
422,244,68649,5,8,0:0:0:0:
307,38,68841,1,0,0:0:0:0:
337,219,69032,38,0,P|308:177|246:139,1,107.999996704102,10|0,0:0|0:0,0:0:0:0:
80,151,69414,1,8,0:0:0:0:
168,305,69605,2,0,P|200:253|254:225,1,107.999996704102
422,244,69987,1,0,0:0:0:0:
261,145,70178,1,8,0:0:0:0:
302,305,70369,1,0,0:0:0:0:
447,145,70560,6,0,P|413:101|327:87,1,107.999996704102
160,190,70942,1,8,0:0:0:0:
347,179,71134,1,0,0:0:0:0:
136,167,71325,2,0,P|103:116|110:66,1,107.999996704102
371,163,71707,2,0,P|404:112|397:62,1,107.999996704102,8|0,0:0|0:0,0:0:0:0:
251,144,72089,38,0,B|239:205|269:198|251:262,1,107.999996704102
166,343,72471,1,8,0:0:0:0:
73,249,72662,2,0,P|119:209|136:163,1,107.999996704102
151,25,73044,1,0,0:0:0:0:
34,152,73235,1,8,0:0:0:0:
268,68,73427,1,0,0:0:0:0:
268,68,73522,1,0,0:0:0:0:
268,68,73618,2,0,P|304:111|312:164,1,107.999996704102
244,335,74000,5,8,0:0:0:0:
148,126,74191,1,0,0:0:0:0:
128,311,74382,37,0,0:0:0:0:
375,253,74573,1,0,0:0:0:0:
133,112,74764,6,0,P|130:139|137:172,1,53.9999983520508,8|0,0:0|0:0,0:0:0:0:
259,347,74955,2,0,L|263:294,1,53.9999983520508
268,68,75146,38,0,P|325:80|388:54,1,107.999996704102,4|0,0:0|0:0,0:0:0:0:
478,148,75528,1,8,0:0:0:0:
278,203,75720,1,0,0:0:0:0:
371,65,75911,1,0,0:0:0:0:
375,253,76102,2,0,L|364:314,1,53.9999983520508
278,203,76293,2,0,L|267:142,1,53.9999983520508,8|0,0:0|0:0,0:0:0:0:
382,262,76484,2,0,L|371:323,1,53.9999983520508
267,199,76675,6,0,P|258:155|212:94,1,107.999996704102
49,172,77057,1,8,0:0:0:0:
213,261,77248,1,0,0:0:0:0:
16,258,77439,37,0,0:0:0:0:
268,179,77630,1,0,0:0:0:0:
36,172,77821,5,8,0:0:0:0:
267,199,78013,1,0,0:0:0:0:
16,258,78204,38,0,P|71:281|130:274,1,107.999996704102
287,321,78586,1,8,0:0:0:0:
268,179,78777,1,0,0:0:0:0:
207,277,78968,1,0,0:0:0:0:
292,96,79159,1,0,0:0:0:0:
343,233,79350,1,8,0:0:0:0:
214,69,79541,1,0,0:0:0:0:
214,69,79637,1,0,0:0:0:0:
214,69,79732,6,0,P|155:57|87:75,1,107.999996704102
157,172,80114,1,8,0:0:0:0:
19,126,80306,1,0,0:0:0:0:
36,310,80497,1,0,0:0:0:0:
73,202,80688,1,0,0:0:0:0:
206,328,80879,5,8,0:0:0:0:
414,159,81070,1,0,0:0:0:0:
120,63,81261,2,0,P|148:115|156:183,1,116.999994644165,4|0,0:0|0:0,0:0:0:0:
279,38,81643,1,0,0:3:0:0:
73,202,81834,2,0,P|45:254|37:322,1,116.999994644165,4|0,0:0|0:0,0:0:0:0:
206,328,82216,21,0,0:0:0:0:
278,223,82407,1,0,0:0:0:0:
156,171,82599,1,0,0:0:0:0:
312,325,82790,2,0,P|369:300|441:321,1,116.999994644165,8|0,0:0|0:0,0:0:0:0:
414,180,83172,1,0,0:0:0:0:
131,271,83363,2,0,P|122:213|94:162,1,116.999994644165,4|0,0:0|0:0,0:0:0:0:
206,328,83745,1,8,0:3:0:0:
233,137,83936,1,8,0:3:0:0:
312,325,84127,22,0,P|322:265|303:209,1,99.0000030212403,4|0,0:0|0:0,0:0:0:0:
373,105,84509,1,0,0:0:0:0:
208,46,84700,2,0,P|152:47|108:73,1,99.0000030212403,8|0,0:0|0:0,0:0:0:0:
69,226,85083,1,0,0:0:0:0:
25,86,85274,1,0,0:0:0:0:
185,217,85465,2,0,P|199:166|240:134,1,99.0000030212403,8|0,0:0|0:0,0:0:0:0:
431,180,85847,5,0,0:0:0:0:
274,215,86038,1,0,0:0:0:0:
447,285,86229,1,8,0:0:0:0:
450,260,86324,1,8,0:0:0:0:
212,323,86516,1,8,0:0:0:0:
216,348,86611,2,0,L|268:320,1,49.5000015106202,8|0,0:0|0:0,0:0:0:0:
274,215,86802,37,0,0:0:0:0:
291,169,86897,1,0,0:0:0:0:
277,123,86993,1,0,0:0:0:0:
237,96,87088,1,0,0:0:0:0:
189,99,87184,1,0,0:0:0:0:
212,323,87376,1,4,0:0:0:0:
430,66,91962,5,0,0:3:0:0:
374,139,92153,37,0,0:0:0:0:
329,143,92248,1,0,0:0:0:0:
287,127,92344,1,0,0:0:0:0:
247,107,92439,1,0,0:0:0:0:
203,106,92535,1,0,0:0:0:0:
78,168,92726,1,0,0:0:0:0:
201,24,92917,1,0,0:0:0:0:
329,143,93108,1,0,0:0:0:0:
329,143,93204,1,0,0:0:0:0:
329,143,93299,1,0,0:0:0:0:
226,296,93490,5,12,0:0:0:0:
425,228,93681,1,0,0:0:0:0:
170,224,93872,37,8,0:0:0:0:
361,300,94064,1,0,0:0:0:0:
361,300,94159,1,0,0:0:0:0:
361,300,94255,2,0,P|337:251|295:217,1,90
156,224,94637,1,0,0:0:0:0:
287,127,94828,2,0,P|324:97|381:92,1,90
216,43,95210,5,0,0:0:0:0:
277,217,95401,1,8,0:0:0:0:
137,101,95592,37,0,0:0:0:0:
64,250,95783,1,0,0:0:0:0:
292,217,95974,5,0,0:0:0:0:
121,101,96165,1,0,0:0:0:0:
337,124,96356,37,0,0:0:0:0:
63,164,96548,1,0,0:0:0:0:
214,307,96739,5,0,0:0:0:0:
248,105,96930,1,8,0:0:0:0:
50,164,97121,37,0,0:0:0:0:
214,322,97312,1,0,0:0:0:0:
140,83,97503,5,0,0:0:0:0:
96,284,97694,1,0,0:0:0:0:
338,147,97885,37,0,0:0:0:0:
96,84,98076,1,0,0:0:0:0:
374,67,98267,5,0,0:0:0:0:
63,164,98458,1,8,0:0:0:0:
374,174,98649,2,0,P|418:200|446:250,1,90
336,324,99032,1,0,0:0:0:0:
234,182,99223,1,0,0:0:0:0:
203,329,99414,1,0,0:0:0:0:
203,329,99509,1,0,0:0:0:0:
203,329,99605,38,0,P|185:277|135:244,1,90
41,302,99987,1,8,0:0:0:0:
51,172,100178,2,0,P|78:132|122:101,1,90
234,182,100560,2,0,P|290:190|339:174,1,90
360,49,100942,5,0,0:0:0:0:
152,107,101134,1,0,0:0:0:0:
369,29,101325,1,0,0:0:0:0:
234,182,101516,1,8,0:0:0:0:
370,6,101707,2,0,P|418:6|457:36,1,90
466,205,102089,1,0,0:0:0:0:
482,102,102280,1,0,0:0:0:0:
391,279,102471,1,0,0:0:0:0:
234,182,102662,38,0,P|218:136|180:99,1,90
90,259,103044,1,8,0:0:0:0:
272,271,103235,2,0,P|308:238|327:188,1,90
52,182,103618,2,0,P|15:214|-3:264,1,90
186,307,104000,5,0,0:0:0:0:
283,141,104191,2,0,P|314:100|356:76,1,90
336,322,104573,37,0,0:0:0:0:
207,193,104764,2,0,P|168:159|122:144,1,90
186,307,105146,1,0,0:0:0:0:
384,219,105337,1,8,0:3:0:0:
283,141,105528,1,8,0:3:0:0:
496,107,105720,6,0,P|486:55|447:19,1,90,12|0,0:0|0:0,0:0:0:0:
288,49,106102,1,8,0:0:0:0:
384,203,106293,1,0,0:0:0:0:
462,28,106484,1,0,0:0:0:0:
195,81,106675,1,0,0:0:0:0:
195,81,106771,1,0,0:0:0:0:
195,81,106866,1,0,0:0:0:0:
343,127,107057,37,0,0:0:0:0:
105,155,107248,1,0,0:0:0:0:
288,49,107439,5,0,0:0:0:0:
84,33,107630,1,8,0:0:0:0:
241,166,107821,2,0,P|225:209|226:263,1,90
345,288,108204,37,0,0:0:0:0:
372,125,108395,1,0,0:0:0:0:
443,237,108586,1,0,0:0:0:0:
218,166,108777,5,0,0:0:0:0:
346,312,108968,1,0,0:0:0:0:
279,80,109159,37,8,0:0:0:0:
193,300,109350,2,0,P|180:254|144:218,1,90
94,112,109732,5,0,0:0:0:0:
218,166,109923,1,0,0:0:0:0:
43,217,110114,1,0,0:0:0:0:
265,88,110306,37,0,0:0:0:0:
3,140,110497,1,0,0:0:0:0:
234,181,110688,5,8,0:0:0:0:
5,53,110879,2,0,P|68:66|105:52,1,90
219,14,111261,1,0,0:0:0:0:
352,92,111452,1,0,0:0:0:0:
495,24,111643,1,0,0:0:0:0:
265,88,111834,38,0,P|237:129|228:170,1,90
263,312,112216,1,8,0:0:0:0:
399,201,112407,2,0,P|436:170|487:157,1,90
228,167,112790,2,0,P|191:198|140:211,1,90
39,75,113172,1,0,0:0:0:0:
289,106,113363,6,0,P|311:151|300:209,1,90
378,29,113745,1,8,0:0:0:0:
153,107,113936,2,0,P|103:107|67:89,1,90
237,25,114318,1,0,0:0:0:0:
104,225,114509,2,0,P|157:213|240:228,1,135
252,244,114892,37,0,0:0:0:0:
350,105,115083,1,0,0:0:0:0:
365,291,115274,5,8,0:0:0:0:
265,113,115465,1,0,0:0:0:0:
450,180,115656,37,0,0:0:0:0:
234,244,115847,1,0,0:0:0:0:
350,80,116038,5,0,0:0:0:0:
365,307,116229,1,0,0:0:0:0:
185,114,116420,37,0,0:0:0:0:
475,180,116611,1,0,0:0:0:0:
136,216,116802,1,4,0:0:0:0:
136,216,117089,6,8,L|125:168,1,45
155,352,117376,1,0,0:0:0:0:
234,244,117567,1,0,0:0:0:0:
245,200,117662,1,0,0:0:0:0:
234,157,117758,1,0,0:0:0:0:
221,115,117853,1,0,0:0:0:0:
240,73,117949,22,0,P|276:63|311:68,1,67.5000025749208,4|0,0:0|0:0,0:0:0:0:
351,229,118331,2,0,P|330:197|325:162,1,67.5000025749208
467,251,118713,2,0,P|460:283|441:311,1,67.5000025749208,8|0,0:0|0:0,0:0:0:0:
271,329,119095,6,0,P|243:295|149:268,1,135.000005149842
77,204,119669,1,0,0:0:0:0:
151,115,119860,2,0,P|178:141|189:182,1,67.5000025749208
77,204,120242,2,0,P|50:178|39:137,1,67.5000025749208,8|0,0:0|0:0,0:0:0:0:
95,37,120624,2,0,P|136:23|203:37,1,101.250003862381
217,67,121006,38,0,P|259:74|298:68,1,67.5000025749208
406,23,121388,2,0,P|400:61|386:99,1,67.5000025749208
226,198,121771,2,0,P|267:189|318:191,1,67.5000025749208,8|0,0:0|0:0,0:0:0:0:
462,223,122153,6,0,P|437:262|338:282,1,135.000005149842
241,349,122726,1,0,0:0:0:0:
123,307,122917,2,0,P|104:268|104:226,1,67.5000025749208
164,125,123299,2,0,P|198:144|242:151,1,67.5000025749208,8|0,0:0|0:0,0:0:0:0:
359,143,123681,1,0,0:0:0:0:
413,29,123872,1,0,0:0:0:0:
225,150,124064,38,0,P|200:188|234:280,1,135.000005149842,4|0,0:0|0:0,0:0:0:0:
359,163,124637,1,0,0:0:0:0:
259,68,124828,2,0,B|183:45|183:90|104:68,1,135.000005149842,8|0,0:0|0:0,0:0:0:0:
34,143,125401,1,0,0:0:0:0:
130,264,125592,6,0,L|145:188,1,67.5000025749208
250,141,125974,2,0,L|263:207,1,67.5000025749208
354,306,126356,2,0,L|369:230,1,67.5000025749208,8|0,0:0|0:0,0:0:0:0:
474,183,126738,2,0,L|496:286,1,101.250003862381
478,312,127121,38,0,P|456:269|371:221,1,135.000005149842
471,149,127694,1,0,0:0:0:0:
292,73,127885,2,0,P|255:64|211:69,1,67.5000025749208,8|0,0:0|0:0,0:0:0:0:
56,100,128267,2,0,L|74:173,1,67.5000025749208
138,308,128649,6,0,P|157:266|163:172,1,135.000005149842
253,295,129223,1,4,0:0:0:0:
314,113,129414,1,0,0:0:0:0:
383,281,129605,37,8,0:3:0:0:
163,178,129796,1,8,0:3:0:0:
253,295,129987,1,8,0:3:0:0:
314,113,130178,6,0,P|340:79|371:66,1,67.5000025749208,4|0,0:0|0:0,0:0:0:0:
224,66,130560,2,0,P|198:32|167:19,1,67.5000025749208
88,149,130942,2,0,P|114:115|145:102,1,67.5000025749208,8|0,0:0|0:0,0:0:0:0:
239,164,131325,38,0,B|263:234|220:234|239:304,1,135.000005149842
340,243,131898,1,0,0:0:0:0:
361,68,132089,2,0,P|332:85|314:113,1,67.5000025749208
340,243,132471,2,0,L|400:189,1,67.5000025749208,8|0,0:0|0:0,0:0:0:0:
508,257,132853,2,0,P|464:261|414:308,1,101.250003862381
404,327,133235,6,0,P|369:336|333:337,1,67.5000025749208
203,303,133618,2,0,P|243:286|264:258,1,67.5000025749208
315,168,134000,2,0,P|301:128|297:93,1,67.5000025749208,8|0,0:0|0:0,0:0:0:0:
198,44,134382,38,0,P|160:68|69:88,1,135.000005149842
28,239,134955,1,0,0:0:0:0:
194,228,135146,2,0,P|209:189|242:168,1,67.5000025749208
425,37,135528,2,0,L|420:114,1,67.5000025749208,8|0,0:0|0:0,0:0:0:0:
455,221,135911,1,0,0:0:0:0:
375,323,136102,1,0,0:0:0:0:
194,228,136293,6,0,P|209:189|296:177,1,135.000005149842,4|0,0:0|0:0,0:0:0:0:
239,338,136866,1,0,0:0:0:0:
84,300,137057,2,0,B|63:250|119:223|93:161,1,135.000005149842,8|0,0:0|0:0,0:0:0:0:
29,83,137630,1,0,0:0:0:0:
206,75,137821,38,0,P|178:44|139:27,1,67.5000025749208
318,94,138204,2,0,P|309:53|283:18,1,67.5000025749208
411,163,138586,2,0,P|423:123|419:80,1,67.5000025749208,8|0,0:0|0:0,0:0:0:0:
431,294,138968,2,0,P|462:265|479:227,1,67.5000025749208
398,10,139350,5,0,0:0:0:0:
264,183,139541,2,0,P|229:162|175:158,1,67.5000025749208
45,228,139923,2,0,P|26:193|25:159,1,67.5000025749208,0|8,0:0|0:0,0:0:0:0:
187,305,140306,2,0,P|222:326|276:330,1,67.5000025749208
399,229,140688,2,0,L|412:152,1,67.5000025749208
329,54,141070,5,0,0:0:0:0:
277,222,141261,1,0,0:0:0:0:
214,47,141452,21,0,0:0:0:0:
277,246,141643,1,8,0:0:0:0:
257,121,141834,21,0,0:0:0:0:
205,325,142025,1,0,0:0:0:0:
431,230,142216,21,0,0:0:0:0:
196,47,142407,1,4,0:0:0:0:
51,192,142790,5,8,0:0:0:0:
77,198,142885,1,8,0:0:0:0:
319,231,143076,2,0,L|268:249,1,45,8|8,0:0|0:0,0:0:0:0:
105,203,143363,5,0,0:0:0:0:
148,197,143458,1,0,0:0:0:0:
185,171,143554,1,0,0:0:0:0:
225,150,143649,1,0,0:0:0:0:
274,158,143745,1,0,0:0:0:0:
325,144,143840,1,0,0:0:0:0:
393,152,143936,6,0,P|433:198|430:273,1,107.999996704102,14|0,0:0|0:0,0:0:0:0:
256,330,144318,1,8,0:0:0:0:
274,158,144509,1,0,0:0:0:0:
438,243,144700,1,0,0:0:0:0:
139,265,144892,2,0,P|136:234|129:205,1,53.9999983520508
265,211,145083,2,0,P|268:180|275:151,1,53.9999983520508,8|0,0:0|0:0,0:0:0:0:
128,288,145274,2,0,P|124:251|116:216,1,53.9999983520508
278,225,145465,6,0,P|281:188|305:115,1,107.999996704102
413,317,145847,2,0,P|409:280|386:207,1,107.999996704102,8|0,0:0|0:0,0:0:0:0:
256,330,146229,1,0,0:0:0:0:
197,134,146420,1,0,0:0:0:0:
335,318,146611,1,8,0:0:0:0:
394,122,146802,1,0,0:0:0:0:
95,170,146993,38,0,P|150:149|201:161,1,107.999996704102
256,294,147376,1,8,0:0:0:0:
338,208,147567,2,0,P|356:154|398:120,1,107.999996704102
439,290,147949,1,0,0:0:0:0:
256,330,148140,1,8,0:0:0:0:
422,199,148331,1,0,0:0:0:0:
180,217,148522,6,0,P|117:220|66:242,1,107.999996704102
308,127,148904,2,0,P|245:124|194:102,1,107.999996704102,8|0,0:0|0:0,0:0:0:0:
169,234,149286,2,0,P|106:237|55:259,1,107.999996704102
322,113,149669,1,8,0:0:0:0:
340,342,149860,1,0,0:0:0:0:
340,342,149955,1,0,0:0:0:0:
340,342,150051,38,0,P|320:280|282:231,1,107.999996704102,4|0,0:0|0:0,0:0:0:0:
141,142,150433,1,8,0:0:0:0:
304,112,150624,1,0,0:0:0:0:
169,234,150815,2,0,P|191:289|197:344,1,107.999996704102
73,219,151197,2,0,P|102:165|154:138,1,107.999996704102,8|0,0:0|0:0,0:0:0:0:
171,137,151484,1,0,0:0:0:0:
200,141,151579,6,0,P|220:101|195:27,1,107.999996704102
41,61,151962,1,8,0:0:0:0:
169,234,152153,1,0,0:0:0:0:
15,148,152344,37,0,0:0:0:0:
264,89,152535,1,0,0:0:0:0:
169,234,152726,5,8,0:0:0:0:
203,22,152917,1,0,0:0:0:0:
302,248,153108,38,0,P|352:279|410:291,1,107.999996704102
438,158,153490,1,8,0:0:0:0:
201,189,153681,2,0,B|146:174|142:205|87:188,1,107.999996704102
187,47,154064,1,0,0:0:0:0:
327,148,154255,2,0,P|325:213|294:254,1,107.999996704102,8|0,0:0|0:0,0:0:0:0:
136,310,154637,5,0,0:0:0:0:
405,255,154828,1,0,0:0:0:0:
92,227,155019,37,8,0:0:0:0:
412,287,155210,1,0,0:0:0:0:
156,311,155401,6,0,L|97:308,1,53.9999983520508,8|0,0:0|0:0,0:0:0:0:
351,252,155592,2,0,L|410:255,1,53.9999983520508
112,227,155783,38,0,L|53:224,1,53.9999983520508,8|0,0:0|0:0,0:0:0:0:
290,332,155974,2,0,L|349:335,1,53.9999983520508
481,207,156165,6,0,P|491:142|465:89,1,107.999996704102,14|0,0:0|0:0,0:0:0:0:
350,35,156548,1,8,0:0:0:0:
208,108,156739,2,0,P|153:130|94:131,1,107.999996704102
33,61,157121,1,0,0:0:0:0:
169,220,157312,1,8,0:0:0:0:
47,194,157503,1,0,0:0:0:0:
221,125,157694,37,0,0:0:0:0:
161,323,157885,1,0,0:0:0:0:
103,91,158076,5,8,0:0:0:0:
74,281,158267,1,0,0:0:0:0:
195,29,158458,37,0,0:0:0:0:
252,243,158649,1,0,0:0:0:0:
103,91,158841,6,0,L|96:32,1,53.9999983520508,8|0,0:0|0:0,0:0:0:0:
167,269,159032,2,0,L|160:328,1,53.9999983520508
305,146,159223,38,0,P|327:91|380:56,1,107.999996704102
470,170,159605,1,8,0:0:0:0:
427,300,159796,2,0,B|371:286|371:313|318:301,1,107.999996704102
486,170,160178,1,0,0:0:0:0:
252,243,160369,2,0,P|228:187|196:139,1,107.999996704102,8|0,0:0|0:0,0:0:0:0:
103,91,160751,5,0,0:0:0:0:
138,232,160942,1,0,0:0:0:0:
310,68,161134,37,8,0:0:0:0:
29,160,161325,1,0,0:0:0:0:
302,167,161516,1,0,0:0:0:0:
21,259,161707,1,0,0:0:0:0:
323,278,161898,1,8,0:0:0:0:
337,284,161993,1,0,0:0:0:0:
349,294,162089,1,0,0:0:0:0:
358,306,162185,1,0,0:0:0:0:
364,320,162280,6,0,P|392:264|433:215,1,107.999996704102,4|0,0:0|0:0,0:0:0:0:
462,101,162662,1,8,0:0:0:0:
302,167,162853,1,0,0:0:0:0:
214,49,163044,2,0,P|159:35|98:55,1,107.999996704102
41,270,163427,37,8,0:0:0:0:
161,113,163618,1,0,0:0:0:0:
210,322,163809,5,0,0:0:0:0:
72,149,164000,1,0,0:0:0:0:
202,343,164191,37,8,0:0:0:0:
279,126,164382,1,0,0:0:0:0:
343,341,164573,6,0,P|323:286|286:240,1,107.999996704102
388,188,164955,2,0,P|408:133|445:87,1,107.999996704102,8|0,0:0|0:0,0:0:0:0:
259,41,165337,2,0,P|204:35|143:41,1,107.999996704102
253,127,165720,37,8,0:0:0:0:
56,116,165911,1,0,0:0:0:0:
229,267,166102,1,0,0:0:0:0:
40,271,166293,1,0,0:0:0:0:
253,128,166484,1,8,0:0:0:0:
332,324,166675,1,0,0:0:0:0:
332,324,166771,1,0,0:0:0:0:
332,324,166866,2,0,P|351:277|389:230,1,107.999996704102
459,107,167248,5,8,0:0:0:0:
220,38,167439,1,0,0:0:0:0:
372,57,167630,1,0,0:0:0:0:
253,128,167821,1,0,0:0:0:0:
476,207,168013,5,8,0:0:0:0:
153,279,168204,1,0,0:0:0:0:
435,340,168395,2,0,P|400:283|349:257,1,116.999994644165,12|0,0:0|0:0,0:0:0:0:
57,286,168777,21,0,0:0:0:0:
228,17,168968,2,0,P|254:75|251:135,1,116.999994644165,12|0,0:0|0:0,0:0:0:0:
313,219,169350,1,0,0:3:0:0:
163,175,169541,1,0,0:3:0:0:
355,128,169732,21,0,0:0:0:0:
252,314,169923,1,0,0:0:0:0:
96,226,170114,1,0,0:0:0:0:
76,198,170209,1,0,0:0:0:0:
72,164,170305,1,0,0:0:0:0:
86,132,170400,5,0,0:0:0:0:
122,151,170497,1,0,0:0:0:0:
163,175,170592,1,0,0:0:0:0:
209,169,170688,1,0,0:0:0:0:
254,177,170783,1,0,0:0:0:0:
291,160,170879,1,0,0:0:0:0:
329,135,170974,1,0,0:0:0:0:
375,140,171070,37,0,0:0:0:0:
406,174,171165,1,0,0:0:0:0:
458,175,171261,1,0,0:0:0:0:
487,125,171356,1,0,0:0:0:0:
468,74,171452,6,0,P|417:45|369:35,1,90,4|0,0:0|0:0,0:0:0:0:
246,88,171834,1,8,0:0:0:0:
126,25,172025,1,0,0:0:0:0:
86,132,172216,2,0,P|114:188|118:233,1,90
183,321,172599,1,8,0:0:0:0:
254,192,172790,1,0,0:0:0:0:
354,330,172981,38,0,P|366:283|400:241,1,90
503,229,173363,1,8,0:0:0:0:
349,138,173554,1,0,0:0:0:0:
239,271,173745,6,0,P|227:224|193:182,1,90
90,170,174127,1,8,0:0:0:0:
244,79,174318,1,0,0:0:0:0:
324,223,174509,38,0,P|336:166|355:126,1,90
477,206,174892,1,8,0:0:0:0:
398,37,175083,1,0,0:0:0:0:
178,31,175274,6,0,P|122:33|74:57,1,90
207,149,175656,1,8,0:0:0:0:
71,214,175847,1,0,0:0:0:0:
197,326,176038,2,0,P|253:324|301:300,1,90
442,315,176420,1,8,0:0:0:0:
427,147,176611,1,0,0:0:0:0:
348,253,176802,2,0,P|303:233|249:232,1,90
168,145,177185,1,8,0:0:0:0:
320,114,177376,1,0,0:0:0:0:
132,276,177567,38,0,P|95:228|59:210,1,90
47,81,177949,1,8,0:0:0:0:
168,145,178140,1,0,0:0:0:0:
252,54,178331,2,0,P|298:32|358:33,1,90
463,183,178713,1,8,0:0:0:0:
431,45,178904,1,0,0:0:0:0:
319,196,179095,6,0,P|305:242|306:289,1,90
430,338,179478,1,8,0:0:0:0:
259,259,179669,1,0,0:0:0:0:
112,337,179860,2,0,P|79:286|74:238,1,90
222,148,180242,1,8,0:0:0:0:
40,174,180433,1,0,0:0:0:0:
259,259,180624,38,0,P|301:238|357:241,1,90
315,119,181006,1,8,0:0:0:0:
321,324,181197,1,0,0:0:0:0:
457,212,181388,2,0,L|431:119,1,90
198,117,181771,1,8,0:0:0:0:
376,45,181962,1,0,0:0:0:0:
127,30,182153,6,0,P|78:34|33:75,1,90
125,268,182535,1,8,0:0:0:0:
109,111,182726,1,0,0:0:0:0:
46,334,182917,1,0,0:0:0:0:
31,166,183108,1,0,0:0:0:0:
269,71,183299,1,8,0:0:0:0:
273,71,183395,1,0,0:0:0:0:
277,71,183490,1,0,0:0:0:0:
281,71,183586,1,0,0:0:0:0:
285,71,183681,38,0,L|381:83,1,90,4|0,0:0|0:0,0:0:0:0:
438,227,184064,1,8,0:0:0:0:
263,171,184255,1,0,0:0:0:0:
325,328,184446,1,0,0:0:0:0:
419,227,184637,1,0,0:0:0:0:
235,295,184828,1,8,0:0:0:0:
263,148,185019,1,0,0:0:0:0:
126,280,185210,5,0,0:0:0:0:
71,86,185401,1,0,0:0:0:0:
199,211,185592,1,8,0:0:0:0:
20,203,185783,1,0,0:0:0:0:
169,80,185974,1,0,0:0:0:0:
142,281,186165,1,0,0:0:0:0:
70,109,186356,1,8,0:0:0:0:
143,265,186548,1,0,0:0:0:0:
252,127,186739,37,0,0:0:0:0:
235,326,186930,1,0,0:0:0:0:
335,177,187121,1,8,0:0:0:0:
162,177,187312,1,0,0:0:0:0:
376,107,187503,1,0,0:0:0:0:
213,47,187694,1,0,0:0:0:0:
391,107,187885,1,8,0:0:0:0:
262,245,188076,1,0,0:0:0:0:
294,86,188267,5,0,0:0:0:0:
452,218,188458,1,0,0:0:0:0:
227,154,188649,1,8,0:0:0:0:
412,107,188841,1,0,0:0:0:0:
138,56,189032,1,0,0:0:0:0:
294,86,189223,1,0,0:0:0:0:
98,178,189414,1,8,0:0:0:0:
95,182,189509,1,0,0:0:0:0:
93,186,189605,1,0,0:0:0:0:
92,190,189700,1,0,0:0:0:0:
91,194,189796,38,0,P|87:281|96:304,1,90,4|0,0:0|0:0,0:0:0:0:
258,224,190178,1,8,0:0:0:0:
342,339,190369,1,0,0:0:0:0:
452,218,190560,2,0,P|461:160|449:111,1,90
285,47,190942,1,8,0:0:0:0:
452,33,191134,1,0,0:0:0:0:
243,141,191325,6,0,P|215:100|161:76,1,90
240,252,191707,1,8,0:0:0:0:
80,106,191898,1,0,0:0:0:0:
164,294,192089,2,0,P|202:329|246:338,1,90
353,310,192471,2,0,P|396:257|470:237,1,135,8|0,0:0|0:0,0:0:0:0:
488,244,192853,38,0,P|490:190|469:148,1,90
246,41,193235,1,8,0:0:0:0:
411,69,193427,1,0,0:0:0:0:
127,101,193618,1,0,0:0:0:0:
322,97,193809,1,0,0:0:0:0:
39,38,194000,2,0,P|49:86|40:139,1,90,12|0,0:0|0:0,0:0:0:0:
30,313,194382,5,0,0:0:0:0:
127,101,194573,1,0,0:0:0:0:
182,285,194764,2,0,P|237:290|285:272,1,90,12|0,0:0|0:0,0:0:0:0:
291,273,195051,1,0,0:0:0:0:
313,258,195146,1,0,0:0:0:0:
293,56,195337,1,0,0:0:0:0:
256,49,195432,1,0,0:0:0:0:
220,51,195528,1,8,0:0:0:0:
186,61,195623,1,0,0:0:0:0:
154,78,195719,1,0,0:0:0:0:
127,101,195814,1,0,0:0:0:0:
105,130,195911,38,0,P|91:184|95:226,1,90,4|0,0:0|0:0,0:0:0:0:
208,341,196293,1,8,0:0:0:0:
265,185,196484,1,0,0:0:0:0:
426,224,196675,2,0,P|434:172|460:123,1,90
361,341,197057,1,8,0:0:0:0:
265,185,197248,1,0,0:0:0:0:
116,303,197439,6,0,P|108:251|82:202,1,90
223,103,197821,1,8,0:0:0:0:
8,171,198013,1,0,0:0:0:0:
265,185,198204,2,0,P|305:142|314:103,1,90
411,26,198586,2,0,P|421:76|445:124,1,90,8|0,0:0|0:0,0:0:0:0:
483,260,198968,38,0,P|427:256|368:286,1,90
207,319,199350,1,8,0:0:0:0:
292,155,199541,1,0,0:0:0:0:
299,289,199732,1,0,0:0:0:0:
117,222,199923,1,0,0:0:0:0:
309,156,200114,1,8,0:0:0:0:
130,78,200306,1,0,0:0:0:0:
117,243,200497,5,0,0:0:0:0:
267,81,200688,1,0,0:0:0:0:
301,71,200783,1,0,0:0:0:0:
336,76,200879,1,8,0:0:0:0:
466,191,201070,1,0,0:0:0:0:
261,222,201261,1,0,0:0:0:0:
432,91,201452,1,0,0:0:0:0:
368,257,201643,1,8,0:0:0:0:
432,70,201834,1,0,0:0:0:0:
261,222,202025,38,0,P|224:186|178:171,1,90
39,237,202407,1,8,0:0:0:0:
95,84,202599,1,0,0:0:0:0:
176,260,202790,2,0,P|193:312|227:345,1,90
433,299,203172,1,8,0:0:0:0:
261,222,203363,1,0,0:0:0:0:
440,180,203554,6,0,P|453:131|439:80,1,90
432,69,203841,1,0,0:0:0:0:
413,49,203936,1,8,0:0:0:0:
214,89,204127,1,0,0:0:0:0:
370,130,204318,1,0,0:0:0:0:
137,167,204509,1,0,0:0:0:0:
100,184,204605,1,0,0:0:0:0:
88,222,204700,1,8,0:0:0:0:
180,342,204892,1,0,0:0:0:0:
342,313,205083,38,0,P|360:259|356:213,1,90
199,77,205465,1,8,0:0:0:0:
261,249,205656,1,0,0:0:0:0:
335,139,205847,2,0,P|383:121|431:120,1,90
129,35,206229,1,12,0:0:0:0:
129,28,206611,5,0,0:0:0:0:
83,223,206802,1,0,0:0:0:0:
241,78,206993,37,8,0:0:0:0:
18,38,207185,1,0,0:0:0:0:
211,169,207376,5,0,0:0:0:0:
3,196,207567,1,0,0:0:0:0:
241,78,207758,1,8,0:0:0:0:
253,74,207853,1,0,0:0:0:0:
266,71,207949,1,0,0:0:0:0:
279,70,208044,1,0,0:0:0:0:
292,70,208140,38,0,P|350:97|369:129,1,90,4|0,0:0|0:0,0:0:0:0:
269,236,208522,1,8,0:0:0:0:
456,190,208713,1,0,0:0:0:0:
311,323,208904,2,0,P|257:328|220:347,1,90
51,269,209286,5,8,0:0:0:0:
200,140,209478,1,0,0:0:0:0:
179,279,209669,37,0,0:0:0:0:
139,74,209860,1,0,0:0:0:0:
382,119,210051,1,8,0:0:0:0:
398,145,210146,1,0,0:0:0:0:
401,176,210242,1,0,0:0:0:0:
411,343,210433,1,0,0:0:0:0:
488,179,210624,1,0,0:0:0:0:
258,214,210815,1,8,0:0:0:0:
455,263,211006,1,0,0:0:0:0:
445,66,211197,6,0,P|399:41|357:43,1,90
382,119,211579,2,0,B|327:112|327:144|232:131,1,135,8|0,0:0|0:0,0:0:0:0:
197,122,211962,2,0,P|146:110|98:118,2,90,0|0|8,0:0|0:0|0:0,0:0:0:0:
405,198,212535,38,0,P|455:156|465:115,1,90
319,28,212917,1,0,0:0:0:0:
274,20,213013,1,0,0:0:0:0:
231,34,213108,1,8,0:0:0:0:
109,114,213299,1,0,0:0:0:0:
283,106,213490,1,0,0:0:0:0:
60,213,213681,1,0,0:0:0:0:
214,295,213872,1,8,0:0:0:0:
226,290,213968,1,0,0:0:0:0:
239,287,214064,1,0,0:0:0:0:
252,285,214159,1,0,0:0:0:0:
265,285,214255,6,0,P|295:238|328:213,1,90,4|0,0:0|0:0,0:0:0:0:
472,114,214637,37,8,0:0:0:0:
368,292,214828,1,0,0:0:0:0:
352,78,215019,5,0,0:0:0:0:
481,268,215210,1,0,0:0:0:0:
478,105,215401,37,8,0:0:0:0:
374,283,215592,1,0,0:0:0:0:
251,63,215783,1,0,0:0:0:0:
265,285,215974,1,0,0:0:0:0:
310,304,216070,1,0,0:0:0:0:
353,284,216165,1,8,0:0:0:0:
378,180,216356,2,0,P|327:157|277:155,1,90
142,67,216739,1,0,0:0:0:0:
337,50,216930,1,8,0:0:0:0:
121,44,217121,1,0,0:0:0:0:
352,78,217312,6,0,P|411:90|458:135,1,90
373,332,217694,2,0,P|350:288|343:241,1,90,8|0,0:0|0:0,0:0:0:0:
489,178,218076,1,0,0:0:0:0:
206,161,218267,1,0,0:0:0:0:
374,155,218458,1,8,0:0:0:0:
142,67,218649,1,0,0:0:0:0:
458,45,218841,37,4,0:0:0:0:
96,148,219032,1,4,0:0:0:0:
412,225,219223,2,8,L|430:272,1,45
177,300,219509,5,0,0:0:0:0:
134,307,219604,37,0,0:0:0:0:
104,276,219700,1,0,0:0:0:0:
113,234,219795,1,0,0:0:0:0:
154,218,219891,1,0,0:0:0:0:
178,198,219987,1,0,0:0:0:0:
189,173,220082,1,0,0:0:0:0:
189,150,220178,1,0,0:0:0:0:
183,128,220274,1,0,0:0:0:0:
176,114,220369,6,0,P|165:66|172:45,1,58.4999973220826,4|0,0:0|0:0,0:0:0:0:
411,101,220751,2,0,L|399:168,1,58.4999973220826
270,243,221134,2,0,L|282:310,1,58.4999973220826
425,319,221516,37,0,0:0:0:0:
479,180,221707,1,0,0:0:0:0:
351,261,221898,5,0,0:0:0:0:
297,112,222089,1,0,0:0:0:0:
479,180,222280,37,0,0:0:0:0:
351,261,222471,1,0,0:0:0:0:
411,101,222662,2,0,L|421:43,1,58.4999973220826,8|0,0:0|0:0,0:0:0:0:
297,112,223044,1,0,0:0:0:0:
166,58,223235,1,0,0:0:0:0:
325,29,223427,1,0,0:0:0:0:
166,74,223618,2,0,L|179:137,1,58.4999973220826
205,341,224000,5,8,0:0:0:0:
70,219,224191,1,0,0:0:0:0:
185,204,224382,1,8,0:3:0:0:
268,268,224573,1,8,0:3:0:0:
383,253,224764,1,8,0:3:0:0:
457,164,224955,2,0,B|463:141|476:120|466:80|441:55|399:41|348:63|348:63|330:103|299:117|275:120|246:114|224:106|205:75|200:41|217:17|244:5|271:8|287:26|281:54,1,467.999978576661,4|0,0:0|0:0,0:0:0:0:
177,36,231834,54,0,P|200:82|211:133,1,90,12|0,0:0|0:0,0:0:0:0:
216,154,232121,1,0,0:0:0:0:
216,189,232216,1,0,0:0:0:0:
294,318,232407,1,8,0:0:0:0:
309,285,232503,1,8,0:0:0:0:
335,250,232599,6,0,P|379:205|426:182,1,107.999996704102,14|0,0:0|0:0,0:0:0:0:
404,66,232981,5,8,0:0:0:0:
216,154,233172,1,0,0:0:0:0:
346,133,233363,37,0,0:0:0:0:
108,78,233554,1,0,0:0:0:0:
271,249,233745,2,0,P|285:222|294:191,1,53.9999983520508,8|0,0:0|0:0,0:0:0:0:
217,20,233936,2,0,P|203:47|194:78,1,53.9999983520508
113,316,234127,6,0,P|174:299|223:321,1,107.999996704102
372,230,234509,2,0,P|422:245|473:227,1,107.999996704102,8|0,0:0|0:0,0:0:0:0:
114,156,234892,2,0,P|175:139|224:161,1,107.999996704102
350,337,235274,1,8,0:0:0:0:
350,337,235369,1,0,0:0:0:0:
350,337,235465,1,0,0:0:0:0:
384,133,235656,38,0,P|406:81|449:44,1,107.999996704102
292,199,236038,1,8,0:0:0:0:
114,156,236229,2,0,P|92:104|49:67,1,107.999996704102
112,315,236611,1,0,0:0:0:0:
292,199,236802,2,0,B|273:145|310:145|291:84,1,107.999996704102,8|0,0:0|0:0,0:0:0:0:
219,274,237185,5,0,0:0:0:0:
384,133,237376,1,0,0:0:0:0:
336,323,237567,1,8,0:0:0:0:
291,25,237758,1,0,0:0:0:0:
222,220,237949,2,0,P|222:252|215:284,1,53.9999983520508,8|0,0:0|0:0,0:0:0:0:
154,94,238140,2,0,P|154:62|147:30,1,53.9999983520508
116,262,238331,2,0,P|116:294|109:326,1,53.9999983520508,8|0,0:0|0:0,0:0:0:0:
48,136,238522,2,0,P|48:104|41:72,1,53.9999983520508
294,167,238713,38,0,P|353:181|400:214,1,107.999996704102,14|0,0:0|0:0,0:0:0:0:
418,346,239095,1,8,0:0:0:0:
223,270,239286,2,0,L|113:261,1,107.999996704102
48,136,239669,1,0,0:0:0:0:
232,118,239860,2,0,P|284:99|323:53,1,107.999996704102,8|0,0:0|0:0,0:0:0:0:
455,88,240242,5,0,0:0:0:0:
482,290,240433,1,0,0:0:0:0:
318,60,240624,1,8,0:0:0:0:
261,238,240815,1,0,0:0:0:0:
115,29,241006,2,0,P|62:72|53:191,1,161.999995056153
142,231,241388,2,0,P|183:277|107:328,1,161.999995056153,8|0,0:0|0:0,0:0:0:0:
43,160,241771,38,0,P|93:123|146:129,1,107.999996704102
261,238,242153,1,8,0:0:0:0:
432,122,242344,2,0,L|307:104,1,107.999996704102
432,229,242726,1,0,0:0:0:0:
261,238,242917,2,0,P|211:269|178:323,1,107.999996704102,8|0,0:0|0:0,0:0:0:0:
160,169,243299,2,0,P|110:138|77:84,1,107.999996704102
254,72,243681,5,8,0:0:0:0:
439,70,243872,1,0,0:0:0:0:
160,169,244064,1,0,0:0:0:0:
440,174,244255,1,0,0:0:0:0:
127,37,244446,1,8,0:0:0:0:
127,37,244541,1,0,0:0:0:0:
127,37,244637,1,0,0:0:0:0:
297,271,244828,38,0,P|332:223|343:170,1,107.999996704102,14|0,0:0|0:0,0:0:0:0:
219,39,245210,1,8,0:0:0:0:
253,189,245401,1,0,0:0:0:0:
41,42,245592,2,0,P|20:102|32:163,1,107.999996704102
179,264,245974,1,8,0:0:0:0:
179,264,246070,1,0,0:0:0:0:
179,264,246165,1,0,0:0:0:0:
179,264,246261,1,0,0:0:0:0:
179,264,246356,6,0,P|220:209|262:185,1,107.999996704102
477,161,246739,2,0,P|484:91|475:40,1,107.999996704102,8|0,0:0|0:0,0:0:0:0:
207,123,247121,2,0,P|201:69|208:16,1,107.999996704102
372,174,247503,2,0,P|377:227|370:280,1,107.999996704102,8|0,0:0|0:0,0:0:0:0:
214,343,247885,37,8,0:0:0:0:
66,283,248076,1,0,0:0:0:0:
372,174,248267,2,0,P|428:158|485:163,1,107.999996704102,12|0,0:0|0:0,0:0:0:0:
292,300,248649,5,8,0:0:0:0:
440,240,248840,1,0,0:0:0:0:
134,131,249031,2,0,P|78:115|21:120,1,107.999996704102,12|0,0:0|0:0,0:0:0:0:
172,28,249414,1,0,0:0:0:0:
31,205,249605,1,0,0:0:0:0:
312,27,249796,1,8,0:0:0:0:
309,69,249892,1,0,0:0:0:0:
326,108,249987,1,0,0:0:0:0:
360,134,250083,1,0,0:0:0:0:
372,174,250178,1,0,0:0:0:0:
434,330,250369,21,0,0:0:0:0:
379,286,250465,1,0,0:0:0:0:
316,272,250560,1,0,0:0:0:0:
255,268,250656,1,0,0:0:0:0:
205,248,250751,1,0,0:0:0:0:
167,216,250847,1,0,0:0:0:0:
141,176,250942,6,0,P|100:119|49:93,1,112.5,14|0,0:0|0:0,0:0:0:0:
243,128,251325,1,8,0:0:0:0:
371,44,251516,2,0,P|437:28|503:38,1,112.5
449,187,251898,1,0,0:0:0:0:
304,281,252089,6,0,L|183:260,1,112.5,8|0,0:0|0:0,0:0:0:0:
30,195,252471,2,0,L|151:174,1,112.5
354,121,252853,2,0,L|233:100,1,112.5,8|0,0:0|0:0,0:0:0:0:
0,35,253235,2,0,L|121:14,1,112.5
416,47,253618,2,0,L|443:108,1,56.25,8|0,0:0|0:0,0:0:0:0:
439,278,253809,2,0,L|416:329,1,56.25
313,187,254000,38,0,P|279:131|223:91,1,112.5
51,122,254382,1,8,0:0:0:0:
196,212,254573,1,0,0:0:0:0:
29,338,254764,2,0,P|88:314|148:307,1,112.5
332,340,255146,2,0,P|387:331|439:309,1,112.5,8|0,0:0|0:0,0:0:0:0:
304,82,255528,2,0,P|236:77|172:83,1,112.5
31,252,255911,5,8,0:0:0:0:
192,81,256102,1,0,0:0:0:0:
148,271,256293,37,0,0:0:0:0:
138,22,256484,1,0,0:0:0:0:
149,292,256675,6,0,L|154:360,1,56.25,8|0,0:0|0:0,0:0:0:0:
279,112,256866,2,0,L|283:55,1,56.25
350,314,257057,38,0,P|365:252|396:202,1,112.5,14|0,0:0|0:0,0:0:0:0:
485,112,257439,5,8,0:0:0:0:
231,199,257630,1,0,0:0:0:0:
429,202,257821,37,0,0:0:0:0:
175,115,258012,1,0,0:0:0:0:
398,113,258204,5,8,0:0:0:0:
144,200,258395,1,0,0:0:0:0:
342,203,258586,37,0,0:0:0:0:
88,116,258777,1,0,0:0:0:0:
310,111,258968,5,8,0:0:0:0:
56,198,259159,1,0,0:0:0:0:
342,203,259350,2,0,P|293:235|251:303,1,112.5
455,278,259732,1,8,0:0:0:0:
485,112,259923,1,0,0:0:0:0:
310,111,260114,38,0,P|250:98|177:103,1,112.5
14,90,260497,1,8,0:0:0:0:
131,242,260688,2,0,P|191:229|264:234,1,112.5
384,325,261070,1,0,0:0:0:0:
430,170,261261,2,0,B|415:110|447:110|430:40,1,112.5,8|0,0:0|0:0,0:0:0:0:
202,176,261643,5,0,0:0:0:0:
338,12,261834,1,0,0:0:0:0:
193,187,262025,37,8,0:0:0:0:
433,58,262216,1,0,0:0:0:0:
182,199,262407,6,0,L|159:259,1,56.25,8|0,0:0|0:0,0:0:0:0:
430,170,262599,2,0,L|453:230,1,56.25
169,199,262790,38,0,L|146:259,1,56.25,8|0,0:0|0:0,0:0:0:0:
446,170,262981,2,0,L|469:230,1,56.25
264,124,263172,6,0,P|212:80|157:65,1,112.5,14|0,0:0|0:0,0:0:0:0:
30,165,263554,1,8,0:0:0:0:
100,318,263745,2,0,L|217:303,1,112.5
383,312,264127,1,0,0:0:0:0:
413,92,264318,2,0,P|376:149|321:175,1,112.5,8|0,0:0|0:0,0:0:0:0:
30,165,264700,37,0,0:0:0:0:
256,63,264892,1,0,0:0:0:0:
111,291,265083,5,8,0:0:0:0:
275,52,265274,1,0,0:0:0:0:
263,301,265465,38,0,P|307:264|376:251,1,112.5
189,150,265847,2,0,P|145:113|76:100,1,112.5,8|0,0:0|0:0,0:0:0:0:
0,287,266229,6,0,B|74:275|51:303|140:288,1,112.5
279,192,266611,1,8,0:0:0:0:
40,46,266802,2,0,L|177:57,1,112.5
390,76,267185,1,0,0:0:0:0:
189,150,267376,2,0,B|132:132|132:153|76:140,1,112.5,8|0,0:0|0:0,0:0:0:0:
233,270,267758,37,0,0:0:0:0:
446,227,267949,1,0,0:0:0:0:
189,150,268140,5,8,0:0:0:0:
387,303,268331,1,0,0:0:0:0:
312,64,268522,37,0,0:0:0:0:
132,337,268713,1,0,0:0:0:0:
304,345,268904,5,8,0:0:0:0:
297,317,268999,1,0,0:0:0:0:
282,294,269095,1,0,0:0:0:0:
259,277,269190,1,0,0:0:0:0:
233,270,269286,38,0,P|279:220|293:161,1,112.5,14|0,0:0|0:0,0:0:0:0:
47,126,269669,1,8,0:0:0:0:
133,311,269860,1,0,0:0:0:0:
276,53,270051,2,0,P|219:33|159:32,1,112.5
493,156,270433,2,0,P|436:176|376:177,1,112.5,8|0,0:0|0:0,0:0:0:0:
130,130,270815,5,0,0:0:0:0:
268,306,271006,1,0,0:0:0:0:
276,53,271197,37,8,0:0:0:0:
279,275,271388,1,0,0:0:0:0:
415,169,271579,6,0,P|427:109|468:74,1,112.5
235,121,271962,2,0,P|223:61|182:26,1,112.5,8|0,0:0|0:0,0:0:0:0:
156,308,272344,2,0,B|217:324|217:296|281:308,1,112.5
472,286,272726,37,8,0:0:0:0:
297,223,272917,1,0,0:0:0:0:
422,174,273108,1,0,0:0:0:0:
194,195,273299,1,0,0:0:0:0:
350,298,273490,1,8,0:0:0:0:
259,120,273681,1,0,0:0:0:0:
121,272,273872,5,0,0:0:0:0:
69,53,274064,1,0,0:0:0:0:
296,202,274255,37,8,0:0:0:0:
46,51,274446,1,0,0:0:0:0:
369,81,274637,5,0,0:0:0:0:
22,50,274828,1,0,0:0:0:0:
234,291,275019,38,0,L|229:353,1,56.25,8|0,0:0|0:0,0:0:0:0:
340,60,275210,2,0,L|335:-2,1,56.25
463,333,275401,6,0,P|441:274|397:223,1,112.5,14|0,0:0|0:0,0:0:0:0:
143,151,275783,1,8,0:0:0:0:
229,347,275974,1,0,0:0:0:0:
340,60,276165,37,0,0:0:0:0:
312,279,276356,1,0,0:0:0:0:
135,36,276548,5,8,0:0:0:0:
410,235,276739,1,0,0:0:0:0:
410,235,276834,1,0,0:0:0:0:
410,235,276930,1,0,0:0:0:0:
340,60,277121,1,0,0:0:0:0:
61,234,277312,37,8,0:0:0:0:
410,235,277503,1,0,0:0:0:0:
45,245,277694,5,0,0:0:0:0:
424,226,277885,1,0,0:0:0:0:
146,343,278076,37,8,0:0:0:0:
215,89,278267,1,0,0:0:0:0:
312,279,278458,2,0,P|314:211|336:152,1,112.5
139,251,278841,5,8,0:0:0:0:
300,200,279032,1,0,0:0:0:0:
45,245,279223,1,0,0:0:0:0:
417,145,279414,1,0,0:0:0:0:
86,128,279605,2,8,L|29:141,1,56.25
149,49,279796,37,0,0:0:0:0:
198,61,279891,1,0,0:0:0:0:
247,48,279987,1,0,0:0:0:0:
298,57,280082,1,0,0:0:0:0:
339,77,280178,1,8,0:3:0:0:
283,72,280273,1,0,0:0:0:0:
229,91,280369,1,0,0:0:0:0:
176,105,280464,1,0,0:0:0:0:
226,133,280560,1,8,0:3:0:0:
282,138,280656,1,0,0:0:0:0:
328,169,280751,6,0,L|394:181,1,56.25,4|0,0:0|0:0,0:0:0:0:
55,245,280942,2,0,L|-11:257,1,56.25,4|0,0:0|0:0,0:0:0:0:
311,249,281134,38,0,L|377:261,1,56.25,4|0,0:0|0:0,0:0:0:0:
72,325,281325,2,0,L|6:337,1,56.25,4|0,0:0|0:0,0:0:0:0:
359,335,281516,6,0,B|394:333|417:344|417:344|488:336|488:336|469:296|448:263|409:268|368:260|319:269|319:269|354:220|361:188|354:139|336:109|336:109|373:155|407:193|442:173|470:148|483:92|476:30|415:8|342:0|282:1|235:12|192:85|191:136|179:166|182:194|189:221|250:238|250:238|278:212|294:183|291:165|274:132|248:104|232:83|232:83|213:74|163:80|122:32|122:32|138:94|138:94|122:138|119:160|114:194|120:230|141:265|168:278|192:298|245:309,1,1785.6,10|0,0:0|0:0,0:0:0:0:
354,181,287630,6,2,P|351:148|331:103,1,74.2500022659302
221,114,288013,2,0,P|250:136|272:166,1,74.2500022659302
192,196,288395,2,2,P|161:182|112:176,1,74.2500022659302
67,272,288778,2,0,P|101:257|137:253,1,74.2500022659302
211,309,289159,22,2,B|235:320|251:339|251:339|281:321|340:321|378:338,1,173.250005287171
447,298,289923,2,0,B|403:260|345:251|296:250|262:260,1,173.250005287171
205,226,290688,2,2,B|169:216|130:185|130:185|169:156|209:147,1,173.250005287171
304,117,291452,2,0,B|339:107|378:76|378:76|339:47|299:38,1,173.250005287171
206,41,292216,2,0,P|187:70|65:52,1,173.250005287171
29,142,292981,2,0,B|41:205|41:205|33:243|33:243|45:313,1,173.250005287171
161,345,293745,6,2,P|213:279|297:269,1,173.250005287171
165,217,294509,2,2,P|79:206|27:137,1,173.250005287171
189,124,295274,2,2,B|155:159|115:169|71:141|44:90|97:5|177:4|194:117|222:116|274:102|325:82,1,371.250011329651
433,121,296802,22,2,B|474:73|421:5|421:5|365:75|433:151|433:151|468:188|451:245,1,371.250011329651
358,217,298331,22,0,B|344:242|350:278|350:278|349:314|309:356|309:356|312:306|290:251|290:251|267:201|266:166|275:133|275:133|285:101|288:62|268:31|268:31|255:65|223:111|173:133|107:143|36:123|7:54,1,792.000024169923,2|0,0:0|0:0,0:0:0:0:
256,320,302917,38,0,B|181:360|117:352|78:337|78:337|119:325|137:290|137:290|76:306|20:269|20:269|80:260|105:226|105:226|54:212|31:180|31:180|1:131|1:131|100:199|189:184|189:184|221:185|219:212|219:212|218:235|190:279|332:362|395:352|434:337|434:337|393:325|375:290|375:290|436:306|492:269|492:269|432:260|407:226|407:226|458:212|481:180|481:180|511:131|511:131|412:199|323:184|323:184|291:185|288:213|289:227|289:227|300:240|321:252,1,1900.79999419922,8|0,0:0|0:0,0:0:0:0:
