osu file format v14

[General]
AudioFilename: audio.mp3
AudioLeadIn: 0
PreviewTime: 226484
Countdown: 1
SampleSet: Soft
StackLeniency: 0.7
Mode: 0
LetterboxInBreaks: 0
WidescreenStoryboard: 0

[Editor]
Bookmarks: 56802,143458,200879,226484
DistanceSpacing: 0.8
BeatDivisor: 4
GridSize: 4
TimelineZoom: 1.5

[Metadata]
Title:Heavenly Blue
TitleUnicode:Heavenly Blue
Artist:Kalafina
ArtistUnicode:Kalafina
Creator:AwfulEternity
Version:Let justice be done, though the heavens fall.
Source:アルドノア・ゼロ
Tags:ALDNOAH.ZERO ALDNOAH ZERO opening Kajiura Yuki 梶浦由記 大滝若菜 Otaki Wakana 窪田啓子 Kubota Keiko 政井光 Masai Hikaru Full Ver
BeatmapID:1318330
BeatmapSetID:625601

[Difficulty]
HPDrainRate:6
CircleSize:4
OverallDifficulty:8
ApproachRate:9.1
SliderMultiplier:1.4
SliderTickRate:1

[Events]
//Background and Video events
0,0,"aldnoah_1440x1007.jpg",0,0
//Break Periods
2,87671,91553
2,226683,231234
//Storyboard Layer 0 (Background)
//Storyboard Layer 1 (Fail)
//Storyboard Layer 2 (Pass)
//Storyboard Layer 3 (Foreground)
//Storyboard Sound Samples

[TimingPoints]
274,382.165605095541,4,2,0,45,1,0
6313,-100,4,2,0,45,0,0
6357,382.165605095541,4,2,0,45,1,0
30815,-200,4,2,0,40,0,0
55274,-100,4,2,0,45,0,0
56802,-100,4,2,0,45,0,1
87471,-100,4,2,0,45,0,0
118331,-200,4,2,0,40,0,0
127885,-100,4,2,0,40,0,0
128649,-200,4,2,0,40,0,0
139350,-100,4,2,0,45,0,0
143936,-100,4,2,0,45,0,1
171452,-100,4,2,0,45,0,0
226484,-100,4,2,0,45,0,0
231834,-200,4,2,0,45,0,1
232121,-100,4,2,0,45,0,1
249987,-100,4,2,0,45,0,0
250942,-100,4,2,0,45,0,1
281516,-200,4,2,0,45,0,0
287439,-200,4,2,0,5,0,0

[Colours]
Combo1 : 128,85,198
Combo2 : 23,237,249
Combo3 : 79,122,236

[HitObjects]
160,136,274,6,0,P|116:196|124:268,1,140
352,247,1038,2,0,P|394:193|392:125,1,140
264,292,1802,2,0,P|324:335|395:327,1,140
248,92,2566,2,0,P|188:48|116:56,1,140
256,192,3065,12,0,6122,0:0:0:0:
92,200,6357,5,12,0:0:0:0:
92,60,6548,1,0,0:0:0:0:
168,204,6739,2,0,P|152:245|110:275,1,70,8|0,0:0|0:0,0:0:0:0:
16,168,7121,5,8,0:0:0:0:
188,60,7312,1,0,0:0:0:0:
188,60,7407,1,0,0:0:0:0:
188,60,7503,2,0,P|228:80|252:112,1,70,8|0,0:0|0:0,0:0:0:0:
156,136,7885,5,8,0:0:0:0:
312,32,8076,1,0,0:0:0:0:
388,204,8267,5,8,0:0:0:0:
244,98,8458,1,0,0:0:0:0:
160,264,8649,5,8,0:0:0:0:
316,160,8840,1,0,0:0:0:0:
428,304,9032,2,0,P|403:343|367:356,1,70,8|0,0:0|0:0,0:0:0:0:
164,152,9414,5,8,0:0:0:0:
356,284,9605,1,0,0:0:0:0:
96,276,9796,1,8,0:0:0:0:
232,124,9987,2,0,B|211:86|167:79,1,70,0|8,0:0|0:0,0:0:0:0:
44,324,10369,5,0,0:0:0:0:
288,264,10560,1,8,0:0:0:0:
132,64,10751,1,0,0:0:0:0:
136,304,10942,1,8,0:0:0:0:
268,108,11134,1,0,0:0:0:0:
36,200,11325,1,8,0:0:0:0:
293,333,11516,2,0,P|328:324|356:284,1,70,0|8,0:0|0:0,0:0:0:0:
368,84,11898,5,0,0:0:0:0:
80,272,12089,1,8,0:0:0:0:
288,260,12280,1,0,0:0:0:0:
184,136,12471,1,8,0:0:0:0:
176,332,12662,5,0,0:0:0:0:
264,84,12853,1,8,0:0:0:0:
32,84,13044,2,0,P|23:117|26:152,1,70,0|8,0:0|0:0,0:0:0:0:
300,24,13427,2,0,P|260:16|216:28,1,70,0|8,0:0|0:0,0:0:0:0:
160,268,13809,5,0,0:0:0:0:
264,84,14000,1,8,0:0:0:0:
96,120,14191,1,0,0:0:0:0:
324,300,14382,1,8,0:0:0:0:
94,189,14573,2,0,P|66:208|50:249,1,70,0|8,0:0|0:0,0:0:0:0:
154,153,14955,2,0,P|129:128|87:120,1,70,0|8,0:0|0:0,0:0:0:0:
268,296,15337,5,0,0:0:0:0:
51,240,15528,2,0,P|36:271|42:313,1,70,8|0,0:0|0:0,0:0:0:0:
232,136,15911,1,8,0:0:0:0:
236,356,16102,2,0,P|269:364|310:351,1,70,0|8,0:0|0:0,0:0:0:0:
94,189,16484,2,0,P|66:208|50:249,1,70,0|8,0:0|0:0,0:0:0:0:
308,308,16866,5,0,0:0:0:0:
168,96,17057,2,0,P|136:80|102:74,1,70,8|0,0:0|0:0,0:0:0:0:
328,232,17439,5,8,0:0:0:0:
56,24,17630,2,0,P|36:51|36:96,1,70,0|8,0:0|0:0,0:0:0:0:
324,160,18013,5,0,0:0:0:0:
116,160,18204,1,8,0:0:0:0:
244,236,18395,1,8,0:0:0:0:
172,112,18586,6,0,P|132:88|80:96,1,70,12|0,0:0|0:0,0:0:0:0:
152,296,18968,5,8,0:0:0:0:
248,104,19159,1,0,0:0:0:0:
296,240,19350,5,8,0:0:0:0:
210,43,19541,1,0,0:0:0:0:
348,96,19732,5,8,0:0:0:0:
141,35,19923,1,0,0:0:0:0:
392,40,20114,5,8,0:0:0:0:
252,184,20306,1,0,0:0:0:0:
320,32,20497,1,8,0:0:0:0:
300,240,20688,2,0,P|260:256|208:244,1,70,0|8,0:0|0:0,0:0:0:0:
128,64,21070,5,0,0:0:0:0:
356,188,21261,1,8,0:0:0:0:
84,248,21452,1,0,0:0:0:0:
222,31,21643,5,8,0:0:0:0:
233,254,21834,1,0,0:0:0:0:
222,31,22025,1,8,0:0:0:0:
304,256,22216,2,0,B|299:299|261:319,1,70,0|8,0:0|0:0,0:0:0:0:
81,145,22599,5,0,0:0:0:0:
340,138,22790,1,8,0:0:0:0:
135,326,22981,1,0,0:0:0:0:
146,69,23172,5,8,0:0:0:0:
267,257,23363,1,0,0:0:0:0:
146,69,23554,1,8,0:0:0:0:
329,223,23745,2,0,B|346:263|324:299,1,70,0|8,0:0|0:0,0:0:0:0:
124,144,24127,5,0,0:0:0:0:
280,144,24318,1,8,0:0:0:0:
204,240,24509,1,0,0:0:0:0:
300,76,24700,2,0,P|340:104|352:128,1,70,8|0,0:0|0:0,0:0:0:0:
260,316,25083,5,8,0:0:0:0:
52,160,25274,2,0,P|51:125|69:94,1,70,8|8,0:0|0:0,0:0:0:0:
364,192,25656,1,8,0:0:0:0:
124,144,25847,1,8,0:0:0:0:
208,348,26038,1,0,0:0:0:0:
131,76,26229,2,0,P|96:76|66:94,1,70,8|0,0:0|0:0,0:0:0:0:
160,296,26611,5,8,0:0:0:0:
204,132,26802,1,0,0:0:0:0:
64,192,26993,1,8,0:0:0:0:
288,216,27185,5,0,0:0:0:0:
116,96,27376,1,8,0:0:0:0:
76,288,27567,1,0,0:0:0:0:
288,124,27758,1,8,0:0:0:0:
40,120,27949,5,0,0:0:0:0:
224,252,28140,1,8,0:0:0:0:
216,52,28331,1,0,0:0:0:0:
104,252,28522,2,0,P|199:310|311:314,1,210,8|0,0:0|0:0,0:0:0:0:
136,188,29286,2,0,P|45:211|68:312,1,210,8|4,0:0|0:0,0:0:0:0:
392,296,30051,5,8,0:0:0:0:
104,252,30242,1,8,0:0:0:0:
384,176,30433,1,8,0:0:0:0:
136,348,30624,1,0,0:0:0:0:
176,64,30815,6,0,P|216:64|256:80,1,70,12|8,0:0|0:0,0:0:0:0:
272,212,31388,1,0,0:0:0:0:
444,188,31579,1,8,0:0:0:0:
208,259,31962,6,0,L|100:251,1,105,8|0,0:0|0:0,0:0:0:0:
88,248,32630,1,0,0:0:0:0:
80,236,32726,1,8,0:0:0:0:
317,160,33108,2,0,L|327:84,1,70,8|8,0:0|0:0,0:0:0:0:
436,160,33681,1,0,0:0:0:0:
184,84,33872,6,0,P|152:88|120:124,1,70,8|8,0:0|0:0,0:0:0:0:
244,224,34446,1,0,0:0:0:0:
96,216,34637,1,8,0:0:0:0:
376,244,35019,6,0,P|376:212|356:176,1,70,8|8,0:0|0:0,0:0:0:0:
236,92,35592,1,0,0:0:0:0:
108,180,35783,1,8,0:0:0:0:
358,178,36165,6,0,P|375:209|376:244,1,70,8|8,0:0|0:0,0:0:0:0:
208,192,36739,1,0,0:0:0:0:
160,336,36930,6,0,P|132:328|104:288,1,70,12|8,0:0|0:0,0:0:0:0:
32,164,37503,1,0,0:0:0:0:
128,24,37694,2,0,L|203:34,1,70,8|8,0:0|0:0,0:0:0:0:
300,124,38267,1,0,0:0:0:0:
408,52,38458,6,0,P|432:72|440:88,1,35,8|0,0:0|0:0,0:0:0:0:
224,128,38841,2,0,P|200:148|192:164,1,35,8|0,0:0|0:0,0:0:0:0:
420,216,39223,2,0,P|444:236|452:252,1,35,8|0,0:0|0:0,0:0:0:0:
245,279,39605,2,0,L|288:285,1,35,8|0,0:0|0:0,0:0:0:0:
280,284,39987,2,0,P|276:308|228:320,1,70,8|8,0:0|0:0,0:0:0:0:
52,328,40560,5,0,0:0:0:0:
166,216,40751,2,0,L|155:141,1,70,8|8,0:0|0:0,0:0:0:0:
304,184,41325,1,0,0:0:0:0:
260,40,41516,6,0,L|342:53,1,70,8|8,0:0|0:0,0:0:0:0:
416,176,42089,1,0,0:0:0:0:
408,192,42185,1,0,0:0:0:0:
404,204,42280,1,8,0:0:0:0:
248,268,42471,5,8,0:0:0:0:
316,352,42662,1,8,0:0:0:0:
240,264,42853,1,8,0:0:0:0:
320,172,43044,2,0,P|352:160|396:172,1,70,12|8,0:0|0:0,0:0:0:0:
468,280,43618,5,0,0:0:0:0:
320,168,43809,2,0,P|288:148|248:144,1,70,8|8,0:0|0:0,0:0:0:0:
232,144,44286,1,0,0:0:0:0:
216,144,44382,1,0,0:0:0:0:
104,144,44573,6,0,P|120:108|160:92,1,70,8|8,0:0|0:0,0:0:0:0:
296,92,45146,1,0,0:0:0:0:
145,93,45337,2,0,P|116:111|104:144,1,70,8|8,0:0|0:0,0:0:0:0:
232,184,45911,1,0,0:0:0:0:
128,280,46102,6,0,P|136:260|156:248,1,35,8|0,0:0|0:0,0:0:0:0:
344,208,46484,2,0,P|336:188|316:176,1,35,8|0,0:0|0:0,0:0:0:0:
172,120,46866,2,0,P|180:100|200:88,1,35,8|0,0:0|0:0,0:0:0:0:
340,48,47248,2,0,P|368:48|408:76,1,70,8|8,0:0|0:0,0:0:0:0:
325,179,47821,5,0,0:0:0:0:
476,252,48013,1,8,0:0:0:0:
272,250,48395,6,0,L|193:261,1,70,8|8,0:0|0:0,0:0:0:0:
52,336,48968,1,0,0:0:0:0:
72,168,49159,6,0,L|85:85,1,70,8|8,0:0|0:0,0:0:0:0:
196,8,49732,1,0,0:0:0:0:
196,8,49828,1,0,0:0:0:0:
196,8,49923,2,0,L|278:21,1,70,8|8,0:0|0:0,0:0:0:0:
408,112,50688,6,0,P|422:136|422:141,1,35,8|0,0:0|0:0,0:0:0:0:
176,184,51070,2,0,P|161:208|161:213,1,35,8|0,0:0|0:0,0:0:0:0:
404,264,51452,2,0,P|418:288|418:293,1,35,8|0,0:0|0:0,0:0:0:0:
216,336,51834,2,0,P|201:360|201:365,1,35,8|0,0:0|0:0,0:0:0:0:
324,272,52216,5,8,0:0:0:0:
160,148,52407,1,8,0:0:0:0:
316,80,52790,6,0,L|364:68,1,35,0|8,0:0|0:0,0:0:0:0:
480,72,53172,2,0,L|432:60,1,35,0|8,0:0|0:0,0:0:0:0:
282,88,53554,2,0,L|330:76,1,35,0|8,0:0|0:0,0:0:0:0:
480,72,53936,1,0,0:0:0:0:
464,60,54032,1,0,0:0:0:0:
452,52,54127,2,0,B|424:40|388:12|312:4,1,140,8|8,0:0|0:0,0:0:0:0:
136,192,55274,5,12,0:0:0:0:
220,40,55656,2,0,P|199:42|191:64,1,35,8|0,0:0|0:0,0:0:0:0:
291,30,55847,2,0,P|288:9|266:1,1,35,8|0,0:0|0:0,0:0:0:0:
307,98,56038,2,0,P|327:95|335:73,1,35,8|0,0:0|0:0,0:0:0:0:
235,108,56229,2,0,L|249:142,1,35,8|0,0:0|0:0,0:0:0:0:
260,168,56420,1,8,0:0:0:0:
280,204,56516,1,8,0:0:0:0:
312,232,56611,1,8,0:0:0:0:
352,248,56707,1,8,0:0:0:0:
392,252,56802,2,0,P|432:232|448:204,1,70,12|0,0:0|0:0,0:0:0:0:
324,84,57185,6,0,L|316:136,1,35,8|0,0:0|0:0,0:0:0:0:
425,114,57376,2,0,L|420:80,1,35
300,64,57567,6,0,L|292:116,1,35,8|0,0:0|0:0,0:0:0:0:
449,98,57758,2,0,L|444:64,1,35
196,100,57949,1,8,0:0:0:0:
368,180,58140,1,0,0:0:0:0:
160,188,58331,6,0,P|132:220|132:264,1,70,8|0,0:0|0:0,0:0:0:0:
348,213,58713,2,0,P|362:198|364:148,1,70,8|0,0:0|0:0,0:0:0:0:
128,246,59095,2,0,P|141:286|179:308,1,70,8|0,0:0|0:0,0:0:0:0:
365,151,59478,2,0,P|351:110|313:88,1,70,8|0,0:0|0:0,0:0:0:0:
364,272,59860,5,12,0:0:0:0:
492,96,60051,1,0,0:0:0:0:
290,160,60242,1,8,0:0:0:0:
496,188,60433,1,0,0:0:0:0:
240,208,60624,2,0,P|222:185|227:129,1,70,8|0,0:0|0:0,0:0:0:0:
445,75,61006,6,0,P|470:98|479:131,1,70,8|0,0:0|0:0,0:0:0:0:
188,243,61389,2,0,P|162:219|153:186,1,70,8|0,0:0|0:0,0:0:0:0:
479,131,61771,2,0,P|480:165|461:193,1,70,8|0,0:0|0:0,0:0:0:0:
154,186,62153,2,0,P|161:152|185:127,1,70,8|0,0:0|0:0,0:0:0:0:
304,136,62535,1,8,0:0:0:0:
296,152,62630,1,0,0:0:0:0:
288,164,62726,2,0,P|261:186|226:190,1,70,8|8,0:0|0:0,0:0:0:0:
50,133,63108,5,0,0:0:0:0:
44,280,63299,1,8,0:0:0:0:
220,340,63490,1,0,0:0:0:0:
136,164,63681,5,8,0:0:0:0:
88,348,63872,1,0,0:0:0:0:
318,272,64064,1,8,0:0:0:0:
48,188,64255,1,0,0:0:0:0:
287,95,64446,6,0,P|318:93|354:104,1,70,8|0,0:0|0:0,0:0:0:0:
177,135,64828,6,0,P|175:103|186:67,1,70,8|0,0:0|0:0,0:0:0:0:
218,245,65210,6,0,P|186:246|150:235,1,70,8|0,0:0|0:0,0:0:0:0:
327,204,65592,6,0,P|328:235|317:271,1,70,8|0,0:0|0:0,0:0:0:0:
244,352,65974,6,0,B|308:356|344:344,1,70,8|0,0:0|0:0,0:0:0:0:
412,224,66356,1,8,0:0:0:0:
176,204,66548,2,0,B|168:202|114:237,1,70,0|8,0:0|0:0,0:0:0:0:
288,184,66930,2,0,B|289:176|254:122,1,70,0|8,0:0|0:0,0:0:0:0:
268,336,67312,5,0,0:0:0:0:
380,192,67503,1,8,0:0:0:0:
176,204,67694,1,0,0:0:0:0:
368,300,67885,2,0,P|402:305|436:300,1,70,8|0,0:0|0:0,0:0:0:0:
324,96,68267,1,8,0:0:0:0:
104,196,68458,5,0,0:0:0:0:
336,228,68649,1,8,0:0:0:0:
156,104,68841,1,0,0:0:0:0:
439,217,69032,2,0,B|456:224|464:216|464:216|460:148|416:100,1,140,12|8,0:0|0:0,0:0:0:0:
256,216,69605,5,0,0:0:0:0:
424,84,69796,1,8,0:0:0:0:
248,120,69987,1,0,0:0:0:0:
432,88,70178,2,0,P|455:113|469:145,1,70,8|0,0:0|0:0,0:0:0:0:
448,328,70560,5,8,0:0:0:0:
324,212,70751,2,0,P|284:207|229:231,1,70,0|8,0:0|0:0,0:0:0:0:
416,172,71134,5,0,0:0:0:0:
292,100,71325,1,8,0:0:0:0:
452,48,71516,1,0,0:0:0:0:
284,100,71707,2,0,L|204:88,1,70,8|0,0:0|0:0,0:0:0:0:
52,100,72089,6,0,P|52:144|88:180,1,70,8|0,0:0|0:0,0:0:0:0:
248,224,72471,1,8,0:0:0:0:
476,144,72662,1,0,0:0:0:0:
260,48,72853,1,8,0:0:0:0:
464,236,73044,1,0,0:0:0:0:
152,124,73235,2,0,P|141:162|137:206,1,70,8|0,0:0|0:0,0:0:0:0:
360,260,73618,2,0,P|370:221|374:177,1,70,8|0,0:0|0:0,0:0:0:0:
93,303,74000,5,8,0:0:0:0:
277,159,74191,1,0,0:0:0:0:
125,207,74382,5,8,0:0:0:0:
373,191,74573,1,0,0:0:0:0:
165,115,74764,5,8,0:0:0:0:
349,299,74955,1,0,0:0:0:0:
361,80,75146,6,0,P|301:46|232:40,1,140,12|8,0:0|0:0,0:0:0:0:
252,260,75720,1,0,0:0:0:0:
252,260,75815,1,0,0:0:0:0:
257,267,75911,2,0,P|325:256|364:200,1,140,8|8,0:0|0:0,0:0:0:0:
140,164,76484,1,0,0:0:0:0:
256,268,76675,1,8,0:0:0:0:
128,152,76866,1,0,0:0:0:0:
387,99,77057,6,0,P|412:122|421:155,1,70,8|0,0:0|0:0,0:0:0:0:
130,267,77440,2,0,P|104:243|95:210,1,70,8|0,0:0|0:0,0:0:0:0:
421,155,77822,2,0,P|422:189|403:217,1,70,8|0,0:0|0:0,0:0:0:0:
268,224,78204,1,8,0:0:0:0:
276,207,78299,1,0,0:0:0:0:
284,196,78395,2,0,P|310:173|345:169,1,70,0|8,0:0|0:0,0:0:0:0:
316,72,78777,5,0,0:0:0:0:
468,204,78968,1,8,0:0:0:0:
176,180,79159,5,0,0:0:0:0:
392,244,79350,1,8,0:0:0:0:
152,304,79541,5,0,0:0:0:0:
364,176,79732,1,8,0:0:0:0:
88,192,79923,5,0,0:0:0:0:
344,312,80114,1,8,0:0:0:0:
224,116,80306,5,0,0:0:0:0:
80,336,80497,1,8,0:0:0:0:
360,340,80688,1,0,0:0:0:0:
240,192,80879,2,0,P|184:204|164:232,1,70,8|0,0:0|0:0,0:0:0:0:
372,228,81261,2,0,P|428:216|448:188,1,70,12|0,0:0|0:0,0:0:0:0:
252,40,81643,5,8,0:0:0:0:
416,296,81834,2,0,P|473:291|496:266,1,70,4|8,0:0|0:0,0:0:0:0:
344,112,82216,5,0,0:0:0:0:
140,184,82407,1,8,0:0:0:0:
322,306,82599,1,0,0:0:0:0:
334,306,82694,1,0,0:0:0:0:
346,306,82790,2,0,L|429:294,1,70,12|0,0:0|0:0,0:0:0:0:
320,112,83172,1,8,0:0:0:0:
476,180,83363,2,0,B|483:164|484:124|475:104,1,70,4|8,0:0|0:0,0:0:0:0:
324,260,83745,5,8,0:0:0:0:
284,48,83936,1,8,0:0:0:0:
96,152,84127,2,0,P|64:184|52:228,1,70,4|8,0:0|0:0,0:0:0:0:
268,296,84509,5,0,0:0:0:0:
384,188,84700,1,8,0:0:0:0:
204,192,84892,1,0,0:0:0:0:
340,344,85083,5,8,0:0:0:0:
352,104,85274,1,0,0:0:0:0:
116,256,85465,1,8,0:0:0:0:
456,260,85656,5,0,0:0:0:0:
204,100,85847,1,8,0:0:0:0:
200,360,86038,1,0,0:0:0:0:
132,132,86229,6,0,P|137:149|149:161,1,35,8|0,0:0|0:0,0:0:0:0:
331,120,86420,2,0,P|325:102|313:90,1,35,8|0,0:0|0:0,0:0:0:0:
189,213,86611,2,0,P|202:225|219:229,1,35,8|0,0:0|0:0,0:0:0:0:
269,42,86802,2,0,P|255:29|238:25,1,35,8|0,0:0|0:0,0:0:0:0:
296,183,86993,1,8,0:3:0:0:
336,189,87089,1,8,0:3:0:0:
376,183,87185,1,8,0:3:0:0:
415,173,87280,1,8,0:3:0:0:
451,156,87376,2,8,L|480:123,1,35,12|8,0:0|0:0,0:0:0:0:
156,172,92153,5,8,0:3:0:0:
156,172,92248,1,8,0:3:0:0:
156,172,92344,2,0,L|222:172,1,35,8|0,0:3|0:3,0:3:0:0:
360,172,92535,5,8,0:3:0:0:
360,172,92630,1,8,0:3:0:0:
360,172,92726,2,0,L|294:172,1,35,8|0,0:3|0:3,0:3:0:0:
258,186,92917,6,0,L|262:234,1,35,0|0,0:3|0:3,0:3:0:0:
280,248,93108,1,8,0:3:0:0:
318,265,93204,1,8,0:3:0:0:
360,268,93299,1,8,0:3:0:0:
399,254,93395,1,8,0:3:0:0:
431,229,93490,6,0,P|430:194|380:161,1,70,12|0,0:3|0:3,0:3:0:0:
152,28,93872,1,8,0:0:0:0:
268,152,94064,1,0,0:0:0:0:
248,64,94255,5,8,0:0:0:0:
124,176,94446,1,0,0:0:0:0:
40,40,94637,5,8,0:0:0:0:
132,184,94828,2,0,B|176:244,1,70,0|8,0:0|0:0,0:0:0:0:
248,336,95210,1,0,0:0:0:0:
296,160,95401,1,8,0:0:0:0:
312,296,95592,1,0,0:0:0:0:
236,116,95783,5,8,0:0:0:0:
368,252,95974,1,0,0:0:0:0:
176,152,96165,1,8,0:0:0:0:
424,208,96356,1,0,0:0:0:0:
124,200,96548,1,8,0:0:0:0:
296,160,96739,1,0,0:0:0:0:
104,268,96930,1,8,0:0:0:0:
280,288,97121,5,0,0:0:0:0:
92,200,97312,1,8,0:0:0:0:
212,312,97503,1,0,0:0:0:0:
128,136,97694,1,8,0:0:0:0:
144,332,97885,1,0,0:0:0:0:
196,116,98076,1,8,0:0:0:0:
80,312,98267,5,0,0:0:0:0:
256,152,98458,1,8,0:0:0:0:
280,288,98649,2,0,B|262:319|220:316,1,70,0|8,0:0|0:0,0:0:0:0:
32,192,99032,5,0,0:0:0:0:
236,144,99223,1,8,0:0:0:0:
164,32,99414,5,0,0:0:0:0:
128,288,99605,1,8,0:0:0:0:
240,168,99796,2,0,B|280:176|280:176|304:168|304:168|328:168,1,70,0|8,0:0|0:0,0:0:0:0:
448,168,100178,1,0,0:0:0:0:
324,52,100369,5,8,0:0:0:0:
434,267,100560,2,0,L|361:225,1,70,0|8,0:0|0:0,0:0:0:0:
180,168,100942,5,0,0:0:0:0:
324,52,101134,1,8,0:0:0:0:
88,104,101325,1,0,0:0:0:0:
336,48,101516,1,8,0:0:0:0:
180,168,101707,2,0,P|144:192|112:220,1,70,0|8,0:0|0:0,0:0:0:0:
212,312,102089,5,0,0:0:0:0:
352,160,102280,1,8,0:0:0:0:
212,332,102471,1,0,0:0:0:0:
168,124,102662,5,8,0:0:0:0:
372,144,102853,1,0,0:0:0:0:
192,344,103044,1,8,0:0:0:0:
96,104,103235,2,0,P|116:72|160:44,1,70,0|8,0:0|0:0,0:0:0:0:
416,279,103618,2,0,P|397:309|370:331,1,70,0|8,0:0|0:0,0:0:0:0:
60,192,104000,5,8,0:0:0:0:
370,331,104191,1,8,0:0:0:0:
368,92,104573,5,8,0:0:0:0:
160,320,104764,1,8,0:0:0:0:
444,128,105146,5,0,0:0:0:0:
144,204,105337,1,8,0:0:0:0:
300,204,105528,1,8,0:0:0:0:
48,140,105720,6,0,P|35:175|43:228,1,70,12|0,0:0|0:0,0:0:0:0:
144,280,106102,1,8,0:0:0:0:
296,280,106293,1,0,0:0:0:0:
112,168,106484,5,8,0:0:0:0:
308,208,106675,1,0,0:0:0:0:
144,48,106866,5,8,0:0:0:0:
340,144,107057,1,0,0:0:0:0:
80,200,107248,5,8,0:0:0:0:
280,72,107439,1,0,0:0:0:0:
148,296,107630,5,8,0:0:0:0:
288,56,107821,2,0,P|328:48|372:76,1,70,0|8,0:0|0:0,0:0:0:0:
276,204,108204,5,0,0:0:0:0:
88,80,108395,1,8,0:0:0:0:
32,216,108586,5,0,0:0:0:0:
227,143,108777,1,8,0:0:0:0:
276,288,108968,5,0,0:0:0:0:
100,180,109159,1,8,0:0:0:0:
300,208,109350,2,0,P|336:232|356:264,1,70,0|8,0:0|0:0,0:0:0:0:
104,284,109732,5,0,0:0:0:0:
260,96,109923,1,8,0:0:0:0:
84,272,110114,1,0,0:0:0:0:
280,112,110306,1,8,0:0:0:0:
72,128,110497,5,0,0:0:0:0:
280,268,110688,1,8,0:0:0:0:
84,116,110879,2,0,P|112:92|148:76,1,70,0|8,0:0|0:0,0:0:0:0:
312,144,111261,5,0,0:0:0:0:
152,328,111452,1,8,0:0:0:0:
384,296,111643,1,0,0:0:0:0:
152,132,111834,6,0,P|112:152|80:192,1,70,8|0,0:0|0:0,0:0:0:0:
52,316,112216,1,8,0:0:0:0:
152,132,112407,2,0,P|184:112|232:100,1,70,0|8,0:0|0:0,0:0:0:0:
224,180,112790,2,0,P|192:200|144:212,1,70,0|8,0:0|0:0,0:0:0:0:
400,216,113172,5,0,0:0:0:0:
200,32,113363,2,0,P|241:25|276:23,1,70,8|0,0:0|0:0,0:0:0:0:
472,168,113745,5,8,0:0:0:0:
280,276,113936,1,0,0:0:0:0:
336,24,114127,1,8,0:0:0:0:
456,240,114318,1,0,0:0:0:0:
236,168,114509,2,0,P|203:156|176:133,1,70,8|0,0:0|0:0,0:0:0:0:
260,28,114892,5,8,0:0:0:0:
372,160,115083,1,0,0:0:0:0:
176,133,115274,1,8,0:0:0:0:
480,100,115465,5,0,0:0:0:0:
256,108,115656,1,8,0:0:0:0:
396,276,115847,1,0,0:0:0:0:
376,40,116038,5,8,0:0:0:0:
224,260,116229,1,0,0:0:0:0:
480,188,116420,1,12,0:0:0:0:
184,52,116611,1,4,0:0:0:0:
328,348,116802,1,12,0:0:0:0:
452,96,117089,6,8,L|464:128,1,35,8|8,0:3|0:3,0:3:0:0:
316,276,117376,1,8,0:3:0:0:
408,108,117567,1,8,0:3:0:0:
393,76,117662,1,8,0:3:0:0:
360,52,117758,1,8,0:3:0:0:
320,36,117853,1,8,0:3:0:0:
276,32,117949,6,0,P|244:32|200:44,1,70,12|0,0:3|0:3,0:3:0:0:
160,164,118331,2,0,P|192:160|208:152,1,35,8|0,0:0|0:0,0:0:0:0:
207,39,118713,2,0,P|174:52|164:64,1,35,8|0,0:0|0:0,0:0:0:0:
200,156,119095,2,0,P|228:148|268:124,1,70,8|8,0:0|0:0,0:0:0:0:
384,192,119669,5,0,0:0:0:0:
372,32,119860,1,8,0:0:0:0:
56,172,120242,6,0,P|84:208|112:220,1,70
192,108,120815,1,0,0:0:0:0:
300,256,121006,6,0,L|328:232,1,35,8|0,0:0|0:0,0:0:0:0:
276,128,121388,2,0,L|244:156,1,35,8|0,0:0|0:0,0:0:0:0:
328,232,121771,2,0,L|344:196,1,35,8|0,0:0|0:0,0:0:0:0:
248,156,122153,2,0,P|228:192|224:232,1,70,8|8,0:0|0:0,0:0:0:0:
392,204,122726,5,0,0:0:0:0:
232,368,122917,1,8,0:0:0:0:
254,30,123299,6,0,L|329:40,1,70,8|8,0:0|0:0,0:0:0:0:
460,112,123872,1,0,0:0:0:0:
232,108,124064,6,0,P|200:120|156:148,1,70,12|8,0:0|0:0,0:0:0:0:
260,296,124637,1,0,0:0:0:0:
169,137,124828,2,0,P|143:159|111:200,1,70,8|8,0:0|0:0,0:0:0:0:
376,240,125592,6,0,L|408:228,1,35,8|0,0:0|0:0,0:0:0:0:
312,332,125974,2,0,L|288:304,1,35,8|0,0:0|0:0,0:0:0:0:
480,216,126356,2,0,L|484:256,1,35,8|0,0:0|0:0,0:0:0:0:
276,236,126739,2,0,L|279:201,1,35,8|0,0:0|0:0,0:0:0:0:
416,268,127121,2,0,P|392:300|356:320,1,70,8|8,0:0|0:0,0:0:0:0:
176,295,127694,5,0,0:0:0:0:
362,75,127885,2,0,P|382:98|402:145,1,70,12|0,0:0|0:0,0:0:0:0:
308,228,128267,2,0,P|360:212|400:216,1,70
244,176,128649,6,0,P|248:144|272:104,1,70,8|8,0:0|0:0,0:0:0:0:
496,200,129223,5,4,0:0:0:0:
268,108,129414,1,8,0:0:0:0:
436,244,129605,1,8,0:0:0:0:
440,256,129700,1,8,0:0:0:0:
444,268,129796,1,8,0:0:0:0:
240,252,129987,1,8,0:0:0:0:
372,112,130178,6,0,P|356:84|348:76,1,35,12|0,0:0|0:0,0:0:0:0:
140,112,130560,2,0,P|156:84|164:76,1,35,8|0,0:0|0:0,0:0:0:0:
354,82,130942,6,0,P|329:61|319:56,1,35,8|0,0:0|0:0,0:0:0:0:
157,82,131325,2,0,P|181:61|232:44,1,70,8|8,0:0|0:0,0:0:0:0:
252,324,132089,1,8,0:0:0:0:
252,44,132471,2,0,P|280:48|324:68,1,70,8|8,0:0|0:0,0:0:0:0:
260,316,133235,6,0,L|300:308,1,35,8|0,0:0|0:0,0:0:0:0:
256,204,133618,2,0,L|216:216,1,35,8|0,0:0|0:0,0:0:0:0:
294,309,134000,2,0,L|318:281,1,35,8|0,0:0|0:0,0:0:0:0:
222,214,134382,2,0,P|192:248|180:308,1,105,8|0,0:0|0:0,0:0:0:0:
348,308,135146,2,0,L|332:272,1,35,8|0,0:0|0:0,0:0:0:0:
184,204,135528,5,12,0:0:0:0:
112,348,135720,1,8,0:0:0:0:
352,188,135911,5,8,0:0:0:0:
128,340,136102,1,8,0:0:0:0:
360,180,136293,2,0,P|376:160|372:104,1,70,12|8,0:0|0:0,0:0:0:0:
256,44,136866,1,0,0:0:0:0:
133,116,137057,2,0,P|132:151|152:180,1,70,8|8,0:0|0:0,0:0:0:0:
256,80,137630,1,0,0:0:0:0:
250,231,137821,6,0,L|256:192,1,35,8|0,0:0|0:0,0:0:0:0:
160,200,138204,2,0,L|164:234,1,35,8|0,0:0|0:0,0:0:0:0:
248,96,138586,6,0,L|253:56,1,35,8|0,0:0|0:0,0:0:0:0:
157,64,138969,2,0,L|161:98,1,35,8|0,0:0|0:0,0:0:0:0:
172,192,139350,5,8,0:0:0:0:
340,192,139541,1,0,0:0:0:0:
140,256,139732,5,8,0:0:0:0:
344,128,139923,1,0,0:0:0:0:
152,320,140114,5,8,0:0:0:0:
344,60,140306,1,0,0:0:0:0:
400,172,140497,5,8,0:0:0:0:
288,96,140688,1,0,0:0:0:0:
336,256,140879,5,8,0:0:0:0:
448,108,141070,1,0,0:0:0:0:
216,168,141261,5,8,0:0:0:0:
408,312,141452,1,0,0:0:0:0:
308,84,141643,5,8,0:0:0:0:
128,236,141834,1,0,0:0:0:0:
416,168,142025,5,8,0:0:0:0:
224,8,142216,1,0,0:0:0:0:
256,248,142407,5,12,0:0:0:0:
403,346,142790,6,0,L|408:306,1,35,8|0,0:3|0:3,0:3:0:0:
284,124,143076,6,0,P|266:120|249:123,1,35,8|8,0:3|0:3,0:3:0:0:
239,214,143267,2,8,P|256:217|273:214,1,35,8|8,0:3|0:3,0:3:0:0:
185,165,143458,2,8,P|173:177|167:194,1,35,8|8,0:3|0:3,0:3:0:0:
188,232,143649,1,8,0:3:0:0:
228,256,143745,1,8,0:3:0:0:
276,272,143841,1,8,0:3:0:0:
324,272,143936,2,0,P|368:260|388:232,1,70,12|0,0:3|0:3,0:3:0:0:
384,112,144318,5,8,0:0:0:0:
232,88,144509,2,0,B|199:88|199:88|168:109,1,70,0|8,0:0|0:0,0:0:0:0:
168,280,144892,5,0,0:0:0:0:
348,216,145083,2,0,L|348:176,1,35,8|0,0:0|0:0,0:0:0:0:
200,164,145274,2,0,L|200:204,1,35
348,148,145465,2,0,B|347:102|347:102|324:67,1,70,8|0,0:0|0:0,0:0:0:0:
188,76,145847,5,8,0:0:0:0:
40,200,146038,1,0,0:0:0:0:
196,192,146229,2,0,B|248:184|248:184|296:200|296:200|352:192,1,140,8|8,0:0|0:0,0:0:0:0:
476,196,146802,1,0,0:0:0:0:
372,64,146993,6,0,B|332:56|332:56|288:64,1,70,8|0,0:0|0:0,0:0:0:0:
232,248,147376,2,0,L|232:208,1,35,8|0,0:0|0:0,0:0:0:0:
156,156,147567,2,0,L|156:200,1,35
232,140,147758,2,0,B|232:112|232:112|236:84|236:84|232:48,1,70,8|0,0:0|0:0,0:0:0:0:
28,132,148140,6,0,L|55:202,1,70,8|0,0:0|0:0,0:0:0:0:
156,155,148522,2,0,L|130:89,1,70,8|0,0:0|0:0,0:0:0:0:
53,197,148904,2,0,L|101:255,1,70,8|0,0:0|0:0,0:0:0:0:
130,89,149286,2,0,L|85:35,1,70,8|0,0:0|0:0,0:0:0:0:
28,132,149669,1,8,0:0:0:0:
28,132,149764,1,0,0:0:0:0:
28,132,149860,1,0,0:0:0:0:
28,132,149955,1,0,0:0:0:0:
28,132,150051,2,0,L|39:215,1,70,12|0,0:0|0:0,0:0:0:0:
104,324,150433,5,8,0:0:0:0:
208,244,150624,1,0,0:0:0:0:
296,328,150815,2,0,B|336:336|336:336|372:328,1,70,8|0,0:0|0:0,0:0:0:0:
368,240,151197,2,0,B|328:232|328:232|299:238,1,70,8|0,0:0|0:0,0:0:0:0:
172,232,151579,1,8,0:0:0:0:
164,200,151675,1,0,0:0:0:0:
160,164,151771,1,0,0:0:0:0:
216,56,151962,2,0,B|176:48|176:48|140:56,1,70,8|0,0:0|0:0,0:0:0:0:
176,120,152344,2,0,B|216:128|216:128|244:121,1,70,8|0,0:0|0:0,0:0:0:0:
380,60,152726,5,8,0:0:0:0:
320,168,152917,1,0,0:0:0:0:
380,96,153108,1,8,0:0:0:0:
464,236,153299,1,0,0:0:0:0:
296,256,153490,6,0,L|343:262,1,35,8|0,0:0|0:0,0:0:0:0:
320,168,153681,2,0,L|272:161,1,35
156,168,153872,1,8,0:0:0:0:
284,60,154064,1,0,0:0:0:0:
284,60,154159,1,0,0:0:0:0:
284,60,154255,2,0,B|324:52|324:52|384:72|384:72|440:60,1,140,8|8,0:0|0:0,0:0:0:0:
396,184,154828,5,0,0:0:0:0:
472,116,155019,1,8,0:0:0:0:
440,308,155210,1,0,0:0:0:0:
472,224,155401,5,8,0:0:0:0:
440,212,155497,1,0,0:0:0:0:
404,204,155592,1,0,0:0:0:0:
368,208,155688,1,0,0:0:0:0:
344,232,155783,1,8,0:0:0:0:
328,264,155879,5,0,0:0:0:0:
304,240,155974,1,0,0:0:0:0:
280,216,156070,1,0,0:0:0:0:
252,196,156165,2,0,B|212:192|212:192|168:196,1,70,12|0,0:0|0:0,0:0:0:0:
68,196,156548,5,8,0:0:0:0:
68,40,156739,1,0,0:0:0:0:
68,40,156834,1,0,0:0:0:0:
72,40,156930,2,0,B|108:36|108:36|148:40,1,70,8|0,0:0|0:0,0:0:0:0:
256,44,157312,5,8,0:0:0:0:
420,116,157503,1,0,0:0:0:0:
256,120,157694,2,0,B|248:156|248:156|256:192,1,70,8|0,0:0|0:0,0:0:0:0:
256,308,158076,5,8,0:0:0:0:
168,192,158267,1,0,0:0:0:0:
136,308,158458,1,8,0:0:0:0:
40,144,158649,5,0,0:0:0:0:
80,348,158841,1,8,0:0:0:0:
176,128,159032,1,0,0:0:0:0:
188,308,159223,2,0,B|228:316|228:316|272:308,1,70,8|0,0:0|0:0,0:0:0:0:
360,196,159605,5,8,0:0:0:0:
276,84,159796,1,0,0:0:0:0:
192,232,159987,1,8,0:0:0:0:
400,124,160178,1,0,0:0:0:0:
180,100,160369,2,0,B|144:96|144:96|104:100,1,70,8|0,0:0|0:0,0:0:0:0:
104,104,160656,1,0,0:0:0:0:
100,112,160751,1,8,0:0:0:0:
104,232,160942,5,0,0:0:0:0:
264,232,161134,2,0,B|240:196|240:196|208:176,1,70,8|0,0:0|0:0,0:0:0:0:
184,248,161516,2,0,B|208:284|208:284|240:304,1,70,8|0,0:0|0:0,0:0:0:0:
217,181,161898,2,0,B|174:172|174:172|137:180,1,70,8|0,0:0|0:0,0:0:0:0:
115,245,162280,6,0,B|157:253|157:253|194:245,1,70,12|0,0:0|0:0,0:0:0:0:
284,184,162662,2,0,B|280:208|280:208|284:224,1,35,8|0,0:0|0:0,0:0:0:0:
372,200,162853,2,0,B|376:180|376:180|372:160,1,35
284,112,163044,2,0,B|248:104|248:104|196:112,1,70,8|0,0:0|0:0,0:0:0:0:
56,108,163427,5,8,0:0:0:0:
136,36,163618,1,0,0:0:0:0:
136,200,163809,5,8,0:0:0:0:
136,116,164000,1,0,0:0:0:0:
192,256,164191,1,8,0:0:0:0:
64,184,164382,1,0,0:0:0:0:
40,272,164573,2,0,B|32:315|32:315|41:351,1,70,8|0,0:0|0:0,0:0:0:0:
108,312,164955,2,0,B|115:268|115:268|106:232,1,70,8|0,0:0|0:0,0:0:0:0:
112,112,165337,5,8,0:0:0:0:
312,188,165528,1,0,0:0:0:0:
228,24,165720,1,8,0:0:0:0:
204,232,165911,1,0,0:0:0:0:
352,72,166102,1,8,0:0:0:0:
124,36,166293,1,0,0:0:0:0:
296,276,166484,1,8,0:0:0:0:
460,60,166675,1,0,0:0:0:0:
220,132,166866,5,8,0:0:0:0:
392,264,167057,1,0,0:0:0:0:
376,80,167248,1,8,0:0:0:0:
204,232,167439,1,0,0:0:0:0:
480,200,167630,1,8,0:0:0:0:
212,80,167821,1,0,0:0:0:0:
80,320,168013,6,0,B|100:316|100:316|120:304,1,35,12|0,0:0|0:0,0:0:0:0:
96,216,168204,2,0,B|72:220|72:220|56:232,1,35,4|0,0:0|0:0,0:0:0:0:
176,264,168395,2,0,B|172:240|172:240|180:204|180:204|176:168,1,70,12|0,0:0|0:0,0:0:0:0:
180,32,168777,1,8,0:0:0:0:
179,195,168968,2,0,B|175:171|175:171|183:135|183:135|179:99,1,70,4|8,0:0|0:0,0:0:0:0:
296,180,169350,5,0,0:0:0:0:
312,52,169541,1,8,0:0:0:0:
416,136,169732,1,0,0:0:0:0:
300,256,169923,2,0,B|260:248|260:248|232:216,1,70,8|0,0:0|0:0,0:0:0:0:
256,120,170306,6,8,L|304:120,1,35,8|8,0:3|0:3,0:3:0:0:
352,188,170497,2,8,L|317:188,1,35,8|8,0:3|0:3,0:3:0:0:
320,120,170688,1,8,0:3:0:0:
356,124,170783,1,8,0:3:0:0:
388,136,170879,1,8,0:3:0:0:
412,164,170974,1,8,0:3:0:0:
416,200,171070,1,8,0:3:0:0:
400,232,171165,1,8,0:3:0:0:
368,248,171261,1,8,0:3:0:0:
344,272,171356,1,8,0:3:0:0:
332,304,171452,2,8,B|364:332|364:332|416:336|416:336|452:308|452:308,1,140,12|8,0:0|0:0,0:3:0:0:
488,200,172025,5,0,0:0:0:0:
400,56,172216,1,8,0:0:0:0:
320,196,172407,1,0,0:0:0:0:
480,120,172599,1,8,0:0:0:0:
280,64,172790,1,0,0:0:0:0:
400,248,172981,1,8,0:0:0:0:
472,48,173172,1,0,0:0:0:0:
264,140,173363,2,0,B|240:159|240:159|227:197,1,70,8|0,0:0|0:0,0:0:0:0:
336,340,173745,5,8,0:0:0:0:
432,168,173936,1,0,0:0:0:0:
204,272,174127,2,0,B|171:249|171:249|159:222,1,70,8|0,0:0|0:0,0:0:0:0:
256,76,174509,5,8,0:0:0:0:
356,240,174700,1,0,0:0:0:0:
132,100,174892,2,0,B|148:62|148:62|174:47,1,70,8|0,0:0|0:0,0:0:0:0:
400,72,175274,5,8,0:0:0:0:
284,256,175465,1,0,0:0:0:0:
224,116,175656,2,0,L|168:176,1,70,8|0,0:0|0:0,0:0:0:0:
192,332,176038,5,8,0:0:0:0:
376,200,176229,1,0,0:0:0:0:
176,167,176420,2,0,L|97:189,1,70,8|0,0:0|0:0,0:0:0:0:
44,340,176802,5,8,0:0:0:0:
352,300,176993,1,0,0:0:0:0:
108,186,177185,2,0,L|28:164,1,70,8|0,0:0|0:0,0:0:0:0:
256,264,177567,5,8,0:0:0:0:
220,64,177758,1,0,0:0:0:0:
256,264,177949,2,0,B|295:254|295:254|315:233,1,70,8|0,0:0|0:0,0:0:0:0:
152,84,178331,5,8,0:0:0:0:
320,232,178522,1,0,0:0:0:0:
152,84,178713,2,0,B|123:112|123:112|116:141,1,70,8|0,0:0|0:0,0:0:0:0:
352,168,179095,5,8,0:0:0:0:
112,144,179286,1,0,0:0:0:0:
352,168,179478,2,0,B|361:129|361:129|352:100,1,70,8|0,0:0|0:0,0:0:0:0:
124,216,179860,5,8,0:0:0:0:
344,96,180051,1,0,0:0:0:0:
124,216,180242,2,0,B|131:255|131:255|151:277,1,70,8|0,0:0|0:0,0:0:0:0:
280,68,180624,5,8,0:0:0:0:
151,277,180815,1,0,0:0:0:0:
280,68,181006,2,0,B|241:57|241:57|212:66,1,70,8|0,0:0|0:0,0:0:0:0:
116,192,181388,5,8,0:0:0:0:
304,192,181579,1,0,0:0:0:0:
116,264,181771,2,0,B|112:300|112:300|116:312|116:312|116:336,1,70,8|0,0:0|0:0,0:0:0:0:
396,180,182153,5,8,0:0:0:0:
208,180,182344,1,0,0:0:0:0:
396,252,182536,2,0,B|400:288|400:288|396:300|396:300|396:324,1,70,8|0,0:0|0:0,0:0:0:0:
204,56,182917,5,8,0:0:0:0:
304,168,183108,1,0,0:0:0:0:
208,284,183299,1,8,0:0:0:0:
208,284,183395,1,8,0:0:0:0:
208,284,183490,1,8,0:0:0:0:
264,100,183681,6,0,B|300:92|300:92|348:100,1,70,12|0,0:0|0:0,0:0:0:0:
388,192,184064,1,8,0:0:0:0:
296,200,184255,1,0,0:0:0:0:
352,276,184446,1,8,0:0:0:0:
188,232,184637,1,0,0:0:0:0:
252,324,184828,5,8,0:0:0:0:
296,200,185019,1,0,0:0:0:0:
168,148,185210,1,8,0:0:0:0:
312,80,185401,1,0,0:0:0:0:
212,216,185592,5,8,0:0:0:0:
372,144,185783,1,0,0:0:0:0:
224,84,185974,1,8,0:0:0:0:
300,204,186165,1,0,0:0:0:0:
312,80,186356,5,8,0:0:0:0:
300,224,186548,1,0,0:0:0:0:
224,84,186739,1,8,0:0:0:0:
256,284,186930,1,0,0:0:0:0:
312,148,187121,5,8,0:0:0:0:
160,192,187312,1,0,0:0:0:0:
320,232,187503,1,8,0:0:0:0:
156,112,187694,1,0,0:0:0:0:
348,140,187885,1,8,0:0:0:0:
128,204,188076,5,0,0:0:0:0:
352,248,188267,1,8,0:0:0:0:
128,92,188458,1,0,0:0:0:0:
248,188,188649,5,8,0:0:0:0:
264,64,188841,1,0,0:0:0:0:
392,176,189032,1,8,0:0:0:0:
360,64,189223,1,0,0:0:0:0:
184,132,189414,1,8,0:0:0:0:
320,244,189605,5,0,0:0:0:0:
264,64,189796,1,12,0:0:0:0:
248,232,189987,5,0,0:0:0:0:
176,56,190178,1,8,0:0:0:0:
172,224,190369,5,0,0:0:0:0:
88,64,190560,1,8,0:0:0:0:
216,152,190751,1,0,0:0:0:0:
56,176,190942,1,8,0:0:0:0:
264,92,191134,1,0,0:0:0:0:
144,32,191325,5,8,0:0:0:0:
320,140,191516,1,0,0:0:0:0:
116,128,191707,5,8,0:0:0:0:
336,72,191898,1,0,0:0:0:0:
312,244,192089,1,8,0:0:0:0:
408,92,192280,1,0,0:0:0:0:
460,244,192471,5,8,0:0:0:0:
480,96,192662,1,0,0:0:0:0:
360,176,192853,1,8,0:0:0:0:
512,188,193044,1,0,0:0:0:0:
292,164,193235,5,8,0:0:0:0:
420,40,193427,1,0,0:0:0:0:
264,100,193618,5,8,0:0:0:0:
388,220,193809,1,0,0:0:0:0:
180,136,194000,1,12,0:0:0:0:
288,248,194191,1,0,0:0:0:0:
133,122,194382,5,8,0:0:0:0:
348,160,194573,1,0,0:0:0:0:
268,8,194764,1,12,0:0:0:0:
176,172,194955,6,8,L|224:172,1,35,8|8,0:3|0:3,0:3:0:0:
164,104,195146,2,8,L|124:128,1,35,8|8,0:3|0:3,0:3:0:0:
112,144,195337,1,8,0:3:0:0:
104,176,195433,1,8,0:3:0:0:
116,204,195528,1,8,0:3:0:0:
136,228,195624,1,8,0:3:0:0:
164,240,195720,1,8,0:3:0:0:
196,236,195815,1,8,0:3:0:0:
224,224,195911,2,0,B|260:208|260:208|296:200,1,70,12|0,0:0|0:0,0:0:0:0:
412,228,196293,6,0,B|412:268|412:268|380:308,1,70,8|0,0:0|0:0,0:0:0:0:
196,164,196675,1,8,0:0:0:0:
416,76,196866,1,0,0:0:0:0:
280,288,197057,6,0,B|240:294|240:294|214:279,1,70,8|0,0:0|0:0,0:0:0:0:
192,60,197439,1,8,0:0:0:0:
424,152,197630,1,0,0:0:0:0:
143,220,197821,6,0,B|122:200|122:200|116:160,1,70,8|0,0:0|0:0,0:0:0:0:
300,36,198203,1,8,0:0:0:0:
372,248,198395,1,0,0:0:0:0:
168,60,198586,6,0,L|180:136,1,70,8|0,0:0|0:0,0:0:0:0:
264,108,198968,2,0,L|252:184,1,70,8|0,0:0|0:0,0:0:0:0:
176,212,199350,2,0,L|188:288,1,70,8|0,0:0|0:0,0:0:0:0:
280,276,199732,2,0,L|268:352,1,70,8|0,0:0|0:0,0:0:0:0:
136,336,200114,6,0,P|112:300|108:244,1,70,8|0,0:0|0:0,0:0:0:0:
236,232,200497,2,0,P|215:260|187:280,1,70,8|0,0:0|0:0,0:0:0:0:
240,148,200879,2,0,P|281:160|319:201,1,70,8|0,0:0|0:0,0:0:0:0:
104,156,201261,2,0,P|108:112|141:67,1,70,8|0,0:0|0:0,0:0:0:0:
376,164,201643,2,0,P|373:198|359:230,1,70,8|0,0:0|0:0,0:0:0:0:
108,308,202025,5,8,0:0:0:0:
44,136,202216,1,0,0:0:0:0:
212,232,202407,5,8,0:0:0:0:
200,68,202599,1,0,0:0:0:0:
340,228,202790,5,8,0:0:0:0:
392,56,202981,1,0,0:0:0:0:
436,292,203172,5,8,0:0:0:0:
340,132,203363,1,0,0:0:0:0:
268,316,203554,5,8,0:0:0:0:
252,112,203745,1,0,0:0:0:0:
100,308,203936,5,8,0:0:0:0:
168,88,204127,1,0,0:0:0:0:
20,236,204318,5,8,0:0:0:0:
88,40,204509,1,0,0:0:0:0:
100,308,204700,2,0,P|51:312|10:288,1,70,8|0,0:0|0:0,0:0:0:0:
256,312,205083,5,8,0:0:0:0:
88,200,205274,1,0,0:0:0:0:
316,128,205465,1,8,0:0:0:0:
316,128,205560,1,8,0:0:0:0:
316,128,205656,1,8,0:0:0:0:
256,212,205847,5,8,0:0:0:0:
408,88,206038,1,8,0:0:0:0:
364,348,206229,1,12,0:0:0:0:
364,348,206611,5,8,0:0:0:0:
308,132,206802,1,0,0:0:0:0:
452,220,206993,1,8,0:0:0:0:
344,72,207185,5,0,0:0:0:0:
380,204,207376,1,8,0:0:0:0:
224,168,207567,1,0,0:0:0:0:
280,36,207758,1,8,0:0:0:0:
392,132,207949,1,0,0:0:0:0:
208,40,208140,2,0,L|128:51,1,70,12|0,0:0|0:0,0:0:0:0:
172,192,208522,5,8,0:0:0:0:
208,40,208713,1,0,0:0:0:0:
100,184,208904,1,8,0:0:0:0:
240,188,209095,1,0,0:0:0:0:
160,320,209286,2,0,L|252:328,1,70,8|0,0:0|0:0,0:0:0:0:
312,192,209668,5,8,0:0:0:0:
172,188,209859,1,0,0:0:0:0:
252,56,210051,2,0,L|160:48,1,70,8|0,0:0|0:0,0:0:0:0:
348,120,210433,5,8,0:0:0:0:
152,120,210624,1,0,0:0:0:0:
348,120,210815,2,0,P|384:152|400:192,1,70,8|0,0:0|0:0,0:0:0:0:
292,248,211197,5,8,0:0:0:0:
465,155,211388,1,0,0:0:0:0:
292,248,211579,2,0,P|244:235|212:208,1,70,8|0,0:0|0:0,0:0:0:0:
288,120,211962,5,8,0:0:0:0:
295,315,212153,1,0,0:0:0:0:
288,120,212344,2,0,P|318:83|358:65,1,70,8|0,0:0|0:0,0:0:0:0:
392,184,212726,5,8,0:0:0:0:
216,102,212917,1,0,0:0:0:0:
392,184,213108,2,0,P|411:220|411:257,1,70,8|0,0:0|0:0,0:0:0:0:
280,148,213490,5,8,0:0:0:0:
136,60,213681,1,0,0:0:0:0:
192,208,213872,1,8,0:0:0:0:
192,208,213968,1,8,0:0:0:0:
192,208,214064,1,8,0:0:0:0:
192,208,214159,1,8,0:0:0:0:
192,208,214255,1,12,0:0:0:0:
296,132,214446,5,0,0:0:0:0:
384,224,214637,1,8,0:0:0:0:
364,100,214828,5,0,0:0:0:0:
236,100,215019,1,8,0:0:0:0:
412,160,215210,1,0,0:0:0:0:
344,36,215401,1,8,0:0:0:0:
340,164,215592,5,0,0:0:0:0:
240,32,215783,1,8,0:0:0:0:
280,188,215974,5,0,0:0:0:0:
240,168,216070,1,0,0:0:0:0:
192,176,216165,1,8,0:0:0:0:
296,100,216356,5,0,0:0:0:0:
228,232,216548,1,8,0:0:0:0:
228,96,216739,1,0,0:0:0:0:
232,236,216930,1,8,0:0:0:0:
228,96,217121,1,0,0:0:0:0:
308,288,217312,5,8,0:0:0:0:
152,192,217502,1,0,0:0:0:0:
400,144,217694,5,8,0:0:0:0:
180,324,217885,1,0,0:0:0:0:
312,76,218076,5,8,0:0:0:0:
300,348,218267,1,0,0:0:0:0:
176,84,218458,5,8,0:0:0:0:
424,284,218649,1,0,0:0:0:0:
368,40,218840,5,8,0:0:0:0:
152,200,219031,1,0,0:0:0:0:
320,200,219223,5,8,0:3:0:0:
356,180,219318,1,8,0:3:0:0:
360,136,219414,1,8,0:3:0:0:
320,120,219509,1,8,0:3:0:0:
284,140,219605,1,8,0:3:0:0:
284,180,219700,1,8,0:3:0:0:
320,200,219796,5,8,0:3:0:0:
356,220,219891,1,8,0:3:0:0:
356,259,219986,1,8,0:3:0:0:
320,280,220082,1,8,0:3:0:0:
280,264,220177,1,8,0:3:0:0:
284,220,220273,1,8,0:3:0:0:
320,200,220369,2,0,L|391:210,1,70,12|0,0:0|0:0,0:0:0:0:
128,136,220751,6,0,L|148:220,1,70,2|0,0:0|0:0,0:0:0:0:
424,60,221134,2,0,L|400:136,1,70,2|0,0:0|0:0,0:0:0:0:
252,256,221516,5,2,0:0:0:0:
212,144,221707,1,0,0:0:0:0:
308,216,221898,5,2,0:0:0:0:
344,112,222089,1,0,0:0:0:0:
200,136,222280,5,2,0:0:0:0:
320,224,222471,1,0,0:0:0:0:
132,232,222662,2,0,L|60:216,1,70,6|0,0:0|0:0,0:0:0:0:
180,324,223044,5,2,0:0:0:0:
336,296,223235,1,0,0:0:0:0:
184,184,223427,5,2,0:0:0:0:
332,224,223618,1,0,0:0:0:0:
344,92,223809,5,2,0:0:0:0:
132,136,224000,1,8,0:0:0:0:
216,124,224191,6,0,L|240:88,1,35
156,220,224382,2,0,L|132:256,1,35
232,120,224573,6,0,L|256:84,1,35
168,232,224764,6,0,L|168:276,1,35
248,336,224955,2,0,B|272:288|316:256|412:284|412:284|360:224|432:148|396:104|340:80|284:80|252:112|236:160|240:196|312:204,1,560,4|0,0:0|0:0,0:0:0:0:
96,120,231834,6,0,L|143:126,1,35,12|0,0:0|0:0,0:0:0:0:
224,100,232121,5,8,0:3:0:0:
224,76,232216,2,8,L|230:28,1,35,8|8,0:3|0:3,0:3:0:0:
309,168,232407,2,8,L|315:215,1,35,8|8,0:3|0:3,0:3:0:0:
424,48,232599,2,0,P|468:112|468:200,1,140,12|8,0:0|0:0,0:0:0:0:
408,304,233172,5,0,0:0:0:0:
220,208,233363,2,0,P|160:220|128:236,1,70,8|0,0:0|0:0,0:0:0:0:
247,297,233745,2,0,P|281:305|316:308,1,70,8|0,0:0|0:0,0:0:0:0:
368,176,234127,2,0,P|364:132|340:96,1,70,8|0,0:0|0:0,0:0:0:0:
272,160,234509,2,0,P|236:132|216:96,1,70,8|0,0:0|0:0,0:0:0:0:
208,228,234892,2,0,P|172:256|152:292,1,70,8|0,0:0|0:0,0:0:0:0:
368,176,235274,2,0,P|396:144|408:108,1,70,8|0,0:0|0:0,0:0:0:0:
264,84,235656,5,8,0:0:0:0:
104,156,235847,1,0,0:0:0:0:
316,152,236038,1,8,0:0:0:0:
156,112,236229,1,0,0:0:0:0:
368,68,236420,1,8,0:0:0:0:
180,176,236611,1,0,0:0:0:0:
236,32,236802,2,0,P|176:32|72:72,1,140,8|8,0:0|0:0,0:0:0:0:
64,192,237376,5,0,0:0:0:0:
8,64,237567,1,8,0:0:0:0:
16,260,237758,1,0,0:0:0:0:
140,184,237949,2,0,P|140:140|168:96,1,70,8|0,0:0|0:0,0:0:0:0:
252,244,238331,1,8,0:0:0:0:
252,244,238427,1,0,0:0:0:0:
252,244,238522,1,0,0:0:0:0:
252,244,238618,1,0,0:0:0:0:
252,244,238713,2,0,P|300:280|384:240,1,140,12|8,0:0|0:0,0:0:0:0:
220,168,239286,6,0,P|184:208|172:248,1,70,0|8,0:0|0:0,0:0:0:0:
316,208,239669,2,0,L|328:120,1,70,0|8,0:0|0:0,0:0:0:0:
216,40,240051,1,0,0:0:0:0:
156,92,240242,2,0,P|204:72|316:48,1,140,8|8,0:0|0:0,0:0:0:0:
204,168,240815,5,0,0:0:0:0:
284,288,241006,2,0,P|296:244|292:208,1,70,8|0,0:0|0:0,0:0:0:0:
400,144,241388,2,0,P|360:112|312:104,1,70,8|0,0:0|0:0,0:0:0:0:
80,232,241771,6,0,P|168:280|236:280,1,140,8|8,0:0|0:0,0:0:0:0:
224,172,242344,1,0,0:0:0:0:
176,104,242535,1,8,0:0:0:0:
164,108,242630,1,0,0:0:0:0:
152,112,242726,1,0,0:0:0:0:
140,120,242821,1,0,0:0:0:0:
128,128,242917,2,0,P|96:160|60:260,1,140,8|8,0:0|0:0,0:0:0:0:
208,264,243490,5,0,0:0:0:0:
240,140,243681,2,0,P|264:104|304:80,1,70,8|0,0:0|0:0,0:0:0:0:
144,88,244064,2,0,P|112:56|84:40,1,70,8|0,0:0|0:0,0:0:0:0:
296,228,244446,2,0,P|316:264|320:300,1,70,8|0,0:0|0:0,0:0:0:0:
220,240,244828,2,0,P|232:192|328:152,1,140,12|8,0:0|0:0,0:0:0:0:
324,48,245401,1,0,0:0:0:0:
312,48,245497,1,0,0:0:0:0:
300,48,245592,2,0,L|212:60,1,70,8|0,0:0|0:0,0:0:0:0:
128,72,245974,5,8,0:0:0:0:
208,184,246165,1,0,0:0:0:0:
56,140,246356,5,8,0:0:0:0:
212,288,246548,1,0,0:0:0:0:
335,178,246739,2,0,P|303:146|279:130,1,70,8|0,0:0|0:0,0:0:0:0:
159,242,247121,2,0,P|191:274|215:290,1,70,8|0,0:0|0:0,0:0:0:0:
282,132,247503,2,0,P|240:113|212:107,1,70,8|0,0:0|0:0,0:0:0:0:
211,287,247885,2,0,P|267:303|351:275,1,140,8|12,0:0|0:0,0:0:0:0:
344,168,248458,5,0,0:0:0:0:
220,172,248649,1,8,0:0:0:0:
296,88,248841,5,0,0:0:0:0:
376,240,249032,1,12,0:0:0:0:
400,40,249223,1,0,0:0:0:0:
344,168,249414,1,8,0:0:0:0:
212,44,249605,1,8,0:3:0:0:
212,44,249700,1,8,0:3:0:0:
212,44,249796,1,8,0:3:0:0:
160,160,249987,6,8,L|204:148,1,35,8|8,0:3|0:3,0:3:0:0:
144,88,250178,2,8,L|110:97,1,35,8|8,0:3|0:3,0:3:0:0:
84,172,250369,1,8,0:3:0:0:
104,208,250465,1,8,0:3:0:0:
140,228,250560,1,8,0:3:0:0:
168,260,250656,1,8,0:3:0:0:
168,300,250751,1,8,0:3:0:0:
132,320,250847,1,8,0:3:0:0:
96,296,250942,6,0,B|92:276|92:276|48:272|28:224|8:168,1,140,12|8,0:0|0:0,0:0:0:0:
24,108,251516,5,0,0:0:0:0:
24,108,251611,1,0,0:0:0:0:
24,108,251707,2,0,P|59:122|96:168,1,70,8|0,0:0|0:0,0:0:0:0:
208,248,252089,5,8,0:0:0:0:
176,40,252280,1,0,0:0:0:0:
292,240,252471,5,8,0:0:0:0:
316,40,252662,1,0,0:0:0:0:
368,252,252853,5,8,0:0:0:0:
448,48,253044,1,0,0:0:0:0:
260,176,253235,5,8,0:0:0:0:
468,128,253427,1,0,0:0:0:0:
352,176,253618,2,0,L|336:144,1,35,8|0,0:0|0:0,0:0:0:0:
172,104,253809,2,0,L|188:144,1,35
260,292,254000,2,0,P|220:256|124:232,1,140,8|8,0:0|0:0,0:0:0:0:
264,164,254573,5,0,0:0:0:0:
360,64,254764,1,8,0:0:0:0:
328,232,254955,5,0,0:0:0:0:
476,176,255146,1,8,0:0:0:0:
232,240,255337,5,0,0:0:0:0:
380,348,255528,1,8,0:0:0:0:
248,152,255720,5,0,0:0:0:0:
152,316,255911,1,8,0:0:0:0:
312,200,256102,5,0,0:0:0:0:
104,160,256293,1,8,0:0:0:0:
344,136,256484,5,0,0:0:0:0:
196,24,256675,1,8,0:0:0:0:
224,28,256771,1,0,0:0:0:0:
248,36,256866,1,0,0:0:0:0:
268,48,256962,1,0,0:0:0:0:
288,64,257057,6,0,P|252:40|208:24,1,70,12|0,0:0|0:0,0:0:0:0:
100,56,257439,5,8,0:0:0:0:
272,172,257630,1,0,0:0:0:0:
120,188,257821,5,8,0:0:0:0:
348,108,258013,1,0,0:0:0:0:
164,120,258204,5,8,0:0:0:0:
376,192,258395,1,0,0:0:0:0:
192,208,258586,5,8,0:0:0:0:
416,132,258777,1,0,0:0:0:0:
224,140,258968,5,8,0:0:0:0:
448,200,259159,1,0,0:0:0:0:
288,208,259350,2,0,P|236:216|196:232,1,70,8|0,0:0|0:0,0:0:0:0:
109,274,259732,6,0,L|116:226,1,35,8|0,0:0|0:0,0:0:0:0:
208,324,259923,2,0,L|214:367,1,35
300,292,260114,2,0,P|332:272|360:228,1,70,8|0,0:0|0:0,0:0:0:0:
260,96,260497,5,8,0:0:0:0:
300,292,260688,2,0,P|332:272|360:228,1,70,0|8,0:0|0:0,0:0:0:0:
132,76,261070,5,0,0:0:0:0:
300,292,261261,2,0,B|344:272|360:244|368:208|368:176,1,140,8|8,0:0|0:0,0:0:0:0:
448,48,261834,5,0,0:0:0:0:
500,224,262025,1,8,0:0:0:0:
368,40,262216,1,0,0:0:0:0:
420,224,262407,2,0,P|406:255|381:280,1,70,0|8,0:0|0:0,0:0:0:0:
200,108,262790,1,8,0:0:0:0:
100,188,262981,1,0,0:0:0:0:
100,188,263076,1,0,0:0:0:0:
100,188,263172,2,0,P|168:208|252:216,1,140,12|8,0:0|0:0,0:0:0:0:
244,104,263745,5,0,0:0:0:0:
312,284,263936,1,8,0:0:0:0:
304,100,264127,1,0,0:0:0:0:
252,284,264318,1,8,0:0:0:0:
356,124,264509,1,0,0:0:0:0:
208,240,264700,2,0,P|180:196|192:96,1,140,8|8,0:0|0:0,0:0:0:0:
356,124,265274,5,0,0:0:0:0:
384,296,265465,2,0,P|416:272|440:240,1,70,8|0,0:0|0:0,0:0:0:0:
264,208,265847,2,0,P|248:160|248:120,1,70,8|0,0:0|0:0,0:0:0:0:
332,228,266229,6,0,P|300:272|268:276,1,70,8|0,0:0|0:0,0:0:0:0:
152,200,266611,1,8,0:0:0:0:
152,200,266707,1,0,0:0:0:0:
152,200,266802,2,0,P|152:140|140:112,1,70,0|8,0:0|0:0,0:0:0:0:
80,272,267185,6,0,L|64:232,1,35
112,344,267376,2,0,P|152:344|252:312,1,140,8|8,0:0|0:0,0:0:0:0:
148,212,267949,5,0,0:0:0:0:
388,184,268140,2,0,P|380:132|364:96,1,70,8|0,0:0|0:0,0:0:0:0:
228,200,268522,2,0,P|236:252|252:288,1,70,8|0,0:0|0:0,0:0:0:0:
374,252,268904,2,0,P|386:201|386:161,1,70,8|0,0:0|0:0,0:0:0:0:
244,272,269286,2,0,P|264:312|352:348,1,140,12|8,0:0|0:0,0:0:0:0:
392,240,269860,5,0,0:0:0:0:
468,340,270051,1,8,0:0:0:0:
392,192,270242,1,0,0:0:0:0:
244,272,270433,1,8,0:0:0:0:
392,152,270624,1,0,0:0:0:0:
347,348,270815,5,8,0:0:0:0:
392,108,271006,1,0,0:0:0:0:
208,208,271197,1,8,0:0:0:0:
392,68,271388,1,0,0:0:0:0:
212,56,271579,6,0,P|164:56|136:64,1,70,8|0,0:0|0:0,0:0:0:0:
176,132,271962,2,0,P|224:132|252:124,1,70,8|0,0:0|0:0,0:0:0:0:
72,140,272344,2,0,P|72:200|112:272,1,140,8|8,0:0|0:0,0:0:0:0:
208,212,272917,5,0,0:0:0:0:
36,308,273108,1,8,0:0:0:0:
244,212,273299,1,0,0:0:0:0:
72,140,273490,5,8,0:0:0:0:
280,212,273681,1,0,0:0:0:0:
109,269,273872,1,8,0:0:0:0:
312,212,274064,5,0,0:0:0:0:
152,92,274255,1,8,0:0:0:0:
344,212,274446,1,0,0:0:0:0:
124,184,274637,5,8,0:0:0:0:
376,212,274828,1,0,0:0:0:0:
160,280,275019,6,0,L|192:256,1,35,8|0,0:0|0:0,0:0:0:0:
360,288,275210,2,0,L|328:312,1,35
268,232,275401,2,0,P|280:184|296:144,1,70,12|0,0:0|0:0,0:0:0:0:
424,192,275783,5,8,0:0:0:0:
172,192,275974,1,0,0:0:0:0:
384,280,276165,5,8,0:0:0:0:
205,101,276356,1,0,0:0:0:0:
288,308,276548,5,8,0:0:0:0:
287,56,276739,1,0,0:0:0:0:
188,284,276930,5,8,0:0:0:0:
367,105,277121,1,0,0:0:0:0:
72,180,277312,6,0,P|72:140|80:104,1,70,8|0,0:0|0:0,0:0:0:0:
440,204,277694,2,0,P|440:244|432:280,1,70,8|0,0:0|0:0,0:0:0:0:
164,116,278076,2,0,P|184:81|208:54,1,70,8|0,0:0|0:0,0:0:0:0:
348,248,278458,2,0,P|328:282|303:309,1,70,8|0,0:0|0:0,0:0:0:0:
160,188,278841,5,8,0:0:0:0:
116,320,279032,1,0,0:0:0:0:
224,252,279223,1,8,0:0:0:0:
96,252,279414,1,0,0:0:0:0:
244,352,279605,1,8,0:0:0:0:
328,224,279796,5,8,0:3:0:0:
332,216,279892,1,8,0:3:0:0:
336,204,279987,1,8,0:3:0:0:
328,164,280083,1,8,0:3:0:0:
300,132,280178,1,8,0:3:0:0:
296,88,280274,1,8,0:3:0:0:
328,64,280369,1,8,0:3:0:0:
368,80,280465,1,8,0:3:0:0:
396,112,280560,1,8,0:3:0:0:
404,152,280656,1,8,0:3:0:0:
436,180,280751,5,4,0:3:0:0:
476,176,280847,1,4,0:3:0:0:
500,140,280942,1,4,0:3:0:0:
504,96,281038,1,4,0:3:0:0:
492,56,281134,1,4,0:3:0:0:
456,36,281229,1,4,0:3:0:0:
416,24,281325,1,4,0:3:0:0:
376,20,281420,1,4,0:3:0:0:
336,32,281516,2,0,B|304:56|336:88|359:83|416:68|448:80|484:84|428:160|448:132|448:176|412:216|376:240|324:240|300:176|292:88|272:84|254:57|240:44|212:21|180:4|92:128|100:48|61:55|24:64|19:90|14:147|16:188|9:254|4:324|44:344|96:356|148:356|216:360|264:344|304:328|308:244|264:204|224:224,1,1120,4|0,0:0|0:0,0:0:0:0:
180,268,287726,6,0,P|164:244|164:200,1,70
248,128,288395,2,0,P|248:96|232:56,1,70
76,108,289159,6,0,B|44:124|44:160|96:192|96:192|104:216|88:232,1,140
28,228,290019,2,0,P|56:280|104:288,1,105
160,272,290688,2,0,B|152:224|104:220|104:220|92:228|92:228|92:188|96:188,1,122.5
136,148,291452,2,0,P|56:144|24:204,1,140
36,264,292312,6,0,B|80:256|92:208|92:208|136:248|188:260|244:228,1,245
180,176,293936,6,0,B|188:144|224:156|224:156|236:120|272:144,1,105
304,200,294605,2,0,P|324:172|320:96,1,105
256,64,295274,2,0,B|288:40|292:24|332:24|352:20|392:40|408:64|404:96|404:108|408:128|408:148|396:176,1,262.5
368,236,296802,6,0,B|328:220|312:192|332:160|334:139|340:112|328:100|328:100|304:104|292:152|248:131|224:132,1,262.5
160,120,298331,2,0,B|112:92|64:32|64:32|48:92|36:128|64:220|164:216|164:216|60:256|24:288|40:336|40:336|68:376|132:364|167:360|196:356|216:344|216:344|252:328|240:284|236:280,1,822.5
164,216,303013,6,0,B|184:216|208:216|208:216|224:192|208:140|160:132|116:160|96:204|116:228|116:264|156:288|156:288|204:288|244:272|288:296|344:312|376:344|376:344|360:296|276:228|276:228|320:220|420:248|420:248|344:196|316:172|316:172|348:160|428:164|456:128|456:128|420:144|396:148|364:156|348:124|328:112|328:112|408:52|440:0|440:0|380:56|308:76|236:104|204:108|165:75|116:40|112:96|48:128|20:188|40:228|60:288,1,1977.5,4|0,0:0|0:0,0:0:0:0:
