osu file format v14

[General]
AudioFilename: audio.mp3
AudioLeadIn: 0
PreviewTime: 58524
Countdown: 1
SampleSet: Soft
StackLeniency: 0.7
Mode: 0
LetterboxInBreaks: 0
WidescreenStoryboard: 0

[Editor]
Bookmarks: 146421
DistanceSpacing: 1.25
BeatDivisor: 4
GridSize: 4
TimelineZoom: 1.9

[Metadata]
Title:Gloria
TitleUnicode:Gloria
Artist:Kalafina
ArtistUnicode:Kalafina
Creator:ecdonald
Version:Lamentation
Source:
Tags:lacrimosa yuki kajiura keiko kubota wakana outaki hikaru masai
BeatmapID:1074742
BeatmapSetID:505190

[Difficulty]
HPDrainRate:5
CircleSize:4
OverallDifficulty:5
ApproachRate:8
SliderMultiplier:1.2
SliderTickRate:1

[Events]
//Background and Video events
0,0,"bg.jpg",0,0
//Break Periods
//Storyboard Layer 0 (Background)
//Storyboard Layer 1 (Fail)
//Storyboard Layer 2 (Pass)
//Storyboard Layer 3 (Foreground)
//Storyboard Sound Samples

[TimingPoints]
247,422.535211267606,3,2,0,55,1,0
53486,-100,3,2,0,60,0,0
54754,-100,3,2,0,65,0,0
56021,-100,3,2,0,70,0,0
57289,-100,3,2,0,75,0,0
58556,-79.9999999999999,3,2,0,71,0,0
96585,-80,3,2,0,65,0,0
98275,-100,3,2,0,65,0,0
152359,-80,3,2,0,65,0,0
192077,-100,3,2,0,65,0,0
198004,491.803278688525,3,2,0,65,1,0
199541,689.655172413793,3,2,0,65,1,0
200220,909.090909090909,3,2,0,65,1,0
202426,422.535211267606,3,2,0,65,1,0

[HitObjects]
224,176,247,6,0,L|232:254,1,60,2|0,0:0|0:0,0:0:0:0:
212,76,669,1,2,0:0:0:0:
89,181,1092,1,2,0:0:0:0:
59,30,1514,5,2,0:0:0:0:
155,130,1937,2,0,P|227:158|331:120,1,180,2|2,0:0|0:0,0:0:0:0:
380,69,2782,1,2,0:0:0:0:
440,195,3204,1,2,0:0:0:0:
292,52,3627,1,2,0:0:0:0:
364,250,4049,1,2,0:0:0:0:
137,194,4472,1,2,0:0:0:0:
437,124,4894,1,2,0:0:0:0:
66,36,5317,5,4,0:0:0:0:
195,170,5739,2,0,P|175:226|193:305,1,120,2|2,0:0|0:0,0:0:0:0:
285,45,6585,1,4,0:0:0:0:
501,235,7007,2,0,P|445:259|334:205,1,180,2|2,0:0|0:0,0:0:0:0:
301,136,7852,1,2,0:0:0:0:
501,235,8486,5,2,0:0:0:0:
419,255,8697,1,2,0:0:0:0:
342,215,8908,1,2,0:0:0:0:
301,136,9120,1,2,0:0:0:0:
292,152,9965,1,0,0:0:0:0:
350,58,10387,5,2,0:0:0:0:
289,163,11021,5,0,0:0:0:0:
333,53,11232,1,2,0:0:0:0:
210,112,11444,1,0,0:0:0:0:
412,104,11655,1,2,0:0:0:0:
407,114,12500,1,0,0:0:0:0:
448,22,12923,5,2,0:0:0:0:
324,334,13768,1,2,0:0:0:0:
185,248,14190,2,0,P|238:260|307:227,2,120,2|2|0,0:0|0:0|0:0,0:0:0:0:
128,178,15247,1,2,0:0:0:0:
48,224,15458,1,2,0:0:0:0:
31,47,15880,6,0,L|106:26,1,60,2|0,0:0|0:0,0:0:0:0:
123,104,16303,2,0,L|185:110,1,60,2|0,0:0|0:0,0:0:0:0:
256,41,16725,1,2,0:0:0:0:
265,47,17359,5,0,0:0:0:0:
340,106,17570,1,2,0:0:0:0:
512,48,17993,1,2,0:0:0:0:
500,38,18627,5,0,0:0:0:0:
445,116,18838,1,2,0:0:0:0:
465,209,19049,1,0,0:0:0:0:
512,293,19261,1,2,0:0:0:0:
467,197,19894,5,0,0:0:0:0:
406,271,20106,1,2,0:0:0:0:
324,320,20317,1,0,0:0:0:0:
233,288,20528,6,0,P|301:287|351:269,1,120,2|0,0:0|0:0,0:0:0:0:
427,212,21162,1,0,0:0:0:0:
475,129,21373,1,2,0:0:0:0:
512,318,21796,6,0,P|444:317|394:299,1,120,2|0,0:0|0:0,0:0:0:0:
318,242,22430,1,0,0:0:0:0:
234,288,22641,2,0,L|208:370,1,60,2|0,0:0|0:0,0:0:0:0:
27,264,23063,6,0,P|86:264|143:245,1,120,2|0,0:0|0:0,0:0:0:0:
222,190,23697,1,0,0:0:0:0:
267,105,23908,2,0,L|253:30,1,60,2|0,0:0|0:0,0:0:0:0:
170,15,24331,1,2,0:0:0:0:
175,22,24754,5,0,0:0:0:0:
268,46,24965,1,0,0:0:0:0:
361,22,25176,2,0,L|431:40,1,60,2|0,0:0|0:0,0:0:0:0:
331,100,25599,1,2,0:0:0:0:
322,106,26021,5,0,0:0:0:0:
341,21,26232,1,0,0:0:0:0:
429,46,26444,1,2,0:0:0:0:
410,131,26655,1,0,0:0:0:0:
463,208,26866,6,0,P|406:186|338:199,1,120,2|0,0:0|0:0,0:0:0:0:
266,244,27500,1,0,0:0:0:0:
181,199,27711,1,2,0:0:0:0:
307,53,28134,1,2,0:0:0:0:
305,64,28556,5,0,0:0:0:0:
227,121,28768,1,0,0:0:0:0:
131,110,28979,1,2,0:0:0:0:
79,26,29190,1,0,0:0:0:0:
196,18,29401,5,2,0:0:0:0:
6,193,29824,2,0,L|77:187,1,60,2|0,0:0|0:0,0:0:0:0:
276,237,30247,2,0,L|209:234,1,60,2|0,0:0|0:0,0:0:0:0:
106,366,30669,6,0,P|132:321|120:246,2,120,4|2|2,0:0|0:0|0:0,0:0:0:0:
39,298,31725,1,0,0:0:0:0:
223,342,31937,2,0,P|256:345|293:339,1,60,2|0,0:0|0:0,0:0:0:0:
398,236,32359,2,0,P|364:232|328:239,1,60,2|0,0:0|0:0,0:0:0:0:
223,185,32782,2,0,P|219:218|226:255,1,60,2|0,0:0|0:0,0:0:0:0:
270,100,33204,1,2,0:0:0:0:
277,109,33627,5,0,0:0:0:0:
370,89,33838,1,0,0:0:0:0:
451,39,34049,2,0,L|518:60,1,60,2|0,0:0|0:0,0:0:0:0:
461,252,34472,6,0,P|472:208|445:128,2,120,2|2|0,0:0|0:0|0:0,0:0:0:0:
404,327,35528,1,2,0:0:0:0:
327,267,35739,1,2,0:0:0:0:
158,326,36162,2,0,P|189:336|230:337,2,60,2|0|2,0:0|0:0|0:0,0:0:0:0:
36,147,37007,1,2,0:0:0:0:
0,317,37430,1,2,0:0:0:0:
81,265,37641,1,0,0:0:0:0:
144,193,37852,2,0,P|160:163|165:126,1,60,2|0,0:0|0:0,0:0:0:0:
178,23,38275,6,0,P|157:79|172:154,1,120,2|0,3:2|0:0,0:0:0:0:
222,214,38908,1,0,0:0:0:0:
304,263,39120,2,0,L|369:255,1,60,2|0,0:0|0:0,0:0:0:0:
490,160,39542,6,0,P|433:179|376:159,1,120,2|0,3:2|0:0,0:0:0:0:
312,90,40176,1,0,0:0:0:0:
237,29,40387,2,0,L|168:54,1,60,2|0,0:0|0:0,0:0:0:0:
140,154,40810,6,0,L|213:128,1,60,2|0,0:0|0:0,0:0:0:0:
233,249,41232,2,0,L|264:183,1,60,2|0,0:0|0:0,0:0:0:0:
351,291,41655,2,0,L|340:230,1,60,2|0,0:0|0:0,0:0:0:0:
440,146,42077,2,0,L|420:222,1,60,2|0,0:0|0:0,0:0:0:0:
340,79,42500,2,0,L|357:146,1,60,2|0,0:0|0:0,0:0:0:0:
221,30,42923,2,0,L|256:86,1,60,2|0,0:0|0:0,0:0:0:0:
265,188,43345,6,0,P|211:171|136:186,1,120,2|0,3:2|0:0,0:0:0:0:
68,233,43979,1,0,0:0:0:0:
35,142,44190,2,0,P|29:107|35:75,1,60,2|0,0:0|0:0,0:0:0:0:
102,17,44613,6,0,P|166:42|235:35,1,120,2|0,3:2|0:0,0:0:0:0:
308,1,45247,1,0,0:0:0:0:
355,107,45458,2,0,L|291:78,1,60,2|0,0:0|0:0,0:0:0:0:
227,139,45880,1,2,0:0:0:0:
235,148,46303,5,0,0:0:0:0:
327,172,46514,1,0,0:0:0:0:
422,160,46725,1,2,0:0:0:0:
501,105,46937,1,0,0:0:0:0:
363,75,47148,5,2,0:0:0:0:
391,322,47570,2,0,L|384:246,1,60
375,175,47993,1,2,0:0:0:0:
198,253,48416,6,0,P|248:237|313:258,1,120,2|0,0:0|0:0,0:0:0:0:
377,319,49049,1,0,0:0:0:0:
469,345,49261,2,0,L|467:278,1,60
430,194,49683,6,0,L|497:192,1,60,2|0,0:0|0:0,0:0:0:0:
325,267,50106,2,0,L|406:296,1,60,2|0,0:0|0:0,0:0:0:0:
265,125,50528,2,0,L|332:98,1,60,2|0,0:0|0:0,0:0:0:0:
431,5,50951,2,0,P|466:58|462:116,1,120,4|0,0:0|0:0,0:0:0:0:
401,186,51585,1,0,0:0:0:0:
323,243,51796,1,2,0:0:0:0:
410,281,52007,1,0,0:0:0:0:
483,353,52218,6,0,L|511:285,1,60,6|0,0:0|0:0,0:0:0:0:
345,187,52641,2,0,L|317:255,1,60,2|0,0:0|0:0,0:0:0:0:
387,336,53063,2,0,L|415:268,1,60,2|0,0:0|0:0,0:0:0:0:
485,98,53486,6,0,P|495:161|467:210,1,120,6|0,0:0|0:0,0:0:0:0:
389,262,54120,1,0,0:0:0:0:
310,207,54331,1,2,0:0:0:0:
304,302,54542,1,0,0:0:0:0:
231,138,54754,6,0,P|207:195|220:253,1,120,6|0,0:0|0:0,0:0:0:0:
304,302,55387,1,0,0:0:0:0:
310,207,55599,1,2,0:0:0:0:
389,262,55810,1,0,0:0:0:0:
507,190,56021,6,0,P|445:194|393:158,1,120,6|0,0:0|0:0,0:0:0:0:
359,75,56655,1,0,0:0:0:0:
243,158,56866,2,0,L|327:139,1,60,2|0,0:0|0:0,0:0:0:0:
467,101,57289,5,6,0:0:0:0:
412,283,57711,2,0,L|473:287,2,60,2|0|2,0:0|0:0|0:0,0:0:0:0:
12,302,58556,6,0,B|103:230|137:385|259:280,1,225,4|2,0:0|0:0,0:0:0:0:
303,338,59401,2,0,P|310:300|288:248,1,75,2|0,0:0|0:0,0:0:0:0:
223,203,59824,2,0,P|301:217|364:173,1,150,4|0,0:0|0:0,0:0:0:0:
278,124,60458,2,0,P|200:110|137:154,1,150,4|0,0:0|0:0,0:0:0:0:
126,235,61092,6,0,L|67:97,1,150,4|2,0:0|0:0,0:0:0:0:
29,7,61725,1,0,0:0:0:0:
126,20,61937,2,0,P|163:25|198:40,1,75,2|0,0:0|0:0,0:0:0:0:
332,100,62359,2,0,P|294:100|257:111,1,75,6|0,0:0|0:0,0:0:0:0:
83,182,62782,2,0,P|163:181|238:211,1,150,2|6,0:0|0:0,0:0:0:0:
317,285,63416,1,0,0:0:0:0:
219,354,63627,6,4,L|229:167,1,150,4|0,0:0|0:0,0:0:0:0:
128,116,64261,2,4,L|118:303,1,150,6|0,0:0|0:0,0:0:0:0:
378,211,64894,2,4,L|191:201,1,150,4|0,0:0|0:0,0:0:0:0:
462,115,65528,2,4,L|275:105,1,150,6|0,0:0|0:0,0:0:0:0:
234,58,66162,6,0,P|221:93|228:139,1,75,4|0,0:0|0:0,0:0:0:0:
264,220,66585,1,2,0:0:0:0:
344,281,66796,1,0,0:0:0:0:
256,323,67007,2,0,L|134:319,1,75,2|0,0:0|0:0,0:0:0:0:
34,252,67430,2,0,L|156:256,1,75,6|0,0:0|0:0,0:0:0:0:
194,207,67852,1,2,0:0:0:0:
263,132,68063,1,0,0:0:0:0:
158,34,68275,2,0,L|155:108,1,75,2|0,0:0|0:0,0:0:0:0:
81,177,68697,6,0,P|148:209|233:171,1,150,4|0,0:0|0:0,0:0:0:0:
290,119,69331,2,0,P|223:87|138:125,1,150,4|0,0:0|0:0,0:0:0:0:
333,215,69965,2,0,P|381:166|382:84,1,150,4|0,0:0|0:0,0:0:0:0:
241,267,70599,2,0,P|290:315|372:316,1,150,4|0,0:0|0:0,0:0:0:0:
471,335,71232,6,0,L|445:248,1,75,6|0,0:0|0:0,0:0:0:0:
350,79,71655,2,0,L|330:170,1,75,2|0,0:0|0:0,0:0:0:0:
221,257,72077,2,0,L|304:253,1,75,2|0,0:0|0:0,0:0:0:0:
512,158,72500,2,0,L|429:162,1,75,6|0,0:0|0:0,0:0:0:0:
258,17,72923,2,0,L|261:91,1,75,2|0,0:0|0:0,0:0:0:0:
183,216,73345,5,2,0:0:0:0:
311,235,73556,1,2,0:0:0:0:
132,127,73768,2,0,P|85:179|91:258,1,150,6|0,0:0|0:0,0:0:0:0:
163,328,74401,1,0,0:0:0:0:
183,216,74613,5,2,0:0:0:0:
69,360,74824,1,2,0:0:0:0:
83,181,75035,2,0,P|132:126|208:116,1,150,6|0,0:0|0:0,0:0:0:0:
112,88,75669,5,0,0:0:0:0:
63,183,75880,1,2,0:0:0:0:
84,283,76092,1,0,0:0:0:0:
44,171,76303,5,2,0:0:0:0:
207,96,76514,1,2,0:0:0:0:
148,244,76725,2,0,P|152:207|138:162,1,75,2|0,0:0|0:0,0:0:0:0:
36,77,77148,2,0,P|32:114|46:159,1,75,2|0,0:0|0:0,0:0:0:0:
0,262,77570,2,0,P|36:287|86:292,1,75,2|0,0:0|0:0,0:0:0:0:
214,275,77993,2,0,P|178:250|128:245,1,75,2|0,0:0|0:0,0:0:0:0:
76,127,78416,2,0,P|67:162|71:201,1,75,2|0,0:0|0:0,0:0:0:0:
160,348,78838,6,0,B|106:249|238:232|166:137,1,225,4|2,0:0|0:0,0:0:0:0:
100,97,79683,2,0,P|128:69|181:62,1,75,2|0,0:0|0:0,0:0:0:0:
295,104,80106,6,0,P|232:152|147:121,1,150,4|0,0:0|0:0,0:0:0:0:
79,81,80739,2,0,P|142:33|227:64,1,150,4|0,0:0|0:0,0:0:0:0:
0,43,81373,6,0,L|78:178,1,150,4|2,0:0|0:0,0:0:0:0:
119,249,82007,1,0,0:0:0:0:
56,319,82218,2,0,P|33:291|30:250,1,75,2|0,0:0|0:0,0:0:0:0:
103,163,82641,2,0,P|126:191|129:232,1,75,6|0,0:0|0:0,0:0:0:0:
82,328,83063,5,2,0:0:0:0:
171,300,83275,1,0,0:0:0:0:
262,322,83486,2,0,L|335:308,1,75,2|0,0:0|0:0,0:0:0:0:
452,364,83908,6,0,P|419:297|458:217,1,150,4|0,0:0|0:0,0:0:0:0:
322,174,84542,2,0,P|355:119|444:88,1,150,4|0,0:0|0:0,0:0:0:0:
443,230,85176,2,0,P|410:285|321:316,1,150,4|0,0:0|0:0,0:0:0:0:
313,40,85810,2,0,P|346:107|307:187,1,150,4|0,0:0|0:0,0:0:0:0:
267,356,86444,6,0,P|254:317|262:281,1,75,4|0,0:0|0:0,0:0:0:0:
303,201,86866,1,2,0:0:0:0:
381,254,87077,1,0,0:0:0:0:
427,335,87289,2,0,P|455:311|469:274,1,75,2|0,0:0|0:0,0:0:0:0:
441,159,87711,6,0,L|350:147,1,75,4|0,0:0|0:0,0:0:0:0:
284,194,88134,1,2,0:0:0:0:
361,247,88345,1,0,0:0:0:0:
278,289,88556,2,0,L|198:284,1,75,2|0,0:0|0:0,0:0:0:0:
0,363,88979,6,0,L|163:354,1,150,4|0,0:0|0:0,0:0:0:0:
352,292,89613,2,0,L|189:283,1,150,4|0,0:0|0:0,0:0:0:0:
447,192,90247,2,0,L|438:355,1,150,4|0,0:0|0:0,0:0:0:0:
346,55,90880,2,0,L|355:218,1,150,4|0,0:0|0:0,0:0:0:0:
269,308,91514,6,0,L|265:226,1,75,4|0,0:0|0:0,0:0:0:0:
361,93,91937,2,0,L|365:175,1,75,2|0,0:0|0:0,0:0:0:0:
449,297,92359,2,0,L|367:301,1,75,2|0,0:0|0:0,0:0:0:0:
184,118,92782,2,0,L|258:114,1,75,6|0,0:0|0:0,0:0:0:0:
450,36,93204,6,0,P|485:105|449:179,1,150,2|0,0:0|0:0,0:0:0:0:
342,250,93838,1,2,0:0:0:0:
184,118,94049,2,0,L|333:109,1,150,6|0,0:0|0:0,0:0:0:0:
427,102,94683,1,0,0:0:0:0:
374,24,94894,5,2,0:0:0:0:
478,179,95106,1,2,0:0:0:0:
291,192,95317,2,0,P|335:138|426:108,2,150,4|2|2,0:0|0:0|0:0,0:0:0:0:
255,341,96585,5,2,0:0:0:0:
139,216,96796,1,2,0:0:0:0:
79,320,97007,2,0,P|142:314|219:244,1,150,2|2,0:0|0:0,0:0:0:0:
259,81,97852,1,2,0:0:0:0:
433,242,98275,2,0,B|323:322|313:192|202:265,1,240,2|2,0:0|0:0,0:0:0:0:
256,192,99225,12,0,102923,0:0:0:0:
72,84,103768,5,2,0:0:0:0:
161,201,104190,2,0,L|41:193,2,120,2|0|0,0:0|0:0|0:0,0:0:0:0:
208,63,105458,1,2,0:0:0:0:
208,63,105880,2,0,L|328:71,1,120,2|0,0:0|0:0,0:0:0:0:
472,82,106725,5,2,0:0:0:0:
385,356,107570,1,0,0:0:0:0:
291,189,107993,2,0,P|297:248|282:306,2,120,2|2|0,0:0|0:0|0:0,0:0:0:0:
236,116,109049,1,2,0:0:0:0:
292,45,109261,1,2,0:0:0:0:
377,204,109683,6,0,L|436:196,1,60,2|0,0:0|0:0,0:0:0:0:
510,135,110106,1,2,0:0:0:0:
363,36,110528,1,2,0:0:0:0:
262,199,110951,5,0,0:0:0:0:
248,104,111162,1,0,0:0:0:0:
189,27,111373,1,2,0:0:0:0:
44,154,111796,6,0,P|101:137|177:154,1,120,2|0,0:0|0:0,0:0:0:0:
235,205,112430,1,0,0:0:0:0:
315,152,112641,1,2,0:0:0:0:
286,60,112852,1,0,0:0:0:0:
189,53,113063,6,0,P|123:60|78:97,1,120,2|0,0:0|0:0,0:0:0:0:
155,30,113697,1,0,0:0:0:0:
241,71,113908,1,2,0:0:0:0:
192,256,114331,6,0,P|174:197|195:140,1,120,2|0,0:0|0:0,0:0:0:0:
247,64,114965,1,0,0:0:0:0:
333,23,115176,1,2,0:0:0:0:
413,75,115387,1,0,0:0:0:0:
495,26,115599,5,2,0:0:0:0:
452,214,116021,2,0,L|468:140,1,60
488,60,116444,1,2,0:0:0:0:
304,70,116866,6,0,P|375:103|429:89,1,120,2|0,0:0|0:0,0:0:0:0:
497,48,117500,1,0,0:0:0:0:
498,143,117711,2,0,L|485:201,1,60,2|0,0:0|0:0,0:0:0:0:
373,296,118134,6,0,P|406:225|392:171,1,120,2|0,0:0|0:0,0:0:0:0:
356,99,118768,1,0,0:0:0:0:
273,50,118979,2,0,L|216:70,1,60,2|0,0:0|0:0,0:0:0:0:
124,99,119401,1,2,0:0:0:0:
111,89,119824,5,0,0:0:0:0:
194,42,120035,1,0,0:0:0:0:
290,37,120247,1,2,0:0:0:0:
369,89,120458,1,0,0:0:0:0:
359,202,120669,6,0,P|347:152|368:88,1,120,2|0,0:0|0:0,0:0:0:0:
439,23,121303,1,0,0:0:0:0:
487,105,121514,1,2,0:0:0:0:
421,285,121937,6,0,P|436:229|422:168,1,120,2|0,0:0|0:0,0:0:0:0:
360,95,122570,1,0,0:0:0:0:
282,38,122782,2,0,L|207:54,1,60,2|0,0:0|0:0,0:0:0:0:
117,148,123204,6,0,P|180:139|244:155,2,120,2|2|2,0:0|0:0|0:0,0:0:0:0:
10,191,124261,1,0,0:0:0:0:
91,319,124472,2,0,P|97:286|87:246,1,60,4|0,0:0|0:0,0:0:0:0:
118,89,124894,2,0,P|112:122|122:162,1,60,2|0,0:0|0:0,0:0:0:0:
257,227,125317,2,0,P|224:233|184:223,1,60,2|0,0:0|0:0,0:0:0:0:
57,146,125739,2,0,P|90:152|130:142,1,60,6|0,0:0|0:0,0:0:0:0:
271,80,126162,2,0,P|238:74|198:84,1,60,2|0,0:0|0:0,0:0:0:0:
86,120,126585,5,2,0:0:0:0:
244,116,126796,1,0,0:0:0:0:
166,216,127007,1,2,0:0:0:0:
165,196,127430,5,0,0:0:0:0:
244,141,127641,1,0,0:0:0:0:
308,70,127852,1,2,0:0:0:0:
456,167,128275,2,0,P|393:152|340:164,2,120,2|0|0,0:0|0:0|0:0,0:0:0:0:
512,245,129331,1,2,0:0:0:0:
416,255,129542,1,2,0:0:0:0:
249,351,129965,6,0,L|232:284,1,60
325,290,130387,2,0,L|326:217,1,60,2|0,0:0|0:0,0:0:0:0:
240,186,130810,1,2,0:0:0:0:
232,173,131232,5,0,0:0:0:0:
324,148,131444,1,0,0:0:0:0:
401,91,131655,1,2,0:0:0:0:
478,266,132077,5,2,0:0:0:0:
473,251,132500,5,0,0:0:0:0:
380,224,132711,1,0,0:0:0:0:
285,241,132923,1,2,0:0:0:0:
212,303,133134,1,0,0:0:0:0:
196,208,133345,1,2,0:0:0:0:
206,197,133768,5,0,0:0:0:0:
197,292,133979,1,0,0:0:0:0:
264,360,134190,2,0,L|334:344,1,60,2|0,0:0|0:0,0:0:0:0:
417,358,134613,6,0,P|419:324|406:298,1,60,2|0,0:0|0:0,0:0:0:0:
274,216,135035,2,0,P|299:232|329:238,1,60,2|0,0:0|0:0,0:0:0:0:
475,182,135458,2,0,P|443:186|415:198,1,60,2|0,0:0|0:0,0:0:0:0:
248,297,135880,6,0,P|219:308|191:310,1,60,2|0,0:0|0:0,0:0:0:0:
344,224,136303,2,0,P|373:213|401:211,1,60,2|0,0:0|0:0,0:0:0:0:
234,173,136725,2,0,P|223:144|221:116,1,60,2|0,0:0|0:0,0:0:0:0:
244,18,137148,6,0,L|116:58,1,120,2|0,0:0|0:0,0:0:0:0:
39,88,137782,1,0,0:0:0:0:
8,179,137993,2,0,P|5:212|20:246,1,60,2|0,0:0|0:0,0:0:0:0:
97,319,138416,6,0,P|92:260|117:196,1,120,2|0,0:0|0:0,0:0:0:0:
171,127,139049,1,0,0:0:0:0:
245,66,139261,2,0,L|311:108,1,60,2|0,0:0|0:0,0:0:0:0:
167,21,139683,1,2,0:0:0:0:
154,14,140106,5,0,0:0:0:0:
243,49,140317,1,0,0:0:0:0:
318,108,140528,1,2,0:0:0:0:
373,186,140739,1,0,0:0:0:0:
410,97,140951,5,2,0:0:0:0:
239,225,141373,2,0,P|272:231|303:226,1,60
378,176,141796,1,2,0:0:0:0:
462,221,142007,1,0,0:0:0:0:
419,134,142218,6,0,L|422:253,1,120,2|0,0:0|0:0,0:0:0:0:
422,350,142852,1,0,0:0:0:0:
344,294,143063,2,0,L|336:234,1,60,2|0,0:0|0:0,0:0:0:0:
218,152,143486,2,0,L|277:159,1,60,2|0,0:0|0:0,0:0:0:0:
395,226,143908,2,0,L|335:233,1,60,2|0,0:0|0:0,0:0:0:0:
185,308,144331,2,0,L|244:300,1,60,2|0,0:0|0:0,0:0:0:0:
449,348,144754,6,0,P|397:323|331:335,1,120,4|2,0:0|0:0,0:0:0:0:
244,300,145387,1,0,0:0:0:0:
329,180,145599,2,0,L|314:248,1,60,2|0,0:0|0:0,0:0:0:0:
98,294,146021,2,0,L|166:279,1,60,6|0,0:0|0:0,0:0:0:0:
337,331,146444,2,0,L|269:316,1,60,2|0,0:0|0:0,0:0:0:0:
253,127,146866,2,0,L|238:195,1,60,2|0,0:0|0:0,0:0:0:0:
213,51,147289,6,0,P|272:45|327:83,1,120,6|0,0:0|0:0,0:0:0:0:
359,164,147923,1,0,0:0:0:0:
415,86,148134,1,2,0:0:0:0:
449,175,148345,1,0,0:0:0:0:
321,76,148556,6,0,P|263:57|202:64,1,120,6|0,0:0|0:0,0:0:0:0:
139,133,149190,1,0,0:0:0:0:
113,40,149401,1,2,0:0:0:0:
50,112,149613,1,0,0:0:0:0:
54,203,149824,6,0,P|112:181|139:122,1,120,6|0,0:0|0:0,0:0:0:0:
120,28,150458,1,0,0:0:0:0:
40,103,150669,1,2,0:0:0:0:
61,214,150880,1,0,0:0:0:0:
136,22,151092,6,0,P|162:81|145:137,1,120,4|0,0:0|0:0,0:0:0:0:
73,226,151725,1,0,0:0:0:0:
32,127,151937,5,2,0:0:0:0:
195,235,152148,1,0,3:0:0:0:
62,338,152359,2,0,B|19:232|163:226|116:108,1,225,4|2,0:0|0:0,0:0:0:0:
62,73,153204,2,0,P|96:53|137:48,1,75,2|0,0:0|0:0,0:0:0:0:
268,121,153627,6,0,P|203:143|122:134,1,150,6|0,0:0|0:0,0:0:0:0:
0,250,154261,2,0,P|65:228|146:237,1,150,6|0,0:0|0:0,0:0:0:0:
256,300,154894,6,0,P|275:268|281:230,1,75,6|0,0:0|0:0,0:0:0:0:
282,135,155317,1,2,0:0:0:0:
255,44,155528,1,0,0:0:0:0:
192,113,155739,2,0,L|187:187,1,75,2|0,0:0|0:0,0:0:0:0:
96,350,156162,6,0,L|101:267,1,75,6|0,0:0|0:0,0:0:0:0:
116,182,156585,1,2,0:0:0:0:
178,112,156796,1,0,0:0:0:0:
263,108,157007,2,0,P|305:119|336:141,1,75,2|0,0:0|0:0,0:0:0:0:
438,87,157430,6,0,P|452:154|410:228,1,150,4|0,0:0|0:0,0:0:0:0:
240,244,158063,2,0,P|226:177|268:103,1,150,4|0,0:0|0:0,0:0:0:0:
329,285,158697,2,0,P|272:340|201:340,2,150,4|0|4,0:0|0:0|0:0,0:0:0:0:
277,164,159754,1,0,0:0:0:0:
169,218,159965,6,0,L|255:249,1,75,6|0,0:0|0:0,0:0:0:0:
318,294,160387,1,2,0:0:0:0:
237,342,160599,1,0,0:0:0:0:
148,311,160810,2,0,L|66:333,1,75,2|0,0:0|0:0,0:0:0:0:
145,146,161232,6,0,L|169:218,1,75,6|0,0:0|0:0,0:0:0:0:
159,311,161655,1,2,0:0:0:0:
65,323,161866,1,0,0:0:0:0:
77,231,162077,1,2,0:0:0:0:
317,194,162500,6,0,L|168:218,1,150,4|0,0:0|0:0,0:0:0:0:
0,72,163134,2,0,L|149:96,1,150,4|0,0:0|0:0,0:0:0:0:
304,120,163768,1,4,0:0:0:0:
75,250,164190,1,0,0:0:0:0:
156,204,164401,1,0,3:0:0:0:
249,197,164613,1,2,0:0:0:0:
328,246,164824,1,0,3:0:0:0:
179,286,165035,6,0,P|224:290|256:304,1,75,4|0,0:0|0:0,0:0:0:0:
345,350,165458,1,0,0:0:0:0:
290,203,165669,6,0,P|321:227|341:260,1,75,4|0,0:0|0:0,0:0:0:0:
383,347,166092,1,0,0:0:0:0:
427,187,166303,6,0,P|444:226|444:269,1,75,4|0,0:0|0:0,0:0:0:0:
422,341,166725,1,0,0:0:0:0:
351,276,166937,1,0,3:0:0:0:
269,347,167148,5,2,0:0:0:0:
333,182,167359,1,2,0:0:0:0:
216,225,167570,2,0,P|270:265|362:273,1,150,6|0,0:0|0:0,0:0:0:0:
428,223,168204,1,0,0:0:0:0:
321,118,168416,5,2,0:0:0:0:
216,225,168627,1,2,0:0:0:0:
414,106,168838,2,0,P|371:46|300:28,1,150,6|0,0:0|0:0,0:0:0:0:
206,40,169472,1,0,0:0:0:0:
123,84,169683,1,2,0:0:0:0:
68,160,169894,1,0,0:0:0:0:
160,167,170106,5,2,0:0:0:0:
26,81,170317,1,2,0:0:0:0:
25,241,170528,2,0,P|67:243|102:230,1,75,2|0,0:0|0:0,0:0:0:0:
59,87,170951,2,0,P|57:129|70:164,1,75,2|0,0:0|0:0,0:0:0:0:
219,155,171373,2,0,P|177:153|142:166,1,75,2|0,0:0|0:0,0:0:0:0:
69,217,171796,5,2,0:0:0:0:
128,144,172007,1,0,0:0:0:0:
219,124,172218,2,0,P|257:128|303:151,1,75,2|0,0:0|0:0,0:0:0:0:
499,240,172641,6,0,B|389:295|389:161|280:236,1,225,4|4,0:0|0:0,0:0:0:0:
199,221,173486,2,0,P|203:260|224:296,1,75,2|0,0:0|0:0,0:0:0:0:
303,302,173908,6,0,L|158:356,1,150,4|0,0:0|0:0,0:0:0:0:
0,294,174542,2,0,L|145:240,1,150,4|0,0:0|0:0,0:0:0:0:
196,104,175176,2,0,L|103:138,1,75,4|0,0:0|0:0,0:0:0:0:
40,169,175599,5,2,0:0:0:0:
131,150,175810,1,0,0:0:0:0:
219,182,176021,1,2,0:0:0:0:
286,247,176232,1,0,0:0:0:0:
129,262,176444,6,0,L|199:288,1,75,4|0,0:0|0:0,0:0:0:0:
284,327,176866,1,2,0:0:0:0:
296,234,177077,1,0,0:0:0:0:
402,174,177289,2,0,P|366:169|335:149,1,75,4|0,0:0|0:0,0:0:0:0:
239,185,177711,6,0,P|235:112|286:54,1,150,4|0,0:0|0:0,0:0:0:0:
402,174,178345,2,0,P|406:247|355:305,1,150,4|0,0:0|0:0,0:0:0:0:
187,252,178979,2,0,P|151:250|114:265,1,75,4|0,0:0|0:0,0:0:0:0:
37,316,179401,1,0,0:0:0:0:
165,330,179613,2,0,P|201:332|238:317,1,75,4|0,0:0|0:0,0:0:0:0:
315,266,180035,1,0,0:0:0:0:
305,124,180247,6,0,P|289:202|319:270,1,150,4|0,0:0|0:0,0:0:0:0:
376,336,180880,1,0,0:0:0:0:
291,296,181092,1,2,0:0:0:0:
197,285,181303,1,0,0:0:0:0:
70,318,181514,6,0,P|135:333|198:282,1,150,4|0,0:0|0:0,0:0:0:0:
199,190,182148,1,0,0:0:0:0:
236,275,182359,1,2,0:0:0:0:
325,303,182570,1,0,0:0:0:0:
337,164,182782,6,0,L|233:277,1,150,4|0,0:0|0:0,0:0:0:0:
97,300,183416,2,0,L|201:187,1,150,4|0,0:0|0:0,0:0:0:0:
426,192,184049,2,0,L|322:305,1,150,4|0,0:0|0:0,0:0:0:0:
198,189,184683,2,0,L|302:76,1,150,4|0,0:0|0:0,0:0:0:0:
420,28,185317,6,0,P|433:63|424:110,1,75,4|0,0:0|0:0,0:0:0:0:
308,150,185739,2,0,P|295:115|304:68,1,75,2|0,0:0|0:0,0:0:0:0:
467,215,186162,2,0,P|432:228|385:219,1,75,2|0,0:0|0:0,0:0:0:0:
227,86,186585,2,0,P|262:73|309:82,1,75,6|0,0:0|0:0,0:0:0:0:
180,311,187007,2,0,P|145:324|98:315,1,75,2|0,0:0|0:0,0:0:0:0:
1,118,187430,2,0,P|-3:81|9:46,1,75,2|0,0:0|0:0,0:0:0:0:
216,102,187852,6,0,P|146:119|71:87,1,150,4|0,0:0|0:0,0:0:0:0:
322,35,188486,2,0,P|339:105|307:180,1,150,4|0,0:0|0:0,0:0:0:0:
213,232,189120,2,0,P|238:267|269:281,1,75,4|0,0:0|0:0,0:0:0:0:
349,271,189542,6,0,P|283:300|247:371,2,150,2|2|4,0:0|0:0|0:0,0:0:0:0:
407,344,190599,1,2,0:0:0:0:
464,270,190810,2,0,B|412:221|488:173|430:124,1,150,2|2,0:0|0:0,0:0:0:0:
322,14,191655,1,2,0:0:0:0:
218,164,192077,2,0,B|301:81|363:232|448:116,1,240,2|2,0:0|0:0,0:0:0:0:
472,15,193345,1,2,0:0:0:0:
354,42,193768,1,2,0:0:0:0:
436,129,194190,6,0,P|455:200|443:249,2,120,2|2|2,0:0|0:0|0:0,0:0:0:0:
335,195,195458,2,0,P|316:124|328:75,2,120,2|2|2,0:0|0:0|0:0,0:0:0:0:
435,268,196725,5,2,0:0:0:0:
217,325,197359,1,2,0:0:0:0:
230,251,197570,1,2,0:0:0:0:
192,186,197782,1,2,0:0:0:0:
149,126,198004,6,0,L|148:268,2,120,4|2|2,0:0|0:0|0:0,0:0:0:0:
270,32,199541,1,4,0:0:0:0:
342,171,200220,2,0,L|342:298,1,120,2|2,0:0|0:0,0:0:0:0:
140,192,202426,2,0,L|176:192,2,30,2|0|2,0:0|0:0|0:0,0:0:0:0:
256,192,202742,12,2,207285,0:0:0:0:
