osu file format v14

[General]
AudioFilename: audio.mp3
AudioLeadIn: 0
PreviewTime: 134237
Countdown: 0
SampleSet: Soft
StackLeniency: 0.4
Mode: 0
LetterboxInBreaks: 0
WidescreenStoryboard: 1

[Editor]
Bookmarks: 5879,8451,13594,31594,36737,57308,62451,80451,85594,106165,111308,129308,134451,155022,175594,185879,198737,216737,221879,242451,247594,286165,291308
DistanceSpacing: 1.2
BeatDivisor: 4
GridSize: 32
TimelineZoom: 1

[Metadata]
Title:Eden
TitleUnicode:Eden
Artist:Kalafina
ArtistUnicode:Kalafina
Creator:Vell
Version:Sinfonia
Source:
Tags:after yuki kajiura keiko kubota wakana outaki hikaru masai
BeatmapID:1220199
BeatmapSetID:476410

[Difficulty]
HPDrainRate:6
CircleSize:4.7
OverallDifficulty:7
ApproachRate:7.7
SliderMultiplier:1.7
SliderTickRate:2

[Events]
//Background and Video events
0,0,"bg.png",0,0
//Break Periods
2,191222,195370
//Storyboard Layer 0 (Background)
//Storyboard Layer 1 (Fail)
//Storyboard Layer 2 (Pass)
//Storyboard Layer 3 (Foreground)
//Storyboard Sound Samples

[TimingPoints]
737,428.571428571429,3,2,2,30,1,0
737,-166.666666666667,3,2,2,30,0,0
5879,-166.666666666667,3,2,2,35,0,0
6522,-133.333333333333,3,2,2,40,0,0
7165,-125,3,2,2,45,0,0
8451,-100,3,2,1,50,0,0
13594,-125,3,2,1,50,0,0
14451,-125,3,2,2,50,0,0
14558,-125,3,2,1,50,0,0
17022,-125,3,2,2,50,0,0
17129,-125,3,2,1,50,0,0
19594,-125,3,2,2,50,0,0
19701,-125,3,2,1,50,0,0
24737,-125,3,2,2,50,0,0
24844,-125,3,2,1,50,0,0
27308,-125,3,2,2,50,0,0
27415,-125,3,2,1,50,0,0
29879,-125,3,2,2,50,0,0
29987,-125,3,2,1,50,0,0
36737,-125,3,2,1,60,0,0
62451,-125,3,2,1,50,0,0
63308,-125,3,2,2,50,0,0
63415,-125,3,2,1,50,0,0
65879,-125,3,2,2,50,0,0
65987,-125,3,2,1,50,0,0
68451,-125,3,2,2,50,0,0
68558,-125,3,2,1,50,0,0
73594,-125,3,2,2,50,0,0
73701,-125,3,2,1,50,0,0
76165,-125,3,2,2,50,0,0
76272,-125,3,2,1,50,0,0
78737,-125,3,2,2,50,0,0
78844,-125,3,2,1,50,0,0
84951,-125,3,2,4,50,0,0
85594,-125,3,2,1,60,0,0
94808,-125,3,2,3,60,0,0
95237,-125,3,2,1,60,0,0
109594,-125,3,2,3,60,0,0
109701,-125,3,2,1,60,0,0
110665,-125,3,2,4,60,0,0
111308,-100,3,2,1,70,0,1
112165,-100,3,2,2,70,0,1
112272,-100,3,2,1,70,0,1
114737,-100,3,2,2,70,0,1
114844,-100,3,2,1,70,0,1
117308,-100,3,2,2,70,0,1
117415,-100,3,2,1,70,0,1
120951,-100,3,2,4,70,0,1
121165,-100,3,2,4,70,0,0
121594,-100,3,2,1,70,0,1
122451,-100,3,2,2,70,0,1
122558,-100,3,2,1,70,0,1
126951,-100,3,2,2,70,0,1
127058,-100,3,2,1,70,0,1
128665,-100,3,2,4,70,0,1
129308,-100,3,2,1,70,0,1
129737,-100,3,2,2,70,0,1
129844,-100,3,2,1,70,0,1
131022,-100,3,2,2,70,0,1
131129,-100,3,2,1,70,0,1
132308,-100,3,2,2,70,0,1
132415,-100,3,2,1,70,0,1
133808,-100,3,2,4,70,0,1
134451,-125,3,2,1,50,0,0
134665,-125,3,2,2,50,0,0
134772,-125,3,2,1,50,0,0
155022,-125,3,2,1,60,0,0
173879,-125,3,2,3,60,0,0
173987,-125,3,2,1,60,0,0
176451,-125,3,2,3,60,0,0
176558,-125,3,2,1,60,0,0
179022,-125,3,2,3,60,0,0
179129,-125,3,2,1,60,0,0
181594,-125,3,2,3,60,0,0
181701,-125,3,2,1,60,0,0
184165,-125,3,2,3,60,0,0
184272,-125,3,2,1,60,0,0
189951,-125,3,2,4,60,0,0
190379,-125,3,2,4,50,0,0
190594,-125,3,2,4,40,0,0
190808,-125,3,2,4,30,0,0
191022,-200,3,2,1,50,0,0
196165,-166.666666666667,3,2,2,40,0,0
196808,-133.333333333333,3,2,2,45,0,0
197451,-111.111111111111,3,2,2,50,0,0
198737,-125,3,2,1,50,0,0
199594,-125,3,2,2,50,0,0
199701,-125,3,2,1,50,0,0
202165,-125,3,2,2,50,0,0
202272,-125,3,2,1,50,0,0
204737,-125,3,2,2,50,0,0
204844,-125,3,2,1,50,0,0
209879,-125,3,2,2,50,0,0
209987,-125,3,2,1,50,0,0
212451,-125,3,2,2,50,0,0
212558,-125,3,2,1,50,0,0
215022,-125,3,2,2,50,0,0
215129,-125,3,2,1,50,0,0
221237,-125,3,2,4,50,0,0
221879,-125,3,2,1,60,0,0
231094,-125,3,2,4,60,0,0
231522,-125,3,2,1,60,0,0
245879,-125,3,2,3,60,0,0
245987,-125,3,2,1,60,0,0
246522,-125,3,2,4,60,0,0
247594,-100,3,2,1,70,0,1
249522,-100,3,2,4,70,0,1
249629,-100,3,2,1,70,0,1
254665,-100,3,2,4,70,0,1
254879,-100,3,2,4,70,0,1
255094,-100,3,2,4,70,0,1
255201,-100,3,2,1,70,0,1
257237,-100,3,2,4,70,0,1
257451,-100,3,2,4,70,0,0
257879,-100,3,2,1,70,0,1
259808,-100,3,2,4,70,0,1
259915,-100,3,2,1,70,0,1
261951,-100,3,2,2,70,0,1
262058,-100,3,2,1,70,0,1
262379,-100,3,2,4,70,0,1
262701,-100,3,2,1,70,0,1
264094,-100,3,2,2,70,0,1
264201,-100,3,2,1,70,0,1
264522,-100,3,2,2,70,0,1
264629,-100,3,2,1,70,0,1
264951,-100,3,2,4,70,0,1
265058,-100,3,2,1,70,0,1
265808,-100,3,2,2,70,0,1
265915,-100,3,2,1,70,0,1
266237,-100,3,2,0,40,0,1
266451,-100,3,2,0,45,0,1
266665,-100,3,2,0,55,0,1
266879,-100,3,2,0,60,0,1
267094,-100,3,2,0,65,0,1
267308,-100,3,2,0,70,0,1
267522,-100,3,2,0,70,0,1
267951,-100,3,2,0,70,0,0
268165,-100,3,2,1,70,0,1
270094,-100,3,2,4,70,0,1
270201,-100,3,2,1,70,0,1
272665,-100,3,2,4,70,0,1
273201,-100,3,2,1,70,0,1
274165,-100,3,2,2,70,0,1
274272,-100,3,2,1,70,0,1
275237,-100,3,2,4,70,0,1
275344,-100,3,2,1,70,0,1
276737,-100,3,2,2,70,0,1
276844,-100,3,2,1,70,0,1
277808,-100,3,2,4,70,0,1
278022,-100,3,2,4,70,0,0
278451,-100,3,2,1,70,0,1
279308,-100,3,2,2,70,0,1
279415,-100,3,2,1,70,0,1
280379,-100,3,2,4,70,0,1
280487,-100,3,2,1,70,0,1
281879,-100,3,2,2,70,0,1
281987,-100,3,2,1,70,0,1
282951,-100,3,2,4,70,0,1
283487,-100,3,2,1,70,0,1
285522,-100,3,2,4,70,0,1
285629,-100,3,2,1,70,0,1
288094,-100,3,2,4,70,0,1
288201,-100,3,2,1,70,0,1
288951,-100,3,2,2,70,0,1
289058,-100,3,2,1,70,0,1
290237,-100,3,2,4,70,0,1
290665,-100,3,2,4,60,0,1
290879,-100,3,2,4,50,0,1
291094,-100,3,2,4,40,0,1
291308,431.654676258993,3,2,1,30,1,0
296056,-100,3,2,1,5,0,0
296450,430.879712746858,3,2,2,30,1,0
296450,-200,3,2,2,30,0,0
305498,426.287744227353,3,2,2,30,1,0
305498,-200,3,2,99,30,0,0
311039,-200,3,2,5,30,0,0
311252,-200,3,2,2,30,0,0
311466,-200,3,2,6,30,0,0
311892,-200,3,2,7,30,0,0
312105,-200,3,2,8,30,0,0
312318,-200,3,2,9,30,0,0
312531,-200,3,2,10,30,0,0
312744,-200,3,2,11,30,0,0
312958,-200,3,2,12,30,0,0
313171,433.212996389892,3,2,13,30,1,0
313171,-200,3,2,13,30,0,0
313279,-200,3,2,2,30,0,0
314254,480,3,2,13,30,1,0
314494,452.830188679245,3,2,16,30,1,0
314494,-200,3,2,16,30,0,0
314720,-200,3,2,17,30,0,0
314946,-200,3,2,18,30,0,0
315173,-200,3,2,19,30,0,0
315399,-200,3,2,20,30,0,0
315626,-200,3,2,21,30,0,0
315852,470.588235294118,3,2,22,30,1,0
315852,-200,3,2,22,30,0,0
316087,-200,3,2,23,30,0,0
316322,-200,3,2,24,30,0,0
316557,-200,3,2,25,30,0,0
316807,500,3,2,26,30,1,0
316807,-200,3,2,26,30,0,0
317057,-200,3,2,27,30,0,0
317307,558.139534883721,3,2,28,30,1,0
317307,-200,3,2,28,30,0,0
318144,-200,3,2,31,30,0,0
318423,-200,3,2,32,30,0,0
318702,-200,3,2,33,30,0,0
318981,566.037735849057,3,2,34,30,1,0
318981,-200,3,2,34,30,0,0
319264,600,3,2,35,30,1,0
319264,-200,3,2,35,30,0,0
319564,681.818181818182,3,2,36,30,1,0
319564,-200,3,2,36,30,0,0
319904,800,3,2,37,30,1,0
319904,-200,3,2,37,30,0,0
320304,967.741935483871,3,2,38,30,1,0
320304,-200,3,2,38,30,0,0
320787,1411.76470588235,3,2,39,30,1,0
320787,-200,3,2,39,30,0,0
321139,1016.94915254237,3,2,40,30,1,0
321139,-100,3,2,40,30,0,0
321223,-100,3,2,41,30,0,0
321308,-100,3,2,42,30,0,0
321393,1548.38709677419,3,2,43,30,1,0
321393,-200,3,2,43,30,0,0
321780,952.380952380952,3,2,44,30,1,0
321780,-200,3,2,44,30,0,0
322018,902.255639097744,3,2,45,30,1,0
322018,-200,3,2,45,30,0,0
322243,685.714285714286,3,2,46,30,1,0
322243,-200,3,2,46,30,0,0
322414,810.810810810811,3,2,47,30,1,0
322414,-200,3,2,47,30,0,0
322616,821.917808219178,3,2,48,30,1,0
322616,-200,3,2,48,30,0,0
322821,863.309352517986,3,2,49,30,1,0
322821,-200,3,2,49,30,0,0
323036,1008.40336134454,3,2,50,30,1,0
323036,-200,3,2,50,30,0,0
323288,991.735537190083,3,2,51,30,1,0
323288,-200,3,2,51,30,0,0
323537,1200,3,2,52,30,1,0
323537,-200,3,2,52,30,0,0
323837,1025.64102564103,3,2,53,30,1,0
323837,-100,3,2,53,30,0,0
324093,1379.31034482759,3,2,54,30,1,0
324093,-200,3,2,54,30,0,0
324437,1558.44155844156,3,2,55,30,1,0
324437,-200,3,2,55,30,0,0
324826,2424.24242424242,3,2,56,30,1,0
324826,-200,3,2,56,30,0,0
325432,2424.24242424242,3,2,57,30,1,0

[Colours]
Combo1 : 81,131,215
Combo2 : 232,98,179
Combo3 : 140,84,245
Combo4 : 255,81,85
Combo5 : 179,164,177
Combo6 : 149,177,179
Combo7 : 80,159,218

[HitObjects]
301,71,737,54,0,P|275:74|252:84,2,50.9999984436036,2|0|0,0:0|0:0|0:0,0:0:0:0:
341,135,1379,2,0,P|339:84|380:39,1,101.999996887207,2|0,0:0|0:0,0:0:0:0:
410,109,2022,2,0,P|408:157|402:219,2,101.999996887207,2|0|2,0:0|0:0|0:0,0:0:0:0:
461,312,3308,6,0,P|464:287|462:262,2,50.9999984436036,2|0|0,0:0|0:0|0:0,0:0:0:0:
388,286,3951,2,0,P|361:281|283:273,1,101.999996887207,2|0,0:0|0:0,0:0:0:0:
219,248,4594,2,0,P|242:268|253:340,2,101.999996887207,2|2|2,0:0|0:0|0:0,0:0:0:0:
82,301,5879,86,0,P|121:306|187:312,1,101.999996887207,2|0,0:0|0:0,0:0:0:0:
219,248,6522,2,0,P|168:243|85:234,1,127.500004863739,2|0,0:0|0:0,0:0:0:0:
75,166,7165,2,0,P|113:171|152:175,1,68,2|0,0:0|0:0,0:0:0:0:
200,129,7594,2,0,P|233:133|267:137,1,68,0|2,0:0|0:0,0:0:0:0:
332,105,8022,1,2,0:0:0:0:
282,167,8237,1,2,0:0:0:0:
320,281,8451,1,4,0:0:0:0:
256,192,8558,12,0,13165,0:0:0:0:
335,267,13594,54,0,P|270:279|219:225,1,136,8|0,0:3|0:0,0:0:0:0:
157,184,14237,2,0,P|207:196|304:199,1,136,2|2,0:0|0:0,0:0:0:0:
90,193,14879,2,0,P|124:185|158:184,1,68,8|2,0:3|0:0,0:0:0:0:
262,122,15308,2,0,P|228:121|194:114,1,68,0|2,0:0|0:0,0:0:0:0:
48,41,15737,1,0,0:0:0:0:
122,76,15951,1,2,0:0:0:0:
55,123,16165,6,0,P|18:150|25:241,1,136,8|0,0:3|0:0,0:0:0:0:
93,268,16808,2,0,P|145:261|229:257,1,136,2|2,0:0|0:0,0:0:0:0:
293,298,17451,2,0,P|300:264|310:219,1,68,8|2,0:3|0:0,0:0:0:0:
263,119,17879,2,0,P|257:158|244:209,1,68,0|2,0:0|0:0,0:0:0:0:
234,337,18308,1,0,0:0:0:0:
205,260,18522,1,2,0:0:0:0:
153,322,18737,6,0,P|97:357|35:338,1,136,8|0,0:3|0:0,0:0:0:0:
88,276,19379,2,0,P|216:298|241:302,1,136,2|2,0:0|0:0,0:0:0:0:
291,342,20022,2,0,P|336:326|378:323,1,68,8|2,0:3|0:0,0:0:0:0:
431,354,20451,2,0,P|396:323|415:224,1,136,0|0,0:0|0:0,0:0:0:0:
468,195,21094,1,2,0:0:0:0:
400,239,21308,70,0,P|363:235|321:230,1,68,8|2,0:3|0:0,0:0:0:0:
261,271,21737,2,0,P|224:267|182:262,1,68,0|2,0:0|0:0,0:0:0:0:
117,293,22165,1,0,0:0:0:0:
64,230,22379,1,2,0:0:0:0:
110,162,22594,6,0,P|145:138|131:40,1,136,8|0,0:3|0:0,0:0:0:0:
205,104,23237,2,0,P|221:67|247:36,1,68,2|0,0:0|0:0,0:0:0:0:
312,11,23665,1,2,0:0:0:0:
440,111,23879,6,0,P|372:105|305:92,1,136,8|0,0:3|0:0,0:0:0:0:
381,62,24522,2,0,P|391:101|423:201,1,136,2|2,0:0|0:0,0:0:0:0:
487,238,25165,2,0,P|473:282|469:321,1,68,8|2,0:3|0:0,0:0:0:0:
398,355,25594,2,0,P|396:322|389:289,1,68,0|2,0:0|0:0,0:0:0:0:
309,239,26022,2,0,P|306:282|301:323,1,68,0|2,0:0|0:0,0:0:0:0:
111,308,26451,70,0,P|146:271|230:284,1,136,8|0,0:3|0:0,0:0:0:0:
182,349,27094,2,0,P|174:295|166:202,1,136,2|2,0:0|0:0,0:0:0:0:
208,143,27737,1,8,0:3:0:0:
145,195,27951,1,2,0:0:0:0:
66,174,28165,2,0,P|30:164|-6:160,1,68,0|2,0:0|0:0,0:0:0:0:
127,114,28594,2,0,P|94:124|60:128,1,68,0|2,0:0|0:0,0:0:0:0:
166,218,29022,6,0,P|195:167|288:167,1,136,8|0,0:3|0:0,0:0:0:0:
322,215,29665,2,0,P|368:231|465:243,1,136,2|2,0:0|0:0,0:0:0:0:
459,169,30308,2,0,P|425:175|394:187,1,68,8|2,0:3|0:0,0:0:0:0:
341,123,30737,2,0,P|405:102|472:90,1,136
459,169,31379,1,0,0:0:0:0:
266,108,31594,1,8,0:3:0:0:
256,192,31701,12,0,32879,0:0:0:0:
256,192,32987,12,4,34165,0:0:0:0:
256,192,34272,12,0,35451,0:0:0:0:
184,195,35665,5,2,0:0:0:0:
122,147,35880,1,0,0:0:0:0:
132,70,36094,1,2,0:0:0:0:
105,174,36308,1,8,0:0:0:0:
105,174,36737,70,0,P|114:223|133:309,1,136,12|8,0:0|0:3,0:0:0:0:
186,368,37379,1,2,0:0:0:0:
265,347,37594,2,0,P|302:331|345:329,1,68,8|2,0:3|0:0,0:0:0:0:
401,365,38022,2,0,P|439:346|444:251,1,136,10|8,0:3|0:3,0:0:0:0:
389,206,38665,1,2,0:0:0:0:
323,158,38879,2,0,P|366:165|410:167,1,68,8|2,0:3|0:0,0:0:0:0:
364,89,39308,6,0,P|312:105|227:117,1,136,10|8,0:3|0:3,0:0:0:0:
150,107,39951,1,2,0:0:0:0:
92,49,40165,2,0,P|122:31|167:25,1,68,8|2,0:3|0:0,0:0:0:0:
160,174,40594,2,0,P|150:117|149:92,1,68,10|2,0:3|0:0,0:0:0:0:
61,236,41022,2,0,P|71:179|72:154,1,68,8|2,0:3|0:0,0:0:0:0:
249,224,41451,2,0,P|242:190|241:148,1,68,8|2,0:3|0:0,0:0:0:0:
9,290,41879,6,0,P|55:282|159:280,1,136,10|8,0:3|0:3,0:0:0:0:
216,317,42522,1,2,0:0:0:0:
274,373,42737,2,0,P|261:338|252:297,1,68,8|2,0:3|0:0,0:0:0:0:
362,238,43165,2,0,P|353:270|341:302,1,68,10|2,0:3|0:0,0:0:0:0:
402,357,43594,2,0,P|459:356|501:285,1,136,8|8,0:3|0:3,0:0:0:0:
471,219,44237,1,2,0:0:0:0:
427,287,44451,70,0,P|417:239|410:148,1,136,10|8,0:3|0:3,0:0:0:0:
460,88,45094,1,2,0:0:0:0:
393,134,45308,1,8,0:3:0:0:
313,118,45522,1,2,0:0:0:0:
259,56,45737,2,0,P|302:67|346:87,1,68,10|2,0:3|0:0,0:0:0:0:
235,133,46165,2,0,P|192:122|148:102,1,68,8|2,0:3|0:0,0:0:0:0:
96,143,46594,1,8,0:3:0:0:
48,209,46808,1,2,0:0:0:0:
96,143,47022,6,0,P|130:216|94:272,1,136,14|8,0:3|0:3,0:0:0:0:
40,307,47665,1,2,0:0:0:0:
117,282,47879,2,0,P|162:293|193:301,1,68,8|2,0:3|0:0,0:0:0:0:
250,344,48308,2,0,P|295:333|326:325,1,68,10|2,0:3|0:0,0:0:0:0:
459,264,48737,6,0,P|449:303|445:343,1,68,8|2,0:3|0:0,0:0:0:0:
361,212,49165,2,0,P|371:251|375:291,1,68,8|2,0:3|0:0,0:0:0:0:
428,177,49594,2,0,P|397:146|301:163,1,136,10|8,0:3|0:3,0:0:0:0:
286,226,50237,1,2,0:0:0:0:
221,280,50451,2,0,P|211:247|206:213,1,68,8|2,0:3|0:0,0:0:0:0:
146,70,50879,70,0,P|144:103|135:136,1,68,10|2,0:3|0:0,0:0:0:0:
91,193,51308,2,0,P|127:174|209:220,1,136,8|8,0:3|0:3,0:3:0:0:
140,249,51951,1,2,0:0:0:0:
27,237,52165,2,0,P|14:205|15:172,1,68,10|2,0:3|0:0,0:0:0:0:
71,114,52594,2,0,P|137:101|205:95,1,136,8|8,0:3|0:3,0:3:0:0:
285,85,53237,1,2,0:0:0:0:
285,85,53451,6,0,P|306:110|332:132,1,68,10|2,0:3|0:0,0:0:0:0:
379,15,53879,2,0,P|384:48|396:80,1,68,8|2,0:3|0:0,0:0:0:0:
494,17,54308,2,0,P|483:48|477:82,1,68,8|2,0:3|0:0,0:0:0:0:
285,85,54737,6,0,P|308:112|349:143,1,68,10|2,0:3|0:0,0:0:0:0:
407,165,55165,2,0,P|360:165|315:243,1,136,8|8,0:3|0:3,0:0:0:0:
351,305,55808,1,2,0:0:0:0:
459,246,56022,2,0,P|412:241|384:238,1,68,10|2,0:3|0:0,0:0:0:0:
351,305,56451,2,0,P|298:314|203:324,1,136,8|8,0:3|0:3,0:0:0:0:
139,293,57094,1,2,0:0:0:0:
314,233,57308,1,14,0:3:0:0:
256,192,57415,12,0,59451,0:0:0:0:
427,259,59879,70,0,P|359:256|273:242,1,136,10|8,0:3|0:3,0:0:0:0:
219,207,60522,2,0,P|180:216|153:252,1,68,2|8,0:0|0:3,0:0:0:0:
111,300,60951,1,2,0:0:0:0:
50,354,61165,2,0,P|71:307|77:208,1,136,10|8,0:3|0:3,0:0:0:0:
47,147,61808,2,0,L|13:137,2,34,2|2|2,0:0|0:0|0:0,0:0:0:0:
263,314,62451,6,0,P|255:269|250:164,1,136,4|0,0:0|0:0,0:0:0:0:
300,114,63094,2,0,P|268:143|176:122,1,136,2|2,0:0|0:0,0:0:0:0:
230,62,63737,2,0,P|276:72|319:80,1,68,8|2,0:3|0:0,0:0:0:0:
399,13,64165,2,0,P|365:6|332:0,1,68,0|2,0:0|0:0,0:0:0:0:
380,93,64594,1,0,0:0:0:0:
458,70,64808,1,2,0:0:0:0:
384,105,65022,6,0,P|343:139|350:219,1,136,8|0,0:3|0:0,0:0:0:0:
383,289,65665,2,0,P|424:255|417:175,1,136,2|2,0:0|0:0,0:0:0:0:
347,216,66308,2,0,P|310:222|270:225,1,68,8|2,0:3|0:0,0:0:0:0:
150,181,66737,2,0,P|187:175|227:172,1,68,8|2,0:3|0:0,0:0:0:0:
96,276,67165,1,0,0:0:0:0:
169,304,67379,1,2,0:0:0:0:
89,293,67594,70,0,P|82:249|77:141,1,136,8|0,0:3|0:0,0:0:0:0:
110,83,68237,2,0,P|75:74|-2:141,1,136,2|2,0:0|0:0,0:0:0:0:
76,157,68879,2,0,P|124:168|151:172,1,68,8|2,0:3|0:0,0:0:0:0:
203,225,69308,2,0,P|263:209|349:200,1,136,0|0,0:0|0:0,0:0:0:0:
417,212,69951,1,2,0:0:0:0:
468,274,70165,6,0,P|449:218|441:185,1,68,8|2,0:3|0:0,0:0:0:0:
492,141,70594,2,0,P|473:85|465:52,1,68,0|2,0:0|0:0,0:0:0:0:
411,20,71022,1,0,0:0:0:0:
339,60,71237,1,2,0:0:0:0:
264,27,71451,2,0,P|301:53|302:143,1,136,8|0,0:3|0:0,0:0:0:0:
164,95,72094,2,0,P|198:98|231:102,1,68,2|0,0:0|0:0,0:0:0:0:
305,137,72522,1,2,0:0:0:0:
239,185,72737,6,0,P|168:180|99:168,1,136,8|0,0:3|0:0,0:0:0:0:
46,111,73379,2,0,P|57:153|72:252,1,136,2|2,0:0|0:0,0:0:0:0:
110,316,74022,2,0,P|132:288|157:256,1,68,8|2,0:3|0:0,0:0:0:0:
195,331,74451,1,0,0:0:0:0:
235,260,74665,1,2,0:0:0:0:
278,329,74879,2,0,P|300:301|325:269,1,68,0|2,0:0|0:0,0:0:0:0:
381,329,75308,70,0,P|368:265|420:214,1,136,8|0,0:3|0:0,0:0:0:0:
453,287,75951,2,0,P|448:242|445:124,1,136,2|2,0:0|0:0,0:0:0:0:
503,94,76594,1,8,0:3:0:0:
426,123,76808,1,2,0:0:0:0:
353,85,77022,2,0,P|328:78|278:70,1,68,0|2,0:0|0:0,0:0:0:0:
357,166,77451,2,0,P|324:174|290:180,1,68,0|2,0:0|0:0,0:0:0:0:
91,134,77879,6,0,P|160:129|230:127,1,136,8|0,0:3|0:0,0:0:0:0:
191,201,78522,2,0,P|159:169|172:67,1,136,2|2,0:0|0:0,0:0:0:0:
293,139,79165,2,0,P|236:128|210:123,1,68,8|2,0:3|0:0,0:0:0:0:
96,61,79594,2,0,P|164:57|240:47,1,136,0|0,0:0|0:0,0:0:0:0:
304,11,80237,1,2,0:0:0:0:
417,93,80451,1,8,0:3:0:0:
256,192,80558,12,0,81737,0:0:0:0:
256,192,81844,12,4,83022,0:0:0:0:
256,192,83129,12,8,84308,0:1:0:0:
171,221,84951,5,4,0:1:0:0:
274,181,85165,1,4,0:1:0:0:
182,112,85379,1,4,0:1:0:0:
120,266,85594,70,0,P|157:289|237:238,1,136,14|8,0:3|0:3,0:0:0:0:
274,181,86237,1,2,0:0:0:0:
214,124,86451,2,0,P|257:139|300:150,1,68,8|2,0:3|0:0,0:0:0:0:
336,53,86879,2,0,P|290:63|255:62,1,68,10|2,0:1|0:0,0:0:0:0:
195,28,87308,2,0,P|153:15|51:12,1,136,8|8,0:3|0:3,0:0:0:0:
19,85,87951,1,2,0:0:0:0:
79,139,88165,6,0,P|100:183|113:214,1,68,10|2,0:3|0:0,0:0:0:0:
80,277,88594,2,0,P|121:244|208:262,1,136,8|8,0:3|0:3,0:0:0:0:
251,318,89237,1,2,0:0:0:0:
310,262,89451,2,0,P|296:305|282:343,1,68,10|2,0:1|0:0,0:0:0:0:
391,257,89879,2,0,P|400:301|407:341,1,68,8|2,0:3|0:0,0:0:0:0:
250,209,90308,2,0,P|216:239|185:265,1,68,8|2,0:3|0:0,0:0:0:0:
448,347,90737,6,0,P|434:295|417:199,1,136,10|8,0:3|0:3,0:0:0:0:
419,132,91379,1,2,0:0:0:0:
497,110,91594,2,0,P|451:103|416:90,1,68,8|2,0:3|0:0,0:0:0:0:
389,26,92022,2,0,P|343:19|308:6,1,68,10|2,0:3|0:0,0:0:0:0:
322,94,92451,2,0,P|300:60|199:68,1,136,8|8,0:3|0:3,0:0:0:0:
168,125,93094,1,2,0:0:0:0:
224,182,93308,70,0,P|243:139|253:109,1,68,10|2,0:3|0:0,0:0:0:0:
168,125,93737,2,0,P|182:195|191:271,1,136,8|8,0:3|0:3,0:0:0:0:
187,340,94379,1,2,0:0:0:0:
210,248,94594,1,10,0:1:0:0:
205,356,94808,1,8,0:3:0:0:
175,270,95022,2,0,P|142:261|108:253,1,68,8|2,0:3|0:0,0:0:0:0:
261,268,95451,2,0,P|307:279|338:287,1,68,8|2,0:3|0:0,0:0:0:0:
405,352,95879,6,0,P|367:294|396:224,1,136,12|8,0:0|0:3,0:0:0:0:
462,206,96522,1,2,0:0:0:0:
512,293,96737,2,0,P|456:287|425:281,1,68,8|2,0:3|0:0,0:0:0:0:
317,242,97165,2,0,P|373:236|404:230,1,68,10|2,0:1|0:0,0:0:0:0:
334,122,97594,2,0,P|385:144|415:155,1,68,8|2,0:3|0:0,0:0:0:0:
413,31,98022,2,0,P|446:76|466:100,1,68,8|2,0:3|0:0,0:0:0:0:
334,122,98451,6,0,P|294:114|184:101,1,136,10|8,0:3|0:3,0:0:0:0:
118,111,99094,1,2,0:0:0:0:
100,31,99308,2,0,P|96:74|86:118,1,68,8|2,0:3|0:0,0:0:0:0:
130,274,99737,70,0,P|125:241|125:195,1,68,10|2,0:1|0:0,0:0:0:0:
204,238,100165,2,0,P|249:259|313:207,1,136,8|8,0:3|0:3,0:0:0:0:
330,136,100808,1,2,0:0:0:0:
271,78,101022,2,0,P|233:73|194:71,1,68,10|2,0:3|0:0,0:0:0:0:
296,4,101451,2,0,P|305:52|331:139,1,136,8|8,0:3|0:3,0:0:0:0:
384,195,102094,1,2,0:0:0:0:
465,189,102308,6,0,P|416:177|379:173,1,68,10|2,0:3|0:0,0:0:0:0:
329,135,102737,2,0,P|280:147|243:151,1,68,8|2,0:3|0:0,0:0:0:0:
199,201,103165,2,0,P|163:196|111:184,1,68,8|2,0:3|0:0,0:0:0:0:
52,210,103594,6,0,P|91:179|88:94,1,136,10|8,0:3|0:3,0:0:0:0:
18,137,104237,1,2,0:0:0:0:
52,210,104451,2,0,P|44:254|35:292,1,68,8|2,0:3|0:0,0:0:0:0:
94,336,104879,2,0,P|138:301|217:323,1,136,10|8,0:3|0:3,0:0:0:0:
282,276,105522,1,2,0:0:0:0:
359,302,105737,1,8,0:3:0:0:
436,276,105951,1,2,0:0:0:0:
249,199,106165,1,4,0:0:0:0:
256,192,106272,12,8,107451,0:1:0:0:
273,162,107665,69,2,0:0:0:0:
344,122,107879,1,8,0:3:0:0:
262,133,108094,2,0,P|220:124|190:117,1,68,8|8,0:1|0:3,0:0:0:0:
122,83,108522,1,2,0:0:0:0:
64,25,108737,2,0,P|75:71|98:172,1,136,10|8,0:1|0:3,0:0:0:0:
161,203,109379,2,0,P|116:199|57:269,1,136,4|2,0:0|0:0,0:0:0:0:
137,281,110022,1,10,0:3:0:0:
94,157,110237,5,4,0:0:0:0:
103,136,110451,1,0,0:0:0:0:
125,110,110665,1,4,0:1:0:0:
169,77,110879,1,4,0:1:0:0:
252,61,111094,1,4,0:1:0:0:
335,123,111308,54,0,P|375:129|433:134,1,85,4|2,0:1|0:0,0:0:0:0:
503,118,111737,1,0,0:0:0:0:
388,46,111951,2,0,P|402:129|413:225,1,170,8|0,0:1|0:0,0:0:0:0:
368,381,112594,2,0,P|361:334|356:281,1,85,10|0,0:3|0:0,0:0:0:0:
439,235,113022,1,0,0:0:0:0:
356,254,113237,2,0,P|299:245|253:241,1,85,2|0,0:0|0:0,0:0:0:0:
186,241,113665,1,2,0:0:0:0:
87,327,113879,6,0,P|61:285|69:237,1,85,10|0,0:3|0:0,0:0:0:0:
117,185,114308,1,8,0:3:0:0:
207,319,114522,2,0,P|263:258|239:179,1,170,8|0,0:1|0:0,0:0:0:0:
101,101,115165,2,0,P|109:146|118:191,1,85,10|2,0:3|0:0,0:0:0:0:
216,35,115594,2,0,P|200:77|185:121,1,85,0|8,0:0|0:1,0:0:0:0:
344,43,116022,2,0,P|309:72|274:102,1,85,8|0,0:1|0:0,0:0:0:0:
101,101,116451,86,0,P|109:146|118:191,1,85,12|0,0:0|0:0,0:0:0:0:
141,265,116879,1,8,0:3:0:0:
246,240,117094,2,0,P|190:230|62:218,1,170,8|0,0:1|0:0,0:0:0:0:
246,318,117737,2,0,P|293:302|298:182,1,170,10|0,0:3|0:0,0:0:0:0:
234,155,118379,1,8,0:1:0:0:
317,171,118594,1,8,0:3:0:0:
392,131,118808,1,2,0:0:0:0:
488,147,119022,6,0,P|437:126|401:102,1,85,8|0,0:3|0:0,0:0:0:0:
345,56,119451,1,8,0:3:0:0:
445,224,119665,2,0,P|463:141|477:57,1,170,8|0,0:1|0:0,0:0:0:0:
488,147,120308,1,10,0:3:0:0:
345,56,120522,2,0,P|356:115|363:157,1,85,4|0,0:0|0:0,0:0:0:0:
450,253,120951,1,4,0:1:0:0:
371,220,121165,1,4,0:1:0:0:
308,277,121379,1,4,0:1:0:0:
176,326,121594,86,0,P|133:309|96:288,1,85,4|0,0:1|0:0,0:0:0:0:
38,231,122022,1,0,0:0:0:0:
197,218,122237,2,0,P|149:233|24:250,1,170,8|0,0:1|0:0,0:0:0:0:
180,123,122879,2,0,P|130:148|78:165,1,85,10|2,0:3|0:0,0:0:0:0:
18,171,123308,1,0,0:0:0:0:
100,79,123522,2,0,P|109:41|119:-14,1,85,8|8,0:1|0:3,0:0:0:0:
180,123,123951,1,2,0:0:0:0:
288,38,124165,6,0,P|334:26|381:20,1,85,10|0,0:3|0:0,0:0:0:0:
455,33,124594,1,0,0:0:0:0:
512,145,124808,2,0,P|456:126|336:98,1,170,8|0,0:1|0:0,0:0:0:0:
218,243,125451,2,0,P|268:233|310:219,1,85,10|0,0:3|0:0,0:0:0:0:
177,120,125879,2,0,P|225:136|268:145,1,85,8|8,0:3|0:1,0:0:0:0:
214,0,126308,2,0,P|247:38|280:67,1,85,8|0,0:1|0:0,0:0:0:0:
473,150,126737,86,0,P|435:98|333:121,1,170,10|0,0:3|0:0,0:0:0:0:
406,251,127379,2,0,P|399:204|397:150,1,85,8|8,0:1|0:3,0:0:0:0:
420,84,127808,1,0,0:0:0:0:
256,98,128022,2,0,P|298:104|339:112,1,85,4|0,0:3|0:0,0:0:0:0:
420,84,128451,1,0,0:0:0:0:
323,199,128665,1,4,0:1:0:0:
307,282,128879,1,4,0:1:0:0:
226,310,129094,1,4,0:1:0:0:
94,219,129308,6,0,P|133:252|178:247,1,85,6|0,0:3|0:0,0:0:0:0:
204,176,129737,1,0,0:0:0:0:
43,143,129951,2,0,P|69:97|187:109,1,170,8|2,0:1|0:0,0:0:0:0:
307,169,130594,2,0,P|250:163|213:157,1,85,10|0,0:3|0:0,0:0:0:0:
188,81,131022,1,0,0:0:0:0:
255,239,131237,2,0,P|320:221|449:195,1,170,10|2,0:1|0:0,0:0:0:0:
314,303,131879,86,0,P|356:291|409:281,1,85,8|0,0:1|0:0,0:0:0:0:
264,217,132308,1,0,0:0:0:0:
172,259,132522,2,0,P|214:247|267:237,1,85,8|8,0:1|0:3,0:0:0:0:
121,174,132951,1,2,0:0:0:0:
29,216,133165,2,0,P|71:204|124:194,1,85,10|2,0:3|0:0,0:0:0:0:
189,76,133594,5,0,0:0:0:0:
267,133,133808,1,4,0:1:0:0:
349,148,134022,1,4,0:1:0:0:
388,137,134237,1,4,0:1:0:0:
409,124,134451,1,4,0:1:0:0:
427,101,134879,38,0,P|422:149|421:193,1,68,0|2,0:0|0:0,0:0:0:0:
362,225,135308,2,0,P|367:273|368:317,1,68,0|2,0:0|0:0,0:0:0:0:
421,354,135737,2,0,P|371:318|295:350,1,136,8|8,0:3|0:3,0:0:0:0:
232,300,136379,1,2,0:0:0:0:
182,365,136594,2,0,P|193:319|204:284,1,68,8|2,0:3|0:0,0:0:0:0:
135,248,137022,70,0,P|114:328|97:385,1,136,8|8,0:3|0:3,0:0:0:0:
25,341,137665,1,2,0:0:0:0:
30,259,137879,2,0,P|19:305|8:340,1,68,8|2,0:3|0:0,0:0:0:0:
122,234,138308,2,0,P|112:201|105:168,1,68,8|2,0:3|0:0,0:0:0:0:
31,132,138737,2,0,P|51:89|61:62,1,68,8|2,0:3|0:0,0:0:0:0:
115,11,139165,1,8,0:3:0:0:
137,91,139379,1,2,0:0:0:0:
216,110,139594,6,0,P|268:100|378:95,1,136,8|8,0:3|0:3,0:0:0:0:
430,110,140237,1,2,0:0:0:0:
434,28,140451,2,0,P|449:76|461:104,1,68,8|2,0:3|0:0,0:0:0:0:
472,172,140879,2,0,P|438:165|406:157,1,68,8|2,0:3|0:0,0:0:0:0:
356,265,141308,2,0,P|403:251|433:239,1,68,8|2,0:3|0:0,0:0:0:0:
381,381,141737,2,0,P|405:356|427:330,1,68,8|2,0:3|0:0,0:0:0:0:
491,278,142165,6,0,P|446:275|332:260,1,136,8|8,0:3|0:3,0:0:0:0:
281,230,142808,1,2,0:0:0:0:
201,246,143022,2,0,P|155:266|125:281,1,68,8|2,0:3|0:0,0:0:0:0:
43,344,143451,2,0,P|86:294|77:228,1,136,8|8,0:3|0:3,0:0:0:0:
16,174,144094,1,2,0:0:0:0:
77,228,144308,2,0,P|125:234|164:238,1,68,8|2,0:3|0:0,0:0:0:0:
229,134,144737,70,0,P|161:143|81:147,1,136,8|8,0:3|0:3,0:0:0:0:
42,86,145379,1,2,0:0:0:0:
118,74,145594,2,0,P|152:71|186:66,1,68,8|2,0:3|0:0,0:0:0:0:
355,32,146022,2,0,P|322:25|289:18,1,68,8|2,0:3|0:0,0:0:0:0:
334,111,146451,2,0,P|343:143|355:176,1,68,8|2,0:3|0:0,0:0:0:0:
415,91,146879,2,0,P|438:66|462:42,1,68,8|2,0:3|0:0,0:0:0:0:
464,217,147308,6,0,P|419:168|354:176,1,136,8|8,0:3|0:3,0:0:0:0:
291,228,147951,1,2,0:0:0:0:
212,204,148165,2,0,P|178:190|135:176,1,68,8|2,0:3|0:0,0:0:0:0:
31,273,148594,2,0,P|82:260|126:246,1,68,8|2,0:3|0:0,0:0:0:0:
162,303,149022,2,0,P|213:290|257:276,1,68,8|2,0:3|0:0,0:0:0:0:
291,228,149451,1,8,0:3:0:0:
372,235,149665,1,2,0:0:0:0:
420,300,149879,6,0,P|406:255|454:184,1,136,8|8,0:3|0:3,0:0:0:0:
490,257,150522,1,2,0:0:0:0:
451,185,150737,2,0,P|456:148|464:110,1,68,8|2,0:3|0:0,0:0:0:0:
481,38,151165,2,0,P|437:48|390:57,1,68,8|2,0:3|0:0,0:0:0:0:
379,126,151594,2,0,P|334:110|228:86,1,136,8|8,0:3|0:3,0:0:0:0:
168,109,152237,1,2,0:0:0:0:
100,63,152451,70,0,P|135:113|94:197,1,136,8|8,0:3|0:3,0:0:0:0:
48,227,153094,1,2,0:0:0:0:
71,305,153308,2,0,P|68:266|67:225,1,68,8|2,0:3|0:0,0:0:0:0:
115,180,153737,2,0,P|174:186|264:203,1,136,8|8,0:3|0:3,0:0:0:0:
307,257,154379,1,2,0:0:0:0:
388,267,154594,1,8,0:0:0:0:
458,226,154808,1,8,0:0:0:0:
421,353,155022,6,0,P|411:316|405:273,1,68,4|0,0:0|0:0,0:0:0:0:
475,243,155451,2,0,P|482:197|484:94,1,136,10|8,0:3|0:3,0:0:0:0:
430,46,156094,1,2,0:0:0:0:
354,77,156308,2,0,P|405:71|434:64,1,68,8|2,0:3|0:0,0:0:0:0:
365,157,156737,2,0,P|339:127|233:149,1,136,10|8,0:3|0:3,0:0:0:0:
193,189,157379,1,2,0:0:0:0:
228,115,157594,1,8,0:3:0:0:
202,37,157808,1,2,0:0:0:0:
150,99,158022,6,0,P|93:94|5:74,1,136,10|8,0:3|0:3,0:0:0:0:
90,43,158665,1,2,0:0:0:0:
150,99,158879,2,0,P|159:149|164:173,1,68,8|2,0:3|0:0,0:0:0:0:
132,242,159308,2,0,P|102:224|86:191,1,68,10|2,0:3|0:0,0:0:0:0:
140,331,159737,2,0,P|105:331|76:311,1,68,8|2,0:3|0:0,0:0:0:0:
209,281,160165,70,0,P|260:246|332:270,1,136,8|10,0:3|0:3,0:0:0:0:
350,336,160808,1,2,0:0:0:0:
285,384,161022,2,0,P|279:350|275:317,1,68,8|2,0:3|0:0,0:0:0:0:
327,265,161451,2,0,P|334:231|338:198,1,68,8|2,0:3|0:0,0:0:0:0:
395,125,161879,2,0,P|365:153|274:118,1,136,10|8,0:3|0:3,0:0:0:0:
235,63,162522,1,2,0:0:0:0:
197,136,162737,6,0,P|173:167|140:187,1,68,8|2,0:3|0:0,0:0:0:0:
67,186,163165,2,0,P|33:167|35:63,1,136,10|8,0:3|0:3,0:0:0:0:
83,23,163808,1,2,0:0:0:0:
155,59,164022,2,0,P|199:53|225:48,1,68,8|2,0:3|0:0,0:0:0:0:
290,93,164451,2,0,P|334:87|360:82,1,68,10|2,0:3|0:0,0:0:0:0:
415,25,164879,1,8,0:3:0:0:
384,100,165094,1,2,0:0:0:0:
429,167,165308,6,0,P|439:204|460:319,1,136,8|10,0:3|0:3,0:0:0:0:
383,334,165951,1,2,0:0:0:0:
308,301,166165,2,0,P|360:309|390:311,1,68,8|2,0:3|0:0,0:0:0:0:
322,222,166594,2,0,P|299:254|199:248,1,136,8|10,0:3|0:3,0:0:0:0:
249,185,167237,1,2,0:0:0:0:
186,236,167451,1,8,0:3:0:0:
105,226,167665,1,2,0:0:0:0:
53,162,167879,70,0,P|93:152|130:146,1,68,8|2,0:3|0:0,0:0:0:0:
122,63,168308,2,0,P|154:72|186:83,1,68,10|2,0:3|0:0,0:0:0:0:
224,7,168737,2,0,P|252:36|276:65,1,68,8|2,0:3|0:0,0:0:0:0:
472,44,169165,2,0,P|413:27|328:12,1,136,8|10,0:3|0:3,0:0:0:0:
269,57,169808,1,2,0:0:0:0:
188,47,170022,2,0,P|136:60|113:70,1,68,8|2,0:3|0:0,0:0:0:0:
79,134,170451,6,0,P|94:84|46:19,1,136,8|10,0:3|0:3,0:0:0:0:
8,91,171094,1,2,0:0:0:0:
79,134,171308,2,0,P|82:177|81:220,1,68,8|2,0:3|0:0,0:0:0:0:
58,288,171737,2,0,P|34:264|-6:240,1,68,8|2,0:3|0:0,0:0:0:0:
143,263,172165,2,0,P|170:228|277:253,1,136,10|8,0:3|0:3,0:0:0:0:
324,273,172808,1,2,0:0:0:0:
299,350,173022,6,0,P|305:310|313:271,1,68,8|0,0:3|0:0,0:0:0:0:
422,243,173451,1,10,0:3:0:0:
397,320,173665,2,0,P|403:280|411:241,1,68,8|0,0:1|0:0,0:0:0:0:
489,204,174094,1,2,0:0:0:0:
422,243,174308,69,10,0:3:0:0:
341,233,174522,1,2,0:0:0:0:
284,174,174737,1,10,0:3:0:0:
293,98,174951,1,8,0:1:0:0:
325,195,175165,1,8,0:1:0:0:
445,270,175379,1,8,0:1:0:0:
334,322,175594,6,0,P|267:309|199:305,1,136,4|10,0:1|0:3,0:0:0:0:
126,341,176237,2,0,P|161:311|158:217,1,136,2|2,0:0|0:0,0:0:0:0:
93,266,176879,2,0,P|43:275|9:283,1,68,8|2,0:1|0:0,0:0:0:0:
93,184,177308,2,0,P|43:175|9:167,1,68,10|2,0:3|0:0,0:0:0:0:
167,142,177737,1,8,0:3:0:0:
98,98,177951,1,2,0:0:0:0:
94,184,178165,6,0,P|142:188|245:200,1,136,8|10,0:3|0:3,0:0:0:0:
309,182,178808,2,0,P|271:192|255:299,1,136,2|2,0:0|0:0,0:0:0:0:
295,336,179451,1,8,0:1:0:0:
223,296,179665,1,2,0:0:0:0:
152,337,179879,2,0,P|115:350|77:360,1,68,10|2,0:3|0:0,0:0:0:0:
20,261,180308,2,0,P|63:269|97:274,1,68,8|2,0:3|0:0,0:0:0:0:
152,337,180737,70,0,P|134:276|122:187,1,136,8|10,0:3|0:3,0:0:0:0:
183,258,181379,2,0,P|192:210|226:121,1,136,2|2,0:0|0:0,0:0:0:0:
244,207,182022,2,0,P|279:184|317:169,1,68,8|2,0:1|0:0,0:0:0:0:
384,162,182451,1,10,0:3:0:0:
407,239,182665,2,0,P|414:205|418:172,1,68,2|8,0:0|0:3,0:0:0:0:
412,90,183094,1,2,0:0:0:0:
481,131,183308,6,0,P|440:128|327:115,1,136,8|10,0:3|0:3,0:0:0:0:
348,35,183951,2,0,P|296:46|264:125,1,136,2|2,0:0|0:0,0:0:0:0:
200,168,184594,2,0,P|180:125|162:100,1,68,8|2,0:1|0:0,0:0:0:0:
133,199,185022,2,0,P|174:210|274:219,1,136,10|8,0:3|0:3,0:0:0:0:
341,193,185665,1,2,0:0:0:0:
200,168,185879,1,8,0:1:0:0:
256,192,185987,12,8,188022,0:3:0:0:
317,254,188451,6,0,P|280:240|235:242,1,68,8|2,0:3|0:0,0:0:0:0:
173,217,188879,2,0,P|220:217|294:161,1,136,8|8,0:0|0:3,0:0:0:0:
305,86,189522,1,2,0:0:0:0:
426,190,189737,69,8,0:1:0:0:
500,156,189951,2,0,P|460:147|343:138,1,136,4|4,0:1|0:1,0:0:0:0:
290,167,190594,1,4,0:1:0:0:
225,116,190808,1,4,0:1:0:0:
222,34,191022,1,4,0:1:0:0:
424,216,196165,38,0,P|391:196|310:268,1,152.999995330811,2|2,0:0|0:0,0:0:0:0:
206,271,197022,6,0,P|228:238|242:194,1,63.7500024318696
166,169,197451,86,0,P|138:227|56:196,2,152.999995330811,2|0|0,0:0|0:0|0:0,0:0:0:0:
357,316,198737,70,0,P|396:266|461:272,1,136,4|0,0:1|0:0,0:0:0:0:
429,336,199379,2,0,P|412:298|404:200,1,136,2|2,0:0|0:0,0:0:0:0:
439,137,200022,1,8,0:3:0:0:
381,190,200237,1,2,0:0:0:0:
302,164,200451,2,0,P|268:154|227:152,1,68,0|2,0:0|0:0,0:0:0:0:
299,77,200879,1,0,0:0:0:0:
240,19,201094,1,2,0:0:0:0:
101,114,201308,6,0,P|164:134|218:97,1,136,8|0,0:3|0:0,0:0:0:0:
240,19,201951,2,0,P|255:73|288:167,1,136,2|2,0:0|0:0,0:0:0:0:
360,167,202594,2,0,P|347:207|339:249,1,68,8|2,0:3|0:0,0:0:0:0:
374,306,203022,1,0,0:0:0:0:
318,245,203237,1,2,0:0:0:0:
355,317,203451,1,0,0:0:0:0:
299,256,203666,1,2,0:0:0:0:
335,328,203879,70,0,P|397:319|487:312,1,136,8|0,0:3|0:0,0:0:0:0:
396,275,204522,2,0,P|328:269|260:259,1,136,2|2,0:0|0:0,0:0:0:0:
211,194,205165,2,0,P|251:188|292:174,1,68,8|2,0:3|0:0,0:0:0:0:
210,329,205594,2,0,P|250:335|291:349,1,68,0|2,0:0|0:0,0:0:0:0:
153,263,206022,2,0,P|108:266|78:270,1,68,0|2,0:0|0:0,0:0:0:0:
20,319,206451,6,0,P|52:286|32:199,1,136,8|0,0:3|0:0,0:0:0:0:
85,268,207094,1,2,0:0:0:0:
165,280,207308,1,0,0:0:0:0:
234,237,207522,1,2,0:0:0:0:
194,367,207737,2,0,P|188:334|183:301,1,68,8|2,0:3|0:0,0:0:0:0:
312,286,208165,2,0,P|318:253|324:220,1,68,0|2,0:0|0:0,0:0:0:0:
222,169,208594,2,0,P|227:203|233:236,1,68,0|2,0:0|0:0,0:0:0:0:
280,360,209022,6,0,P|306:329|403:341,1,136,8|0,0:3|0:0,0:0:0:0:
455,384,209665,2,0,P|446:344|432:232,1,136,2|2,0:0|0:0,0:0:0:0:
431,166,210308,2,0,P|484:184|510:189,1,68,8|2,0:3|0:0,0:0:0:0:
359,212,210737,1,0,0:0:0:0:
350,130,210951,1,2,0:0:0:0:
340,49,211165,2,0,P|332:88|320:128,1,68,0|2,0:0|0:0,0:0:0:0:
211,7,211594,70,0,P|218:56|238:149,1,136,8|0,0:3|0:0,0:0:0:0:
181,79,212237,2,0,P|170:146|156:212,1,136,2|2,0:0|0:0,0:0:0:0:
88,258,212879,2,0,P|74:222|84:179,1,68,8|2,0:3|0:0,0:0:0:0:
156,212,213308,2,0,P|199:220|229:227,1,68,0|2,0:0|0:0,0:0:0:0:
261,297,213737,2,0,P|304:305|334:312,1,68,0|2,0:0|0:0,0:0:0:0:
467,264,214165,6,0,P|456:328|396:353,1,136,8|0,0:3|0:0,0:0:0:0:
327,310,214808,2,0,P|324:263|325:164,1,136,2|2,0:0|0:0,0:0:0:0:
375,110,215451,1,8,0:3:0:0:
303,149,215665,1,2,0:0:0:0:
236,102,215879,2,0,P|216:67|123:64,1,136,0|0,0:0|0:0,0:0:0:0:
72,119,216522,1,2,0:0:0:0:
154,266,216737,1,8,0:3:0:0:
256,192,216844,12,0,218022,0:0:0:0:
256,192,218129,12,4,219308,0:0:0:0:
256,192,219415,12,8,220594,0:1:0:0:
290,74,221022,5,2,0:0:0:0:
206,86,221237,1,4,0:1:0:0:
302,100,221451,1,4,0:1:0:0:
203,113,221665,1,4,0:1:0:0:
365,69,221879,70,0,P|327:88|333:198,1,136,4|8,0:0|0:3,0:0:0:0:
359,240,222522,1,2,0:0:0:0:
440,235,222737,2,0,P|395:227|365:220,1,68,8|2,0:3|0:0,0:0:0:0:
312,173,223165,2,0,P|246:191|179:201,1,136,10|8,0:3|0:3,0:0:0:0:
98,189,223808,1,2,0:0:0:0:
20,213,224022,2,0,P|21:175|28:129,1,68,8|2,0:3|0:0,0:0:0:0:
98,189,224451,6,0,P|93:222|93:256,1,68,10|2,0:3|0:0,0:0:0:0:
55,329,224879,2,0,P|87:299|176:312,1,136,8|8,0:3|0:3,0:0:0:0:
241,265,225522,1,2,0:0:0:0:
246,346,225737,2,0,P|279:342|322:335,1,68,10|2,0:3|0:0,0:0:0:0:
389,264,226165,2,0,P|355:259|321:254,1,68,8|2,0:3|0:0,0:0:0:0:
205,193,226594,2,0,P|238:189|281:182,1,68,8|2,0:3|0:0,0:0:0:0:
321,254,227022,6,0,P|311:212|301:104,1,136,10|8,0:3|0:3,0:0:0:0:
311,40,227665,1,2,0:0:0:0:
374,91,227879,2,0,P|426:104|461:110,1,68,8|2,0:3|0:0,0:0:0:0:
300,119,228308,2,0,P|267:109|234:105,1,68,10|2,0:3|0:0,0:0:0:0:
124,121,228737,2,0,P|186:127|220:195,1,136,8|8,0:3|3:0,0:0:0:0:
86,186,229379,1,2,0:0:0:0:
47,7,229594,70,0,P|99:16|135:19,1,68,10|2,0:3|0:0,0:0:0:0:
147,88,230022,2,0,P|198:72|298:67,1,136,8|8,0:3|0:3,0:0:0:0:
358,88,230665,1,2,0:0:0:0:
274,45,230879,1,10,0:1:0:0:
279,65,231094,1,4,0:1:0:0:
364,108,231308,1,4,0:1:0:0:
370,129,231522,1,2,0:0:0:0:
414,207,231737,2,0,P|380:211|347:215,1,68,8|2,0:3|0:0,0:0:0:0:
512,256,232165,6,0,P|457:239|396:301,1,136,10|8,0:3|0:3,0:0:0:0:
376,362,232808,1,2,0:0:0:0:
476,383,233022,2,0,P|469:329|466:305,1,68,8|2,0:3|0:0,0:0:0:0:
333,269,233451,2,0,P|372:276|409:288,1,68,10|2,0:3|0:0,0:0:0:0:
225,363,233879,2,0,P|264:356|301:344,1,68,8|2,0:3|0:0,0:0:0:0:
104,274,234308,2,0,P|143:281|183:283,1,68,8|2,0:3|0:0,0:0:0:0:
225,363,234737,6,0,P|219:308|220:209,1,136,10|8,0:3|0:3,0:0:0:0:
232,147,235379,1,2,0:0:0:0:
157,174,235594,2,0,P|124:183|92:194,1,68,8|2,0:3|0:0,0:0:0:0:
359,217,236022,2,0,P|320:209|278:193,1,68,10|2,0:1|0:0,0:0:0:0:
232,147,236451,2,0,P|245:124|346:110,1,136,8|8,0:3|0:3,0:0:0:0:
407,151,237094,1,2,0:0:0:0:
444,78,237308,70,0,P|438:123|437:153,1,68,10|2,0:3|0:0,0:0:0:0:
343,108,237737,2,0,P|357:154|370:246,1,136,8|8,0:3|0:3,0:0:0:0:
415,310,238379,1,2,0:0:0:0:
349,260,238594,2,0,P|301:268|274:275,1,68,10|2,0:3|0:0,0:0:0:0:
240,207,239022,2,0,P|202:237|182:257,1,68,8|2,0:3|0:0,0:0:0:0:
121,183,239451,2,0,P|103:228|96:255,1,68,8|2,0:3|0:0,0:0:0:0:
142,314,239879,6,0,P|114:283|20:300,1,136,10|8,0:3|0:3,0:0:0:0:
74,359,240522,1,2,0:0:0:0:
151,331,240737,1,8,0:3:0:0:
216,379,240951,1,2,0:0:0:0:
289,344,241165,2,0,P|330:328|451:313,1,136,10|8,0:3|0:3,0:0:0:0:
497,339,241808,1,2,0:0:0:0:
431,290,242022,2,0,P|414:243|409:219,1,68,8|2,0:3|0:0,0:0:0:0:
289,344,242451,1,4,0:0:0:0:
256,192,242558,12,8,243737,0:1:0:0:
314,56,244379,6,0,P|342:20|381:10,1,68,4|0,0:0|0:0,0:0:0:0:
441,31,244808,1,2,0:0:0:0:
386,92,245022,2,0,P|325:99|241:105,1,136,10|8,0:3|0:3,0:0:0:0:
318,149,245665,2,0,P|257:142|173:136,1,136,8|2,0:1|0:0,0:0:0:0:
109,98,246308,1,10,0:3:0:0:
160,229,246523,69,4,0:1:0:0:
180,245,246737,1,0,0:0:0:0:
213,263,246951,1,4,0:1:0:0:
293,265,247165,1,4,0:1:0:0:
375,209,247379,1,4,0:1:0:0:
395,59,247594,70,0,P|414:105|430:141,1,85,4|0,0:1|0:0,0:0:0:0:
482,202,248022,1,0,0:0:0:0:
495,46,248237,2,0,P|484:106|457:219,1,170,8|0,0:3|0:0,0:0:0:0:
393,327,248879,2,0,P|382:270|379:234,1,85,10|0,0:1|0:0,0:0:0:0:
428,137,249308,1,0,0:0:0:0:
276,204,249522,2,0,P|324:214|359:225,1,85,4|8,0:1|0:3,0:0:0:0:
478,296,249951,1,8,0:3:0:0:
319,374,250165,6,0,P|271:371|240:332,1,85,10|2,0:3|0:0,0:0:0:0:
210,268,250594,1,0,0:0:0:0:
30,353,250808,2,0,P|93:345|117:234,1,170,8|0,0:1|0:0,0:0:0:0:
0,161,251451,2,0,P|60:175|96:183,1,85,10|0,0:3|0:0,0:0:0:0:
111,82,251879,2,0,P|155:124|183:149,1,85,8|2,0:3|0:0,0:0:0:0:
241,68,252308,2,0,P|258:126|269:162,1,85,8|2,0:3|0:0,0:0:0:0:
0,161,252737,86,0,P|60:175|96:183,1,85,10|0,0:3|0:0,0:0:0:0:
157,220,253165,1,0,0:0:0:0:
279,244,253379,2,0,P|229:256|115:286,1,170,8|0,0:3|0:0,0:0:0:0:
205,346,254022,2,0,P|154:331|6:298,1,170,10|0,0:1|0:1,0:1:0:0:
48,105,254665,1,4,0:1:0:0:
82,181,254879,1,4,0:1:0:0:
157,220,255094,1,4,0:1:0:0:
327,226,255308,6,0,P|284:215|228:210,1,85,10|0,0:3|0:0,0:0:0:0:
157,220,255737,1,2,0:0:0:0:
339,302,255951,2,0,P|386:275|371:163,1,170,8|0,0:1|0:0,0:0:0:0:
430,286,256594,1,12,0:0:0:0:
260,289,256808,2,0,P|239:247|254:190,1,85,12|0,0:0|0:0,0:0:0:0:
319,112,257237,1,4,0:1:0:0:
380,170,257451,1,4,0:1:0:0:
464,162,257665,1,4,0:1:0:0:
345,25,257879,86,0,P|292:33|244:43,1,85,4|0,0:0|0:0,0:0:0:0:
177,57,258308,1,2,0:0:0:0:
70,73,258522,2,0,P|128:84|240:117,1,170,8|0,0:3|0:0,0:0:0:0:
89,156,259165,2,0,P|130:166|180:180,1,85,10|0,0:1|0:0,0:0:0:0:
252,203,259594,1,0,0:0:0:0:
125,328,259808,2,0,P|118:276|115:234,1,85,4|2,0:1|0:0,0:0:0:0:
171,177,260237,1,2,0:0:0:0:
282,321,260451,6,0,P|320:349|367:345,1,85,10|0,0:3|0:0,0:0:0:0:
439,334,260879,1,2,0:0:0:0:
439,164,261094,2,0,P|422:243|346:271,1,170,8|8,0:1|0:3,0:0:0:0:
270,177,261737,2,0,P|326:182|369:189,1,85,6|0,0:0|0:0,0:0:0:0:
439,164,262165,1,0,0:0:0:0:
344,271,262379,1,4,0:1:0:0:
274,100,262594,2,0,P|253:100|224:108,5,28.3333333333333,4|0|0|0|0|0,0:1|0:0|0:0|0:0|0:0|0:0,0:0:0:0:
274,100,263022,86,0,P|283:59|297:14,1,85,4|0,0:0|0:0,0:0:0:0:
188,158,263451,2,0,P|175:117|164:72,1,85,0|8,0:0|0:3,0:0:0:0:
143,258,263879,2,0,P|111:229|80:195,1,85,2|0,0:0|0:0,0:0:0:0:
42,330,264308,2,0,P|101:316|239:303,1,170,10|2,0:1|0:0,0:0:0:0:
332,268,264951,2,0,P|325:314|314:353,1,85,4|2,0:1|0:0,0:0:0:0:
257,223,265379,1,2,0:0:0:0:
411,309,265594,5,6,0:0:0:0:
425,293,265808,1,0,0:0:0:0:
437,271,266022,1,0,0:0:0:0:
439,240,266237,1,4,3:0:0:0:
426,198,266451,1,4,3:0:0:0:
376,137,266665,1,4,3:0:0:0:
282,105,266879,85,4,3:0:0:0:
178,188,267094,1,4,3:0:0:0:
262,86,267308,1,4,3:0:0:0:
196,207,267522,1,4,3:0:0:0:
244,67,267737,1,4,3:0:0:0:
213,224,267951,1,4,3:0:0:0:
78,97,268165,6,0,P|133:94|179:89,1,85,4|0,0:1|0:0,0:0:0:0:
244,67,268594,1,0,0:0:0:0:
101,191,268808,2,0,P|116:107|123:22,1,170,8|0,0:1|0:0,0:0:0:0:
244,67,269451,2,0,P|296:80|342:87,1,85,10|2,0:3|0:0,0:0:0:0:
477,137,269879,2,0,P|430:147|368:165,1,85,0|4,0:0|0:1,0:0:0:0:
240,156,270308,1,8,0:3:0:0:
317,191,270522,1,2,0:0:0:0:
451,314,270737,86,0,P|486:271|482:232,1,85,10|0,0:3|0:0,0:0:0:0:
449,161,271165,1,8,0:3:0:0:
368,326,271379,2,0,P|324:300|324:182,1,170,8|0,0:1|0:0,0:0:0:0:
467,143,272022,2,0,P|410:136|373:134,1,85,6|0,0:0|0:0,0:0:0:0:
379,41,272451,2,0,P|326:63|293:80,1,85,0|4,0:0|0:1,0:0:0:0:
255,0,272879,2,0,P|220:45|200:76,1,85,4|4,0:1|0:1,0:0:0:0:
122,173,273308,6,0,P|145:118|161:6,1,170,4|0,0:0|0:0,0:0:0:0:
45,189,273951,2,0,P|69:232|181:228,1,170,8|0,0:1|0:0,0:0:0:0:
351,224,274594,2,0,P|286:213|249:212,1,85,10|0,0:3|0:0,0:0:0:0:
177,231,275022,1,0,0:0:0:0:
110,89,275237,2,0,P|121:154|122:191,1,85,4|0,0:1|0:0,0:0:0:0:
93,248,275665,1,0,0:0:0:0:
212,348,275879,86,0,P|156:332|27:327,1,170,10|8,0:3|0:3,0:0:0:0:
266,290,276522,2,0,P|317:309|437:324,1,170,8|0,0:1|0:0,0:0:0:0:
321,227,277165,2,0,P|360:239|410:245,1,85,10|4,0:3|0:0,0:0:0:0:
468,126,277594,2,0,P|428:142|387:151,1,85,0|4,0:0|0:1,0:0:0:0:
287,128,278022,2,0,P|318:99|343:65,1,85,4|4,0:1|0:1,0:0:0:0:
216,177,278451,6,0,P|198:133|209:85,1,85,6|0,0:0|0:0,0:0:0:0:
269,43,278879,1,0,0:0:0:0:
291,215,279094,2,0,P|220:206|104:201,1,170,8|0,0:1|0:0,0:0:0:0:
0,281,279737,2,0,P|47:283|110:290,1,85,10|0,0:3|0:0,0:0:0:0:
167,305,280165,1,0,0:0:0:0:
36,201,280379,2,0,P|44:153|57:107,1,85,4|2,0:1|0:0,0:0:0:0:
93,42,280808,1,2,0:0:0:0:
200,144,281022,86,0,P|256:133|279:96,1,85,6|0,0:0|0:0,0:0:0:0:
310,36,281451,1,0,0:0:0:0:
473,186,281665,2,0,P|407:189|360:92,1,170,8|0,0:1|0:0,0:0:0:0:
444,22,282308,2,0,P|440:81|440:114,1,85,10|8,0:3|0:1,0:0:0:0:
473,186,282737,2,0,P|489:224|487:244,6,42.5,0|0|12|0|8|0|0,0:0|0:0|0:3|0:0|0:3|0:0|0:0,0:0:0:0:
321,211,283594,6,0,P|363:218|405:227,1,85,6|0,0:0|0:0,0:0:0:0:
464,300,284022,1,0,0:0:0:0:
255,263,284237,2,0,P|237:223|250:170,1,85,8|8,0:1|0:3,0:0:0:0:
306,128,284665,1,0,0:0:0:0:
167,254,284879,2,0,P|192:196|212:86,1,170,10|0,0:3|0:0,0:0:0:0:
186,9,285522,1,4,0:1:0:0:
250,65,285737,1,0,0:0:0:0:
385,97,285951,1,0,0:0:0:0:
306,128,286165,1,4,0:0:0:0:
256,192,286272,12,4,288094,0:1:0:0:
119,254,288737,22,0,P|141:295|268:269,1,170,10|0,0:3|0:0,0:0:0:0:
188,145,289379,2,0,P|193:201|200:242,1,85,8|8,0:1|0:3,0:0:0:0:
251,293,289808,1,8,0:3:0:0:
405,254,290022,2,0,P|363:247|321:244,1,85,10|4,0:3|0:1,0:0:0:0:
265,178,290451,5,4,0:1:0:0:
309,105,290665,1,4,0:1:0:0:
391,126,290879,1,4,0:1:0:0:
399,210,291094,1,4,0:1:0:0:
320,244,291308,1,4,0:1:0:0:
256,192,291415,12,0,296056,0:0:0:0:
99,282,296450,6,0,P|129:269|191:269,1,85,2|0,0:0|0:0,0:0:0:0:
246,320,297096,2,0,P|276:333|338:333,1,85,0|0,0:0|0:0,0:0:0:0:
405,300,297742,1,2,0:0:0:0:
408,305,297958,1,0,0:0:0:0:
411,310,298173,1,0,0:0:0:0:
413,102,299035,6,0,P|383:115|321:115,1,85,2|0,0:0|0:0,0:0:0:0:
266,64,299681,2,0,P|236:51|174:51,1,85,2|0,0:0|0:0,0:0:0:0:
107,84,300327,1,2,0:0:0:0:
105,90,300543,1,0,0:0:0:0:
102,96,300758,1,0,0:0:0:0:
273,329,301620,86,0,P|281:290|302:250,1,85,2|0,0:0|0:0,0:0:0:0:
231,201,302266,2,0,P|223:162|202:122,1,85,0|0,0:0|0:0,0:0:0:0:
132,71,302913,2,0,P|101:59|78:59,1,42.5,2|0,0:0|0:0,0:0:0:0:
211,41,303344,2,0,P|246:26|296:26,1,85,2|2,0:0|0:0,0:0:0:0:
374,48,303990,1,0,0:0:0:0:
413,123,304205,2,0,P|426:160|436:172,1,42.5,2|0,0:0|0:0,0:0:0:0:
366,221,304636,2,0,P|353:258|343:270,1,42.5,2|0,0:0|0:0,0:0:0:0:
294,323,305067,1,0,0:0:0:0:
294,323,305498,6,0,B|263:300|265:249|265:249|244:277|203:339|162:375|56:323|33:261|69:217|91:182|136:195|151:210|164:235|164:235|198:206|219:160|219:160|185:102|118:97|66:106|31:134|31:134|7:105|2:63|37:18|124:5|167:25|206:40,1,1020,0|2,0:0|0:0,0:0:0:0:
192,34,311039,86,0,P|237:42|286:48,1,85,2|2,0:0|0:0,0:0:0:0:
440,97,311892,2,0,P|400:103|384:107,1,42.5,2|2,0:0|0:0,0:0:0:0:
279,143,312318,2,0,P|319:149|335:153,1,42.5,2|2,0:0|0:0,0:0:0:0:
446,188,312744,2,0,P|406:194|390:198,1,42.5,2|2,0:0|0:0,0:0:0:0:
321,241,313171,6,0,P|311:277|400:359,1,170,2|0,0:0|0:0,0:0:0:0:
280,311,314494,86,0,L|213:320,1,42.5,2|2,0:0|0:0,0:0:0:0:
166,362,314946,2,0,P|126:360|105:360,1,42.5,2|2,0:0|0:0,0:0:0:0:
77,288,315399,2,0,P|38:293|18:295,1,42.5,2|2,0:0|0:0,0:0:0:0:
68,199,315852,2,0,P|89:202|111:205,1,42.5,2|2,0:0|0:0,0:0:0:0:
169,143,316322,2,0,P|190:140|211:137,1,42.5,2|2,0:0|0:0,0:0:0:0:
269,75,316807,6,0,P|305:78|329:78,2,42.5,2|2|2,0:0|0:0|0:0,0:0:0:0:
115,35,318144,86,0,P|119:76|120:89,1,42.5,2|2,0:0|0:0,0:0:0:0:
127,161,318702,1,2,0:0:0:0:
216,142,318981,6,0,P|213:179|210:198,1,42.5,2|2,0:0|0:0,0:0:0:0:
115,264,319564,86,0,P|148:248|160:243,1,42.5,2|2,0:0|0:0,0:0:0:0:
271,292,320304,6,0,P|240:270|230:263,1,42.5,2|2,0:0|0:0,0:0:0:0:
127,161,321139,86,0,L|103:165,3,14.1666666666667,2|2|2|2,0:0|0:0|0:0|0:0,0:0:0:0:
218,96,321780,6,0,P|232:97|243:98,1,21.25,2|2,0:0|0:0,0:0:0:0:
297,156,322243,86,0,P|313:153|336:148,1,21.25,2|2,0:0|0:0,0:0:0:0:
390,176,322616,6,0,P|387:195|383:208,1,21.25,2|2,0:0|0:0,0:0:0:0:
334,250,323036,86,0,P|338:265|342:277,1,21.25,2|2,0:0|0:0,0:0:0:0:
405,326,323537,6,0,L|397:351,1,21.25,2|2,0:0|0:0,0:0:0:0:
312,351,324093,86,0,P|281:348|271:347,1,21.25,2|2,0:0|0:0,0:0:0:0:
205,340,324826,1,2,0:0:0:0:
202,345,325432,1,2,0:0:0:0:
