osu file format v14

[General]
AudioFilename: audio.mp3
AudioLeadIn: 0
PreviewTime: 134237
Countdown: 0
SampleSet: Soft
StackLeniency: 0.4
Mode: 0
LetterboxInBreaks: 0
WidescreenStoryboard: 1

[Editor]
Bookmarks: 5879,8451,13594,31594,36737,57308,62451,80451,85594,106165,111308,129308,134451,155022,175594,185879,198737,216737,221879,242451,247594,286165,291308
DistanceSpacing: 1.5
BeatDivisor: 4
GridSize: 32
TimelineZoom: 1

[Metadata]
Title:Eden
TitleUnicode:Eden
Artist:Kalafina
ArtistUnicode:Kalafina
Creator:Vell
Version:Normal
Source:
Tags:after yuki kajiura keiko kubota wakana outaki hikaru masai
BeatmapID:1232742
BeatmapSetID:476410

[Difficulty]
HPDrainRate:4
CircleSize:3
OverallDifficulty:4
ApproachRate:4.5
SliderMultiplier:1.4
SliderTickRate:1

[Events]
//Background and Video events
0,0,"bg.png",0,0
//Break Periods
2,34365,35048
2,60079,61191
2,134651,153762
2,191022,194905
//Storyboard Layer 0 (Background)
//Storyboard Layer 1 (Fail)
//Storyboard Layer 2 (Pass)
//Storyboard Layer 3 (Foreground)
//Storyboard Sound Samples

[TimingPoints]
737,428.571428571429,3,2,2,30,1,0
737,-166.666666666667,3,2,2,30,0,0
5879,-166.666666666667,3,2,2,35,0,0
6522,-166.666666666667,3,2,2,40,0,0
7165,-166.666666666667,3,2,2,45,0,0
8451,-166.666666666667,3,2,1,50,0,0
13594,-133.333333333333,3,2,1,50,0,0
23022,-133.333333333333,3,2,2,50,0,0
23129,-133.333333333333,3,2,1,50,0,0
36737,-133.333333333333,3,2,1,60,0,0
44022,-133.333333333333,3,2,3,60,0,0
44129,-133.333333333333,3,2,1,60,0,0
47451,-133.333333333333,3,2,3,60,0,0
47558,-133.333333333333,3,2,1,60,0,0
50022,-133.333333333333,3,2,3,60,0,0
50129,-133.333333333333,3,2,1,60,0,0
55594,-133.333333333333,3,2,3,60,0,0
55701,-133.333333333333,3,2,1,60,0,0
56879,-133.333333333333,3,2,3,60,0,0
56987,-133.333333333333,3,2,1,60,0,0
62451,-133.333333333333,3,2,1,50,0,0
71879,-133.333333333333,3,2,2,50,0,0
71987,-133.333333333333,3,2,1,50,0,0
84951,-133.333333333333,3,2,4,50,0,0
85594,-133.333333333333,3,2,1,60,0,0
89022,-133.333333333333,3,2,3,60,0,0
89129,-133.333333333333,3,2,1,60,0,0
91165,-133.333333333333,3,2,3,60,0,0
91272,-133.333333333333,3,2,1,60,0,0
94165,-133.333333333333,3,2,3,60,0,0
94272,-133.333333333333,3,2,1,60,0,0
96308,-133.333333333333,3,2,3,60,0,0
96415,-133.333333333333,3,2,1,60,0,0
98879,-133.333333333333,3,2,3,60,0,0
98987,-133.333333333333,3,2,1,60,0,0
101879,-133.333333333333,3,2,3,60,0,0
101987,-133.333333333333,3,2,1,60,0,0
104451,-133.333333333333,3,2,3,60,0,0
104558,-133.333333333333,3,2,1,60,0,0
105737,-133.333333333333,3,2,3,60,0,0
105844,-133.333333333333,3,2,1,60,0,0
111308,-117.647058823529,3,2,1,70,0,1
121165,-117.647058823529,3,2,4,70,0,0
121594,-117.647058823529,3,2,1,70,0,1
128665,-117.647058823529,3,2,4,70,0,1
129308,-117.647058823529,3,2,1,70,0,1
134451,-125,3,2,1,50,0,0
155022,-133.333333333333,3,2,1,60,0,0
155451,-133.333333333333,3,2,2,60,0,0
155558,-133.333333333333,3,2,1,60,0,0
158022,-133.333333333333,3,2,2,60,0,0
158129,-133.333333333333,3,2,1,60,0,0
160594,-133.333333333333,3,2,2,60,0,0
160701,-133.333333333333,3,2,1,60,0,0
163165,-133.333333333333,3,2,2,60,0,0
163272,-133.333333333333,3,2,1,60,0,0
165737,-133.333333333333,3,2,2,60,0,0
165844,-133.333333333333,3,2,1,60,0,0
167022,-133.333333333333,3,2,2,60,0,0
167129,-133.333333333333,3,2,1,60,0,0
169594,-133.333333333333,3,2,2,60,0,0
169701,-133.333333333333,3,2,1,60,0,0
170879,-133.333333333333,3,2,2,60,0,0
170987,-133.333333333333,3,2,1,60,0,0
173451,-133.333333333333,3,2,2,60,0,0
173558,-133.333333333333,3,2,1,60,0,0
196165,-166.666666666667,3,2,2,40,0,0
196808,-166.666666666667,3,2,2,45,0,0
197451,-166.666666666667,3,2,2,50,0,0
198737,-133.333333333333,3,2,1,50,0,0
221237,-133.333333333333,3,2,4,50,0,0
221879,-133.333333333333,3,2,1,60,0,0
227451,-133.333333333333,3,2,3,60,0,0
227558,-133.333333333333,3,2,1,60,0,0
230451,-133.333333333333,3,2,3,60,0,0
230558,-133.333333333333,3,2,1,60,0,0
231094,-133.333333333333,3,2,4,60,0,0
231522,-133.333333333333,3,2,1,60,0,0
232594,-133.333333333333,3,2,3,60,0,0
232701,-133.333333333333,3,2,1,60,0,0
235165,-133.333333333333,3,2,3,60,0,0
235272,-133.333333333333,3,2,1,60,0,0
238165,-133.333333333333,3,2,3,60,0,0
238272,-133.333333333333,3,2,1,60,0,0
240737,-133.333333333333,3,2,3,60,0,0
240844,-133.333333333333,3,2,1,60,0,0
242022,-133.333333333333,3,2,3,60,0,0
242129,-133.333333333333,3,2,1,60,0,0
247594,-117.647058823529,3,2,1,70,0,1
257451,-117.647058823529,3,2,4,70,0,0
257879,-117.647058823529,3,2,1,70,0,1
262379,-117.647058823529,3,2,4,70,0,1
262701,-117.647058823529,3,2,1,70,0,1
265165,-117.647058823529,3,2,2,70,0,1
265272,-117.647058823529,3,2,1,70,0,1
266451,-117.647058823529,3,2,0,45,0,1
266879,-117.647058823529,3,2,0,60,0,1
267308,-117.647058823529,3,2,0,70,0,1
267951,-117.647058823529,3,2,0,70,0,0
268165,-117.647058823529,3,2,1,70,0,1
272665,-117.647058823529,3,2,4,70,0,1
273201,-117.647058823529,3,2,1,70,0,1
278022,-117.647058823529,3,2,4,70,0,0
278451,-117.647058823529,3,2,1,70,0,1
284451,-117.647058823529,3,2,2,70,0,1
284558,-117.647058823529,3,2,1,70,0,1
285737,-117.647058823529,3,2,2,70,0,1
285844,-117.647058823529,3,2,1,70,0,1
290237,-117.647058823529,3,2,4,70,0,1
290451,-117.647058823529,3,2,2,70,0,1
290558,-117.647058823529,3,2,4,70,0,1
290665,-117.647058823529,3,2,4,60,0,1
290879,-117.647058823529,3,2,4,50,0,1
291094,-117.647058823529,3,2,4,40,0,1
291308,431.654676258993,3,2,1,30,1,0
295192,-100,3,2,1,5,0,0
296450,430.879712746858,3,2,2,30,1,0
296450,-166.666666666667,3,2,2,30,0,0
305498,426.287744227353,3,2,2,30,1,0
313171,433.212996389892,3,2,13,50,1,0
314254,480,3,2,13,50,1,0
314494,452.830188679245,3,2,16,50,1,0
315852,470.588235294118,3,2,22,50,1,0
316807,500,3,2,26,50,1,0
317307,558.139534883721,3,2,28,50,1,0
318981,566.037735849057,3,2,34,50,1,0
319264,600,3,2,35,50,1,0
319564,681.818181818182,3,2,36,50,1,0
319904,800,3,2,37,50,1,0
320304,967.741935483871,3,2,38,50,1,0
320787,1411.76470588235,3,2,39,50,1,0
321139,1016.94915254237,3,2,40,50,1,0
321393,1548.38709677419,3,2,43,50,1,0
321780,952.380952380952,3,2,44,50,1,0
322018,902.255639097744,3,2,45,50,1,0
322243,685.714285714286,3,2,46,50,1,0
322414,810.810810810811,3,2,47,50,1,0
322616,821.917808219178,3,2,48,50,1,0
322821,863.309352517986,3,2,49,50,1,0
323036,1008.40336134454,3,2,50,50,1,0
323288,991.735537190083,3,2,51,50,1,0
323537,1200,3,2,52,50,1,0
323837,1025.64102564103,3,2,53,50,1,0
324093,1379.31034482759,3,2,54,50,1,0
324437,1558.44155844156,3,2,55,50,1,0
324826,2424.24242424242,3,2,56,50,1,0
325432,2424.24242424242,3,2,57,50,1,0

[Colours]
Combo1 : 81,131,215
Combo2 : 232,98,179
Combo3 : 140,84,245
Combo4 : 255,81,85
Combo5 : 179,164,177
Combo6 : 149,177,179
Combo7 : 80,159,218

[HitObjects]
48,82,737,54,0,P|89:72|139:67,1,83.9999974365235,2|0,0:0|0:0,0:0:0:0:
222,58,1379,2,0,P|210:99|189:144,1,83.9999974365235,2|0,0:0|0:0,0:0:0:0:
157,222,2022,2,0,P|131:194|98:150,2,83.9999974365235,2|2|2,0:0|0:0|0:0,0:0:0:0:
321,137,3308,6,0,P|305:101|291:58,1,83.9999974365235,2|0,0:0|0:0,0:0:0:0:
382,68,3950,2,0,P|424:72|464:81,1,83.9999974365235,2|0,0:0|0:0,0:0:0:0:
409,157,4593,2,0,P|386:191|355:221,2,83.9999974365235,2|2|2,0:0|0:0|0:0,0:0:0:0:
447,320,5879,86,0,P|378:312|309:312,1,125.999996154785,2|2,0:0|0:0,0:0:0:0:
165,374,6951,1,0,0:0:0:0:
95,327,7165,2,0,B|82:282|114:250|114:250|144:220|151:163|112:123,1,209.999993591309,2|0,0:0|0:0,0:0:0:0:
48,91,8451,1,4,0:1:0:0:
256,192,8558,12,0,12308,0:0:0:0:
334,340,13594,54,0,P|343:308|349:228,1,105.000004005432,8|0,0:3|0:0,0:0:0:0:
433,228,14237,2,0,P|423:185|416:111,1,105.000004005432,2|0,0:0|0:0,0:0:0:0:
355,67,14879,2,0,P|337:97|320:122,1,52.5000020027161,8|0,0:3|0:0,0:0:0:0:
254,153,15308,2,0,P|219:152|166:96,1,105.000004005432,2|0,0:0|0:0,0:0:0:0:
23,22,16165,6,0,P|33:54|44:138,1,105.000004005432,8|0,0:3|0:0,0:0:0:0:
114,170,16808,2,0,P|92:208|61:283,1,105.000004005432,2|0,0:0|0:0,0:0:0:0:
147,290,17451,2,0,P|162:332|174:357,1,52.5000020027161,8|0,0:3|0:0,0:0:0:0:
238,298,17879,2,0,P|272:274|345:285,1,105.000004005432,2|0,0:0|0:0,0:0:0:0:
482,199,18737,6,0,P|438:190|374:161,1,105.000004005432,8|0,0:3|0:0,0:0:0:0:
336,90,19379,2,0,P|302:82|244:115,1,105.000004005432,2|0,0:0|0:0,0:0:0:0:
159,144,20022,2,0,P|138:114|110:98,1,52.5000020027161,8|0,0:3|0:0,0:0:0:0:
77,180,20451,2,0,P|84:216|103:299,1,105.000004005432,2|8,0:0|0:3,0:0:0:0:
276,261,21308,70,0,P|263:300|235:366,2,105.000004005432,8|2|0,0:3|0:0|0:0,0:0:0:0:
450,301,22594,2,0,P|418:271|431:160,1,157.500006008148,8|2,0:3|0:0,0:0:0:0:
493,223,23451,1,8,0:3:0:0:
345,323,23879,6,0,P|301:319|225:315,1,105.000004005432,8|0,0:3|0:0,0:0:0:0:
179,249,24522,2,0,P|154:269|72:267,1,105.000004005432,2|0,0:0|0:0,0:0:0:0:
14,215,25165,2,0,P|1:180|7:148,1,52.5000020027161,8|0,0:3|0:0,0:0:0:0:
16,76,25594,1,2,0:0:0:0:
183,15,26022,1,8,0:3:0:0:
302,148,26451,6,0,P|356:146|430:135,1,105.000004005432,8|0,0:3|0:0,0:0:0:0:
370,57,27094,2,0,P|321:58|241:55,1,105.000004005432,2|0,0:0|0:0,0:0:0:0:
183,15,27737,2,0,P|154:22|129:40,1,52.5000020027161,8|0,0:3|0:0,0:0:0:0:
78,103,28165,2,0,P|82:135|98:218,1,105.000004005432,2|2,0:0|0:0,0:0:0:0:
266,259,29022,70,0,P|231:236|162:246,1,105.000004005432,8|0,0:3|0:0,0:0:0:0:
206,323,29665,2,0,P|257:346|312:356,1,105.000004005432,2|0,0:0|0:0,0:0:0:0:
387,320,30308,2,0,P|410:309|443:308,1,52.5000020027161,8|0,0:3|0:0,0:0:0:0:
455,219,30737,2,0,P|476:180|485:99,1,105.000004005432,2|8,0:0|0:3,0:0:0:0:
311,155,31594,1,2,0:0:0:0:
256,192,31701,12,4,34165,0:0:0:0:
122,335,36308,5,2,0:0:0:0:
122,335,36737,6,0,P|168:338|223:306,1,105.000004005432,4|0,0:0|0:0,0:0:0:0:
371,218,37594,2,0,P|328:213|308:215,1,52.5000020027161,8|0,0:3|0:0,0:0:0:0:
333,301,38022,2,0,P|384:310|451:315,2,105.000004005432,8|8|8,0:0|0:3|0:3,0:0:0:0:
163,243,39308,70,0,P|170:277|176:309,1,52.5000020027161,8|0,0:0|0:0,0:0:0:0:
94,336,39737,2,0,P|85:290|76:221,1,105.000004005432,8|8,0:3|0:3,0:0:0:0:
71,143,40379,1,2,0:0:0:0:
126,72,40594,2,0,P|165:93|230:87,2,105.000004005432,8|8|8,0:0|0:3|0:3,0:0:0:0:
187,7,41665,1,2,0:0:0:0:
276,7,41879,6,0,P|317:14|384:29,1,105.000004005432,8|8,0:0|0:3,0:0:0:0:
490,168,42737,2,0,P|440:178|418:178,1,52.5000020027161,8|2,0:3|0:0,0:0:0:0:
357,215,43165,2,0,P|336:206|292:196,1,52.5000020027161,8|0,0:0|0:0,0:0:0:0:
221,223,43594,2,0,P|197:253|84:232,1,157.500006008148,8|2,0:3|0:0,0:0:0:0:
62,155,44451,6,0,P|68:114|85:33,2,105.000004005432,8|8|8,0:0|0:3|0:3,0:0:0:0:
90,240,45522,1,2,0:0:0:0:
160,294,45737,2,0,P|193:275|271:282,1,105.000004005432,8|8,0:0|0:3,0:0:0:0:
420,350,46594,2,0,P|423:324|431:298,1,52.5000020027161,8|2,0:3|0:0,0:0:0:0:
504,247,47022,70,0,P|493:208|483:71,1,157.500006008148,4|0,0:0|0:0,0:0:0:0:
394,72,47879,2,0,P|377:113|361:139,1,52.5000020027161,8|2,0:3|0:0,0:0:0:0:
303,176,48308,1,8,0:0:0:0:
153,78,48737,2,0,P|147:42|146:16,1,52.5000020027161,8|0,0:3|0:0,0:0:0:0:
234,14,49165,2,0,P|240:50|241:76,1,52.5000020027161,8|2,0:3|0:0,0:0:0:0:
211,150,49594,6,0,P|196:176|167:317,1,157.500006008148,8|0,0:0|0:0,0:0:0:0:
202,380,50451,1,8,0:3:0:0:
361,301,50879,2,0,P|386:304|412:312,1,52.5000020027161,8|0,0:0|0:0,0:0:0:0:
454,233,51308,2,0,P|402:221|351:211,1,105.000004005432,8|8,0:3|0:3,0:0:0:0:
261,215,51951,1,2,0:0:0:0:
190,269,52165,6,0,P|175:230|198:151,2,105.000004005432,8|8|8,0:0|0:3|0:3,0:0:0:0:
26,340,53451,2,0,P|55:304|59:236,2,105.000004005432,8|8|8,0:0|0:3|0:3,0:0:0:0:
190,270,54737,70,0,P|175:230|171:212,1,52.5000020027161,8|0,0:0|0:0,0:0:0:0:
107,160,55165,2,0,P|151:120|139:14,1,157.500006008148,8|2,0:3|0:0,0:0:0:0:
235,3,56022,6,0,P|266:26|294:27,1,52.5000020027161,8|0,0:0|0:0,0:0:0:0:
320,107,56451,2,0,P|366:95|493:91,1,157.500006008148,8|2,0:3|0:0,0:0:0:0:
504,173,57308,1,4,0:0:0:0:
256,192,57415,12,0,59879,0:0:0:0:
375,259,62451,6,0,P|325:248|265:248,1,105.000004005432,4|0,0:0|0:0,0:0:0:0:
194,293,63094,2,0,P|174:317|98:318,1,105.000004005432,2|0,0:0|0:0,0:0:0:0:
44,255,63737,2,0,P|41:218|43:190,1,52.5000020027161,8|0,0:3|0:0,0:0:0:0:
113,150,64165,2,0,P|112:99|107:34,1,105.000004005432,2|0,0:0|0:0,0:0:0:0:
269,121,65022,70,0,P|243:144|242:225,1,105.000004005432,8|0,0:3|0:0,0:0:0:0:
306,264,65665,2,0,P|345:262|414:253,1,105.000004005432,2|0,0:0|0:0,0:0:0:0:
398,342,66308,2,0,P|357:346|325:344,1,52.5000020027161,8|0,0:3|0:0,0:0:0:0:
261,376,66737,2,0,P|237:350|169:348,1,105.000004005432,2|0,0:0|0:0,0:0:0:0:
30,237,67594,6,0,P|72:232|146:212,1,105.000004005432,8|0,0:3|0:0,0:0:0:0:
87,139,68237,2,0,P|127:107|164:66,1,105.000004005432,2|0,0:0|0:0,0:0:0:0:
242,106,68879,2,0,P|273:96|311:87,1,52.5000020027161,8|0,0:3|0:0,0:0:0:0:
376,121,69308,2,0,P|408:151|480:148,1,105.000004005432,2|8,0:0|0:3,0:0:0:0:
329,268,70165,6,0,P|339:301|368:375,2,105.000004005432,8|2|8,0:3|0:0|0:3,0:0:0:0:
158,215,71451,2,0,P|150:282|62:326,1,157.500006008148,8|2,0:3|0:0,0:0:0:0:
67,237,72308,1,8,0:3:0:0:
206,348,72737,70,0,P|251:336|326:326,1,105.000004005432,8|0,0:3|0:0,0:0:0:0:
391,360,73379,2,0,P|420:328|420:251,1,105.000004005432,2|0,0:0|0:0,0:0:0:0:
390,186,74022,2,0,P|366:169|321:165,1,52.5000020027161,8|0,0:3|0:0,0:0:0:0:
255,179,74451,2,0,P|242:129|237:60,1,105.000004005432,2|0,0:0|0:0,0:0:0:0:
65,25,75308,6,0,P|60:67|37:144,1,105.000004005432,8|0,0:3|0:0,0:0:0:0:
103,194,75951,2,0,P|112:234|140:301,1,105.000004005432,2|0,0:0|0:0,0:0:0:0:
208,345,76594,2,0,P|247:349|269:341,1,52.5000020027161,8|0,0:3|0:0,0:0:0:0:
332,294,77022,2,0,P|365:270|447:283,1,105.000004005432,2|2,0:0|0:0,0:0:0:0:
487,102,77879,6,0,P|435:99|397:58,1,105.000004005432,8|0,0:3|0:0,0:0:0:0:
326,10,78522,2,0,P|268:18|215:33,1,105.000004005432,2|0,0:0|0:0,0:0:0:0:
170,102,79165,2,0,P|138:88|99:76,1,52.5000020027161,8|0,0:3|0:0,0:0:0:0:
100,169,79594,2,0,P|108:203|130:283,1,105.000004005432,2|8,0:0|0:3,0:0:0:0:
256,148,80451,1,8,0:3:0:0:
256,192,80558,12,4,83022,0:0:0:0:
158,306,84308,69,8,0:1:0:0:
420,64,85165,1,8,0:3:0:0:
420,64,85594,6,0,P|407:118|412:190,1,105.000004005432,4|0,0:0|0:0,0:0:0:0:
465,336,86451,2,0,P|473:310|479:266,1,52.5000020027161,8|2,0:3|0:0,0:0:0:0:
388,292,86879,2,0,P|362:321|285:321,2,105.000004005432,10|8|8,0:1|0:3|0:3,0:0:0:0:
314,240,87951,1,2,0:0:0:0:
231,273,88165,6,0,P|181:268|156:262,1,52.5000020027161,8|0,0:0|0:0,0:0:0:0:
99,309,88594,2,0,P|88:270|76:134,1,157.500006008148,8|2,0:3|0:0,0:0:0:0:
98,67,89451,2,0,P|124:38|205:38,2,105.000004005432,10|8|8,0:1|0:3|0:3,0:0:0:0:
250,160,90737,70,0,P|320:158|416:143,1,157.500006008148,8|0,0:0|0:0,0:0:0:0:
492,121,91594,1,8,0:3:0:0:
385,263,92022,2,0,P|381:310|382:336,1,52.5000020027161,8|0,0:0|0:0,0:0:0:0:
306,364,92451,2,0,P|295:332|264:264,1,105.000004005432,8|8,0:3|0:3,0:0:0:0:
194,212,93094,1,2,0:0:0:0:
114,253,93308,6,0,P|84:277|57:284,1,52.5000020027161,8|0,0:0|0:0,0:0:0:0:
43,196,93737,2,0,P|51:160|87:27,1,157.500006008148,8|2,0:3|0:0,0:0:0:0:
166,15,94594,2,0,P|167:55|177:131,1,105.000004005432,10|8,0:1|0:3,0:0:0:0:
328,210,95451,2,0,P|368:205|398:196,1,52.5000020027161,8|2,0:3|0:0,0:0:0:0:
392,113,95879,6,0,P|340:122|266:46,1,157.500006008148,4|0,0:0|0:0,0:0:0:0:
354,31,96737,1,8,0:3:0:0:
241,169,97165,2,0,P|234:209|227:286,2,105.000004005432,8|8|8,0:0|0:3|0:3,0:0:0:0:
93,67,98451,70,0,P|103:109|108:233,1,157.500006008148,8|2,0:0|0:0,0:0:0:0:
85,309,99308,1,8,0:3:0:0:
254,366,99737,2,0,P|283:356|314:346,1,52.5000020027161,8|0,0:0|0:0,0:0:0:0:
360,280,100165,2,0,P|397:289|482:297,1,105.000004005432,8|8,0:3|0:3,0:0:0:0:
507,219,100808,1,2,0:0:0:0:
438,161,101022,6,0,P|413:121|409:100,1,52.5000020027161,8|0,0:0|0:0,0:0:0:0:
418,27,101451,2,0,P|349:16|246:15,1,157.500006008148,8|2,0:3|0:0,0:0:0:0:
193,72,102308,2,0,P|166:105|92:114,2,105.000004005432,8|8|8,0:0|0:3|0:3,0:0:0:0:
344,167,103594,6,0,P|340:225|337:235,1,52.5000020027161,8|0,0:0|0:0,0:0:0:0:
270,264,104022,2,0,P|196:209|125:241,1,157.500006008148,8|0,0:3|0:0,0:0:0:0:
70,274,104879,2,0,P|41:282|9:278,1,52.5000020027161,8|0,0:0|0:0,0:0:0:0:
31,197,105308,2,0,P|47:160|80:28,1,157.500006008148,8|2,0:3|0:0,0:0:0:0:
5,3,106165,1,4,0:0:0:0:
256,192,106272,12,8,108094,0:1:0:0:
256,192,108737,12,4,110022,0:0:0:0:
352,350,111308,38,0,P|360:316|364:285,1,59.5000011348725,4|0,0:1|0:0,0:0:0:0:
356,202,111737,1,0,0:0:0:0:
276,161,111951,2,0,P|248:187|154:179,1,119.000002269745,8|0,0:1|0:0,0:0:0:0:
82,202,112594,2,0,P|83:154|114:65,2,119.000002269745,8|8|8,0:0|0:3|0:3,0:0:0:0:
237,311,113879,6,0,P|281:304|313:302,1,59.5000011348725,2|0,0:0|0:0,0:0:0:0:
384,322,114308,1,0,0:0:0:0:
448,258,114522,2,0,P|453:211|448:131,1,119.000002269745,8|0,0:1|0:0,0:0:0:0:
396,60,115165,2,0,P|358:31|289:37,2,119.000002269745,8|8|8,0:0|0:3|0:1,0:0:0:0:
240,148,116451,86,0,P|193:143|121:130,1,119.000002269745,4|0,0:0|0:0,0:0:0:0:
42,170,117094,2,0,P|15:203|30:297,1,119.000002269745,8|0,0:1|0:0,0:0:0:0:
62,352,117737,1,8,0:0:0:0:
202,242,118165,1,8,0:3:0:0:
358,328,118594,1,8,0:3:0:0:
487,205,119022,6,0,P|466:165|378:147,1,119.000002269745,8|0,0:3|0:0,0:0:0:0:
317,176,119665,2,0,P|262:190|180:197,1,119.000002269745,8|0,0:1|0:0,0:0:0:0:
116,164,120308,2,0,P|95:117|113:42,2,119.000002269745,8|8|8,0:0|0:3|0:3,0:0:0:0:
259,57,121594,86,0,P|298:79|336:90,1,59.5000011348725,4|0,0:0|0:0,0:0:0:0:
399,97,122022,1,0,0:0:0:0:
481,62,122237,2,0,P|487:111|491:201,1,119.000002269745,8|0,0:1|0:0,0:0:0:0:
443,255,122879,2,0,P|401:223|336:232,2,119.000002269745,8|8|8,0:0|0:3|0:3,0:0:0:0:
284,337,124165,6,0,P|248:328|224:315,1,59.5000011348725,8|0,0:0|0:0,0:0:0:0:
157,262,124594,1,0,0:0:0:0:
84,313,124808,2,0,P|69:273|99:196,1,119.000002269745,8|0,0:1|0:0,0:0:0:0:
171,161,125451,2,0,P|220:151|307:145,2,119.000002269745,8|0|8,0:0|0:0|0:1,0:0:0:0:
39,40,126737,86,0,P|89:53|166:54,1,119.000002269745,8|0,0:0|0:0,0:0:0:0:
234,12,127379,1,8,0:1:0:0:
312,54,127594,2,0,P|328:45|385:35,1,59.5000011348725,8|0,0:3|0:0,0:0:0:0:
454,54,128022,2,0,P|469:96|457:244,1,178.500003404617,8|8,0:1|0:3,0:0:0:0:
404,295,128879,2,0,P|368:316|336:321,1,59.5000011348725,8|8,0:3|0:3,0:0:0:0:
261,324,129308,1,4,0:0:0:0:
256,192,129415,12,10,133165,0:1:0:0:
305,145,134451,5,4,0:1:0:0:
223,274,155022,6,0,P|164:288|98:218,1,157.500006008148,4|0,0:0|0:0,0:0:0:0:
125,140,155879,2,0,P|175:129|194:125,1,52.5000020027161,8|0,0:3|0:0,0:0:0:0:
246,73,156308,2,0,P|287:85|354:86,2,105.000004005432,8|8|8,0:3|0:0|0:3,0:0:0:0:
74,126,157594,6,0,P|132:131|238:174,1,157.500006008148,8|0,0:3|0:0,0:0:0:0:
291,224,158451,1,8,0:3:0:0:
409,356,158879,2,0,P|424:324|476:270,2,105.000004005432,8|8|0,0:3|0:0|0:0,0:0:0:0:
236,308,160165,6,0,P|203:344|102:324,1,157.500006008148,8|0,0:3|0:0,0:0:0:0:
54,252,161022,2,0,P|58:216|65:189,1,52.5000020027161,8|0,0:3|0:0,0:0:0:0:
136,151,161451,2,0,P|128:110|109:46,1,105.000004005432,8|8,0:3|0:0,0:0:0:0:
284,8,162308,2,0,P|275:46|274:81,1,52.5000020027161,8|0,0:3|0:0,0:0:0:0:
305,143,162737,70,0,P|332:192|435:183,1,157.500006008148,8|0,0:3|0:0,0:0:0:0:
493,134,163594,2,0,P|490:101|477:25,2,105.000004005432,8|8|8,0:3|0:3|0:0,0:0:0:0:
424,298,164879,1,8,0:3:0:0:
258,230,165308,6,0,P|189:239|97:253,1,157.500006008148,8|0,0:3|0:0,0:0:0:0:
40,186,166165,2,0,P|73:172|102:147,1,52.5000020027161,8|0,0:3|0:0,0:0:0:0:
125,81,166594,2,0,P|148:53|271:58,1,157.500006008148,8|0,0:3|0:0,0:0:0:0:
325,111,167451,1,8,0:3:0:0:
500,79,167879,6,0,P|510:120|521:196,2,105.000004005432,8|8|8,0:3|0:0|0:3,0:0:0:0:
325,111,169165,2,0,P|336:188|358:284,1,157.500006008148,8|0,0:3|0:0,0:0:0:0:
316,347,170022,2,0,P|291:323|262:305,1,52.5000020027161,8|0,0:3|0:0,0:0:0:0:
193,279,170451,70,0,P|112:283|67:359,1,157.500006008148,8|0,0:3|0:0,0:0:0:0:
156,359,171308,1,8,0:3:0:0:
29,232,171737,2,0,P|24:203|22:165,1,52.5000020027161,8|0,0:3|0:0,0:0:0:0:
108,159,172165,2,0,P|127:122|166:62,1,105.000004005432,8|8,0:0|0:3,0:0:0:0:
228,10,172808,1,0,0:0:0:0:
297,65,173022,6,0,P|334:109|439:101,1,157.500006008148,8|0,0:3|0:0,0:0:0:0:
486,41,173879,1,8,0:3:0:0:
507,218,174308,2,0,P|493:252|488:277,1,52.5000020027161,8|0,0:3|0:0,0:0:0:0:
412,313,174737,2,0,P|426:347|431:372,2,52.5000020027161,8|8|8,0:0|0:1|0:1,0:0:0:0:
360,240,175379,1,8,0:1:0:0:
270,244,175594,6,0,P|226:251|153:265,1,105.000004005432,4|8,0:0|0:0,0:0:0:0:
177,351,176237,2,0,P|133:344|60:330,1,105.000004005432,2|2,0:0|0:0,0:0:0:0:
13,267,176879,2,0,P|5:240|13:204,1,52.5000020027161,8|0,0:3|0:0,0:0:0:0:
73,155,177308,2,0,P|104:124|105:57,1,105.000004005432,8|8,0:0|0:3,0:0:0:0:
268,143,178165,70,0,P|246:113|251:40,1,105.000004005432,8|8,0:3|0:0,0:0:0:0:
329,13,178808,2,0,P|372:17|435:26,1,105.000004005432,2|2,0:0|0:0,0:0:0:0:
501,83,179451,2,0,P|471:110|438:122,1,52.5000020027161,8|0,0:3|0:0,0:0:0:0:
378,151,179879,2,0,P|366:188|355:261,1,105.000004005432,8|8,0:0|0:3,0:0:0:0:
201,344,180737,6,0,P|190:293|161:235,1,105.000004005432,8|8,0:3|0:0,0:0:0:0:
79,258,181379,2,0,P|90:207|119:149,1,105.000004005432,2|2,0:0|0:0,0:0:0:0:
197,130,182022,2,0,P|187:92|173:69,1,52.5000020027161,8|0,0:3|0:0,0:0:0:0:
115,19,182451,2,0,P|72:8|16:57,1,105.000004005432,8|8,0:0|0:3,0:0:0:0:
123,187,183308,6,0,P|115:224|87:292,1,105.000004005432,8|8,0:3|0:0,0:0:0:0:
179,285,183951,2,0,P|187:322|215:390,1,105.000004005432,2|2,0:0|0:0,0:0:0:0:
282,329,184594,2,0,P|318:303|349:295,1,52.5000020027161,8|0,0:1|0:0,0:0:0:0:
409,332,185022,2,0,P|446:358|513:347,1,105.000004005432,8|8,0:0|0:3,0:0:0:0:
428,190,185879,1,8,0:3:0:0:
256,192,185987,12,8,188022,0:3:0:0:
256,192,188451,12,4,189737,0:0:0:0:
255,89,196165,6,0,P|290:85|392:82,2,125.999996154785
65,302,198308,1,2,0:0:0:0:
65,302,198737,54,0,P|100:280|177:283,1,105.000004005432,4|0,0:0|0:0,0:0:0:0:
227,338,199379,2,0,P|262:360|339:357,1,105.000004005432,2|0,0:0|0:0,0:0:0:0:
400,315,200022,2,0,P|420:286|425:264,1,52.5000020027161,8|0,0:3|0:0,0:0:0:0:
396,184,200451,2,0,P|387:155|377:72,1,105.000004005432,2|0,0:0|0:0,0:0:0:0:
213,10,201308,6,0,P|200:60|167:116,1,105.000004005432,8|0,0:3|0:0,0:0:0:0:
85,114,201951,2,0,P|49:87|-18:91,1,105.000004005432,2|0,0:0|0:0,0:0:0:0:
17,172,202594,2,0,P|27:207|29:237,1,52.5000020027161,8|0,0:3|0:0,0:0:0:0:
112,254,203022,2,0,P|96:293|92:369,1,105.000004005432,2|0,0:0|0:0,0:0:0:0:
248,272,203879,6,0,P|264:311|268:387,1,105.000004005432,8|0,0:3|0:0,0:0:0:0:
357,354,204522,2,0,P|353:301|335:252,1,105.000004005432,2|0,0:0|0:0,0:0:0:0:
277,184,205165,2,0,P|246:174|216:167,1,52.5000020027161,8|0,0:3|0:0,0:0:0:0:
142,199,205594,2,0,P|111:224|34:212,1,105.000004005432,2|8,0:0|0:3,0:0:0:0:
101,51,206451,70,0,P|54:37|-14:29,2,105.000004005432,8|2|8,0:3|0:0|0:3,0:0:0:0:
257,138,207737,2,0,P|284:121|315:112,1,52.5000020027161,8|2,0:3|0:0,0:0:0:0:
390,97,208165,2,0,P|424:103|451:117,2,52.5000020027161,8|8|8,0:3|0:3|0:3,0:0:0:0:
433,270,209022,6,0,P|386:292|334:292,1,105.000004005432,8|0,0:3|0:0,0:0:0:0:
256,247,209665,2,0,P|226:228|155:244,1,105.000004005432,2|0,0:0|0:0,0:0:0:0:
97,302,210308,2,0,P|81:330|73:356,1,52.5000020027161,8|0,0:3|0:0,0:0:0:0:
3,295,210737,2,0,P|13:251|17:171,1,105.000004005432,2|0,0:0|0:0,0:0:0:0:
116,42,211594,6,0,P|119:94|130:145,1,105.000004005432,8|0,0:3|0:0,0:0:0:0:
214,177,212237,2,0,P|231:146|308:126,1,105.000004005432,2|0,0:0|0:0,0:0:0:0:
369,169,212879,2,0,P|407:187|438:188,1,52.5000020027161,8|0,0:3|0:0,0:0:0:0:
500,155,213308,2,0,P|509:113|518:44,1,105.000004005432,2|2,0:0|0:0,0:0:0:0:
338,43,214165,70,0,P|286:28|233:19,1,105.000004005432,8|0,0:3|0:0,0:0:0:0:
247,108,214808,2,0,P|195:123|142:132,1,105.000004005432,2|0,0:0|0:0,0:0:0:0:
63,93,215451,2,0,P|32:115|19:139,1,52.5000020027161,8|0,0:3|0:0,0:0:0:0:
64,206,215879,2,0,P|83:234|96:320,1,105.000004005432,2|8,0:0|0:3,0:0:0:0:
249,207,216737,1,8,0:3:0:0:
256,192,216844,12,4,219308,0:0:0:0:
177,82,220594,21,8,0:1:0:0:
436,329,221451,1,8,0:3:0:0:
436,329,221879,70,0,P|425:296|423:218,1,105.000004005432,4|0,0:0|0:0,0:0:0:0:
299,95,222737,2,0,P|287:127|273:149,1,52.5000020027161,8|0,0:3|0:0,0:0:0:0:
205,90,223165,2,0,P|174:110|100:119,2,105.000004005432,8|8|8,0:0|0:3|0:3,0:0:0:0:
255,16,224237,1,2,0:0:0:0:
299,95,224451,6,0,P|334:116|396:111,2,105.000004005432,8|8|8,0:0|0:3|0:3,0:0:0:0:
255,16,225522,1,2,0:0:0:0:
205,90,225737,2,0,P|175:72|99:58,1,105.000004005432,8|8,0:0|0:3,0:0:0:0:
28,217,226594,2,0,P|59:232|89:234,1,52.5000020027161,8|2,0:3|0:0,0:0:0:0:
104,318,227022,6,0,P|153:299|265:301,1,157.500006008148,8|0,0:0|0:0,0:0:0:0:
326,355,227879,2,0,P|356:373|385:372,1,52.5000020027161,8|2,0:3|0:0,0:0:0:0:
456,342,228308,2,0,P|467:310|471:228,1,105.000004005432,8|8,0:0|0:3,0:0:0:0:
373,90,229165,2,0,P|382:121|402:159,1,52.5000020027161,8|2,0:3|0:0,0:0:0:0:
300,145,229594,70,0,P|268:123|243:117,1,52.5000020027161,8|0,0:0|0:0,0:0:0:0:
175,158,230022,2,0,P|137:197|29:169,1,157.500006008148,8|2,0:3|0:0,0:0:0:0:
96,112,230879,2,0,P|106:76|110:57,2,52.5000020027161,10|8|8,0:1|0:3|0:3,0:0:0:0:
22,275,231737,1,8,0:3:0:0:
185,346,232165,6,0,P|231:333|361:315,1,157.500006008148,8|0,0:0|0:0,0:0:0:0:
428,312,233022,1,8,0:3:0:0:
331,161,233451,2,0,P|320:117|315:52,2,105.000004005432,8|8|8,0:0|0:3|0:3,0:0:0:0:
150,115,234737,2,0,P|108:162|16:156,1,157.500006008148,8|0,0:0|0:0,0:0:0:0:
68,83,235594,1,8,0:3:0:0:
237,29,236022,6,0,P|269:35|295:40,1,52.5000020027161,8|0,0:0|0:0,0:0:0:0:
281,128,236451,2,0,P|329:120|402:111,1,105.000004005432,8|8,0:3|0:3,0:0:0:0:
473,126,237094,1,2,0:0:0:0:
499,212,237308,70,0,P|483:255|464:271,1,52.5000020027161,8|0,0:0|0:0,0:0:0:0:
428,333,237737,2,0,P|396:302|283:320,1,157.500006008148,8|2,0:3|0:0,0:0:0:0:
215,359,238594,2,0,P|206:325|193:243,2,105.000004005432,8|8|8,0:0|0:3|0:3,0:0:0:0:
55,280,239879,6,0,P|67:247|72:225,1,52.5000020027161,8|0,0:0|0:0,0:0:0:0:
145,180,240308,2,0,P|128:136|132:13,1,157.500006008148,8|2,0:3|0:0,0:0:0:0:
216,12,241165,2,0,P|245:21|267:36,1,52.5000020027161,8|0,0:0|0:0,0:0:0:0:
313,107,241594,2,0,P|354:127|452:68,1,157.500006008148,8|2,0:3|0:0,0:0:0:0:
368,37,242451,1,4,0:0:0:0:
256,192,242558,12,8,244379,0:1:0:0:
256,192,245022,12,4,246308,0:0:0:0:
391,91,247594,54,0,P|356:105|331:109,1,59.5000011348725,4|0,0:1|0:0,0:0:0:0:
245,102,248022,1,0,0:0:0:0:
175,45,248237,2,0,P|131:16|64:30,1,119.000002269745,8|0,0:3|0:0,0:0:0:0:
17,99,248879,2,0,P|20:134|33:229,2,119.000002269745,4|0|0,0:0|0:0|0:0,0:0:0:0:
193,128,250165,6,0,P|182:165|171:191,1,59.5000011348725,2|0,0:0|0:0,0:0:0:0:
115,251,250594,1,0,0:0:0:0:
130,338,250808,2,0,P|160:362|237:355,1,119.000002269745,8|0,0:1|0:0,0:0:0:0:
302,295,251451,2,0,P|339:288|422:281,2,119.000002269745,8|8|8,0:0|0:3|0:3,0:0:0:0:
151,198,252737,86,0,P|126:146|150:73,1,119.000002269745,2|0,0:0|0:0,0:0:0:0:
227,78,253379,2,0,P|252:130|228:203,1,119.000002269745,8|0,0:1|0:0,0:0:0:0:
207,271,254022,1,8,0:0:0:0:
42,202,254451,1,8,0:3:0:0:
42,23,254879,1,8,0:3:0:0:
202,100,255308,6,0,P|235:104|324:107,1,119.000002269745,8|0,0:0|0:0,0:0:0:0:
392,53,255951,2,0,P|430:26|512:41,1,119.000002269745,8|0,0:1|0:0,0:0:0:0:
511,121,256594,2,0,P|500:157|452:236,2,119.000002269745,4|8|8,0:0|0:3|0:3,0:0:0:0:
346,188,257879,86,0,P|331:146|319:127,1,59.5000011348725,4|0,0:0|0:0,0:0:0:0:
263,66,258308,1,0,0:0:0:0:
180,98,258522,2,0,P|142:122|65:106,1,119.000002269745,8|0,0:3|0:0,0:0:0:0:
45,196,259165,2,0,P|84:216|109:291,2,119.000002269745,4|8|8,0:0|0:3|0:3,0:0:0:0:
56,17,260451,6,0,P|88:17|123:23,1,59.5000011348725,8|0,0:0|0:0,0:0:0:0:
189,70,260879,1,0,0:0:0:0:
274,44,261094,2,0,P|286:85|288:170,1,119.000002269745,8|0,0:1|0:0,0:0:0:0:
345,230,261737,2,0,P|373:207|469:208,2,119.000002269745,4|8|8,0:0|0:3|0:3,0:0:0:0:
199,332,263022,86,0,P|181:286|168:209,2,119.000002269745,4|0|8,0:0|0:0|0:3,0:0:0:0:
346,230,264308,1,8,0:1:0:0:
222,100,264737,2,0,P|259:58|370:80,1,178.500003404617,8|8,0:3|0:3,0:0:0:0:
403,161,265594,6,0,P|437:184|527:165,2,119.000002269745,4|8|4,0:0|0:3|3:0,0:0:0:0:
222,100,266879,2,0,P|178:120|108:136,2,119.000002269745,4|4|4,3:0|3:0|3:0,0:0:0:0:
294,281,268165,86,0,P|247:288|221:303,1,59.5000011348725,4|0,0:0|0:0,0:0:0:0:
160,341,268594,1,0,0:0:0:0:
73,318,268808,2,0,P|42:277|56:202,1,119.000002269745,8|0,0:1|0:0,0:0:0:0:
108,146,269451,2,0,P|158:147|241:158,2,119.000002269745,8|8|8,0:0|0:3|0:3,0:0:0:0:
221,283,270737,6,0,P|267:275|306:263,1,59.5000011348725,2|0,0:0|0:0,0:0:0:0:
356,227,271165,1,0,0:0:0:0:
429,277,271379,2,0,P|445:243|464:154,1,119.000002269745,8|0,0:1|0:0,0:0:0:0:
423,83,272022,2,0,P|398:53|312:51,2,119.000002269745,8|8|8,0:0|0:3|0:3,0:0:0:0:
262,162,273308,86,0,P|242:124|218:49,1,119.000002269745,4|0,0:0|0:0,0:0:0:0:
139,10,273951,2,0,P|113:63|94:120,1,119.000002269745,8|0,0:1|0:0,0:0:0:0:
78,208,274594,1,8,0:0:0:0:
170,360,275022,1,8,0:3:0:0:
342,356,275451,1,8,0:3:0:0:
386,168,275879,6,0,P|396:202|428:286,1,119.000002269745,2|0,0:0|0:0,0:0:0:0:
509,247,276522,2,0,P|487:191|469:134,1,119.000002269745,8|0,0:1|0:0,0:0:0:0:
399,79,277165,2,0,P|354:74|307:8,2,119.000002269745,8|0|8,0:0|0:3|0:3,0:0:0:0:
258,189,278451,86,0,P|213:174|186:171,1,59.5000011348725,4|0,0:0|0:0,0:0:0:0:
112,176,278879,1,0,0:0:0:0:
33,219,279094,2,0,P|22:176|14:85,1,119.000002269745,8|0,0:1|0:0,0:0:0:0:
71,33,279737,2,0,P|125:37|209:51,2,119.000002269745,8|8|8,0:0|0:3|0:3,0:0:0:0:
177,175,281022,6,0,P|215:168|249:158,1,59.5000011348725,4|0,0:0|0:0,0:0:0:0:
311,115,281451,1,0,0:0:0:0:
361,188,281665,2,0,P|395:207|471:191,1,119.000002269745,8|0,0:1|0:0,0:0:0:0:
506,109,282308,2,0,P|496:69|472:-6,2,119.000002269745,8|8|8,0:0|0:3|0:3,0:0:0:0:
342,37,283594,86,0,P|342:66|339:96,1,59.5000011348725,4|0,0:0|0:0,0:0:0:0:
286,168,284022,2,0,P|222:191|146:112,1,178.500003404617,8|0,0:3|0:0,0:0:0:0:
81,62,284879,2,0,P|65:94|43:124,1,59.5000011348725,8|0,0:0|0:0,0:0:0:0:
12,193,285308,2,0,P|34:225|69:365,1,178.500003404617,8|0,0:3|0:0,0:0:0:0:
150,321,286165,1,4,0:0:0:0:
256,192,286272,12,8,287451,0:0:0:0:
137,119,288737,6,0,P|167:146|254:157,1,119.000002269745,2|0,0:0|0:0,0:0:0:0:
322,120,289379,2,0,P|350:97|441:111,1,119.000002269745,8|0,0:1|0:0,0:0:0:0:
481,173,290022,2,0,P|466:239|427:360,1,178.500003404617,8|8,0:0|0:3,0:0:0:0:
352,304,290879,2,0,P|311:322|280:330,1,59.5000011348725,8|8,0:3|0:3,0:0:0:0:
208,328,291308,1,4,0:0:0:0:
256,192,291415,12,0,295192,0:0:0:0:
308,40,296450,54,0,P|295:65|276:128,1,83.9999974365235,2|0,0:0|0:0,0:0:0:0:
226,184,297096,2,0,P|239:209|256:267,1,83.9999974365235
337,278,297742,2,0,P|326:309|316:323,2,41.9999987182618,2|0|0,0:0|0:0|0:0,0:0:0:0:
64,81,299035,6,0,P|81:99|139:134,1,83.9999974365235,2|0,0:0|0:0,0:0:0:0:
168,205,299681,2,0,P|210:188|258:182,1,83.9999974365235
313,128,300327,2,0,P|340:143|360:148,2,41.9999987182618,2|0|0,0:0|0:0|0:0,0:0:0:0:
65,356,301620,86,0,P|82:324|97:265,1,83.9999974365235,2|0,0:0|0:0,0:0:0:0:
164,229,302266,2,0,P|147:197|132:138,1,83.9999974365235
126,66,302913,2,0,P|139:43|156:23,1,41.9999987182618,2|0,0:0|0:0,0:0:0:0:
232,34,303344,2,0,P|260:53|328:53,1,83.9999974365235,2|2,0:0|0:0,0:0:0:0:
462,127,304205,2,0,P|452:178|440:215,2,83.9999974365235,2|2|0,0:0|0:0|0:0,0:0:0:0:
256,192,305498,12,0,310613,0:0:0:0:
