osu file format v14

[General]
AudioFilename: audio.mp3
AudioLeadIn: 0
PreviewTime: 134237
Countdown: 0
SampleSet: Soft
StackLeniency: 0.4
Mode: 0
LetterboxInBreaks: 0
WidescreenStoryboard: 1

[Editor]
Bookmarks: 5879,8451,13594,31594,36737,57308,62451,80451,85594,106165,111308,129308,134451,155022,175594,185879,198737,216737,221879,242451,247594,286165,291308
DistanceSpacing: 1.2
BeatDivisor: 4
GridSize: 32
TimelineZoom: 1

[Metadata]
Title:Eden
TitleUnicode:Eden
Artist:Kalafina
ArtistUnicode:Kalafina
Creator:Vell
Version:Hard
Source:
Tags:after yuki kajiura keiko kubota wakana outaki hikaru masai
BeatmapID:1017600
BeatmapSetID:476410

[Difficulty]
HPDrainRate:5
CircleSize:4
OverallDifficulty:6
ApproachRate:7
SliderMultiplier:1.6
SliderTickRate:2

[Events]
//Background and Video events
0,0,"bg.png",0,0
//Break Periods
2,191222,195265
//Storyboard Layer 0 (Background)
//Storyboard Layer 1 (Fail)
//Storyboard Layer 2 (Pass)
//Storyboard Layer 3 (Foreground)
//Storyboard Sound Samples

[TimingPoints]
737,428.571428571429,3,2,2,30,1,0
737,-166.666666666667,3,2,2,30,0,0
5879,-166.666666666667,3,2,2,35,0,0
6522,-133.333333333333,3,2,2,40,0,0
7165,-111.111111111111,3,2,2,45,0,0
8451,-100,3,2,1,50,0,0
13594,-125,3,2,1,50,0,0
14451,-125,3,2,2,50,0,0
14558,-125,3,2,1,50,0,0
19594,-125,3,2,2,50,0,0
19701,-125,3,2,1,50,0,0
24737,-125,3,2,2,50,0,0
24844,-125,3,2,1,50,0,0
27308,-125,3,2,2,50,0,0
27415,-125,3,2,1,50,0,0
29879,-125,3,2,2,50,0,0
29987,-125,3,2,1,50,0,0
36737,-125,3,2,1,60,0,0
44022,-125,3,2,3,60,0,0
44129,-125,3,2,1,60,0,0
62451,-125,3,2,1,50,0,0
65879,-125,3,2,2,50,0,0
65987,-125,3,2,1,50,0,0
68451,-125,3,2,2,50,0,0
68558,-125,3,2,1,50,0,0
73594,-125,3,2,2,50,0,0
73701,-125,3,2,1,50,0,0
76165,-125,3,2,2,50,0,0
76272,-125,3,2,1,50,0,0
78737,-125,3,2,2,50,0,0
78844,-125,3,2,1,50,0,0
84951,-125,3,2,4,50,0,0
85594,-125,3,2,1,60,0,0
109594,-125,3,2,3,60,0,0
109701,-125,3,2,1,60,0,0
110665,-125,3,2,4,60,0,0
111308,-100,3,2,1,70,0,1
112165,-100,3,2,2,70,0,1
112272,-100,3,2,1,70,0,1
114737,-100,3,2,2,70,0,1
114844,-100,3,2,1,70,0,1
117308,-100,3,2,2,70,0,1
117415,-100,3,2,1,70,0,1
120951,-100,3,2,4,70,0,1
121165,-100,3,2,4,70,0,0
121594,-100,3,2,1,70,0,1
122451,-100,3,2,2,70,0,1
122558,-100,3,2,1,70,0,1
126951,-100,3,2,2,70,0,1
127058,-100,3,2,1,70,0,1
128665,-100,3,2,4,70,0,1
129308,-100,3,2,1,70,0,1
129737,-100,3,2,2,70,0,1
129844,-100,3,2,1,70,0,1
131022,-100,3,2,2,70,0,1
131129,-100,3,2,1,70,0,1
132308,-100,3,2,2,70,0,1
132415,-100,3,2,1,70,0,1
133808,-100,3,2,4,70,0,1
134451,-125,3,2,1,50,0,0
134665,-125,3,2,2,50,0,0
134772,-125,3,2,1,50,0,0
142594,-125,3,2,3,50,0,0
142701,-125,3,2,1,50,0,0
150737,-125,3,2,3,50,0,0
150844,-125,3,2,1,50,0,0
155022,-125,3,2,1,60,0,0
173879,-125,3,2,3,60,0,0
173987,-125,3,2,1,60,0,0
176451,-125,3,2,3,60,0,0
176558,-125,3,2,1,60,0,0
179022,-125,3,2,3,60,0,0
179129,-125,3,2,1,60,0,0
181594,-125,3,2,3,60,0,0
181701,-125,3,2,1,60,0,0
191022,-200,3,2,1,50,0,0
196165,-166.666666666667,3,2,2,40,0,0
196808,-133.333333333333,3,2,2,45,0,0
197451,-111.111111111111,3,2,2,50,0,0
198737,-125,3,2,1,50,0,0
204737,-125,3,2,2,50,0,0
204844,-125,3,2,1,50,0,0
209879,-125,3,2,2,50,0,0
209987,-125,3,2,1,50,0,0
212451,-125,3,2,2,50,0,0
212558,-125,3,2,1,50,0,0
215022,-125,3,2,2,50,0,0
215129,-125,3,2,1,50,0,0
221237,-125,3,2,4,50,0,0
221879,-125,3,2,1,60,0,0
231094,-125,3,2,4,60,0,0
231522,-125,3,2,1,60,0,0
245879,-125,3,2,3,60,0,0
245987,-125,3,2,1,60,0,0
246522,-125,3,2,4,60,0,0
247594,-100,3,2,1,70,0,1
249522,-100,3,2,4,70,0,1
249629,-100,3,2,1,70,0,1
254665,-100,3,2,4,70,0,1
254879,-100,3,2,4,70,0,1
255094,-100,3,2,4,70,0,1
255201,-100,3,2,1,70,0,1
257237,-100,3,2,4,70,0,1
257451,-100,3,2,4,70,0,0
257879,-100,3,2,1,70,0,1
259808,-100,3,2,4,70,0,1
259915,-100,3,2,1,70,0,1
261951,-100,3,2,2,70,0,1
262058,-100,3,2,1,70,0,1
262379,-100,3,2,4,70,0,1
262701,-100,3,2,1,70,0,1
264094,-100,3,2,2,70,0,1
264201,-100,3,2,1,70,0,1
264522,-100,3,2,2,70,0,1
264629,-100,3,2,1,70,0,1
264951,-100,3,2,4,70,0,1
265058,-100,3,2,1,70,0,1
265808,-100,3,2,2,70,0,1
265915,-100,3,2,1,70,0,1
266237,-100,3,2,0,40,0,1
266451,-100,3,2,0,45,0,1
266665,-100,3,2,0,55,0,1
266879,-100,3,2,0,60,0,1
267094,-100,3,2,0,65,0,1
267308,-100,3,2,0,70,0,1
267522,-100,3,2,0,70,0,1
267951,-100,3,2,0,70,0,0
268165,-100,3,2,1,70,0,1
270094,-100,3,2,4,70,0,1
270201,-100,3,2,1,70,0,1
272665,-100,3,2,4,70,0,1
273201,-100,3,2,1,70,0,1
274165,-100,3,2,2,70,0,1
274272,-100,3,2,1,70,0,1
275237,-100,3,2,4,70,0,1
275344,-100,3,2,1,70,0,1
276737,-100,3,2,2,70,0,1
276844,-100,3,2,1,70,0,1
277808,-100,3,2,4,70,0,1
278022,-100,3,2,4,70,0,0
278451,-100,3,2,1,70,0,1
279308,-100,3,2,2,70,0,1
279415,-100,3,2,1,70,0,1
280379,-100,3,2,4,70,0,1
280487,-100,3,2,1,70,0,1
281879,-100,3,2,2,70,0,1
281987,-100,3,2,1,70,0,1
282951,-100,3,2,4,70,0,1
283487,-100,3,2,1,70,0,1
285522,-100,3,2,4,70,0,1
285629,-100,3,2,1,70,0,1
288094,-100,3,2,4,70,0,1
288201,-100,3,2,1,70,0,1
288951,-100,3,2,2,70,0,1
289058,-100,3,2,1,70,0,1
290237,-100,3,2,4,70,0,1
290665,-100,3,2,4,60,0,1
290879,-100,3,2,4,50,0,1
291094,-100,3,2,4,40,0,1
291308,431.654676258993,3,2,1,30,1,0
295192,-100,3,2,1,5,0,0
296450,430.879712746858,3,2,2,30,1,0
296450,-200,3,2,2,30,0,0
305498,426.287744227353,3,2,2,30,1,0
305498,-200,3,2,99,30,0,0
311039,-200,3,2,5,30,0,0
311252,-200,3,2,2,30,0,0
311466,-200,3,2,6,30,0,0
311892,-200,3,2,7,30,0,0
312105,-200,3,2,8,30,0,0
312318,-200,3,2,9,30,0,0
312531,-200,3,2,10,30,0,0
312744,-200,3,2,11,30,0,0
312958,-200,3,2,12,30,0,0
313171,433.212996389892,3,2,13,30,1,0
313171,-200,3,2,13,30,0,0
313279,-200,3,2,2,30,0,0
314254,480,3,2,13,30,1,0
314494,452.830188679245,3,2,16,30,1,0
314494,-200,3,2,16,30,0,0
314720,-200,3,2,17,30,0,0
314946,-200,3,2,18,30,0,0
315173,-200,3,2,19,30,0,0
315399,-200,3,2,20,30,0,0
315626,-200,3,2,21,30,0,0
315852,470.588235294118,3,2,22,30,1,0
315852,-200,3,2,22,30,0,0
316087,-200,3,2,23,30,0,0
316322,-200,3,2,24,30,0,0
316557,-200,3,2,25,30,0,0
316807,500,3,2,26,30,1,0
316807,-200,3,2,26,30,0,0
317057,-200,3,2,27,30,0,0
317307,558.139534883721,3,2,28,30,1,0
317307,-200,3,2,28,30,0,0
318144,-200,3,2,31,30,0,0
318423,-200,3,2,32,30,0,0
318702,-200,3,2,33,30,0,0
318981,566.037735849057,3,2,34,30,1,0
318981,-200,3,2,34,30,0,0
319264,600,3,2,35,30,1,0
319264,-200,3,2,35,30,0,0
319564,681.818181818182,3,2,36,30,1,0
319564,-200,3,2,36,30,0,0
319904,800,3,2,37,30,1,0
319904,-200,3,2,37,30,0,0
320304,967.741935483871,3,2,38,30,1,0
320304,-200,3,2,38,30,0,0
320787,1411.76470588235,3,2,39,30,1,0
320787,-200,3,2,39,30,0,0
321139,1016.94915254237,3,2,40,30,1,0
321139,-100,3,2,40,30,0,0
321223,-100,3,2,41,30,0,0
321308,-100,3,2,42,30,0,0
321393,1548.38709677419,3,2,43,30,1,0
321393,-200,3,2,43,30,0,0
321780,952.380952380952,3,2,44,30,1,0
321780,-200,3,2,44,30,0,0
322018,902.255639097744,3,2,45,30,1,0
322018,-200,3,2,45,30,0,0
322243,685.714285714286,3,2,46,30,1,0
322243,-200,3,2,46,30,0,0
322414,810.810810810811,3,2,47,30,1,0
322414,-200,3,2,47,30,0,0
322616,821.917808219178,3,2,48,30,1,0
322616,-200,3,2,48,30,0,0
322821,863.309352517986,3,2,49,30,1,0
322821,-200,3,2,49,30,0,0
323036,1008.40336134454,3,2,50,30,1,0
323036,-200,3,2,50,30,0,0
323288,991.735537190083,3,2,51,30,1,0
323288,-200,3,2,51,30,0,0
323537,1200,3,2,52,30,1,0
323537,-200,3,2,52,30,0,0
323837,1025.64102564103,3,2,53,30,1,0
323837,-100,3,2,53,30,0,0
324093,1379.31034482759,3,2,54,30,1,0
324093,-200,3,2,54,30,0,0
324437,1558.44155844156,3,2,55,30,1,0
324437,-200,3,2,55,30,0,0
324826,2424.24242424242,3,2,56,30,1,0
324826,-200,3,2,56,30,0,0
325432,2424.24242424242,3,2,57,30,1,0

[Colours]
Combo1 : 81,131,215
Combo2 : 232,98,179
Combo3 : 140,84,245
Combo4 : 255,81,85
Combo5 : 179,164,177
Combo6 : 149,177,179
Combo7 : 80,159,218

[HitObjects]
347,120,737,54,0,P|374:111|403:109,2,47.9999985351563,2|0|0,0:0|0:0|0:0,0:0:0:0:
283,171,1379,2,0,P|238:173|196:128,1,95.9999970703126,2|0,0:0|0:0,0:0:0:0:
131,97,2022,2,0,P|144:140|136:207,2,95.9999970703126,2|0|2,0:0|0:0|0:0,0:0:0:0:
105,263,3308,6,0,P|138:281|156:284,2,47.9999985351563,2|0|0,0:0|0:0|0:0,0:0:0:0:
141,190,3951,2,0,P|179:209|242:213,1,95.9999970703126,2|0,0:0|0:0,0:0:0:0:
304,177,4594,2,0,P|334:156|397:166,2,95.9999970703126,2|0|2,0:0|0:0|0:0,0:0:0:0:
313,336,5879,86,0,P|305:289|260:252,1,95.9999970703126,2|0,0:0|0:0,0:0:0:0:
181,266,6522,2,0,P|151:306|169:380,1,120.000004577637,2|0,0:0|0:0,0:0:0:0:
235,327,7165,2,0,P|254:284|252:186,1,143.999995605469,2|0,0:0|0:0,0:0:0:0:
200,129,7808,1,2,0:0:0:0:
116,150,8022,2,0,P|93:178|85:224,1,71.9999978027344,2|2,0:0|0:0,0:0:0:0:
284,112,8451,1,4,0:1:0:0:
256,192,8558,12,0,12308,0:0:0:0:
399,273,13594,54,0,P|339:249|276:252,1,128,8|0,0:3|0:0,0:0:0:0:
215,308,14237,2,0,P|163:341|91:308,1,128,2|2,0:0|0:0,0:0:0:0:
42,263,14879,2,0,P|34:229|33:189,1,64,8|2,0:3|0:0,0:0:0:0:
84,143,15308,2,0,P|112:108|128:78,1,64,0|2,0:0|0:0,0:0:0:0:
180,41,15737,2,0,P|216:64|254:79,1,64,0|2,0:0|0:0,0:0:0:0:
301,110,16165,6,0,P|343:103|379:32,1,128,8|0,0:3|0:0,0:0:0:0:
382,109,16808,2,0,P|390:150|403:186,1,64,2|0,0:0|0:0,0:0:0:0:
427,241,17237,1,2,0:0:0:0:
486,289,17451,2,0,P|507:253|528:230,1,64,8|2,0:3|0:0,0:0:0:0:
411,318,17879,2,0,P|371:301|279:283,1,128
211,287,18522,1,2,0:0:0:0:
134,297,18737,6,0,P|96:307|36:238,1,128,8|0,0:3|0:0,0:0:0:0:
70,182,19379,2,0,P|108:172|168:241,1,128,2|2,0:0|0:0,0:0:0:0:
211,287,20022,2,0,P|246:274|292:265,1,64,8|2,0:3|0:0,0:0:0:0:
335,311,20451,2,0,P|371:321|406:327,1,64,0|2,0:0|0:0,0:0:0:0:
473,326,20879,1,0,0:0:0:0:
404,291,21094,1,2,0:0:0:0:
467,248,21308,70,0,P|487:221|487:124,2,128,8|0|0,0:3|0:0|0:0,0:0:0:0:
404,291,22379,1,2,0:0:0:0:
349,236,22594,2,0,B|329:252|324:276|324:276|290:247|230:266,1,128,8|0,0:3|0:0,0:0:0:0:
177,290,23237,1,2,0:0:0:0:
103,267,23451,2,0,P|80:289|41:317,1,64,0|2,0:0|0:0,0:0:0:0:
159,212,23879,6,0,P|136:181|134:88,1,128,8|0,0:3|0:0,0:0:0:0:
174,30,24522,2,0,P|217:33|315:43,1,128,2|2,0:0|0:0,0:0:0:0:
358,93,25165,2,0,P|377:61|377:28,1,64,8|2,0:3|0:0,0:0:0:0:
284,116,25594,2,0,L|292:181,1,64,0|2,0:0|0:0,0:0:0:0:
364,202,26022,2,0,L|356:267,1,64,0|2,0:0|0:0,0:0:0:0:
289,303,26451,6,0,P|324:307|429:323,1,128,8|0,0:3|0:0,0:0:0:0:
356,265,27094,2,0,P|321:269|216:285,1,128,2|2,0:0|0:0,0:0:0:0:
167,329,27737,1,8,0:3:0:0:
95,302,27951,1,2,0:0:0:0:
27,337,28165,2,0,P|18:302|29:264,1,64,0|2,0:0|0:0,0:0:0:0:
83,226,28594,2,0,P|92:191|81:153,1,64,0|2,0:0|0:0,0:0:0:0:
47,98,29022,70,0,P|74:123|175:114,1,128,8|0,0:3|0:0,0:0:0:0:
224,79,29665,2,0,P|262:70|362:62,1,128,2|2,0:0|0:0,0:0:0:0:
417,99,30308,2,0,P|363:136|352:138,1,64,8|2,0:3|0:0,0:0:0:0:
293,162,30737,2,0,P|344:176|429:224,1,128
473,267,31379,1,2,0:0:0:0:
473,267,31594,1,8,0:3:0:0:
256,192,31701,12,0,32879,0:0:0:0:
256,192,32987,12,4,34165,0:0:0:0:
168,226,35451,6,0,P|187:188|203:168,1,64,8|2,0:3|0:0,0:0:0:0:
276,164,35879,2,0,P|298:191|327:215,1,64,0|2,0:0|0:0,0:0:0:0:
388,246,36308,6,0,P|431:240|471:171,1,128,8|12,0:0|0:0,0:0:0:0:
471,171,37165,70,0,P|477:225|486:261,1,64,8|2,0:3|0:0,0:0:0:0:
442,301,37594,2,0,P|431:345|415:380,1,64,8|2,0:3|0:0,0:0:0:0:
348,374,38022,2,0,P|308:361|204:352,1,128,10|8,0:3|0:3,0:0:0:0:
147,368,38665,1,2,0:0:0:0:
108,301,38879,1,8,0:3:0:0:
159,243,39094,1,2,0:0:0:0:
228,276,39308,6,0,P|258:257|285:225,1,64,10|2,0:3|0:0,0:0:0:0:
354,242,39737,2,0,P|323:220|251:148,1,128,8|8,0:3|0:3,0:0:0:0:
213,95,40379,1,2,0:0:0:0:
179,164,40594,2,0,P|133:171|81:95,2,128,10|8|8,0:3|0:3|0:3,0:0:0:0:
213,95,41665,1,2,0:0:0:0:
258,157,41879,6,0,P|287:141|329:129,1,64,10|2,0:3|0:0,0:0:0:0:
388,159,42308,2,0,P|420:171|468:179,1,64,8|2,0:3|0:0,0:0:0:0:
503,123,42737,2,0,P|489:178|473:268,1,128,8|10,0:3|0:3,0:0:0:0:
470,324,43379,1,2,0:0:0:0:
398,353,43594,2,0,P|335:371|276:271,1,192,8|2,0:3|0:0,0:0:0:0:
349,294,44451,70,0,P|367:258|394:224,1,64,10|2,0:3|0:0,0:0:0:0:
311,205,44879,2,0,P|293:169|266:135,1,64,8|2,0:3|0:0,0:0:0:0:
221,98,45308,1,8,0:3:0:0:
145,110,45522,1,2,0:0:0:0:
99,171,45737,2,0,P|104:134|115:35,2,128,10|8|8,0:3|0:3|0:3,0:0:0:0:
81,245,46808,1,2,0:0:0:0:
28,301,47022,6,0,P|84:294|179:286,1,128,14|8,0:3|0:3,0:0:0:0:
223,251,47665,1,2,0:0:0:0:
287,292,47879,2,0,P|298:249|293:220,1,64,8|2,0:3|0:0,0:0:0:0:
243,173,48308,2,0,P|295:186|378:198,1,128,10|8,0:3|0:3,0:0:0:0:
444,210,48951,1,2,0:0:0:0:
507,252,49165,2,0,P|461:259|436:270,1,64,8|2,0:3|0:0,0:0:0:0:
386,316,49594,6,0,P|353:343|263:320,1,128,10|8,0:3|0:3,0:0:0:0:
223,272,50237,1,2,0:0:0:0:
149,250,50451,2,0,P|131:276|98:310,1,64,8|2,0:3|0:0,0:0:0:0:
36,274,50879,70,0,P|24:236|27:141,2,128,10|8|8,0:3|0:3|0:3,0:0:0:0:
55,348,51951,1,2,0:0:0:0:
55,348,52165,2,0,P|99:338|128:334,1,64,10|2,0:3|0:0,0:0:0:0:
190,361,52594,2,0,P|236:356|276:284,1,128,8|8,0:3|0:3,0:0:0:0:
234,226,53237,1,2,0:0:0:0:
276,290,53451,6,0,P|305:304|342:314,1,64,10|2,0:3|0:0,0:0:0:0:
412,309,53879,2,0,P|422:275|438:242,1,64,8|2,0:3|0:0,0:0:0:0:
484,190,54308,2,0,P|468:145|452:123,1,64,8|2,0:3|0:0,0:0:0:0:
411,70,54737,6,0,P|370:84|348:85,1,64,10|2,0:3|0:0,0:0:0:0:
282,134,55165,2,0,P|260:107|173:107,1,128,8|8,0:3|0:3,0:3:0:0:
103,61,55808,1,2,0:0:0:0:
22,82,56022,2,0,P|34:120|40:152,1,64,10|2,0:3|0:0,0:0:0:0:
118,167,56451,2,0,P|99:218|86:314,1,128,8|8,0:3|0:3,0:0:0:0:
94,373,57094,1,2,0:0:0:0:
94,373,57308,1,14,0:3:0:0:
256,192,57415,12,10,58594,0:3:0:0:
61,172,59879,70,0,P|107:205|183:184,1,128,10|8,0:3|0:3,0:0:0:0:
228,138,60522,2,0,P|262:124|307:127,1,64,2|8,0:0|0:3,0:0:0:0:
364,138,60951,1,2,0:0:0:0:
335,67,61165,2,0,P|320:105|321:212,1,128,10|8,0:3|0:3,0:0:0:0:
345,263,61808,2,0,P|356:277|368:290,2,32,2|2|2,0:0|0:0|0:0,0:0:0:0:
335,67,62451,6,0,P|358:106|442:106,1,128,4|0,0:0|0:0,0:0:0:0:
379,164,63094,2,0,P|383:201|394:253,1,64,2|0,0:0|0:0,0:0:0:0:
409,300,63522,1,2,0:0:0:0:
376,369,63737,2,0,P|348:350|321:334,1,64,8|2,0:3|0:0,0:0:0:0:
259,289,64165,2,0,P|237:317|144:310,1,128
89,270,64808,1,2,0:0:0:0:
25,312,65022,6,0,P|12:273|17:241,1,64,8|2,0:3|0:0,0:0:0:0:
70,198,65451,1,0,0:0:0:0:
135,157,65665,2,0,P|73:142|6:116,1,128,2|2,0:0|0:0,0:0:0:0:
87,98,66308,2,0,P|125:96|164:89,1,64,8|2,0:3|0:0,0:0:0:0:
217,53,66737,2,0,P|249:44|326:110,1,128
336,168,67379,1,2,0:0:0:0:
282,223,67594,70,0,P|326:212|413:198,1,128,8|0,0:3|0:0,0:0:0:0:
336,168,68237,2,0,P|332:214|390:282,1,128,2|2,0:0|0:0,0:0:0:0:
449,307,68879,1,8,0:3:0:0:
371,308,69094,1,2,0:0:0:0:
310,355,69308,2,0,P|268:370|225:370,1,64,0|2,0:0|0:0,0:0:0:0:
179,337,69737,2,0,P|140:321|101:310,1,64,0|2,0:0|0:0,0:0:0:0:
53,353,70165,6,0,P|76:308|109:230,1,128,8|0,0:3|0:0,0:0:0:0:
111,159,70808,1,2,0:0:0:0:
162,102,71022,2,0,P|117:78|94:51,1,64,0|2,0:0|0:0,0:0:0:0:
171,25,71451,2,0,P|213:44|298:44,1,128,8|0,0:3|0:0,0:0:0:0:
352,95,72094,2,0,P|385:77|421:63,1,64,2|0,0:0|0:0,0:0:0:0:
483,45,72522,1,2,0:0:0:0:
483,45,72737,6,0,P|461:85|438:176,1,128,8|0,0:3|0:0,0:0:0:0:
497,213,73379,2,0,P|453:240|378:208,1,128,2|2,0:0|0:0,0:0:0:0:
316,252,74022,2,0,P|343:295|357:333,1,64,8|2,0:3|0:0,0:0:0:0:
290,357,74451,2,0,P|254:366|142:373,1,128
94,339,75094,1,2,0:0:0:0:
23,380,75308,70,0,P|13:340|61:267,1,128,8|0,0:3|0:0,0:0:0:0:
126,228,75951,2,0,P|136:268|88:341,1,128,2|2,0:0|0:0,0:0:0:0:
56,270,76594,2,0,P|48:237|55:194,1,64,8|2,0:3|0:0,0:0:0:0:
110,149,77022,2,0,P|153:138|184:135,1,64,0|2,0:0|0:0,0:0:0:0:
255,139,77451,2,0,P|297:149|331:163,1,64,0|2,0:0|0:0,0:0:0:0:
343,82,77879,6,0,P|354:135|386:228,1,128,8|0,0:3|0:0,0:0:0:0:
416,270,78522,2,0,P|383:240|288:271,1,128,2|2,0:0|0:0,0:0:0:0:
256,310,79165,2,0,P|235:334|199:352,1,64,8|2,0:3|0:0,0:0:0:0:
130,357,79594,2,0,P|91:340|44:257,1,128
40,193,80237,1,2,0:0:0:0:
40,193,80451,1,8,0:3:0:0:
256,192,80558,12,0,81737,0:0:0:0:
256,192,81844,12,4,83022,0:0:0:0:
357,178,84308,6,0,P|298:158|245:191,1,128,8|2,0:1|0:0,0:1:0:0:
209,260,84951,1,4,0:1:0:0:
169,194,85165,1,4,0:1:0:0:
129,259,85379,1,4,0:1:0:0:
54,277,85594,70,0,P|119:305|170:335,1,128,14|8,0:3|0:3,0:0:0:0:
243,319,86237,1,2,0:0:0:0:
304,364,86451,2,0,P|333:335|361:320,1,64,8|2,0:3|0:0,0:0:0:0:
422,291,86879,2,0,P|444:287|495:291,1,64,10|2,0:1|0:0,0:0:0:0:
410,307,87308,2,0,P|402:267|405:166,1,128,8|8,0:3|0:3,0:0:0:0:
428,107,87951,1,2,0:0:0:0:
478,164,88165,6,0,P|447:180|360:139,1,128,10|8,0:3|0:3,0:0:0:0:
303,103,88808,2,0,P|256:125|224:133,1,64,2|8,0:0|0:3,0:0:0:0:
168,141,89237,1,2,0:0:0:0:
111,88,89451,2,0,P|78:80|3:139,2,128,10|8|8,0:1|0:3|0:3,0:0:0:0:
168,141,90522,1,2,0:0:0:0:
174,217,90737,6,0,P|150:241|123:276,1,64,10|2,0:3|0:0,0:0:0:0:
69,310,91165,2,0,P|55:281|55:250,1,64,8|2,0:3|0:0,0:0:0:0:
193,305,91594,2,0,P|171:328|142:339,1,64,8|2,0:3|0:0,0:0:0:0:
131,264,92022,2,0,P|166:263|269:243,2,128,10|8|8,0:3|0:3|0:3,0:0:0:0:
135,268,93094,1,2,0:0:0:0:
139,272,93308,70,0,P|178:283|226:303,1,64,10|2,0:3|0:0,0:0:0:0:
267,328,93737,2,0,P|306:342|379:289,1,128,8|8,0:3|0:3,0:0:0:0:
307,263,94379,1,2,0:0:0:0:
240,224,94594,2,0,P|287:184|348:195,1,128,10|8,0:1|0:3,0:0:0:0:
414,235,95237,1,2,0:0:0:0:
484,204,95451,2,0,P|492:166|495:124,1,64,8|2,0:3|0:0,0:0:0:0:
419,156,95879,6,0,P|411:108|382:26,1,128,12|8,0:0|0:3,0:0:0:0:
325,81,96522,1,2,0:0:0:0:
278,19,96737,2,0,P|261:42|246:75,1,64,8|2,0:3|0:0,0:0:0:0:
186,121,97165,2,0,P|164:77|143:53,1,64,10|2,0:1|0:0,0:0:0:0:
46,108,97594,2,0,P|78:113|108:126,1,64,8|2,0:3|0:0,0:0:0:0:
55,184,98022,2,0,P|11:206|-12:226,1,64,8|2,0:3|0:0,0:0:0:0:
61,261,98451,6,0,P|105:277|185:320,1,128,10|8,0:3|0:3,0:0:0:0:
237,362,99094,1,2,0:0:0:0:
309,337,99308,2,0,P|336:319|368:289,1,64,8|2,0:3|0:0,0:0:0:0:
433,277,99737,2,0,P|422:229|421:196,1,64,10|2,0:1|0:0,0:0:0:0:
436,139,100165,2,0,P|413:99|335:88,1,128,8|8,0:3|0:3,0:0:0:0:
268,123,100808,1,2,0:0:0:0:
212,69,101022,70,0,P|226:139|235:207,2,128,10|8|8,0:3|0:3|0:3,0:0:0:0:
168,5,102094,1,2,0:0:0:0:
138,75,102308,2,0,P|92:86|32:28,1,128,10|8,0:3|0:3,0:0:0:0:
66,107,102951,1,2,0:0:0:0:
110,169,103165,2,0,P|100:202|81:243,1,64,8|2,0:3|0:0,0:0:0:0:
16,257,103594,6,0,P|68:267|158:289,2,128,10|8|8,0:3|0:3|0:3,0:0:0:0:
88,229,104665,1,2,0:0:0:0:
140,284,104879,2,0,P|168:307|186:334,1,64,10|2,0:3|0:0,0:0:0:0:
255,358,105308,2,0,P|294:359|346:288,1,128,8|8,0:3|0:3,0:0:0:0:
332,218,105951,1,2,0:0:0:0:
332,218,106165,1,4,0:0:0:0:
256,192,106272,12,8,107451,0:1:0:0:
429,106,107879,5,8,0:3:0:0:
395,175,108094,1,8,0:1:0:0:
322,198,108308,1,8,0:3:0:0:
255,159,108522,1,2,0:0:0:0:
197,107,108737,70,0,P|235:119|341:116,1,128,10|8,0:1|0:3,0:0:0:0:
255,159,109379,2,0,P|220:189|224:268,1,128,4|2,0:0|0:0,0:0:0:0:
271,324,110022,2,0,P|299:280|297:257,1,64,10|4,0:3|0:0,0:0:0:0:
222,265,110451,1,0,0:0:0:0:
198,337,110665,1,4,0:1:0:0:
125,360,110879,1,4,0:1:0:0:
64,311,111094,1,4,0:1:0:0:
89,235,111308,70,0,P|102:202|107:158,1,80,4|2,0:1|0:0,0:0:0:0:
97,78,111737,1,0,0:0:0:0:
39,133,111951,2,0,P|88:115|199:100,1,160,8|0,0:1|0:0,0:0:0:0:
269,129,112594,2,0,P|243:159|220:206,1,80,10|0,0:3|0:0,0:0:0:0:
194,99,113022,2,0,P|181:61|151:18,1,80,0|2,0:0|0:0,0:0:0:0:
257,46,113451,2,0,P|295:53|348:49,1,80,0|2,0:0|0:0,0:0:0:0:
413,31,113879,5,10,0:3:0:0:
344,72,114094,1,0,0:0:0:0:
354,151,114308,1,8,0:3:0:0:
423,111,114522,2,0,P|450:158|492:268,1,160,8|0,0:1|0:0,0:0:0:0:
472,334,115165,2,0,P|427:351|389:356,1,80,10|2,0:3|0:0,0:0:0:0:
331,307,115594,2,0,P|333:265|339:209,2,80,0|8|8,0:0|0:1|0:1,0:0:0:0:
276,365,116237,1,0,0:0:0:0:
204,328,116451,86,0,P|167:332|124:347,1,80,12|0,0:0|0:0,0:0:0:0:
52,375,116879,1,8,0:3:0:0:
66,296,117094,2,0,P|94:264|76:140,1,160,8|0,0:1|0:0,0:0:0:0:
98,73,117737,2,0,P|151:97|198:104,1,80,10|0,0:3|0:0,0:0:0:0:
249,82,118165,1,0,0:0:0:0:
315,125,118379,1,8,0:1:0:0:
389,94,118594,2,0,P|413:142|439:177,1,80,8|2,0:3|0:0,0:0:0:0:
466,233,119022,6,0,P|507:192|535:170,2,80,8|0|8,0:3|0:0|0:3,0:0:0:0:
432,305,119665,2,0,P|397:349|294:324,1,160,8|0,0:1|0:0,0:0:0:0:
247,277,120308,1,10,0:3:0:0:
168,260,120522,2,0,P|126:289|83:300,1,80,4|0,0:0|0:0,0:0:0:0:
19,308,120951,1,4,0:1:0:0:
90,273,121165,1,4,0:1:0:0:
119,198,121379,1,4,0:1:0:0:
97,120,121594,86,0,P|82:79|75:35,1,80,4|0,0:1|0:0,0:0:0:0:
154,54,122022,1,0,0:0:0:0:
216,4,122237,2,0,P|275:27|389:47,1,160,8|0,0:1|0:0,0:0:0:0:
420,107,122879,2,0,P|374:124|333:114,1,80,10|2,0:3|0:0,0:0:0:0:
452,237,123308,2,0,P|456:198|479:166,1,80,0|8,0:0|0:1,0:0:0:0:
327,197,123737,2,0,P|358:220|375:256,1,80,8|2,0:3|0:0,0:0:0:0:
296,269,124165,5,10,0:3:0:0:
217,254,124379,1,0,0:0:0:0:
152,301,124594,1,0,0:0:0:0:
92,354,124808,2,0,P|102:312|123:179,1,160,8|0,0:1|0:0,0:0:0:0:
76,130,125451,2,0,P|46:159|10:178,2,80,10|0|8,0:3|0:0|0:3,0:0:0:0:
114,59,126094,1,8,0:1:0:0:
190,35,126308,1,8,0:1:0:0:
261,70,126522,1,0,0:0:0:0:
289,144,126737,86,0,P|329:109|311:9,1,160,10|0,0:3|0:0,0:0:0:0:
374,64,127379,2,0,P|387:107|399:161,1,80,8|8,0:1|0:3,0:0:0:0:
408,220,127808,1,0,0:0:0:0:
468,167,128022,2,0,P|449:222|428:323,1,160,4|0,0:3|0:0,0:0:0:0:
488,269,128665,1,4,0:1:0:0:
411,246,128879,1,4,0:1:0:0:
354,303,129094,1,4,0:1:0:0:
280,272,129308,6,0,P|246:250|162:379,1,240,6|8,0:3|0:1,0:0:0:0:
222,326,130165,2,0,P|179:301|144:294,1,80,8|2,0:3|0:0,0:0:0:0:
69,288,130594,86,0,B|34:290|13:311|13:311|70:231|28:136,1,240,10|10,0:3|0:1,0:0:0:0:
0,67,131451,1,8,0:3:0:0:
48,130,131665,1,2,0:0:0:0:
127,131,131879,6,0,B|174:115|194:89|194:89|213:116|261:128|261:128|290:96|334:107,1,240,8|8,0:1|0:1,0:0:0:0:
403,65,132737,2,0,P|425:102|456:132,1,80,8|2,0:3|0:0,0:0:0:0:
488,198,133165,2,0,P|461:234|442:281,1,80,10|2,0:3|0:0,0:0:0:0:
420,341,133594,1,0,0:0:0:0:
366,281,133808,1,4,0:1:0:0:
287,269,134022,1,4,0:1:0:0:
222,317,134237,1,4,0:1:0:0:
294,351,134451,6,0,P|224:361|145:383,2,128,4|0|0,0:1|0:0|0:0,0:0:0:0:
357,307,135522,1,2,0:0:0:0:
431,327,135737,2,0,P|444:283|460:253,1,64,8|2,0:3|0:0,0:0:0:0:
403,207,136165,2,0,P|390:163|371:130,1,64,8|2,0:3|0:0,0:0:0:0:
403,72,136594,1,8,0:3:0:0:
365,138,136808,1,2,0:0:0:0:
292,162,137022,6,0,P|241:151|217:80,1,128,8|8,0:3|0:3,0:0:0:0:
273,34,137665,1,2,0:0:0:0:
215,85,137879,2,0,P|175:81|125:77,1,64,8|2,0:3|0:0,0:0:0:0:
89,125,138308,2,0,P|57:121|25:118,1,64,8|2,0:3|0:0,0:0:0:0:
46,193,138737,2,0,P|77:195|109:199,1,64,8|2,0:3|0:0,0:0:0:0:
147,265,139165,2,0,P|178:267|210:271,1,64,8|2,0:3|0:0,0:0:0:0:
272,321,139594,6,0,P|301:357|389:345,1,128,8|8,0:3|0:3,0:0:0:0:
438,308,140237,1,2,0:0:0:0:
423,232,140451,2,0,P|434:198|460:155,1,64,8|2,0:3|0:0,0:0:0:0:
507,126,140879,2,0,P|443:129|366:131,2,128,8|8|8,0:3|0:3|0:3,0:0:0:0:
441,84,141951,1,2,0:0:0:0:
379,130,142165,70,0,P|316:117|188:84,1,192,8|2,0:3|0:0,0:0:0:0:
124,48,143022,2,0,P|149:20|182:11,1,64,8|2,0:3|0:0,0:0:0:0:
192,85,143451,2,0,P|144:123|78:111,1,128,8|8,0:3|0:3,0:0:0:0:
23,62,144094,1,2,0:0:0:0:
58,129,144308,2,0,P|82:172|102:195,1,64,8|2,0:3|0:0,0:0:0:0:
163,211,144737,6,0,P|156:254|145:352,2,128,8|8|8,0:3|0:3|0:3,0:0:0:0:
195,280,145808,1,2,0:0:0:0:
265,309,146022,2,0,P|306:301|331:291,1,64,8|2,0:3|0:0,0:0:0:0:
403,298,146451,2,0,P|353:288|316:274,1,64,8|2,0:3|0:0,0:0:0:0:
264,292,146879,2,0,P|305:284|330:274,1,64,8|2,0:3|0:0,0:0:0:0:
376,217,147308,6,0,P|397:190|499:204,2,128,8|8|8,0:3|0:3|0:3,0:0:0:0:
444,252,148379,1,2,0:0:0:0:
444,252,148594,2,0,P|451:209|461:177,1,64,8|2,0:3|0:0,0:0:0:0:
397,140,149022,2,0,P|390:97|380:65,1,64,8|2,0:3|0:0,0:0:0:0:
350,8,149451,1,8,0:3:0:0:
310,73,149665,1,2,0:0:0:0:
233,82,149879,70,0,P|198:72|84:48,1,128,8|8,0:3|0:3,0:0:0:0:
40,88,150522,2,0,P|21:133|75:208,1,128,2|2,0:0|0:0,0:0:0:0:
120,239,151165,2,0,P|94:269|73:302,1,64,8|2,0:3|0:0,0:0:0:0:
154,310,151594,2,0,P|156:349|165:387,1,64,8|2,0:3|0:0,0:0:0:0:
227,335,152022,1,8,0:3:0:0:
291,292,152237,1,2,0:0:0:0:
357,327,152451,6,0,P|404:333|454:268,1,128,8|8,0:3|0:3,0:0:0:0:
432,202,153094,1,2,0:0:0:0:
383,142,153308,2,0,P|412:104|420:70,1,64,8|2,0:3|0:0,0:0:0:0:
478,42,153737,2,0,P|430:47|337:53,1,128,8|8,0:3|0:3,0:0:0:0:
292,103,154379,1,2,0:0:0:0:
221,71,154594,1,8,0:0:0:0:
151,38,154808,1,8,0:0:0:0:
74,43,155022,6,0,P|82:87|93:196,1,128,4|10,0:0|0:3,0:0:0:0:
73,244,155665,1,2,0:0:0:0:
101,315,155879,2,0,P|141:297|187:283,1,64,8|2,0:3|0:0,0:0:0:0:
236,285,156308,2,0,P|286:292|378:318,1,128,8|10,0:3|0:3,0:0:0:0:
429,347,156951,1,2,0:0:0:0:
369,299,157165,1,8,0:3:0:0:
351,224,157379,1,2,0:0:0:0:
383,154,157594,70,0,P|402:119|418:84,1,64,8|2,0:3|0:0,0:0:0:0:
393,22,158022,2,0,P|419:19|456:32,1,64,10|2,0:3|0:0,0:0:0:0:
412,97,158451,2,0,P|367:76|276:58,1,128,8|8,0:3|0:3,0:0:0:0:
214,69,159094,1,2,0:0:0:0:
137,58,159308,2,0,P|87:32|78:24,1,64,10|2,0:3|0:0,0:0:0:0:
23,78,159737,2,0,P|40:119|69:207,1,128,8|8,0:3|0:3,0:0:0:0:
86,272,160379,5,2,0:0:0:0:
47,338,160594,2,0,P|23:313|-7:285,1,64,10|2,0:3|0:0,0:0:0:0:
122,342,161022,2,0,P|171:329|269:327,1,128,8|8,0:3|0:3,0:0:0:0:
324,331,161665,1,2,0:0:0:0:
398,311,161879,2,0,P|431:287|468:271,1,64,10|2,0:3|0:0,0:0:0:0:
399,220,162308,2,0,P|386:168|382:127,1,64,8|2,0:3|0:0,0:0:0:0:
394,81,162737,5,8,0:3:0:0:
343,23,162951,1,2,0:0:0:0:
269,44,163165,2,0,P|238:53|186:63,1,64,10|2,0:3|0:0,0:0:0:0:
177,142,163594,2,0,P|144:153|104:168,1,64,8|2,0:3|0:0,0:0:0:0:
132,78,164022,2,0,P|167:91|266:134,1,128,8|10,0:3|0:3,0:0:0:0:
303,182,164665,1,2,0:0:0:0:
379,173,164879,2,0,P|411:149|451:136,1,64,8|2,0:3|0:0,0:0:0:0:
490,88,165308,70,0,P|481:129|466:238,1,128,8|10,0:3|0:3,0:0:0:0:
470,291,165951,1,2,0:0:0:0:
414,343,166165,2,0,P|395:306|396:271,1,64,8|2,0:3|0:0,0:0:0:0:
487,369,166594,2,0,P|395:355|347:357,1,128,8|10,0:3|0:3,0:0:0:0:
298,309,167237,1,2,0:0:0:0:
224,288,167451,1,8,0:3:0:0:
156,324,167665,1,2,0:0:0:0:
94,369,167879,6,0,P|86:337|80:298,1,64,8|2,0:3|0:0,0:0:0:0:
31,247,168308,2,0,P|40:221|45:176,1,64,10|2,0:3|0:0,0:0:0:0:
106,139,168737,2,0,P|123:105|142:81,1,64,8|2,0:3|0:0,0:0:0:0:
211,60,169165,2,0,P|166:50|77:24,1,128,8|10,0:3|0:3,0:0:0:0:
138,84,169808,2,0,P|164:122|180:152,1,64,2|8,0:0|0:3,0:0:0:0:
206,208,170237,1,2,0:0:0:0:
279,229,170451,6,0,P|333:219|362:150,1,128,8|10,0:3|0:3,0:0:0:0:
326,89,171094,1,2,0:0:0:0:
379,144,171308,1,8,0:3:0:0:
438,191,171522,1,2,0:0:0:0:
496,240,171737,2,0,P|513:207|512:176,1,64,8|2,0:3|0:0,0:0:0:0:
438,191,172165,2,0,P|446:246|455:345,1,128,10|8,0:3|0:3,0:0:0:0:
403,376,172808,1,2,0:0:0:0:
403,376,173022,70,0,P|350:353|262:319,1,128,8|10,0:3|0:3,0:0:0:0:
235,267,173665,2,0,P|176:264|128:333,1,128,8|2,0:1|0:0,0:0:0:0:
60,342,174308,2,0,P|46:297|24:263,1,64,10|2,0:3|0:0,0:0:0:0:
93,229,174737,2,0,P|107:184|129:150,1,64,10|8,0:3|0:1,0:0:0:0:
165,111,175165,1,8,0:1:0:0:
240,99,175379,1,8,0:1:0:0:
296,151,175594,6,0,P|336:164|443:192,1,128,4|10,0:1|0:3,0:0:0:0:
479,139,176237,2,0,P|465:180|431:274,1,128,2|2,0:0|0:0,0:0:0:0:
454,334,176879,2,0,P|487:316|518:308,2,64,8|2|10,0:1|0:0|0:3,0:0:0:0:
379,313,177522,1,2,0:0:0:0:
323,366,177737,1,8,0:3:0:0:
246,361,177951,1,2,0:0:0:0:
204,296,178165,6,0,P|168:310|139:319,1,64,8|2,0:3|0:0,0:0:0:0:
83,366,178594,1,10,0:3:0:0:
21,319,178808,2,0,P|27:276|47:189,1,128,2|2,0:0|0:0,0:0:0:0:
102,141,179451,2,0,P|91:95|80:63,1,64,8|2,0:1|0:0,0:0:0:0:
161,65,179879,2,0,P|186:91|284:84,1,128,10|8,0:3|0:3,0:0:0:0:
335,47,180522,1,2,0:0:0:0:
407,73,180737,70,0,P|449:147|480:208,1,128,8|10,0:3|0:3,0:0:0:0:
398,154,181379,2,0,P|393:211|390:285,1,128,0|2,0:0|0:0,0:0:0:0:
346,218,182022,2,0,P|315:252|284:280,1,64,8|2,0:1|0:0,0:0:0:0:
234,301,182451,2,0,P|194:267|115:300,1,128,10|8,0:3|0:3,0:0:0:0:
49,294,183094,1,2,0:0:0:0:
81,221,183308,6,0,P|104:191|88:84,1,128,8|10,0:3|0:3,0:0:0:0:
61,38,183951,2,0,P|32:68|28:108,2,64,2|8|2,0:0|0:3|0:0,0:0:0:0:
102,104,184594,2,0,P|144:96|175:93,1,64,8|2,0:1|0:0,0:0:0:0:
234,126,185022,2,0,P|273:133|372:143,1,128,10|8,0:3|0:3,0:0:0:0:
437,142,185665,1,2,0:0:0:0:
437,142,185879,1,8,0:1:0:0:
256,192,185987,12,8,188022,0:3:0:0:
256,192,188451,12,2,189522,0:0:0:0:
256,192,189737,12,4,191022,0:0:0:0:
91,359,196165,22,0,P|124:339|234:330,1,143.999995605469,2|2,0:0|0:0,0:0:0:0:
302,306,197022,6,0,P|280:273|268:242,1,60.0000022888184
348,239,197451,86,0,P|391:264|492:265,2,143.999995605469,2|0|0,0:0|0:0|0:0,0:0:0:0:
392,78,198737,54,0,P|334:67|261:66,1,128,4|0,0:1|0:0,0:0:0:0:
194,35,199379,2,0,P|166:60|131:81,1,64,2|0,0:0|0:0,0:0:0:0:
66,78,199808,1,2,0:0:0:0:
27,144,200022,2,0,P|38:183|57:218,1,64,8|2,0:3|0:0,0:0:0:0:
102,258,200451,2,0,P|91:297|72:332,1,64,0|2,0:0|0:0,0:0:0:0:
147,356,200879,2,0,P|184:323|202:315,1,64,0|2,0:0|0:0,0:0:0:0:
270,296,201308,6,0,P|316:289|404:320,1,128,8|0,0:3|0:0,0:0:0:0:
466,289,201951,2,0,P|475:252|474:217,1,64,2|0,0:0|0:0,0:0:0:0:
461,150,202379,1,2,0:0:0:0:
397,105,202594,2,0,P|423:80|458:73,1,64,8|2,0:3|0:0,0:0:0:0:
461,150,203022,2,0,P|412:147|331:148,1,128
271,102,203665,1,2,0:0:0:0:
259,177,203879,6,0,P|210:147|212:59,1,128,8|0,0:3|0:0,0:0:0:0:
212,6,204522,2,0,P|261:36|259:124,1,128,2|2,0:0|0:0,0:0:0:0:
200,81,205165,2,0,P|163:69|133:68,1,64,8|2,0:3|0:0,0:0:0:0:
79,117,205594,2,0,P|84:155|97:195,1,64,0|2,0:0|0:0,0:0:0:0:
135,242,206022,1,0,0:0:0:0:
112,315,206237,1,2,0:0:0:0:
165,370,206451,70,0,P|97:356|19:347,2,128,8|0|0,0:3|0:0|0:0,0:0:0:0:
235,339,207522,1,2,0:0:0:0:
307,364,207737,2,0,P|331:340|367:317,1,64,8|2,0:3|0:0,0:0:0:0:
492,359,208165,2,0,P|461:351|433:338,1,64,0|2,0:0|0:0,0:0:0:0:
393,199,208594,2,0,P|402:230|405:262,1,64,0|2,0:0|0:0,0:0:0:0:
432,338,209022,6,0,P|442:296|478:215,1,128,8|0,0:3|0:0,0:0:0:0:
404,261,209665,2,0,P|399:215|356:138,1,128,2|2,0:0|0:0,0:0:0:0:
352,67,210308,2,0,P|403:57|433:47,1,64,8|2,0:3|0:0,0:0:0:0:
291,116,210737,2,0,P|240:106|210:96,1,64,0|2,0:0|0:0,0:0:0:0:
164,59,211165,1,0,0:0:0:0:
97,97,211379,1,2,0:0:0:0:
33,54,211594,6,0,P|47:87|79:185,1,128,8|0,0:3|0:0,0:0:0:0:
55,248,212237,2,0,P|86:284|171:275,1,128,2|2,0:0|0:0,0:0:0:0:
226,241,212879,1,8,0:3:0:0:
297,270,213094,1,2,0:0:0:0:
325,341,213308,2,0,P|371:328|403:328,1,64,0|2,0:0|0:0,0:0:0:0:
456,293,213737,2,0,P|464:261|468:222,1,64,0|2,0:0|0:0,0:0:0:0:
411,177,214165,70,0,P|398:129|384:41,1,128,8|0,0:3|0:0,0:0:0:0:
459,30,214808,2,0,P|418:22|310:1,1,128,2|2,0:0|0:0,0:0:0:0:
270,50,215451,2,0,P|216:64|194:80,1,64,8|2,0:3|0:0,0:0:0:0:
162,128,215879,2,0,P|127:163|49:146,1,128
4,92,216522,1,2,0:0:0:0:
4,92,216737,1,8,0:3:0:0:
256,192,216844,12,0,218022,0:0:0:0:
256,192,218129,12,4,219308,0:0:0:0:
310,110,220594,6,0,P|246:104|185:84,1,128,8|2,0:1|0:0,0:0:0:0:
125,37,221237,1,4,0:1:0:0:
59,76,221451,1,4,0:1:0:0:
79,149,221665,1,4,0:1:0:0:
155,155,221879,6,0,P|191:141|290:130,1,128,4|8,0:0|0:3,0:0:0:0:
350,158,222522,1,2,0:0:0:0:
426,146,222737,2,0,P|392:129|366:110,1,64,8|2,0:3|0:0,0:0:0:0:
433,70,223165,2,0,P|444:121|463:201,1,128,10|8,0:3|0:3,0:0:0:0:
495,264,223808,1,2,0:0:0:0:
463,333,224022,2,0,P|419:357|404:373,1,64,8|2,0:3|0:0,0:0:0:0:
349,317,224451,70,0,P|310:331|237:273,2,128,10|8|8,0:3|0:3|0:3,0:0:0:0:
310,250,225522,1,2,0:0:0:0:
241,288,225737,2,0,P|198:303|171:306,1,64,10|2,0:3|0:0,0:0:0:0:
103,300,226165,2,0,P|70:290|36:264,1,64,8|2,0:3|0:0,0:0:0:0:
0,211,226594,1,8,0:3:0:0:
65,250,226808,1,2,0:0:0:0:
139,230,227022,6,0,P|168:201|228:129,2,128,10|8|8,0:3|0:3|0:3,0:0:0:0:
213,211,228094,1,2,0:0:0:0:
285,237,228308,2,0,P|317:260|353:273,1,64,10|2,0:3|0:0,0:0:0:0:
407,305,228737,2,0,P|352:310|277:323,1,128,8|8,0:3|0:3,0:0:0:0:
339,269,229379,1,2,0:0:0:0:
405,229,229594,6,0,P|414:193|419:148,1,64,10|2,0:3|0:0,0:0:0:0:
406,90,230022,2,0,P|380:52|299:55,1,128,8|8,0:3|0:3,0:0:0:0:
243,99,230665,1,2,0:0:0:0:
166,89,230879,2,0,P|120:68|85:65,1,64,10|4,0:1|0:1,0:0:0:0:
30,68,231308,1,4,0:1:0:0:
104,87,231522,1,2,0:0:0:0:
129,159,231737,2,0,P|118:203|102:239,1,64,8|2,0:3|0:0,0:3:0:0:
44,258,232165,70,0,P|88:271|170:301,1,128,10|8,0:3|0:3,0:0:0:0:
223,349,232808,1,2,0:0:0:0:
298,337,233022,2,0,P|338:311|370:300,1,64,8|2,0:3|0:0,0:0:0:0:
429,314,233451,2,0,P|388:301|356:287,1,64,10|2,0:3|0:0,0:0:0:0:
340,221,233879,2,0,P|381:208|413:194,1,64,8|2,0:3|0:0,0:0:0:0:
476,210,234308,2,0,P|435:197|403:183,1,64,8|2,0:3|0:0,0:0:0:0:
386,117,234737,6,0,P|363:91|265:111,1,128,10|8,0:3|0:3,0:0:0:0:
214,53,235379,1,2,0:0:0:0:
154,102,235594,1,8,0:3:0:0:
78,87,235808,1,2,0:0:0:0:
47,16,236022,6,0,P|40:60|20:160,2,128,10|8|10,0:1|0:3|0:3,0:0:0:0:
78,87,237094,2,0,P|98:126|118:159,1,64,2|10,0:0|0:3,0:0:0:0:
159,200,237522,1,2,0:0:0:0:
158,277,237737,2,0,P|126:317|39:308,1,128,8|8,0:3|0:3,0:0:0:0:
122,352,238379,1,2,0:0:0:0:
198,347,238594,2,0,P|242:335|285:332,1,64,10|2,0:3|0:0,0:0:0:0:
312,276,239022,2,0,P|352:300|388:316,1,64,8|2,0:3|0:0,0:0:0:0:
428,354,239451,2,0,P|466:327|490:318,1,64,8|2,0:3|0:0,0:0:0:0:
447,252,239879,70,0,P|460:215|485:125,2,128,10|8|8,0:3|0:3|0:3,0:0:0:0:
417,180,240951,1,2,0:0:0:0:
417,180,241165,2,0,P|404:143|379:53,2,128,10|8|8,0:3|0:3|0:3,0:0:0:0:
354,135,242237,1,2,0:0:0:0:
354,135,242451,1,4,0:0:0:0:
256,192,242558,12,8,243737,0:1:0:0:
151,90,244165,5,8,0:3:0:0:
216,49,244379,1,8,0:1:0:0:
292,58,244594,1,8,0:3:0:0:
338,119,244808,1,8,0:3:0:0:
370,50,245022,6,0,P|387:111|399:174,1,128,10|8,0:3|0:3,0:0:0:0:
473,192,245665,2,0,P|452:241|432:312,1,128,8|2,0:1|0:0,0:0:0:0:
370,360,246308,1,10,0:3:0:0:
324,298,246522,1,4,0:1:0:0:
247,287,246737,1,0,0:0:0:0:
192,340,246951,1,4,0:1:0:0:
115,334,247165,1,4,0:1:0:0:
79,266,247379,1,4,0:1:0:0:
123,199,247594,38,0,P|133:152|136:105,1,80,4|0,0:1|0:0,0:0:0:0:
121,41,248022,1,0,0:0:0:0:
64,98,248237,2,0,P|117:121|203:54,1,160,8|0,0:3|0:0,0:0:0:0:
258,19,248879,2,0,P|303:40|353:50,1,80,10|0,0:1|0:0,0:0:0:0:
384,107,249308,2,0,P|434:86|479:80,1,80,0|4,0:0|0:1,0:0:0:0:
458,161,249737,2,0,P|440:203|434:250,1,80,8|8,0:3|0:3,0:0:0:0:
442,316,250165,5,10,0:3:0:0:
498,372,250379,1,2,0:0:0:0:
427,334,250594,1,0,0:0:0:0:
354,368,250808,2,0,P|301:357|165:336,1,160,8|0,0:1|0:0,0:0:0:0:
147,276,251451,2,0,P|103:299|64:309,1,80,10|0,0:3|0:0,0:0:0:0:
78,227,251879,2,0,P|31:224|-18:207,2,80,8|2|8,0:3|0:0|0:3,0:0:0:0:
152,197,252522,1,2,0:0:0:0:
220,238,252737,86,0,P|265:220|308:213,1,80,10|0,0:3|0:0,0:0:0:0:
375,217,253165,1,0,0:0:0:0:
333,285,253379,2,0,P|375:267|457:352,1,160,8|0,0:3|0:0,0:0:0:0:
454,249,254022,2,0,P|450:232|444:161,1,80,10|0,0:1|0:0,0:0:0:0:
457,90,254451,1,0,0:0:0:0:
421,161,254665,1,4,0:1:0:0:
342,177,254879,1,4,0:1:0:0:
283,121,255094,1,4,0:1:0:0:
287,41,255308,6,0,P|331:57|358:102,2,80,10|0|2,0:3|0:0|0:0,0:0:0:0:
283,121,255951,2,0,P|235:107|125:92,1,160,8|0,0:1|0:0,0:0:0:0:
57,50,256594,1,12,0:0:0:0:
112,107,256808,1,12,0:0:0:0:
60,258,257237,1,4,0:1:0:0:
124,211,257451,1,4,0:1:0:0:
200,233,257665,1,4,0:1:0:0:
227,307,257879,86,0,P|285:280|308:276,1,80,4|0,0:0|0:0,0:0:0:0:
380,270,258308,1,2,0:0:0:0:
443,318,258522,2,0,P|423:251|404:162,1,160,8|0,0:3|0:0,0:0:0:0:
455,101,259165,2,0,P|484:143|519:172,1,80,10|0,0:1|0:0,0:0:0:0:
373,89,259594,2,0,P|331:115|289:128,1,80,0|4,0:0|0:1,0:0:0:0:
234,83,260022,1,2,0:0:0:0:
158,111,260237,1,2,0:0:0:0:
88,72,260451,6,0,P|55:35|11:10,2,80,10|0|2,0:3|0:0|0:0,0:0:0:0:
91,152,261094,2,0,P|79:197|63:313,1,160,8|8,0:1|0:3,0:0:0:0:
129,354,261737,2,0,P|163:318|274:341,1,160,6|0,0:0|0:0,0:0:0:0:
334,291,262379,1,4,0:1:0:0:
391,346,262594,2,0,L|433:355,5,26.6666666666667,4|0|0|0|0|0,0:1|0:0|0:0|0:0|0:0|0:0,0:0:0:0:
417,351,263022,86,0,P|440:309|476:271,1,80,4|0,0:0|0:0,0:0:0:0:
395,238,263451,2,0,P|379:182|353:147,1,80,0|8,0:0|0:3,0:0:0:0:
305,114,263879,2,0,P|365:125|470:133,2,160,2|10|2,0:0|0:1|0:0,0:0:0:0:
240,66,264951,1,4,0:1:0:0:
174,112,265165,1,2,0:0:0:0:
94,106,265379,1,2,0:0:0:0:
47,40,265594,6,0,P|56:101|67:208,1,160,6|0,0:0|0:0,0:0:0:0:
71,278,266237,1,4,3:0:0:0:
138,234,266451,1,4,3:0:0:0:
208,271,266665,1,4,3:0:0:0:
141,314,266879,85,4,3:0:0:0:
219,296,267094,1,4,3:0:0:0:
272,355,267308,1,4,3:0:0:0:
297,279,267522,1,4,3:0:0:0:
350,337,267737,1,4,3:0:0:0:
428,320,267951,1,4,3:0:0:0:
449,243,268165,6,0,P|457:219|455:160,1,80,4|0,0:1|0:0,0:0:0:0:
421,92,268594,1,0,0:0:0:0:
379,158,268808,2,0,P|345:178|247:113,1,160,8|0,0:1|0:0,0:0:0:0:
266,47,269451,2,0,P|316:76|326:118,1,80,10|2,0:3|0:0,0:0:0:0:
309,174,269879,2,0,P|258:202|217:190,1,80,0|4,0:0|0:1,0:0:0:0:
178,152,270308,2,0,P|178:94|209:64,1,80,8|2,0:3|0:0,0:0:0:0:
249,125,270737,85,10,0:3:0:0:
187,175,270951,1,0,0:0:0:0:
107,168,271165,1,8,0:3:0:0:
66,99,271379,2,0,P|68:161|59:267,1,160,8|0,0:1|0:0,0:0:0:0:
85,334,272022,2,0,P|124:311|174:302,1,80,6|0,0:0|0:0,0:0:0:0:
216,248,272451,2,0,P|269:266|312:271,1,80,0|4,0:0|0:1,0:0:0:0:
353,321,272879,1,4,0:1:0:0:
424,284,273094,1,4,0:1:0:0:
497,315,273308,6,0,P|504:264|504:207,1,80,4|0,0:0|0:0,0:0:0:0:
493,156,273737,1,0,0:0:0:0:
430,205,273951,2,0,P|405:148|377:44,1,160,8|0,0:1|0:0,0:0:0:0:
324,113,274594,2,0,P|369:133|458:64,1,160,10|0,0:3|0:0,0:0:0:0:
378,53,275237,1,4,0:1:0:0:
324,113,275451,2,0,P|287:95|229:84,1,80
169,91,275879,85,10,0:3:0:0:
96,56,276094,1,2,0:0:0:0:
158,105,276308,1,8,0:3:0:0:
145,183,276522,2,0,P|113:218|4:199,1,160,8|0,0:1|0:0,0:0:0:0:
69,151,277165,2,0,P|85:206|87:254,1,80,10|4,0:3|0:0,0:0:0:0:
160,261,277594,2,0,P|144:308|141:351,1,80,0|4,0:0|0:1,0:0:0:0:
218,320,278022,1,4,0:1:0:0:
272,261,278237,1,4,0:1:0:0:
293,338,278451,6,0,P|340:325|388:322,1,80,6|0,0:0|0:0,0:0:0:0:
434,369,278879,1,0,0:0:0:0:
434,369,279094,2,0,P|407:309|368:193,1,160,8|0,0:1|0:0,0:0:0:0:
369,140,279737,2,0,P|406:145|441:176,1,80,10|0,0:3|0:0,0:0:0:0:
499,120,280165,2,0,P|484:85|494:39,1,80,0|4,0:0|0:1,0:0:0:0:
417,14,280594,2,0,P|394:43|349:58,1,80,2|2,0:0|0:0,0:0:0:0:
292,107,281022,86,0,P|252:92|201:84,1,80,6|0,0:0|0:0,0:0:0:0:
135,86,281451,1,0,0:0:0:0:
178,152,281665,2,0,P|210:116|169:14,1,160,8|0,0:1|0:0,0:0:0:0:
98,13,282308,2,0,P|63:41|54:88,1,80,10|8,0:3|0:1,0:0:0:0:
82,148,282737,2,0,P|96:171|102:200,6,40,0|0|4|0|4|0|4,0:0|0:0|0:1|0:0|0:1|0:0|0:1,0:0:0:0:
27,207,283594,6,0,P|80:226|185:278,1,160,6|0,0:0|0:0,0:0:0:0:
223,333,284237,2,0,P|251:297|291:261,1,80,8|8,0:1|0:3,0:0:0:0:
342,229,284665,1,0,0:0:0:0:
391,291,284879,2,0,P|433:304|513:222,1,160,10|0,0:3|0:0,0:0:0:0:
433,222,285522,2,0,P|418:185|412:126,1,80,4|0,0:1|0:0,0:0:0:0:
429,67,285951,1,0,0:0:0:0:
429,67,286165,1,4,0:0:0:0:
256,192,286272,12,4,288094,0:1:0:0:
372,201,288737,6,0,P|306:214|240:144,1,160,10|0,0:3|0:0,0:0:0:0:
280,84,289379,1,8,0:1:0:0:
242,155,289594,2,0,P|199:158|147:164,1,80,8|8,0:3|0:3,0:0:0:0:
116,227,290022,6,0,P|73:230|21:236,1,80,10|4,0:3|0:1,0:0:0:0:
78,302,290451,1,4,0:1:0:0:
128,240,290665,1,4,0:1:0:0:
207,233,290879,1,4,0:1:0:0:
265,287,291094,1,4,0:1:0:0:
343,273,291308,1,4,0:1:0:0:
256,192,291415,12,0,295192,0:0:0:0:
397,68,296450,22,0,P|384:95|373:160,1,80,2|0,0:0|0:0,0:0:0:0:
302,172,297096,2,0,P|315:199|327:265,1,80
319,329,297742,1,2,0:0:0:0:
319,329,297958,1,0,0:0:0:0:
319,329,298173,1,0,0:0:0:0:
115,68,299035,6,0,P|128:95|141:160,1,80,2|0,0:0|0:0,0:0:0:0:
210,172,299681,2,0,P|197:199|185:257,1,80,2|0,0:0|0:0,0:0:0:0:
196,335,300327,1,2,0:0:0:0:
196,335,300543,1,0,0:0:0:0:
196,335,300758,1,0,0:0:0:0:
239,33,301620,86,0,P|230:78|216:116,1,80,2|0,0:0|0:0,0:0:0:0:
277,162,302266,2,0,P|286:207|300:244,1,80
350,299,302913,2,0,P|367:274|377:264,1,40,2|0,0:0|0:0,0:0:0:0:
272,312,303344,2,0,P|233:302|192:300,1,80,2|2,0:0|0:0,0:0:0:0:
118,311,303990,1,0,0:0:0:0:
48,279,304205,2,0,P|36:247|32:232,1,40,2|0,0:0|0:0,0:0:0:0:
88,182,304636,2,0,P|100:150|104:135,1,40,2|0,0:0|0:0,0:0:0:0:
85,65,305067,1,0,0:0:0:0:
85,65,305498,6,0,B|142:51|192:101|182:159|182:159|228:157|256:182|256:182|283:157|332:160|332:160|320:102|371:52|441:64,2,480,0|0|2,0:0|0:0|0:0,0:0:0:0:
85,65,311039,86,0,P|79:112|78:158,1,80,2|2,0:0|0:0,0:0:0:0:
84,301,311892,2,0,P|54:286|32:285,1,40,2|2,0:0|0:0,0:0:0:0:
111,218,312318,2,0,P|138:199|150:185,1,40,2|2,0:0|0:0,0:0:0:0:
168,283,312744,2,0,P|170:316|178:336,1,40,2|2,0:0|0:0,0:0:0:0:
251,296,313171,6,0,P|276:256|381:277,1,160,2|0,0:0|0:0,0:0:0:0:
326,355,314494,86,0,P|322:331|319:299,1,40,2|2,0:0|0:0,0:0:0:0:
375,268,314946,2,0,P|379:244|382:212,1,40,2|2,0:0|0:0,0:0:0:0:
445,195,315399,2,0,P|439:158|437:139,1,40,2|2,0:0|0:0,0:0:0:0:
381,108,315852,6,0,P|386:85|388:62,1,40,2|2,0:0|0:0,0:0:0:0:
308,140,316322,2,0,P|303:117|301:94,1,40,2|2,0:0|0:0,0:0:0:0:
242,54,316807,86,0,P|214:50|191:45,2,40,2|2|2,0:0|0:0|0:0,0:0:0:0:
438,155,318144,6,0,P|401:163|386:165,1,40,2|2,0:0|0:0,0:0:0:0:
323,171,318702,1,2,0:0:0:0:
248,209,318981,86,0,P|243:187|241:162,1,40,2|2,0:0|0:0,0:0:0:0:
165,120,319564,6,0,P|161:139|156:159,1,40,2|2,0:0|0:0,0:0:0:0:
70,208,320304,86,0,P|67:188|65:164,1,40,2|2,0:0|0:0,0:0:0:0:
89,69,321139,6,0,L|73:66,3,13.3333333333333,2|2|2|2,0:0|0:0|0:0|0:0,0:0:0:0:
178,129,321780,86,0,L|201:126,1,20,2|2,0:0|0:0,0:0:0:0:
260,64,322243,6,0,L|285:67,1,20,2|2,0:0|0:0,0:0:0:0:
325,125,322616,86,0,L|350:122,1,20,2|2,0:0|0:0,0:0:0:0:
414,80,323036,6,0,L|419:102,1,20,2|2,0:0|0:0,0:0:0:0:
484,158,323537,86,0,L|479:183,1,20,2|2,0:0|0:0,0:0:0:0:
407,244,324093,6,0,L|411:269,1,20,2|2,0:0|0:0,0:0:0:0:
436,355,324826,1,2,0:0:0:0:
433,362,325432,1,2,0:0:0:0:
