osu file format v14

[General]
AudioFilename: music.mp3
AudioLeadIn: 0
PreviewTime: 75277
Countdown: 0
SampleSet: Soft
StackLeniency: 0.2
Mode: 0
LetterboxInBreaks: 0
WidescreenStoryboard: 1

[Editor]
Bookmarks: 14767,47454,127535,190922,263744
DistanceSpacing: 1
BeatDivisor: 4
GridSize: 8
TimelineZoom: 0.66

[Metadata]
Title:ARIA
TitleUnicode:ARIA
Artist:Kalafina
ArtistUnicode:Kalafina
Creator:ecdonald
Version:Solitary
Source:劇場版 空の境界/第四章 伽藍の洞
Tags:Seventh Heaven Yuki Kajiura wakana ootaki keiko kubota hikaru masai chorus
BeatmapID:1077362
BeatmapSetID:506479

[Difficulty]
HPDrainRate:6
CircleSize:6
OverallDifficulty:7.8
ApproachRate:8.8
SliderMultiplier:1.1
SliderTickRate:1

[Events]
//Background and Video events
0,0,"bg.jpg",0,0
//Break Periods
2,471,3847
//Storyboard Layer 0 (Background)
//Storyboard Layer 1 (Fail)
//Storyboard Layer 2 (Pass)
//Storyboard Layer 3 (Foreground)
//Storyboard Sound Samples

[TimingPoints]
271,483.870967741935,3,2,1,65,1,0
271,-100,3,2,2,65,0,0
4626,-100,3,2,1,40,0,0
6077,-100,3,2,1,30,0,0
7891,-100,3,2,1,5,0,0
8013,-100,3,2,1,30,0,0
10795,-100,3,2,2,5,0,0
10916,-200,3,2,1,30,0,0
13698,-200,3,2,1,15,0,0
17690,-100,3,2,1,30,0,0
22287,-200,3,2,1,30,0,0
25674,-200,3,2,1,5,0,0
29303,-100,3,2,1,30,0,0
51319,-200,3,2,1,30,0,0
52287,-200,3,2,1,5,0,0
52529,-100,3,2,3,35,0,0
52770,-100,3,2,3,5,0,0
53496,-100,3,2,2,30,0,0
58335,-100,3,2,3,35,0,0
58577,-100,3,2,3,5,0,0
59302,-100,3,2,2,30,0,0
64141,-100,3,2,3,30,0,0
64384,-100,3,2,2,30,0,0
69948,-100,3,2,3,30,0,0
70190,-100,3,2,2,30,0,0
75755,-100,3,2,1,40,0,0
81535,-66.6666666666667,3,2,1,60,0,0
82503,-100,3,2,1,50,0,0
101872,-66.6666666666667,3,2,1,60,0,0
130916,-100,3,2,1,60,0,0
135513,-200,3,2,1,60,0,0
136722,-100,3,2,1,60,0,0
142529,-80,3,2,1,60,0,0
188980,-57.1428571428571,3,2,0,55,0,1
189101,-57.1428571428571,3,2,0,40,0,1
194787,-57.1428571428571,3,2,0,55,0,1
195754,-57.1428571428571,3,2,1,55,0,1
196238,-57.1428571428571,3,2,0,40,0,1
206400,-57.1428571428571,3,2,0,45,0,1
206460,-57.1428571428571,3,2,0,30,0,1
210754,-50,3,2,0,35,0,1
212206,-80,3,2,1,65,0,0
229625,-188.679245283019,3,2,3,60,0,0
234948,-188.679245283019,3,2,3,5,0,0
235432,-100,3,2,1,25,0,0
242690,-100,3,2,2,35,0,0
242750,-100,3,2,2,10,0,0
244141,-57.1428571428571,3,2,1,75,0,1
267367,-66.6666666666667,3,2,1,70,0,0
267609,-66.6666666666667,3,2,1,65,0,0
278980,-66.6666666666667,3,2,1,60,0,0
290109,-66.6666666666667,3,2,1,40,0,0
290594,-66.6666666666667,3,2,1,55,0,0
295432,-66.6666666666667,3,2,1,50,0,0
296399,-100,3,2,1,30,0,0
300996,-200,3,2,1,30,0,0
304020,-200,3,2,1,15,0,0
305109,-100,3,2,2,30,0,0
305170,-100,3,2,2,10,0,0
307045,-200,3,2,1,15,0,0
307529,-200,3,2,1,5,0,0
314303,-200,3,2,1,35,0,0

[Colours]
Combo1 : 255,223,223
Combo2 : 223,255,255

[HitObjects]
135,158,271,5,4,3:2:0:0:
140,149,4626,5,4,1:3:0:0:
145,139,6077,1,2,0:0:0:0:
143,84,6319,1,2,0:0:0:0:
114,37,6561,1,2,0:0:0:0:
218,54,6803,1,2,0:0:0:0:
220,109,7045,1,2,0:0:0:0:
249,156,7287,1,2,0:0:0:0:
156,198,7529,6,0,P|196:195|248:219,1,82.5,2|0,0:0|0:0,0:0:0:0:
259,225,8013,1,2,0:0:0:0:
204,232,8254,1,2,0:0:0:0:
153,252,8496,1,2,0:0:0:0:
112,288,8738,1,2,0:0:0:0:
24,222,8980,6,0,P|57:237|102:233,1,82.5,2|0,0:0|0:0,0:0:0:0:
123,215,9464,1,2,0:0:0:0:
108,268,9706,1,2,0:0:0:0:
123,320,9948,1,2,0:0:0:0:
162,358,10190,1,0,0:0:0:0:
35,360,10432,6,0,L|57:269,1,82.5,2|0,0:0|0:0,0:0:0:0:
9,245,11037,2,0,P|69:225|13:320,1,275,2|0,0:0|0:0,0:0:0:0:
148,347,13698,6,0,L|170:351,1,13.75
198,304,13940,1,0,0:0:0:0:
198,304,14061,2,0,L|164:296,1,27.5
194,249,14424,1,0,0:0:0:0:
193,248,14545,2,0,L|220:255,1,27.5
198,304,14908,5,0,0:0:0:0:
199,342,16722,2,0,L|221:346,1,13.75
409,323,17690,5,2,0:0:0:0:
360,297,17932,1,2,0:0:0:0:
325,254,18174,1,2,0:0:0:0:
304,140,18416,1,2,0:0:0:0:
269,183,18658,1,2,0:0:0:0:
220,209,18900,1,2,0:0:0:0:
116,205,19142,6,0,P|159:191|233:220,1,110,2|2,0:0|0:0,0:0:0:0:
257,247,19867,1,2,0:0:0:0:
287,292,20109,1,2,0:0:0:0:
290,346,20351,1,2,0:0:0:0:
160,323,20593,6,0,P|202:333|248:309,1,82.5,2|0,0:0|0:0,0:0:0:0:
253,300,21077,1,2,0:0:0:0:
271,248,21319,1,2,0:0:0:0:
271,192,21561,2,0,B|353:171,1,82.5,2|2,0:0|0:0,0:0:0:0:
432,309,22287,6,0,B|287:126|234:409|89:249,1,385,2|0,0:0|0:0,0:0:0:0:
256,192,25795,12,0,29061,0:0:0:0:
119,243,29303,5,2,3:2:0:0:
147,177,29545,1,2,3:2:0:0:
130,107,29787,1,2,3:2:0:0:
69,69,30029,1,2,3:2:0:0:
230,31,31722,1,2,3:2:0:0:
459,119,32206,5,2,3:2:0:0:
387,125,32448,1,2,3:2:0:0:
331,79,32690,1,2,3:2:0:0:
356,219,33174,1,2,3:2:0:0:
430,307,34142,1,2,3:2:0:0:
347,211,34625,1,2,3:2:0:0:
65,316,35109,5,2,3:2:0:0:
133,294,35351,1,2,3:2:0:0:
189,250,35593,1,2,3:2:0:0:
226,189,35835,1,2,3:2:0:0:
286,15,37529,1,2,3:2:0:0:
424,203,38013,5,2,3:2:0:0:
407,133,38255,1,2,3:2:0:0:
447,74,38496,1,2,3:2:0:0:
470,259,38980,1,2,3:2:0:0:
316,311,39948,1,2,3:2:0:0:
477,256,40432,1,2,3:2:0:0:
298,91,40916,5,2,3:2:0:0:
261,170,41158,1,2,3:2:0:0:
209,106,41400,1,2,3:2:0:0:
246,27,41642,1,2,3:2:0:0:
489,166,43819,5,2,3:2:0:0:
407,173,44061,1,2,3:2:0:0:
333,210,44303,1,2,3:2:0:0:
274,268,44545,1,2,3:2:0:0:
60,315,46722,5,2,0:0:0:0:
36,265,46964,1,2,0:0:0:0:
53,212,47206,1,2,0:0:0:0:
142,108,47448,1,2,0:0:0:0:
166,158,47690,1,2,0:0:0:0:
149,211,47932,1,2,0:0:0:0:
210,289,48174,6,0,P|167:301|128:288,1,82.5,2|0,0:0|0:0,0:0:0:0:
107,278,48658,1,2,0:0:0:0:
141,322,48900,1,2,0:0:0:0:
192,343,49142,1,2,0:0:0:0:
247,343,49384,1,2,0:0:0:0:
394,321,49625,6,0,P|352:331|309:317,1,82.5,2|0,0:0|0:0,0:0:0:0:
290,308,50109,1,2,0:0:0:0:
252,269,50351,1,2,0:0:0:0:
230,217,50593,2,0,P|220:171|227:132,1,82.5,2|2,0:0|0:0,0:0:0:0:
267,63,51319,6,0,P|298:84|311:156,1,110,2|0,0:0|0:0,0:0:0:0:
250,310,52529,6,0,L|271:246,1,55,8|0,3:2|0:0,0:0:0:0:
342,35,53496,1,2,3:3:0:0:
66,64,53980,1,8,0:0:0:0:
90,310,55432,5,2,3:2:0:0:
53,248,55674,1,2,3:2:0:0:
60,176,55916,1,2,3:2:0:0:
106,121,56158,1,2,3:2:0:0:
167,84,57367,1,2,3:2:0:0:
146,351,57851,1,2,3:2:0:0:
331,244,58335,6,0,L|267:232,1,55,8|0,3:2|0:0,0:0:0:0:
26,175,59302,1,2,3:3:0:0:
301,92,59786,1,8,0:0:0:0:
465,199,61238,5,2,3:2:0:0:
396,219,61480,1,2,3:2:0:0:
348,272,61722,1,2,3:2:0:0:
336,342,61964,1,2,3:2:0:0:
464,339,63174,1,2,3:2:0:0:
299,150,63658,1,2,3:2:0:0:
67,141,64141,5,10,3:2:0:0:
49,222,64384,1,2,3:2:0:0:
127,197,64625,1,2,3:2:0:0:
145,116,64867,2,0,L|158:59,1,55,2|2,3:2|3:0,0:0:0:0:
367,61,65593,1,8,0:0:0:0:
445,141,67045,5,2,3:2:0:0:
463,222,67287,1,2,3:2:0:0:
385,197,67528,1,2,3:2:0:0:
367,116,67771,1,2,3:2:0:0:
427,60,68980,1,2,3:2:0:0:
481,303,69464,1,2,3:2:0:0:
136,280,69948,5,10,3:2:0:0:
206,260,70190,1,2,3:2:0:0:
193,328,70432,1,2,3:2:0:0:
161,209,70674,2,0,L|175:145,1,55,2|2,3:2|0:3,0:0:0:0:
202,17,71400,1,8,0:0:0:0:
321,131,71884,1,2,3:2:0:0:
63,52,72367,1,2,3:2:0:0:
46,194,72851,5,2,3:2:0:0:
99,208,73093,1,2,3:2:0:0:
146,237,73335,1,2,3:2:0:0:
156,226,75270,5,2,0:0:0:0:
164,210,75755,5,2,1:2:0:0:
41,137,75996,1,2,0:0:0:0:
160,65,76238,1,2,0:0:0:0:
402,137,76722,1,0,0:0:0:0:
328,76,76964,1,0,0:0:0:0:
323,152,77206,5,8,0:0:0:0:
429,33,77448,1,0,0:0:0:0:
234,32,77690,2,0,P|287:39|330:80,1,110
402,104,78416,1,0,0:0:0:0:
241,143,78658,5,2,1:2:0:0:
339,27,78900,1,2,0:2:0:0:
221,70,79142,1,2,0:2:0:0:
387,169,79384,1,0,0:0:0:0:
291,149,79625,1,0,0:0:0:0:
348,83,79867,1,0,0:0:0:0:
387,169,80109,6,0,L|406:113,1,55,10|2,0:0|0:0,0:0:0:0:
439,12,80593,1,2,0:0:0:0:
512,162,80835,1,2,0:0:0:0:
387,169,81077,1,2,0:0:0:0:
457,338,81561,6,0,B|388:287|366:390|296:325,1,165.000006294251,2|0,1:2|0:0,0:0:0:0:
76,220,82529,1,0,0:0:0:0:
120,153,82771,1,0,0:0:0:0:
146,222,83013,5,8,0:0:0:0:
50,152,83255,1,0,0:0:0:0:
166,62,83496,1,0,0:0:0:0:
242,244,83738,1,0,0:0:0:0:
20,238,83980,2,0,P|68:227|126:249,1,110,0|0,0:0|1:0,0:0:0:0:
166,304,84706,5,0,0:0:0:0:
241,224,84948,2,0,L|234:283,1,55
341,336,85432,2,0,L|282:329,1,55
156,315,85916,5,10,0:0:0:0:
80,237,86158,1,2,0:0:0:0:
86,83,86400,1,2,0:0:0:0:
143,143,86642,1,2,0:0:0:0:
154,217,86884,1,2,0:0:0:0:
137,281,87125,1,2,0:0:0:0:
214,168,87367,5,2,1:2:0:0:
86,83,87609,1,2,0:0:0:0:
216,17,87851,1,2,0:0:0:0:
415,173,88335,1,0,0:0:0:0:
420,61,88577,1,0,0:0:0:0:
340,138,88819,5,8,0:0:0:0:
468,117,89061,1,0,0:0:0:0:
365,90,89303,1,0,0:0:0:0:
343,196,89545,1,0,0:0:0:0:
447,223,89787,1,0,0:0:0:0:
293,127,90029,1,0,0:0:0:0:
316,287,90271,5,0,1:0:0:0:
193,264,90513,1,0,0:0:0:0:
333,185,90755,2,0,P|387:173|446:176,1,110,0|0,0:0|3:0,0:0:0:0:
431,333,91722,6,0,B|347:265|303:381|219:312,1,220,8|0,0:0|0:0,0:0:0:0:
79,240,93174,6,0,P|64:265|64:297,1,55,0|0,1:0|0:0,0:0:0:0:
146,355,93658,2,0,P|161:330|161:298,1,55,2|0,2:0|0:0,0:0:0:0:
256,293,94142,2,0,P|252:269|260:231,1,55,2|0,2:0|0:0,0:0:0:0:
160,176,94625,2,0,P|181:108|143:13,1,165,8|0,0:0|0:0,0:0:0:0:
90,13,95593,2,0,P|90:36|109:69,1,55,2|0,0:0|0:0,0:0:0:0:
58,147,96077,6,0,P|99:100|198:109,1,165,0|0,1:0|0:0,0:0:0:0:
257,101,97045,2,0,P|256:127|242:151,1,55,2|0,0:0|0:0,0:0:0:0:
185,194,97529,5,8,0:0:0:0:
237,168,97771,1,0,0:0:0:0:
274,216,98013,5,0,0:0:0:0:
326,190,98255,1,0,0:0:0:0:
373,233,98496,5,0,0:0:0:0:
425,207,98738,1,0,0:0:0:0:
472,270,98980,6,0,P|502:224|487:161,2,110,0|0|0,1:0|0:0|0:0,0:0:0:0:
404,297,100190,1,2,0:0:0:0:
328,346,100432,1,10,0:0:0:0:
321,258,100674,1,2,0:0:0:0:
391,221,100916,5,2,0:0:0:0:
407,358,101158,1,2,2:0:0:0:
261,233,101400,1,2,0:0:0:0:
277,370,101642,1,0,3:0:0:0:
5,344,101884,6,0,B|47:305|111:337|111:337|175:369|231:305,1,247.500009441376,6|0,1:2|1:0,0:0:0:0:
287,211,102851,1,2,0:0:0:0:
183,132,103093,1,0,3:0:0:0:
43,134,103335,5,8,0:0:0:0:
101,279,103577,1,4,3:0:0:0:
57,222,103819,1,8,1:3:0:0:
161,304,104061,1,0,0:0:0:0:
169,191,104303,5,4,3:0:0:0:
224,305,104545,1,0,0:0:0:0:
238,308,104666,1,0,0:0:0:0:
252,309,104787,2,0,P|314:316|423:298,1,165.000006294251,6|0,0:0|0:0,0:0:0:0:
512,209,105513,2,0,P|472:204|428:209,1,82.5000031471254,0|0,1:0|0:0,0:0:0:0:
327,243,105996,1,0,0:0:0:0:
360,153,106238,5,8,0:0:0:0:
303,307,106480,1,0,3:0:0:0:
261,166,106722,1,8,3:0:0:0:
397,293,106964,1,4,3:0:0:0:
159,270,107206,2,0,P|205:258|249:270,1,82.5000031471254,0|0,1:0|0:0,0:0:0:0:
477,357,107690,6,0,P|457:283|495:198,1,165.000006294251,4|0,1:2|0:0,0:0:0:0:
419,29,108416,2,0,P|426:72|415:114,1,82.5000031471254,0|0,1:0|3:3,0:0:0:0:
365,211,108900,1,0,0:0:0:0:
289,113,109142,5,8,2:2:0:0:
452,192,109384,1,0,3:0:0:0:
261,239,109625,1,8,3:0:0:0:
383,137,109867,1,0,3:0:0:0:
399,275,110109,1,4,3:0:0:0:
224,138,110351,1,0,0:0:0:0:
215,150,110472,1,0,0:0:0:0:
203,158,110593,6,0,P|160:178|42:181,1,165.000006294251,4|0,0:0|3:0,0:0:0:0:
252,235,111319,2,0,P|298:224|333:230,1,82.5000031471254,0|0,1:0|0:0,0:0:0:0:
431,277,111803,1,0,0:0:0:0:
304,365,112045,6,0,P|288:317|297:279,1,82.5000031471254,8|0,0:0|3:0,0:0:0:0:
359,88,112529,2,0,P|375:136|366:174,1,82.5000031471254,8|0,3:0|3:0,0:0:0:0:
222,327,113013,2,0,P|174:343|136:334,1,82.5000031471254,4|0,3:0|0:0,0:0:0:0:
0,176,113496,6,0,B|48:144|112:192|112:192|176:240|232:192,1,247.500009441376,4|0,1:2|1:0,0:0:0:0:
315,113,114464,1,2,0:0:0:0:
352,226,114706,1,0,3:0:0:0:
223,107,114948,5,8,0:0:0:0:
401,147,115190,1,0,3:0:0:0:
282,246,115432,1,8,3:0:0:0:
318,79,115674,1,4,3:0:0:0:
194,188,115916,1,4,3:0:0:0:
385,243,116158,1,0,0:0:0:0:
371,239,116279,1,0,0:0:0:0:
357,238,116400,6,0,P|311:245|201:308,1,165.000006294251,4|0,1:2|0:0,0:0:0:0:
65,339,117125,2,0,P|97:310|120:267,1,82.5000031471254,0|0,1:0|0:0,0:0:0:0:
98,183,117609,1,0,3:0:0:0:
220,158,117851,5,8,0:0:0:0:
56,245,118093,1,0,3:0:0:0:
179,266,118335,1,8,3:0:0:0:
148,127,118577,1,4,3:0:0:0:
282,255,118819,1,4,3:0:0:0:
60,325,119061,1,0,0:0:0:0:
64,311,119182,1,0,0:0:0:0:
72,299,119303,6,0,P|118:257|232:241,1,165.000006294251,4|0,1:2|0:0,0:0:0:0:
362,350,120029,2,0,P|391:321|401:282,1,82.5000031471254,8|0,3:0|0:0,0:0:0:0:
361,177,120513,1,0,0:0:0:0:
509,197,120754,5,8,0:0:0:0:
341,248,120996,1,0,3:0:0:0:
431,140,121238,1,8,3:0:0:0:
466,283,121480,1,4,3:0:0:0:
306,174,121722,1,4,3:0:0:0:
258,357,121964,1,0,0:0:0:0:
256,341,122085,1,0,0:0:0:0:
261,326,122206,6,0,P|311:281|412:282,1,165.000006294251,4|0,1:2|0:0,0:0:0:0:
505,241,122932,2,0,P|515:282|501:323,1,82.5000031471254,8|0,3:0|0:0,0:0:0:0:
350,353,123416,1,0,0:0:0:0:
387,184,123658,5,8,0:0:0:0:
428,337,123900,1,0,0:0:0:0:
285,246,124142,1,8,3:0:0:0:
455,246,124384,1,4,3:0:0:0:
294,362,124625,1,4,3:0:0:0:
138,252,124867,1,0,0:0:0:0:
146,235,124988,1,0,0:0:0:0:
161,223,125109,6,0,P|223:203|323:224,1,165.000006294251,4|0,1:2|0:0,0:0:0:0:
414,308,125835,2,0,P|444:268|436:217,1,82.5000031471254,8|0,3:0|0:0,0:0:0:0:
393,117,126319,1,0,0:0:0:0:
310,37,126561,5,8,0:0:0:0:
423,1,126803,1,0,0:0:0:0:
506,153,127045,1,8,3:0:0:0:
393,117,127287,1,4,3:0:0:0:
306,270,127529,1,4,3:0:0:0:
417,238,127771,1,0,0:0:0:0:
405,221,127892,1,0,0:0:0:0:
389,208,128013,6,0,P|316:173|231:193,1,165.000006294251,4|0,1:2|0:0,0:0:0:0:
91,307,128738,2,0,P|114:344|148:358,1,82.5000031471254,8|0,3:0|0:0,0:0:0:0:
258,336,129222,1,0,0:0:0:0:
237,190,129464,5,8,0:0:0:0:
176,274,129706,1,8,3:0:0:0:
327,234,129948,1,0,3:0:0:0:
111,220,130190,1,4,3:0:0:0:
253,326,130432,1,4,3:0:0:0:
178,151,130674,1,0,3:0:0:0:
174,133,130795,1,0,3:0:0:0:
178,114,130916,5,4,1:3:0:0:
197,62,131158,1,0,0:0:0:0:
172,12,131400,1,0,0:0:0:0:
56,98,131642,1,4,1:3:0:0:
37,151,131884,1,0,0:0:0:0:
62,201,132126,1,0,0:0:0:0:
165,72,132367,6,0,P|203:54|245:55,1,82.5,8|0,0:0|0:0,0:0:0:0:
265,69,132851,1,0,0:0:0:0:
283,17,133093,1,0,0:0:0:0:
293,71,133335,1,0,0:0:0:0:
323,116,133577,1,0,0:0:0:0:
409,192,133819,6,0,P|371:186|327:199,1,82.5,4|0,1:3|0:0,0:0:0:0:
312,219,134303,1,0,0:0:0:0:
236,138,134545,1,4,1:3:0:0:
258,194,134787,2,0,L|158:202,1,82.5
97,241,135513,6,0,P|148:243|128:290,1,110
80,294,136722,5,2,0:0:0:0:
97,241,136964,1,2,0:0:0:0:
63,347,137206,1,0,0:0:0:0:
137,286,137448,5,2,0:0:0:0:
154,233,137690,1,2,0:0:0:0:
120,339,137932,1,0,0:0:0:0:
194,278,138174,5,2,0:0:0:0:
211,225,138416,1,2,0:0:0:0:
285,164,138658,5,2,0:0:0:0:
268,217,138900,1,2,0:0:0:0:
247,273,139142,5,2,0:0:0:0:
300,290,139384,1,2,0:0:0:0:
414,306,139625,5,2,0:0:0:0:
397,253,139867,1,2,0:0:0:0:
431,359,140109,1,0,0:0:0:0:
357,298,140351,5,2,0:0:0:0:
340,245,140593,1,2,0:0:0:0:
374,351,140835,1,0,0:0:0:0:
300,290,141077,5,2,0:0:0:0:
283,237,141319,1,2,0:0:0:0:
209,176,141561,5,2,0:0:0:0:
226,229,141803,1,2,0:0:0:0:
283,237,142045,5,2,0:0:0:0:
258,330,142287,1,2,0:0:0:0:
42,293,142529,6,0,P|75:280|121:291,1,68.75,4|8,0:0|0:0,0:0:0:0:
156,315,142892,1,0,0:0:0:0:
156,315,143013,2,0,L|173:270,1,34.375,8|0,0:1|0:0,0:0:0:0:
239,347,143254,2,0,L|194:330,1,34.375,8|0,0:1|0:0,0:0:0:0:
260,218,143496,2,0,P|235:246|231:282,1,68.75,10|2,0:1|0:1,0:0:0:0:
188,217,143859,5,2,0:1:0:0:
188,217,143980,2,0,P|150:226|111:219,1,68.75,8|0,0:1|0:0,0:0:0:0:
68,199,144343,1,0,0:0:0:0:
68,199,144464,2,0,L|42:269,1,68.75,8|0,0:1|0:0,0:0:0:0:
82,139,144948,1,8,0:1:0:0:
19,318,145190,1,8,0:1:0:0:
210,285,145432,5,4,0:0:0:0:
343,322,145674,2,0,P|328:310|308:304,1,34.375,8|8,0:0|0:1,0:0:0:0:
153,336,145916,1,8,0:1:0:0:
172,352,146036,1,0,0:0:0:0:
196,361,146157,1,8,0:1:0:0:
222,362,146278,1,0,0:0:0:0:
246,354,146400,2,0,L|283:362,1,34.375,2|2,3:3|3:3,0:3:0:0:
376,345,146642,1,2,3:3:0:0:
376,345,146763,1,2,3:3:0:0:
329,366,146886,6,0,L|308:255,1,103.125,8|8,0:1|0:1,0:0:0:0:
331,199,147367,2,0,P|294:198|265:214,1,68.75,8|8,0:1|0:1,0:0:0:0:
242,278,147730,1,0,0:0:0:0:
242,278,147851,2,0,L|197:260,1,34.375,8|0,0:1|0:0,0:0:0:0:
162,221,148093,2,0,L|117:239,1,34.375,8|0,0:1|0:0,0:0:0:0:
1,265,148335,6,0,L|41:273,1,34.375,4|0,0:0|0:0,0:0:0:0:
76,180,148577,2,0,L|68:220,1,34.375,8|0,0:0|0:0,0:0:0:0:
133,289,148819,5,8,0:1:0:0:
107,292,148939,1,0,0:0:0:0:
84,304,149060,1,8,0:1:0:0:
66,322,149181,1,0,0:0:0:0:
121,350,149303,5,2,3:0:0:0:
146,346,149423,1,2,3:0:0:0:
169,334,149544,1,2,3:0:0:0:
187,316,149665,1,2,3:0:0:0:
206,258,149788,6,0,P|237:279|244:317,1,68.75,8|0,0:1|0:0,0:0:0:0:
224,364,150150,1,0,0:0:0:0:
224,364,150270,2,0,L|297:348,1,68.75,8|8,0:1|0:1,0:0:0:0:
375,322,150754,1,8,0:1:0:0:
299,241,150996,2,8,P|303:259|315:273,1,34.375,8|8,0:1|0:1,0:1:0:0:
460,369,151238,6,0,L|456:325,1,34.375,4|0,0:0|0:0,0:0:0:0:
419,235,151480,2,0,L|423:279,1,34.375,8|8,0:0|0:1,0:0:0:0:
507,260,151722,6,0,P|486:265|472:280,1,34.375,8|0,0:1|0:0,0:0:0:0:
372,344,151964,2,0,P|393:339|407:324,1,34.375,8|0,0:1|0:0,0:0:0:0:
471,184,152206,5,2,3:0:0:0:
476,158,152326,1,2,3:0:0:0:
477,133,152447,1,2,3:0:0:0:
473,107,152568,1,2,3:0:0:0:
463,83,152690,2,0,L|404:34,1,68.75,8|0,0:1|0:0,0:0:0:0:
315,36,153053,1,0,0:0:0:0:
315,36,153174,2,0,L|374:85,1,68.75,8|0,0:1|0:0,0:0:0:0:
483,164,153658,6,8,P|463:153|443:151,1,34.375,8|8,0:1|0:1,0:1:0:0:
383,216,153900,2,8,P|366:211|351:202,1,34.375,8|8,0:1|0:1,0:1:0:0:
198,120,154141,6,0,P|232:109|273:119,1,68.75,4|8,0:0|0:0,0:0:0:0:
241,239,154505,1,8,0:1:0:0:
241,239,154625,2,0,P|230:205|240:164,1,68.75,8|8,0:1|0:1,0:0:0:0:
299,53,155109,5,2,3:0:0:0:
315,72,155229,1,2,3:0:0:0:
324,96,155350,1,2,3:0:0:0:
326,122,155471,1,2,3:0:0:0:
321,147,155592,1,8,0:1:0:0:
241,239,155835,2,0,L|278:249,1,34.375,0|8,0:0|0:1,0:0:0:0:
349,234,156077,6,0,P|350:267|329:301,1,68.75,8|0,0:1|0:0,0:0:0:0:
166,254,156561,2,0,P|165:221|186:187,1,68.75,8|0,0:1|0:0,0:0:0:0:
271,109,157045,6,0,L|234:99,1,34.375,4|0,0:0|0:0,0:0:0:0:
241,239,157287,2,0,L|278:249,1,34.375,8|8,0:0|0:1,0:0:0:0:
166,254,157529,5,8,0:1:0:0:
163,231,157649,1,0,0:0:0:0:
168,209,157770,1,8,0:1:0:0:
181,191,157891,1,0,0:0:0:0:
238,173,158013,5,2,3:0:0:0:
251,204,158133,1,2,3:0:0:0:
250,238,158254,1,2,3:0:0:0:
236,269,158375,1,2,3:0:0:0:
210,292,158496,6,0,L|105:320,1,103.125,8|8,0:1|0:1,0:0:0:0:
28,225,158981,2,0,L|133:252,1,103.125,8|0,0:1|0:0,0:0:0:0:
184,179,159464,2,0,L|136:191,2,34.375,8|0|8,0:1|0:0|0:1,0:0:0:0:
346,133,159948,6,0,P|363:127|382:129,1,34.375,4|0,0:0|0:0,0:0:0:0:
439,179,160190,2,0,P|422:185|403:183,1,34.375,2|0,0:0|0:0,0:0:0:0:
349,231,160432,6,0,P|343:214|345:195,1,34.375,2|0,0:0|0:0,0:0:0:0:
435,80,160674,2,0,P|441:97|439:116,1,34.375,2|0,0:0|0:0,0:0:0:0:
439,179,160916,2,0,P|435:197|425:214,1,34.375,2|0,0:0|0:0,0:0:0:0:
388,263,161158,2,0,P|376:278|358:292,1,34.375,2|0,0:0|0:0,0:0:0:0:
311,332,161400,6,0,P|356:320|414:341,1,103.125,2|0,0:0|0:0,0:0:0:0:
475,377,161884,2,0,P|485:361|486:340,1,34.375,2|0,0:0|0:0,0:0:0:0:
433,249,162125,2,0,P|442:266|461:281,1,34.375,2|0,0:0|0:0,0:0:0:0:
335,263,162367,2,0,P|354:272|379:276,1,34.375,2|0,0:0|0:0,0:0:0:0:
277,325,162609,2,0,P|295:331|320:330,1,34.375,2|0,0:0|0:0,0:0:0:0:
494,196,162851,6,0,P|444:178|392:187,1,103.125,6|0,0:0|0:0,0:0:0:0:
310,205,163335,2,0,P|316:222|330:241,1,34.375,2|0,0:0|0:0,0:0:0:0:
347,132,163577,2,0,P|341:115|327:96,1,34.375,2|0,0:0|0:0,0:0:0:0:
258,136,163819,2,0,P|241:130|221:130,1,34.375,2|0,0:0|0:0,0:0:0:0:
229,222,164061,2,0,P|213:223|196:232,1,34.375,2|0,0:0|0:0,0:0:0:0:
128,223,164303,6,0,P|136:265|184:299,1,103.125
142,345,164787,2,0,P|91:303|72:225,1,137.5
196,231,165513,1,0,0:0:0:0:
196,231,165634,1,0,0:0:0:0:
196,231,165754,6,0,P|211:223|229:222,1,34.375,4|0,0:0|0:0,0:0:0:0:
323,247,165996,2,0,P|307:255|290:256,1,34.375,8|0,0:0|0:0,0:0:0:0:
273,155,166238,2,0,P|281:170|282:187,1,34.375,8|0,0:1|0:0,0:0:0:0:
244,317,166480,2,0,P|235:301|234:284,1,34.375,8|0,0:1|0:0,0:0:0:0:
301,111,166722,5,2,0:3:0:0:
317,130,166842,1,2,0:3:0:0:
328,153,166963,1,2,0:3:0:0:
333,178,167084,1,2,0:3:0:0:
330,204,167208,2,0,L|392:252,1,68.75,8|0,0:1|0:0,0:0:0:0:
386,321,167569,1,8,0:1:0:0:
386,321,167690,6,0,L|324:273,1,68.75,8|0,0:1|3:0,0:0:0:0:
259,267,168053,1,0,3:0:0:0:
259,267,168174,2,0,L|292:239,1,34.375,8|0,0:1|0:0,0:0:0:0:
245,194,168416,2,0,L|289:186,1,34.375,8|0,0:1|0:0,0:0:0:0:
372,136,168658,6,0,P|388:168|380:208,1,68.75,4|0,0:0|0:3,0:0:0:0:
359,255,169020,1,8,0:1:0:0:
359,255,169141,5,8,0:1:0:0:
382,244,169261,1,8,0:1:0:0:
408,243,169383,1,8,0:1:0:0:
432,251,169503,1,8,0:1:0:0:
396,304,169625,5,2,3:0:0:0:
372,314,169745,1,10,3:1:0:0:
346,315,169866,1,10,3:1:0:0:
322,307,169987,1,2,3:0:0:0:
297,251,170109,6,0,L|292:295,1,34.375,8|4,0:1|0:3,0:0:0:0:
281,359,170351,1,8,0:1:0:0:
205,295,170593,2,0,P|221:262|214:224,1,68.75,8|0,0:1|0:1,0:1:0:0:
180,165,170956,5,8,0:1:0:0:
180,165,171077,2,8,L|227:153,1,34.375,8|0,0:1|0:1,0:1:0:0:
298,135,171319,1,8,0:1:0:0:
298,135,171440,1,0,0:0:0:0:
255,145,171561,6,0,L|239:75,1,68.75,4|8,0:0|0:0,0:0:0:0:
189,31,171924,1,0,0:0:0:0:
189,31,172045,6,0,P|178:48|173:69,1,34.375
239,175,172287,2,0,P|250:158|255:137,1,34.375
123,42,172529,5,2,3:0:0:0:
128,67,172650,1,2,3:0:0:0:
104,115,172770,5,2,3:0:0:0:
128,122,172891,1,2,3:0:0:0:
176,97,173012,5,0,3:0:0:0:
161,118,173133,2,0,P|156:150|165:184,1,68.75,4|8,0:3|0:1,0:0:0:0:
208,227,173496,5,8,0:1:0:0:
73,259,173738,2,0,L|108:265,1,34.375,8|0,3:1|3:0,0:0:0:0:
192,305,173980,6,0,P|159:309|120:325,1,68.75,8|8,0:1|0:1,0:0:0:0:
281,352,174464,6,0,P|288:336|291:319,1,34.375,4|0,0:0|0:0,0:0:0:0:
256,212,174706,2,0,P|249:228|246:245,1,34.375,8|0,0:0|0:0,0:0:0:0:
281,352,174948,5,8,0:1:0:0:
306,350,175068,1,0,0:0:0:0:
332,348,175189,1,8,0:1:0:0:
358,346,175310,1,0,0:0:0:0:
397,286,175432,5,2,3:0:0:0:
362,288,175552,1,2,3:0:0:0:
328,291,175673,1,2,3:0:0:0:
294,293,175794,1,2,3:0:0:0:
246,244,175916,6,0,L|287:242,1,34.375,8|4,0:1|0:3,0:0:0:0:
426,232,176158,1,8,0:1:0:0:
431,323,176400,5,8,0:1:0:0:
421,141,176641,2,0,L|423:187,1,34.375,8|0,0:1|0:0,0:0:0:0:
451,338,176883,5,8,0:1:0:0:
325,193,177125,2,0,L|352:222,1,34.375,8|0,0:1|0:0,0:0:0:0:
507,158,177367,5,4,0:0:0:0:
391,48,177609,2,0,P|371:42|351:42,1,34.375,8|0,0:0|0:0,0:0:0:0:
207,149,177851,5,8,0:1:0:0:
222,169,177971,1,0,0:0:0:0:
244,181,178092,1,8,0:1:0:0:
270,182,178213,1,0,0:0:0:0:
338,172,178335,5,2,3:0:0:0:
323,141,178455,1,2,3:0:0:0:
296,120,178576,1,2,3:0:0:0:
262,114,178697,1,2,3:0:0:0:
207,149,178819,6,0,P|197:130|196:112,1,34.375,8|0,0:1|0:0,0:0:0:0:
186,32,179061,1,0,0:0:0:0:
206,40,179182,1,0,0:0:0:0:
227,48,179303,2,0,P|262:57|298:52,1,68.75,8|0,0:1|0:0,0:0:0:0:
363,125,179666,1,4,0:3:0:0:
363,125,179787,2,0,P|328:116|292:121,1,68.75,8|0,0:1|0:0,0:0:0:0:
265,175,180150,1,0,0:0:0:0:
328,177,180270,6,0,P|326:193|318:210,1,34.375,4|0,0:0|0:0,0:0:0:0:
203,178,180512,2,0,P|205:162|213:145,1,34.375,8|0,0:0|0:0,0:0:0:0:
241,36,180754,6,0,L|201:41,1,34.375,8|0,0:1|0:0,0:0:0:0:
152,88,180996,2,0,L|112:93,1,34.375,8|0,0:1|0:0,0:0:0:0:
20,167,181238,5,2,3:0:0:0:
50,151,181358,1,2,3:0:0:0:
84,149,181479,1,2,3:0:0:0:
117,160,181600,1,2,3:0:0:0:
143,183,181722,2,0,L|177:178,1,34.375,8|4,0:1|0:3,0:0:0:0:
73,232,181964,1,8,0:1:0:0:
117,92,182206,5,8,0:1:0:0:
184,248,182448,2,0,P|177:230|178:210,1,34.375,0|0,3:0|3:0,3:0:0:0:
231,64,182690,1,8,0:1:0:0:
307,178,182932,1,0,3:0:0:0:
307,178,183053,1,0,3:0:0:0:
273,164,183174,6,0,L|204:173,1,68.75,4|8,0:0|0:0,0:0:0:0:
146,110,183537,1,0,0:0:0:0:
146,110,183658,5,0,3:0:0:0:
170,117,183778,1,0,3:0:0:0:
196,115,183899,1,0,3:0:0:0:
218,103,184020,1,0,3:0:0:0:
235,49,184141,5,2,3:0:0:0:
240,82,184261,1,2,3:0:0:0:
261,108,184382,1,2,3:0:0:0:
293,121,184503,1,2,3:0:0:0:
351,90,184625,5,4,3:0:0:0:
360,113,184745,1,0,3:0:0:0:
358,139,184866,1,0,3:0:0:0:
346,161,184987,1,0,3:0:0:0:
288,193,185109,5,0,1:0:0:0:
462,239,185351,1,0,3:0:0:0:
462,239,185472,1,0,3:0:0:0:
462,239,185593,2,0,P|431:229|396:232,1,68.75,4|0,3:0|0:0,0:0:0:0:
278,301,186077,6,0,P|287:316|300:326,1,34.375,4|0,0:0|0:0,0:0:0:0:
386,361,186319,2,0,P|405:367|427:363,1,34.375,8|0,0:0|0:0,0:0:0:0:
458,276,186561,5,4,3:0:0:0:
437,260,186681,1,0,3:0:0:0:
411,256,186802,1,0,3:0:0:0:
385,261,186923,1,0,3:0:0:0:
331,294,187045,5,2,3:0:0:0:
297,299,187165,1,2,3:0:0:0:
265,288,187286,1,2,3:0:0:0:
241,263,187407,1,2,3:0:0:0:
181,225,187529,6,0,L|144:238,1,34.375,4|0,3:0|3:0,3:0:0:0:
89,290,187770,2,0,L|52:303,1,34.375,0|0,3:0|3:0,3:0:0:0:
166,326,188012,6,0,L|203:339,1,34.375,4|0,3:0|3:0,3:0:0:0:
297,299,188254,2,0,L|265:288,1,34.375,0|0,3:0|3:0,3:0:0:0:
400,343,188496,6,0,L|368:354,1,34.375,4|0,3:0|3:0,3:0:0:0:
477,297,188738,2,0,L|514:310,1,34.375,0|0,3:0|3:0,3:0:0:0:
375,163,188980,6,2,P|334:178|279:166,1,96.2500009179115,6|2,0:1|0:1,0:1:0:0:
179,114,189343,1,0,0:0:0:0:
179,114,189464,6,2,P|165:167|173:207,1,96.2500009179115,2|2,0:1|0:1,0:1:0:0:
368,255,189948,2,2,P|382:202|374:162,1,96.2500009179115,2|2,0:1|0:1,0:1:0:0:
317,63,190311,1,0,0:0:0:0:
317,63,190432,6,2,B|276:86|276:86|219:68,1,96.2500009179115,2|2,0:1|0:1,0:1:0:0:
214,66,190754,1,2,0:1:0:0:
199,61,190835,1,2,0:1:0:0:
184,57,190916,2,2,B|137:42|137:42|96:65,1,96.2500009179115,2|2,0:1|0:1,0:1:0:0:
57,283,191400,2,2,B|104:298|104:298|145:275,1,96.2500009179115,2|2,0:1|0:1,0:1:0:0:
262,162,191883,5,6,0:1:0:0:
142,99,192125,2,2,P|72:90|4:113,1,144.375001376867,2|0,0:1|0:1,0:1:0:0:
181,162,192609,2,2,P|215:119|211:70,2,96.2500009179115,2|0|2,0:1|0:1|0:1,0:1:0:0:
72,242,193335,6,2,B|113:219|113:219|160:234,1,96.2500009179115,2|2,0:1|0:1,0:1:0:0:
175,238,193657,1,2,0:1:0:0:
190,243,193738,1,2,0:1:0:0:
205,248,193819,2,2,B|251:262|251:262|292:239,1,96.2500009179115,2|2,0:1|0:1,0:1:0:0:
399,156,194303,1,2,0:1:0:0:
493,334,194545,1,2,0:1:0:0:
307,320,194787,6,0,P|282:320|259:327,1,48.1250004589558,6|0,3:1|0:0,0:0:0:0:
370,352,195029,2,0,P|395:352|418:345,1,48.1250004589558,2|0,0:0|0:0,0:0:0:0:
512,269,195270,6,0,P|488:275|464:275,1,48.1250004589558,0|0,3:0|2:0,2:0:0:0:
357,233,195512,2,0,P|380:226|404:226,1,48.1250004589558,2|0,2:0|2:0,2:0:0:0:
509,124,195754,5,2,0:1:0:0:
480,145,195874,1,2,0:1:0:0:
445,152,195995,1,2,0:1:0:0:
410,145,196116,1,2,0:1:0:0:
380,124,196238,6,2,B|332:117|332:117|279:143,1,96.2500009179115,2|2,0:1|0:1,0:1:0:0:
249,343,196722,2,2,B|297:350|297:350|349:323,1,96.2500009179115,2|2,0:1|0:1,0:1:0:0:
461,237,197206,1,2,0:1:0:0:
289,138,197448,2,2,B|200:97|200:97|104:122,1,192.500001835823,0|2,0:0|0:1,0:1:0:0:
55,225,198174,1,2,0:1:0:0:
5,61,198416,1,2,0:1:0:0:
163,20,198658,1,2,0:1:0:0:
213,184,198900,1,2,0:1:0:0:
114,280,199141,6,2,L|19:321,1,96.2500009179115,2|2,0:1|0:1,0:1:0:0:
20,158,199625,2,2,L|115:117,1,96.2500009179115,2|2,0:1|0:1,0:1:0:0:
215,215,200109,2,2,P|248:257|308:260,1,96.2500009179115,2|2,0:1|0:1,0:1:0:0:
469,198,200593,6,2,P|381:162|290:187,1,192.500001835823,6|2,0:1|0:1,0:1:0:0:
196,320,201319,2,2,P|284:356|375:331,1,192.500001835823,2|2,0:1|0:1,0:1:0:0:
445,69,202045,5,2,0:2:0:0:
446,91,202165,1,0,0:0:0:0:
426,100,202286,1,0,0:0:0:0:
410,84,202407,1,0,0:0:0:0:
420,64,202529,2,2,B|445:17|445:17|406:60|340:40,1,144.375001376867,2|0,0:0|0:0,0:0:0:0:
306,6,203012,2,2,P|293:58|317:97,1,96.2500009179115
438,250,203496,6,2,B|397:273|397:273|350:258,1,96.2500009179115,6|2,0:1|0:1,0:1:0:0:
335,254,203818,1,2,0:1:0:0:
320,249,203899,1,2,0:1:0:0:
304,243,203980,2,2,B|257:228|257:228|216:251,1,96.2500009179115,2|2,0:1|0:1,0:1:0:0:
0,340,204464,2,2,B|47:355|47:355|88:332,1,96.2500009179115,2|2,0:1|0:1,0:1:0:0:
72,150,204948,6,2,B|26:210|26:210|38:282,1,144.375001376867,2|0,0:1|0:1,0:1:0:0:
87,332,205432,2,2,B|133:272|133:272|121:200,1,144.375001376867,2|0,0:1|0:1,0:1:0:0:
95,82,205916,2,2,L|132:72,6,24.0625002294779,2|2|2|2|2|2|2,0:1|0:1|0:1|0:1|0:1|0:1|0:1,0:1:0:0:
194,124,206400,6,2,L|157:114,6,24.0625002294779,6|2|2|2|2|2|2,0:1|0:1|0:1|0:1|0:1|0:1|0:1,0:1:0:0:
261,80,206883,2,2,L|298:70,6,24.0625002294779,2|2|2|2|2|2|2,0:1|0:1|0:1|0:1|0:1|0:1|0:1,0:1:0:0:
271,186,207367,2,2,L|264:162,6,24.0625002294779,2|2|2|2|2|2|2,0:1|0:1|0:1|0:1|0:1|0:1|0:1,0:1:0:0:
377,116,207851,6,2,L|345:124,6,24.0625002294779,2|2|2|2|2|2|2,0:1|0:1|0:1|0:1|0:1|0:1|0:1,0:1:0:0:
456,182,208335,2,2,L|488:190,6,24.0625002294779,2|2|2|2|2|2|2,0:1|0:1|0:1|0:1|0:1|0:1|0:1,0:1:0:0:
363,229,208819,2,2,L|331:237,6,24.0625002294779,2|2|2|2|2|2|2,0:1|0:1|0:1|0:1|0:1|0:1|0:1,0:1:0:0:
446,311,209303,6,2,L|451:334,6,24.0625002294779,6|2|2|2|2|2|2,0:1|0:1|0:1|0:1|0:1|0:1|0:1,0:1:0:0:
322,358,209787,2,2,L|327:334,6,24.0625002294779,2|2|2|2|2|2|2,0:1|0:1|0:1|0:1|0:1|0:1|0:1,0:1:0:0:
218,297,210270,2,2,L|212:273,6,24.0625002294779,2|2|2|2|2|2|2,0:1|0:1|0:1|0:1|0:1|0:1|0:1,0:1:0:0:
104,333,210754,6,2,P|116:298|76:313,1,82.5,2|2,0:1|0:1,0:1:0:0:
80,295,210996,6,2,P|68:262|104:260,1,82.5,2|2,0:1|0:1,0:1:0:0:
104,260,211238,6,2,P|116:225|76:240,1,82.5,2|2,0:1|0:1,0:1:0:0:
80,222,211480,6,2,P|68:189|104:187,1,82.5,2|2,0:1|0:1,0:1:0:0:
104,187,211722,6,2,P|116:152|76:167,1,82.5,2|2,0:1|0:1,0:1:0:0:
80,149,211964,6,2,P|68:116|104:114,1,82.5,2|2,0:1|0:1,0:1:0:0:
128,150,212206,5,4,0:0:0:0:
236,257,212448,1,0,0:0:0:0:
219,237,212569,1,8,0:1:0:0:
206,216,212690,2,0,P|196:181|206:140,1,68.75,8|0,0:1|0:0,0:0:0:0:
279,29,213174,2,0,P|265:14|248:5,1,34.375,2|2,3:0|3:0,2:0:0:0:
164,27,213416,2,0,P|179:41|198:50,1,34.375,2|2,3:0|3:0,2:0:0:0:
248,83,213658,5,8,0:1:0:0:
363,29,213900,1,0,0:0:0:0:
315,112,214141,1,8,0:1:0:0:
439,90,214383,1,0,0:0:0:0:
283,21,214625,1,8,0:1:0:0:
153,130,214867,1,0,0:0:0:0:
172,147,214988,1,0,0:0:0:0:
194,158,215109,6,0,P|228:161|266:149,1,68.75,4|8,0:0|0:0,0:0:0:0:
307,99,215472,1,8,0:1:0:0:
307,99,215593,2,0,L|347:111,1,34.375,8|0,0:1|0:0,0:0:0:0:
384,164,215835,2,0,L|424:151,1,34.375,8|0,0:1|0:0,0:0:0:0:
467,89,216077,5,2,3:0:0:0:
488,110,216197,1,2,3:0:0:0:
498,139,216318,1,2,3:0:0:0:
496,170,216439,1,2,3:0:0:0:
480,196,216561,6,0,L|403:222,1,68.75,8|0,0:1|0:0,0:0:0:0:
445,274,216924,1,8,0:1:0:0:
445,274,217045,2,0,L|367:299,1,68.75,8|8,0:1|0:1,0:0:0:0:
294,218,217529,2,0,L|334:230,1,34.375,8|0,0:1|0:0,0:0:0:0:
295,307,217770,2,0,L|255:295,1,34.375,8|0,0:1|0:0,0:0:0:0:
357,146,218012,5,4,0:0:0:0:
189,177,218254,1,8,0:0:0:0:
199,162,218375,1,8,0:1:0:0:
205,145,218496,2,0,P|208:127|207:106,1,34.375,8|0,0:1|0:0,0:0:0:0:
125,33,218738,2,0,P|122:51|123:72,1,34.375,8|0,0:1|0:0,0:0:0:0:
42,122,218980,5,2,3:0:0:0:
55,143,219100,1,2,3:0:0:0:
76,158,219221,1,2,3:0:0:0:
101,164,219342,1,2,3:0:0:0:
126,160,219463,1,8,0:1:0:0:
247,76,219706,2,0,P|229:75|210:81,1,34.375,8|0,0:1|0:0,0:0:0:0:
147,146,219948,5,8,0:1:0:0:
346,84,220190,2,0,P|330:76|312:73,1,34.375,8|0,0:1|0:0,0:0:0:0:
166,128,220432,6,0,P|182:136|200:139,1,34.375,8|0,0:1|0:0,0:0:0:0:
267,138,220674,2,0,P|286:133|303:125,1,34.375,8|0,0:1|0:0,0:0:0:0:
366,71,220916,5,4,0:0:0:0:
244,19,221158,1,0,0:0:0:0:
223,16,221279,1,8,0:1:0:0:
203,14,221400,2,0,P|181:15|161:25,1,34.375,8|0,0:1|0:0,0:0:0:0:
193,193,221641,2,0,P|215:192|235:182,1,34.375,8|0,0:1|0:0,0:0:0:0:
346,84,221883,5,2,3:0:0:0:
321,76,222003,1,2,3:0:0:0:
295,74,222124,1,2,3:0:0:0:
270,80,222245,1,2,3:0:0:0:
247,92,222367,2,0,P|213:105|178:98,1,68.75,8|0,0:1|0:0,0:0:0:0:
142,37,222730,1,8,0:1:0:0:
142,37,222851,2,0,P|176:24|211:31,1,68.75,8|0,0:1|0:0,0:0:0:0:
342,140,223335,6,0,L|332:177,1,34.375,8|0,0:1|0:0,0:0:0:0:
262,189,223577,2,0,L|272:233,1,34.375,8|0,0:1|0:0,0:0:0:0:
290,359,223819,6,0,P|286:322|301:288,1,68.75,4|8,0:0|0:0,0:0:0:0:
340,241,224182,1,8,0:1:0:0:
340,241,224303,2,0,L|349:205,1,34.375,8|0,0:1|0:0,0:0:0:0:
280,158,224545,2,0,L|271:122,1,34.375,8|0,0:1|0:0,0:0:0:0:
371,18,224787,5,2,3:0:0:0:
356,39,224907,1,2,3:0:0:0:
348,63,225028,1,2,3:0:0:0:
348,89,225149,1,2,3:0:0:0:
355,113,225270,1,8,0:1:0:0:
425,202,225512,5,0,0:0:0:0:
339,274,225754,1,8,0:1:0:0:
318,285,225875,1,0,0:0:0:0:
293,289,225996,1,0,0:0:0:0:
268,285,226117,1,0,0:0:0:0:
245,272,226238,6,0,L|210:289,1,34.375,8|0,0:1|0:0,0:0:0:0:
352,343,226480,2,0,L|387:326,1,34.375,8|0,0:1|0:0,0:0:0:0:
333,189,226722,6,0,L|350:224,1,34.375,4|0,0:0|0:0,0:0:0:0:
477,259,226964,2,0,L|460:224,1,34.375,8|0,0:0|0:0,0:0:0:0:
482,106,227206,6,0,L|447:123,1,34.375,8|0,0:1|0:0,0:0:0:0:
385,58,227448,2,0,L|350:41,1,34.375,8|0,0:1|0:0,0:0:0:0:
261,89,227690,5,2,0:1:0:0:
238,100,227811,1,2,0:1:0:0:
212,103,227932,1,2,0:1:0:0:
187,98,228053,1,2,0:1:0:0:
125,103,228174,5,8,0:1:0:0:
131,69,228294,1,0,0:0:0:0:
153,45,228416,2,0,P|170:36|189:33,1,34.375
323,88,228658,1,8,0:1:0:0:
317,122,228779,1,0,0:0:0:0:
295,146,228900,2,0,P|277:154|259:158,1,34.375
144,177,229141,6,0,P|166:178|183:184,1,34.375,8|0,0:1|0:0,0:0:0:0:
270,231,229383,2,0,P|250:232|229:224,1,34.375,8|0,0:1|0:0,0:0:0:0:
96,192,229625,6,0,B|64:288|160:381|288:352|384:192|128:192|224:32|351:0|448:96|415:197,1,641.300000978546,12|0,0:0|0:0,0:0:0:0:
437,343,235432,5,2,3:2:0:0:
408,296,235674,1,2,3:2:0:0:
398,242,235916,1,2,3:2:0:0:
416,191,236158,1,2,3:2:0:0:
209,122,237851,1,2,3:2:0:0:
376,57,238335,5,2,3:2:0:0:
430,53,238577,1,2,3:2:0:0:
461,8,238819,1,2,3:2:0:0:
345,102,239303,1,2,3:2:0:0:
407,261,240270,1,2,3:2:0:0:
345,102,240754,1,2,3:2:0:0:
168,189,241238,5,6,3:2:0:0:
113,186,241480,1,2,3:2:0:0:
68,154,241722,1,2,3:2:0:0:
48,102,241964,1,2,3:2:0:0:
184,46,242690,6,0,L|195:28,14,13.75,4|0|0|0|0|0|0|0|0|0|0|0|0|0|0,3:2|0:0|0:0|0:0|0:0|0:0|0:0|0:0|0:0|0:0|0:0|0:0|0:0|0:0|0:0,0:0:0:0:
243,12,243658,6,0,P|250:47|217:85,1,82.5
169,114,244141,6,0,P|218:111|262:147,1,96.2500009179115,4|0,0:0|0:0,0:0:0:0:
284,202,244504,1,0,0:0:0:0:
284,202,244625,2,0,P|308:189|321:167,1,48.1250004589558,8|0,0:1|0:0,0:0:0:0:
245,19,244867,2,0,P|221:32|208:54,1,48.1250004589558,8|0,0:1|0:0,0:0:0:0:
155,201,245109,1,2,0:3:0:0:
155,201,245230,1,2,0:3:0:0:
155,201,245351,2,0,P|181:213|206:213,1,48.1250004589558,8|0,3:1|0:0,0:0:0:0:
403,92,245593,6,0,P|357:75|310:84,1,96.2500009179115,4|0,0:0|0:0,0:0:0:0:
194,147,245956,1,8,0:1:0:0:
194,147,246077,2,0,P|182:173|182:198,1,48.1250004589558,8|0,0:1|0:0,0:0:0:0:
323,269,246319,2,0,P|335:243|335:218,1,48.1250004589558,8|0,0:1|0:0,0:0:0:0:
311,82,246561,1,8,3:1:0:0:
311,82,246682,1,8,0:1:0:0:
311,82,246803,2,8,L|361:66,1,48.1250004589558,8|8,3:1|0:1,0:1:0:0:
512,164,247045,6,0,L|414:195,1,96.2500009179115,4|0,0:0|0:0,0:0:0:0:
335,223,247408,1,4,0:3:0:0:
335,223,247529,1,8,0:1:0:0:
479,308,247770,1,8,0:1:0:0:
265,175,248012,1,2,3:0:0:0:
246,218,248132,1,2,3:0:0:0:
256,264,248253,1,2,3:0:0:0:
290,297,248374,1,2,3:0:0:0:
161,273,248496,6,0,L|62:301,1,96.2500009179115,4|4,0:0|0:3,0:0:0:0:
53,237,248859,1,8,0:1:0:0:
53,237,248980,6,0,L|99:224,1,48.1250004589558,8|0,0:1|0:0,0:0:0:0:
173,338,249222,2,0,L|127:351,1,48.1250004589558,8|0,0:1|0:0,0:0:0:0:
159,175,249464,1,2,0:1:0:0:
184,156,249585,1,2,0:1:0:0:
198,130,249706,2,8,L|189:83,1,48.1250004589558,8|8,3:1|0:1,0:1:0:0:
25,223,249948,6,0,P|64:240|117:238,1,96.2500009179115,4|0,0:0|0:2,0:0:0:0:
267,220,250311,1,4,0:3:0:0:
243,204,250432,2,0,P|218:199|195:203,1,48.1250004589558,8|0,0:1|0:0,0:0:0:0:
88,320,250674,2,0,P|113:325|136:321,1,48.1250004589558,8|0,0:1|0:0,0:0:0:0:
231,272,250916,5,2,3:0:0:0:
211,299,251036,1,2,3:0:0:0:
230,327,251157,1,2,3:0:0:0:
262,319,251278,1,2,3:0:0:0:
253,240,251400,6,0,P|264:261|266:285,1,48.1250004589558,4|0,0:0|0:0,0:0:0:0:
252,355,251641,1,8,0:1:0:0:
365,285,251883,1,8,0:1:0:0:
327,131,252140,6,0,P|321:157|332:192,1,48.1250004589558,8|4,0:1|0:3,0:0:0:0:
385,300,252367,1,8,0:1:0:0:
271,370,252609,2,0,L|215:364,1,48.1250004589558,8|8,0:1|0:1,0:0:0:0:
109,185,252851,6,0,P|155:174|210:195,1,96.2500009179115,4|0,0:0|0:0,0:0:0:0:
273,270,253214,1,0,0:0:0:0:
292,255,253335,6,0,P|307:232|311:206,1,48.1250004589558,8|0,0:1|0:0,0:0:0:0:
219,145,253577,2,0,P|204:168|200:194,1,48.1250004589558,8|0,0:1|0:0,0:0:0:0:
168,311,253819,5,2,3:0:0:0:
199,313,253939,1,2,3:0:0:0:
225,330,254060,1,2,3:0:0:0:
240,357,254181,1,2,3:0:0:0:
325,343,254303,6,0,L|426:319,1,96.2500009179115,4|0,0:0|0:0,0:0:0:0:
485,219,254666,1,8,0:1:0:0:
485,219,254787,6,0,L|427:233,1,48.1250004589558,8|0,0:1|0:0,0:0:0:0:
381,179,255029,2,0,L|323:193,1,48.1250004589558,8|0,0:1|0:0,0:0:0:0:
262,158,255270,5,8,3:1:0:0:
248,186,255390,1,8,0:1:0:0:
252,217,255511,1,8,3:1:0:0:
273,240,255632,1,8,0:1:0:0:
334,190,255754,6,0,P|347:144|326:97,1,96.2500009179115,4|0,0:0|0:0,0:0:0:0:
251,22,256117,1,8,0:1:0:0:
251,22,256238,2,0,L|304:25,1,48.1250004589558,8|0,0:1|0:0,0:0:0:0:
241,117,256480,2,0,L|188:114,1,48.1250004589558,8|0,0:1|0:0,0:0:0:0:
62,39,256722,5,10,0:1:0:0:
91,27,256842,1,10,0:1:0:0:
122,29,256963,1,10,0:1:0:0:
150,44,257084,1,10,0:1:0:0:
251,22,257206,5,4,0:0:0:0:
203,195,257448,1,4,0:3:0:0:
185,171,257569,1,8,0:1:0:0:
184,140,257690,1,8,0:1:0:0:
332,128,257932,1,8,0:1:0:0:
149,119,258174,5,8,3:1:0:0:
146,158,258294,1,8,0:1:0:0:
154,196,258415,1,8,3:1:0:0:
180,225,258536,1,8,0:1:0:0:
256,145,258658,6,0,P|262:98|234:48,1,96.2500009179115,4|0,0:0|0:0,0:0:0:0:
161,27,259020,1,0,0:0:0:0:
161,27,259141,5,8,0:1:0:0:
150,56,259261,1,0,0:0:0:0:
155,87,259382,1,8,0:1:0:0:
175,112,259503,1,0,0:0:0:0:
215,123,259625,5,2,3:0:0:0:
231,78,259745,1,2,3:0:0:0:
219,32,259866,1,2,3:0:0:0:
183,0,259987,1,2,3:0:0:0:
164,173,260111,6,0,P|204:193|257:179,1,96.2500009179115,4|8,0:0|0:1,0:0:0:0:
264,161,260474,1,8,0:1:0:0:
348,189,260593,5,8,0:1:0:0:
335,193,260713,1,8,0:1:0:0:
321,198,260834,1,8,0:1:0:0:
307,202,260955,1,8,0:1:0:0:
259,239,261077,5,8,0:1:0:0:
272,243,261197,1,8,0:1:0:0:
286,248,261319,2,8,L|335:264,1,48.1250004589558,8|8,0:1|0:1,0:1:0:0:
465,319,261561,6,0,P|413:311|368:323,1,96.2500009179115,4|0,0:0|0:0,0:0:0:0:
302,355,261924,1,8,0:1:0:0:
302,355,262045,2,0,L|197:321,1,96.2500009179115,8|8,0:1|0:1,0:0:0:0:
3,324,262529,5,10,3:1:0:0:
50,325,262649,1,10,3:1:0:0:
93,305,262770,1,10,3:1:0:0:
123,267,262891,1,10,3:1:0:0:
224,323,263012,6,0,L|315:352,1,96.2500009179115,4|4,0:0|0:3,0:0:0:0:
247,252,263375,1,0,0:0:0:0:
247,252,263496,2,0,L|192:235,1,48.1250004589558,8|0,0:1|0:0,0:0:0:0:
114,349,263738,2,0,L|169:366,1,48.1250004589558,8|0,0:1|0:0,0:0:0:0:
123,267,263980,6,8,L|106:212,1,48.1250004589558,8|8,0:1|0:1,0:1:0:0:
185,102,264222,2,8,L|168:157,1,48.1250004589558,8|8,0:1|0:1,0:1:0:0:
11,151,264464,6,0,P|62:169|108:155,1,96.2500009179115,4|0,0:0|0:0,0:0:0:0:
185,102,264827,1,8,0:1:0:0:
185,102,264948,5,8,0:1:0:0:
165,127,265069,1,0,0:0:0:0:
160,158,265190,1,8,0:1:0:0:
171,187,265310,1,0,0:0:0:0:
193,214,265432,5,2,3:0:0:0:
229,182,265553,1,2,3:0:0:0:
241,136,265674,1,2,3:0:0:0:
225,91,265794,1,2,3:0:0:0:
162,32,265916,6,0,P|181:16|207:9,1,48.1250004589558,4|0,0:0|0:0,0:0:0:0:
267,69,266158,2,0,P|247:84|222:92,1,48.1250004589558,4|0,0:3|0:0,0:0:0:0:
118,139,266400,5,0,0:0:0:0:
138,153,266520,1,0,0:0:0:0:
161,161,266641,2,0,P|188:169|209:168,1,48.1250004589558
267,69,266883,1,0,0:0:0:0:
247,55,267003,1,0,0:0:0:0:
224,47,267125,2,0,P|197:39|176:40,1,48.1250004589558
51,98,267367,5,4,0:0:0:0:
106,209,267609,1,8,0:0:0:0:
83,222,267730,1,0,1:3:0:0:
60,235,267851,2,0,P|40:225|21:210,1,41.2500015735627,0|0,3:0|0:0,0:0:0:0:
28,114,268093,2,0,P|48:123|67:139,1,41.2500015735627,4|0,0:3|2:0,0:0:0:0:
196,160,268335,5,2,0:3:0:0:
166,166,268455,1,2,0:3:0:0:
137,155,268576,1,2,0:3:0:0:
117,132,268697,1,2,0:3:0:0:
171,102,268819,5,0,0:0:0:0:
33,32,269061,1,0,1:0:0:0:
37,188,269303,1,0,2:0:0:0:
37,188,269424,1,8,3:0:0:0:
37,188,269545,2,0,P|57:199|84:201,1,41.2500015735627,4|0,3:0|0:0,0:0:0:0:
183,183,269787,5,0,1:0:0:0:
220,167,269907,1,0,3:0:0:0:
261,168,270028,1,0,3:0:0:0:
299,185,270149,1,0,3:0:0:0:
372,121,270270,6,0,P|328:128|289:110,1,82.5000031471254,4|8,0:0|0:0,0:0:0:0:
245,50,270633,1,0,1:0:0:0:
245,50,270754,5,0,0:0:0:0:
219,58,270874,1,0,0:0:0:0:
193,67,270995,1,0,1:3:0:0:
167,76,271116,1,0,0:0:0:0:
112,79,271238,5,2,0:1:0:0:
123,110,271358,1,2,0:1:0:0:
134,141,271479,1,2,0:1:0:0:
145,172,271600,1,2,0:1:0:0:
91,167,271722,5,0,3:0:0:0:
136,28,271964,1,0,1:0:0:0:
199,175,272206,1,0,0:0:0:0:
193,150,272327,1,0,1:0:0:0:
191,123,272448,2,0,P|191:100|195:81,1,41.2500015735627
224,15,272690,1,0,1:0:0:0:
224,15,272811,1,0,3:0:0:0:
224,15,272932,1,0,3:0:0:0:
467,65,273174,6,0,L|361:75,1,82.5000031471254,4|8,0:0|2:0,0:0:0:0:
326,148,273537,1,0,1:0:0:0:
326,148,273658,2,0,L|432:138,1,82.5000031471254,0|0,2:0|1:3,0:0:0:0:
506,219,274141,5,2,0:1:0:0:
468,203,274261,1,2,0:1:0:0:
427,205,274382,1,2,0:1:0:0:
391,224,274503,1,2,0:1:0:0:
387,292,274625,6,0,P|346:280|327:236,1,82.5000031471254,0|0,0:0|1:0,0:0:0:0:
376,108,275109,1,0,0:0:0:0:
376,108,275230,1,0,1:3:0:0:
376,108,275351,1,4,3:3:0:0:
235,133,275593,1,2,0:1:0:0:
194,140,275728,1,2,0:1:0:0:
153,148,275834,1,2,0:1:0:0:
113,156,275955,1,2,0:1:0:0:
29,108,276077,6,0,L|118:91,1,82.5000031471254,4|8,0:0|0:0,0:0:0:0:
113,27,276440,1,0,1:0:0:0:
113,27,276561,2,0,L|202:10,1,82.5000031471254,0|4,0:0|0:3,0:0:0:0:
402,61,277045,2,0,L|357:53,1,41.2500015735627,2|2,0:1|0:1,0:1:0:0:
291,104,277287,2,0,L|247:116,1,41.2500015735627,2|2,0:1|0:1,0:1:0:0:
191,82,277529,5,0,3:0:0:0:
362,126,277770,1,0,1:0:0:0:
209,193,278012,1,0,0:0:0:0:
229,207,278133,2,0,P|279:223|313:216,1,82.5000031471254,0|0,1:3|0:0,0:0:0:0:
365,190,278496,1,0,3:0:0:0:
369,196,278617,1,0,3:0:0:0:
373,202,278738,1,0,3:0:0:0:
511,329,278980,6,0,P|473:319|427:323,1,82.5000031471254,4|8,0:0|0:0,0:0:0:0:
365,357,279343,2,0,L|254:297,1,123.750004720688,0|4,1:3|1:3,0:0:0:0:
91,301,279948,1,2,0:1:0:0:
110,264,280068,1,2,0:1:0:0:
130,228,280189,1,2,0:1:0:0:
149,192,280310,1,2,0:1:0:0:
90,194,280432,5,0,3:0:0:0:
240,74,280674,2,0,P|210:118|210:188,1,123.750004720688,0|0,1:0|3:0,0:0:0:0:
245,241,281158,2,0,L|198:266,1,41.2500015735627,0|0,3:0|2:0,3:0:0:0:
90,326,281400,5,0,1:2:0:0:
127,310,281520,1,0,3:0:0:0:
168,312,281641,1,0,3:0:0:0:
204,332,281762,1,0,3:0:0:0:
314,294,281883,6,0,L|270:376,1,82.5000031471254,4|8,0:0|0:0,0:0:0:0:
384,335,282246,1,0,1:3:0:0:
384,335,282367,2,0,L|428:253,1,82.5000031471254,0|0,0:2|1:3,0:0:0:0:
261,198,282851,5,2,0:1:0:0:
297,215,282971,1,2,0:1:0:0:
338,212,283092,1,2,0:1:0:0:
371,188,283213,1,2,0:1:0:0:
430,201,283335,6,0,P|426:159|397:134,1,82.5000031471254,0|0,0:0|1:3,0:0:0:0:
227,130,283819,1,8,2:1:0:0:
225,156,283939,1,8,2:1:0:0:
237,181,284060,1,8,2:1:0:0:
259,196,284181,1,8,2:1:0:0:
293,141,284303,5,0,1:0:0:0:
293,141,284424,1,0,3:0:0:0:
293,141,284545,1,0,3:0:0:0:
95,90,284787,6,0,P|138:79|184:88,1,82.5000031471254,4|0,0:0|0:0,0:0:0:0:
227,130,285150,1,0,1:3:0:0:
227,130,285270,2,0,L|269:113,1,41.2500015735627
237,40,285512,2,0,L|275:55,1,41.2500015735627,0|0,1:3|0:0,0:0:0:0:
163,153,285754,5,2,0:1:0:0:
203,145,285874,1,2,0:1:0:0:
242,157,285995,1,2,0:1:0:0:
270,186,286116,1,2,0:1:0:0:
326,145,286238,6,0,L|412:133,1,82.5000031471254,0|0,3:0|1:3,0:0:0:0:
494,119,286722,1,0,3:0:0:0:
494,119,286843,1,4,3:0:0:0:
494,119,286964,1,0,1:3:0:0:
488,213,287206,2,0,L|461:181,1,41.2500015735627,8|0,3:1|3:0,0:0:0:0:
472,35,287448,2,0,L|445:66,1,41.2500015735627,0|0,3:0|3:0,0:0:0:0:
339,45,287690,6,0,P|300:56|254:42,1,82.5000031471254,4|0,0:0|0:0,0:0:0:0:
198,6,288053,1,0,1:3:0:0:
198,6,288174,2,0,L|175:48,1,41.2500015735627
256,116,288416,2,0,L|214:93,1,41.2500015735627,0|0,1:3|0:0,0:0:0:0:
109,79,288658,5,2,0:1:0:0:
145,97,288778,1,2,0:1:0:0:
168,131,288899,1,2,0:1:0:0:
171,172,289020,1,2,0:1:0:0:
239,182,289141,5,0,0:0:0:0:
106,149,289383,1,0,1:2:0:0:
146,271,289625,1,0,3:0:0:0:
143,244,289745,1,0,3:0:0:0:
151,218,289866,1,0,3:0:0:0:
168,197,289987,1,0,3:0:0:0:
192,187,290109,5,0,1:0:0:0:
200,227,290229,1,0,1:0:0:0:
188,266,290350,1,0,1:0:0:0:
159,294,290471,1,0,1:0:0:0:
82,213,290594,6,0,L|162:236,1,82.5000031471254,4|8,0:0|0:0,0:0:0:0:
136,160,290956,2,0,L|14:127,1,123.750004720688,0|0,1:0|1:3,0:0:0:0:
8,15,291561,5,2,0:3:0:0:
34,22,291681,1,2,0:3:0:0:
60,30,291802,1,2,0:3:0:0:
86,37,291923,1,2,0:3:0:0:
55,85,292045,5,0,3:0:0:0:
141,25,292287,1,0,1:3:0:0:
127,155,292529,1,0,3:0:0:0:
127,155,292650,1,0,1:0:0:0:
127,155,292770,1,4,3:3:0:0:
212,109,293012,5,4,3:3:0:0:
186,102,293132,1,0,3:0:0:0:
160,94,293253,1,0,3:0:0:0:
134,87,293374,1,0,3:0:0:0:
141,25,293496,5,4,0:0:0:0:
28,119,293738,1,8,0:0:0:0:
48,134,293859,2,0,P|84:149|128:155,1,82.5000031471254,0|0,1:3|0:0,0:0:0:0:
205,131,294222,2,0,L|186:168,1,41.2500015735627,0|0,1:3|0:0,0:0:0:0:
144,218,294464,5,2,0:1:0:0:
138,237,294585,1,2,0:1:0:0:
155,249,294706,1,2,0:1:0:0:
171,236,294827,1,2,0:1:0:0:
164,216,294948,2,0,P|206:205|252:218,1,82.5000031471254,0|0,3:0|1:3,0:0:0:0:
312,264,295432,1,8,0:1:0:0:
312,264,295553,1,4,1:3:0:0:
312,264,295674,1,4,3:0:0:0:
196,363,295916,5,0,3:0:0:0:
197,342,296036,1,0,3:0:0:0:
199,321,296157,1,0,3:0:0:0:
201,301,296278,1,0,3:0:0:0:
203,280,296400,5,2,2:0:0:0:
255,264,296641,1,2,0:0:0:0:
282,216,296883,1,2,0:0:0:0:
282,120,297125,1,2,2:0:0:0:
230,137,297366,1,2,0:0:0:0:
203,185,297608,1,2,0:0:0:0:
147,289,297851,6,0,P|159:231|137:186,1,110,2|2,0:0|0:0,0:0:0:0:
98,148,298577,1,2,0:0:0:0:
64,191,298819,1,2,0:0:0:0:
103,229,299061,1,2,0:0:0:0:
0,239,299303,6,0,P|52:251|106:225,1,110,2|2,0:0|0:0,0:0:0:0:
136,187,300029,1,2,0:0:0:0:
159,137,300270,2,0,L|252:131,1,82.5,2|2,0:0|0:0,0:0:0:0:
195,82,300996,6,0,P|308:129|197:183,1,302.5,2|0,0:0|0:0,0:0:0:0:
119,330,304020,6,0,L|141:334,1,13.75
168,287,304262,1,0,0:0:0:0:
168,287,304383,2,0,L|134:279,1,27.5
165,233,304746,2,0,L|187:237,1,13.75
254,300,305109,6,0,L|235:307,30,13.75,4|0|0|0|0|0|0|0|0|0|0|0|0|0|0|0|0|0|0|0|0|0|0|0|0|0|0|0|0|0|0,0:0|0:0|0:0|0:0|0:0|0:0|0:0|0:0|0:0|0:0|0:0|0:0|0:0|0:0|0:0|0:0|0:0|0:0|0:0|0:0|0:0|0:0|0:0|0:0|0:0|0:0|0:0|0:0|0:0|0:0|0:0,0:0:0:0:
169,330,307045,6,0,L|191:334,1,13.75
256,192,307529,12,0,314303,0:0:0:0:
