osu file format v14

[General]
AudioFilename: audio.mp3
AudioLeadIn: 0
PreviewTime: 243567
Countdown: 0
SampleSet: Soft
StackLeniency: 0.3
Mode: 0
LetterboxInBreaks: 0
EpilepsyWarning: 1
WidescreenStoryboard: 1

[Editor]
Bookmarks: 29333,52559,75784,101917,142559,165784,189014,212240,229659,244175,255788,267401,296430
DistanceSpacing: 0.1
BeatDivisor: 8
GridSize: 16
TimelineZoom: 2.2

[Metadata]
Title:ARIA
TitleUnicode:ARIA
Artist:Kalafina
ArtistUnicode:Kalafina
Creator:Irohas
Version:Augury
Source:空の境界 第四章 伽藍の洞
Tags:mugiwarasekai kalibe collab collaboration kara no kyoukai yuki kajiura seventh heaven garan no dou
BeatmapID:1359565
BeatmapSetID:641104

[Difficulty]
HPDrainRate:5.5
CircleSize:4.2
OverallDifficulty:7
ApproachRate:9
SliderMultiplier:2.1
SliderTickRate:1

[Events]
//Background and Video events
0,0,"love.jpg",0,0
//Break Periods
2,237597,240668
2,241468,242720
//Storyboard Layer 0 (Background)
//Storyboard Layer 1 (Fail)
//Storyboard Layer 2 (Pass)
//Storyboard Layer 3 (Foreground)
//Storyboard Sound Samples

[TimingPoints]
301,483.870967741935,3,2,2,20,1,0
301,-277.777777777778,4,2,2,20,0,0
784,-277.777777777778,4,2,2,5,0,0
4655,-277.777777777778,4,2,2,20,0,0
6107,-200,4,2,2,20,0,0
10946,-277.777777777778,4,2,2,20,0,0
11188,-277.777777777778,4,2,2,5,0,0
17720,-200,4,2,2,20,0,0
22317,-277.777777777778,4,2,2,20,0,0
22559,-277.777777777778,4,2,2,5,0,0
26430,-277.777777777778,4,2,2,15,0,0
28849,-277.777777777778,4,2,1,5,0,0
29333,-153.846153846154,4,2,1,30,0,0
32236,-153.846153846154,4,2,1,34,0,0
34171,-153.846153846154,4,2,1,30,0,0
38042,-153.846153846154,4,2,1,34,0,0
39978,-153.846153846154,4,2,1,30,0,0
40946,-153.846153846154,4,2,1,40,0,0
42155,-153.846153846154,4,2,1,25,0,0
42518,-153.846153846154,4,2,1,40,0,0
44091,-153.846153846154,4,2,1,25,0,0
44333,-153.846153846154,4,2,1,40,0,0
45059,-153.846153846154,4,2,1,25,0,0
45300,-153.846153846154,4,2,1,30,0,0
45542,-153.846153846154,4,2,1,5,0,0
46268,-153.846153846154,4,2,1,15,0,0
46752,-153.846153846154,4,2,1,20,0,0
49171,-153.846153846154,4,2,1,30,0,0
49413,-153.846153846154,4,2,1,20,0,0
49655,-153.846153846154,4,2,1,40,0,0
50381,-153.846153846154,4,2,1,20,0,0
50623,-153.846153846154,4,2,1,40,0,0
51591,-153.846153846154,4,2,1,25,0,0
52559,-153.846153846154,4,2,1,30,0,0
55462,-153.846153846154,4,2,1,25,0,0
55704,-153.846153846154,4,2,1,30,0,0
55946,-153.846153846154,4,2,1,35,0,0
56188,-153.846153846154,4,2,1,40,0,0
57397,-153.846153846154,4,2,1,30,0,0
57881,-153.846153846154,4,2,1,20,0,0
58365,-153.846153846154,4,2,1,30,0,0
58849,-153.846153846154,4,2,1,25,0,0
59091,-153.846153846154,4,2,1,30,0,0
61268,-153.846153846154,4,2,1,35,0,0
61994,-153.846153846154,4,2,1,30,0,0
62236,-153.846153846154,4,2,1,25,0,0
62357,-153.846153846154,4,2,1,5,0,0
62962,-153.846153846154,4,2,1,25,0,0
63688,-153.846153846154,4,2,1,30,0,0
71913,-153.846153846154,4,2,1,20,0,0
72881,-357.142857142857,4,2,1,25,0,0
73002,-357.142857142857,4,2,1,5,0,0
74817,-166.666666666667,4,2,2,20,0,0
75240,-166.666666666667,4,2,1,5,0,0
75300,-125,4,2,2,25,0,0
75724,-166.666666666667,4,2,1,5,0,0
75784,-166.666666666667,4,2,2,35,0,0
80623,-166.666666666667,4,2,2,40,0,0
80865,-166.666666666667,4,2,2,30,0,0
81591,-166.666666666667,4,2,2,35,0,0
100704,-166.666666666667,4,2,2,20,0,0
101430,-200,4,2,1,30,0,0
101792,-200,4,2,2,5,0,0
101913,-133.333333333333,3,2,1,60,0,1
104333,-200,3,2,1,60,0,1
104696,-133.333333333333,3,2,1,5,0,1
104817,-133.333333333333,3,2,1,60,0,1
107236,-200,3,2,1,60,0,1
107599,-133.333333333333,3,2,1,5,0,1
107720,-133.333333333333,3,2,1,60,0,1
110139,-200,3,2,1,60,0,1
110502,-133.333333333333,3,2,1,5,0,1
110623,-133.333333333333,3,2,1,60,0,1
113042,-200,3,2,1,60,0,0
113405,-133.333333333333,3,2,1,5,0,0
113526,-133.333333333333,3,2,1,60,0,1
115946,-200,3,2,1,60,0,1
116309,-133.333333333333,3,2,1,5,0,1
116430,-133.333333333333,3,2,1,60,0,1
118849,-200,3,2,1,60,0,1
119212,-133.333333333333,3,2,1,5,0,1
119333,-133.333333333333,3,2,1,60,0,1
121752,-200,3,2,1,60,0,1
122115,-133.333333333333,3,2,1,5,0,1
122236,-133.333333333333,3,2,1,60,0,1
125139,-142.857142857143,3,2,1,50,0,0
128042,-166.666666666667,3,2,1,50,0,0
130825,-166.666666666667,3,2,1,5,0,0
130946,-153.846153846154,3,2,2,45,0,0
132881,-153.846153846154,3,2,2,40,0,0
134333,-153.846153846154,3,2,2,35,0,0
135542,-344.827586206897,4,2,1,25,0,0
135784,-344.827586206897,4,2,1,5,0,0
138204,-344.827586206897,4,2,1,15,0,0
142075,-344.827586206897,4,2,1,5,0,0
142559,-125,4,2,2,65,0,0
189010,-100,3,2,1,70,0,1
190462,-83.3333333333333,3,2,1,70,0,1
190704,-100,3,2,1,70,0,1
193365,-83.3333333333333,3,2,1,70,0,1
193607,-100,3,2,1,70,0,1
200139,-100,3,2,1,50,0,0
200502,-100,3,2,1,5,0,0
200623,-100,3,2,1,75,0,1
203526,-83.3333333333333,3,2,1,75,0,1
203768,-100,3,2,1,75,0,1
206430,-100,3,2,2,75,0,1
211752,-100,3,2,1,75,0,1
212236,-111.111111111111,3,2,2,65,0,0
229655,-111.111111111111,3,2,1,40,0,0
231107,-200,3,2,1,35,0,0
231349,-200,3,2,1,5,0,0
232075,-200,3,2,1,35,0,0
232559,-250,3,2,1,30,0,0
232800,-250,3,2,1,5,0,0
233526,-250,3,2,1,30,0,0
234010,-333.333333333333,3,2,1,25,0,0
234252,-333.333333333333,3,2,1,5,0,0
237397,-333.333333333333,3,2,2,5,0,0
243688,-200,3,2,1,30,0,0
244050,-200,3,2,1,5,0,0
244171,-100,3,2,2,80,0,1
255300,-166.666666666667,3,2,2,60,0,0
255663,-100,3,2,2,5,0,0
255784,-100,3,2,2,80,0,1
266913,-90.9090909090909,3,2,2,80,0,1
267397,-111.111111111111,3,2,1,65,0,0
278526,-142.857142857143,3,2,1,65,0,0
278889,-142.857142857143,3,2,1,5,0,0
279010,-111.111111111111,3,2,1,65,0,0
290623,-111.111111111111,3,2,1,60,0,0
295220,-111.111111111111,3,2,1,55,0,0
296430,-200,3,2,2,20,0,0
301026,-277.777777777778,3,2,2,20,0,0
301268,-277.777777777778,3,2,2,5,0,0
305139,-277.777777777778,3,2,2,20,0,0
314696,-277.777777777778,3,2,1,10,0,0

[Colours]
Combo1 : 234,204,221
Combo2 : 255,252,191
Combo3 : 201,243,197
Combo4 : 242,211,181
Combo5 : 255,193,193
Combo6 : 255,210,249
Combo7 : 199,235,235
SliderBorder : 213,239,210
SliderTrackOverride : 54,37,37

[HitObjects]
68,129,301,5,4,3:0:0:0:
68,129,542,2,0,B|119:107|195:166|195:166|345:118|236:-29|71:61|196:165|233:244|233:244|272:186|343:203,1,642.600015688477
364,210,6107,5,2,0:0:0:0:
414,149,6349,1,0,0:0:0:0:
390,73,6591,1,0,0:0:0:0:
313,56,6833,1,0,0:0:0:0:
265,119,7075,1,0,0:0:0:0:
298,190,7317,1,0,0:0:0:0:
241,245,7559,1,2,0:0:0:0:
241,245,8042,5,2,0:0:0:0:
175,200,8284,1,0,0:0:0:0:
104,234,8526,1,0,0:0:0:0:
94,312,8768,1,0,0:0:0:0:
155,360,9010,1,2,0:0:0:0:
155,360,9494,5,2,0:0:0:0:
231,377,9736,1,0,0:0:0:0:
285,320,9978,1,0,0:0:0:0:
267,243,10220,1,0,0:0:0:0:
190,223,10462,1,2,0:0:0:0:
190,223,10946,6,0,B|122:184|62:288|-10:244|-10:244|78:231|104:187|118:133|88:82|35:97|35:97|61:130|54:165,1,529.200012919922,2|0,0:3|0:0,0:0:0:0:
59,127,17720,5,2,0:0:0:0:
117,73,17962,1,0,0:0:0:0:
193,91,18204,1,0,0:0:0:0:
232,159,18446,1,0,0:0:0:0:
194,228,18688,1,0,0:0:0:0:
242,289,18930,1,0,0:0:0:0:
312,254,19171,5,2,0:0:0:0:
312,254,19655,1,2,0:0:0:0:
311,175,19897,1,0,0:0:0:0:
232,159,20139,1,0,0:0:0:0:
194,228,20381,1,0,0:0:0:0:
242,289,20623,5,2,0:0:0:0:
242,289,21107,1,2,0:0:0:0:
213,362,21349,1,0,0:0:0:0:
138,335,21591,2,0,P|100:324|58:338,1,78.75
63,334,22317,6,0,B|96:314|139:321|171:366|171:366|187:318|222:263|262:256|298:282|308:308|307:332|301:366|271:379|246:388|219:381|198:365|172:283|178:235|222:203,1,567.000013842774,2|0,0:0|0:0,0:0:0:0:
256,192,26430,12,0,28849,0:0:0:0:
455,325,29333,5,2,0:0:0:0:
387,357,29575,1,2,0:0:0:0:
342,297,29817,1,2,0:0:0:0:
380,232,30059,1,2,0:0:0:0:
452,253,30300,5,0,0:0:0:0:
277,368,31268,2,0,P|241:365|206:352,1,68.2499968757631
139,290,31752,2,0,P|126:256|123:218,1,68.2499968757631,2|0,0:0|0:0,0:0:0:0:
167,138,32236,5,2,0:0:0:0:
115,82,32478,1,2,0:0:0:0:
64,138,32720,2,0,L|211:110,1,136.499993751526,2|2,0:0|0:0,0:0:0:0:
64,138,34171,5,2,0:0:0:0:
198,112,34655,1,2,0:0:0:0:
384,73,35139,5,2,0:0:0:0:
366,146,35381,1,2,0:0:0:0:
388,217,35623,1,2,0:0:0:0:
351,151,35865,1,2,0:0:0:0:
289,107,36107,5,0,0:0:0:0:
487,236,37075,2,0,P|475:272|467:303,1,68.2499968757631
391,360,37559,2,0,P|379:324|371:293,1,68.2499968757631,2|0,0:0|0:0,0:0:0:0:
299,231,38042,5,2,0:0:0:0:
231,263,38284,1,2,0:0:0:0:
257,334,38526,2,0,L|288:183,1,136.499993751526,2|2,0:0|0:0,0:0:0:0:
257,334,39978,5,2,0:0:0:0:
284,200,40462,1,2,0:0:0:0:
257,334,40946,6,0,L|116:361,1,136.499993751526,2|0,0:0|0:0,0:0:0:0:
31,332,41671,2,0,P|6:274|36:203,1,136.499993751526,2|0,0:0|0:0,0:0:0:0:
116,165,42397,1,0,0:0:0:0:
105,138,43849,6,0,P|59:128|26:121,1,68.2499968757631,2|2,0:0|0:0,0:0:0:0:
106,56,44333,1,2,0:0:0:0:
106,56,44575,2,0,P|166:48|246:37,1,136.499993751526,2|0,0:0|0:0,0:0:0:0:
305,108,45300,6,0,P|382:156|387:19,1,272.999987503052
404,25,46752,5,2,0:0:0:0:
441,90,46994,1,0,0:0:0:0:
398,152,47236,1,2,0:0:0:0:
324,138,47478,1,2,0:0:0:0:
272,192,47720,1,0,0:0:0:0:
293,264,47962,1,0,0:0:0:0:
268,335,48204,1,2,0:0:0:0:
253,348,48688,5,2,0:0:0:0:
185,315,48930,1,0,0:0:0:0:
110,319,49171,1,2,0:0:0:0:
52,366,49413,1,0,0:0:0:0:
103,311,49655,5,2,0:0:0:0:
82,238,49897,1,2,0:0:0:0:
132,182,50139,1,2,0:0:0:0:
152,109,50381,1,0,0:0:0:0:
110,46,50623,1,2,0:0:0:0:
110,46,51591,5,2,0:0:0:0:
85,235,52075,1,2,0:0:0:0:
85,235,52559,6,0,P|117:214|207:254,1,136.499993751526,4|0,3:0|0:0,0:0:0:0:
263,359,53284,1,0,0:0:0:0:
263,359,53526,2,0,P|270:319|282:272,1,68.2499968757631,0|0,3:0|0:0,0:0:0:0:
329,169,54010,1,8,0:1:0:0:
329,169,54494,6,0,P|338:204|342:235,1,68.2499968757631
255,113,54978,2,0,P|261:77|269:45,1,68.2499968757631
329,169,55462,5,2,0:0:0:0:
272,218,55704,1,2,0:0:0:0:
197,209,55946,1,2,0:0:0:0:
167,140,56188,1,2,0:0:0:0:
167,140,57397,5,2,0:0:0:0:
114,280,57881,1,2,0:0:0:0:
9,151,58365,6,0,P|22:222|39:298,1,136.499993751526,4|0,3:0|0:0,0:0:0:0:
122,135,59091,1,2,0:0:0:0:
122,135,59333,2,0,P|116:175|111:211,1,68.2499968757631,0|0,3:0|0:0,0:0:0:0:
64,62,59817,1,8,0:1:0:0:
199,236,60300,6,0,P|235:248|315:196,1,136.499993751526
301,128,61026,1,0,0:0:0:0:
213,34,61268,5,2,0:0:0:0:
225,108,61510,1,2,0:0:0:0:
295,132,61752,1,2,0:0:0:0:
354,86,61994,1,2,0:0:0:0:
329,15,62236,2,0,P|320:106|307:238,1,204.749990627289
357,284,63204,5,2,0:0:0:0:
227,227,63688,1,2,0:0:0:0:
255,296,63930,1,0,0:0:0:0:
213,358,64171,6,0,P|153:381|90:340,1,136.499993751526,4|0,3:0|0:0,0:0:0:0:
27,222,64897,1,0,0:0:0:0:
27,222,65139,2,0,P|32:252|39:298,1,68.2499968757631,0|0,3:0|0:0,0:0:0:0:
84,149,65623,5,8,0:1:0:0:
84,149,67075,6,0,P|116:123|203:150,1,136.499993751526,2|0,0:0|0:0,0:0:0:0:
282,96,67800,2,0,L|261:249,1,136.499993751526,2|0,0:0|0:0,0:0:0:0:
288,323,68526,5,0,0:0:0:0:
288,323,69010,5,2,0:0:0:0:
145,370,69494,1,2,0:0:0:0:
93,315,69736,1,0,0:0:0:0:
124,247,69978,5,4,3:0:0:0:
198,238,70220,1,2,0:0:0:0:
251,185,70462,1,2,0:0:0:0:
230,112,70704,1,2,0:0:0:0:
165,74,70946,2,0,P|141:66|91:80,1,68.2499968757631,0|0,3:0|0:0,0:0:0:0:
3,165,71430,1,8,0:1:0:0:
3,165,71913,6,0,P|13:221|28:307,1,136.499993751526,2|2,0:0|0:0,0:0:0:0:
26,299,72881,6,0,B|138:244|116:386|237:324,1,227.850002781372
240,320,74817,6,0,P|266:287|247:215,1,110.249996635437
248,220,75300,6,0,P|269:258|371:243,1,147
366,249,75784,5,8,3:0:0:0:
434,193,76026,1,2,0:0:0:0:
365,137,76268,2,0,P|333:139|303:147,1,62.9999980773926,2|0,0:0|0:0,0:0:0:0:
160,64,76752,2,0,P|190:72|221:74,1,62.9999980773926,2|0,0:3|0:0,0:0:0:0:
316,34,77236,5,2,0:3:0:0:
233,63,77478,1,2,0:0:0:0:
150,93,77720,2,0,L|168:157,1,62.9999980773926,2|0,0:0|0:0,0:0:0:0:
66,226,78204,1,0,0:0:0:0:
72,208,78446,1,2,0:3:0:0:
190,253,78688,5,8,3:0:0:0:
117,303,78930,1,2,0:0:0:0:
171,371,79171,2,0,L|236:360,1,62.9999980773926,2|0,0:0|0:0,0:0:0:0:
366,337,79655,1,0,3:0:0:0:
379,318,80139,6,0,P|389:289|389:252,1,62.9999980773926,8|0,0:1|0:0,0:0:0:0:
272,144,80623,1,2,0:0:0:0:
346,96,80865,1,2,0:0:0:0:
419,144,81107,2,0,L|438:78,1,62.9999980773926,2|0,0:0|0:0,0:0:0:0:
288,32,81591,5,8,3:0:0:0:
216,83,81833,1,2,0:0:0:0:
156,17,82075,2,0,L|91:26,1,62.9999980773926,2|0,0:0|0:0,0:0:0:0:
0,128,82559,2,0,L|62:136,1,62.9999980773926,0|0,3:0|0:0,0:0:0:0:
160,224,83042,5,2,0:3:0:0:
117,301,83284,1,2,0:0:0:0:
33,273,83526,2,0,P|21:252|18:206,1,62.9999980773926
67,118,84010,1,2,0:3:0:0:
62,136,84252,1,0,0:0:0:0:
181,93,84494,5,8,3:0:0:0:
261,129,84736,1,2,0:0:0:0:
343,98,84978,2,0,P|359:140|364:168,1,62.9999980773926,2|2,0:0|0:3,0:0:0:0:
435,228,85462,2,0,P|427:258|415:287,1,62.9999980773926,0|0,3:0|0:0,0:0:0:0:
340,356,85946,5,2,0:0:0:0:
265,345,86188,1,2,0:3:0:0:
190,334,86430,1,2,0:3:0:0:
86,378,86671,1,2,0:0:0:0:
86,378,86913,2,0,P|73:343|64:299,1,62.9999980773926,2|2,0:0|0:3,0:0:0:0:
117,215,87397,6,0,P|187:199|233:234,1,125.999996154785,8|0,3:0|0:0,0:0:0:0:
228,227,88123,1,0,0:0:0:0:
296,171,88365,2,0,L|359:181,1,62.9999980773926,0|0,3:0|0:0,0:0:0:0:
448,288,88849,5,2,0:0:0:0:
469,202,89091,1,2,0:0:0:0:
420,128,89333,1,2,0:0:0:0:
482,66,89575,1,2,0:3:0:0:
413,11,89817,2,0,L|347:21,1,62.9999980773926,2|0,0:0|0:0,0:0:0:0:
224,96,90300,5,8,3:0:0:0:
154,65,90542,1,0,0:0:0:0:
89,104,90784,2,0,P|121:94|159:86,1,62.9999980773926,2|2,0:0|0:3,0:0:0:0:
236,187,91268,2,0,P|205:177|175:170,1,62.9999980773926,0|0,3:0|0:0,0:0:0:0:
64,241,91752,5,8,0:1:0:0:
57,236,92236,5,2,0:3:0:0:
160,257,92478,1,2,0:0:0:0:
209,337,92720,5,2,0:0:0:0:
295,318,92962,1,2,0:3:0:0:
381,356,93204,6,0,P|392:326|397:279,1,62.9999980773926,8|0,3:0|0:0,0:0:0:0:
287,231,93688,2,0,P|276:201|271:170,1,62.9999980773926,2|2,0:0|0:3,0:0:0:0:
405,115,94171,2,0,P|415:85|420:54,1,62.9999980773926,2|0,3:2|0:0,0:0:0:0:
303,7,94655,5,8,0:1:0:0:
303,7,94897,1,2,0:3:0:0:
237,66,95139,2,0,P|201:58|166:52,1,62.9999980773926,2|2,0:0|0:3,0:0:0:0:
84,9,95623,2,0,P|77:46|70:80,1,62.9999980773926,2|2,0:0|0:3,0:0:0:0:
69,184,96107,6,0,P|124:149|182:164,1,125.999996154785,8|0,3:0|0:0,0:0:0:0:
245,103,96833,1,2,0:3:0:0:
286,194,97075,1,2,0:0:0:0:
237,267,97317,1,2,0:3:0:0:
305,341,97559,6,0,P|343:354|369:359,1,62.9999980773926,8|0,0:1|0:0,0:0:0:0:
237,267,98042,2,0,P|206:273|176:284,1,62.9999980773926,2|2,0:3|0:0,0:0:0:0:
300,185,98526,2,0,P|310:155|317:124,1,62.9999980773926,2|2,0:3|0:0,0:0:0:0:
394,42,99010,6,0,P|405:106|418:173,1,125.999996154785,8|2,3:0|0:0,0:0:0:0:
487,219,99736,1,0,0:0:0:0:
419,293,99978,2,0,P|400:283|356:278,1,62.9999980773926,2|0,3:2|0:0,0:0:0:0:
237,224,100462,6,0,P|247:243|252:287,1,62.9999980773926,8|2,0:1|0:0,0:0:0:0:
195,372,100946,2,0,L|130:361,1,62.9999980773926,2|2,0:3|0:3,0:0:0:0:
91,230,101430,6,0,L|12:243,1,78.75,2|0,0:0|0:0,0:0:0:0:
9,271,101913,6,0,L|177:242,1,157.500006008148,4|0,0:0|3:0,0:0:0:0:
166,238,102639,1,8,0:3:0:0:
309,377,102881,2,0,P|316:333|329:271,1,78.7500030040742,8|0,0:1|0:0,0:0:0:0:
398,364,103365,5,2,0:0:0:0:
239,269,103607,1,2,0:3:0:0:
398,364,103849,2,0,P|426:368|478:341,1,78.7500030040742,8|0,0:3|0:0,0:0:0:0:
290,86,104333,6,0,L|304:180,1,78.75,8|0,3:0|0:0,0:0:0:0:
311,194,104817,6,0,P|318:150|327:88,1,78.7500030040742,4|0,0:0|0:0,0:0:0:0:
160,36,105300,1,2,0:0:0:0:
181,136,105542,1,8,3:0:0:0:
256,1,105784,5,8,0:1:0:0:
256,1,106026,1,2,0:3:0:0:
63,103,106268,5,2,0:0:0:0:
181,136,106510,1,2,0:3:0:0:
0,254,106752,5,8,3:1:0:0:
101,194,106994,1,0,3:0:0:0:
172,338,107236,6,0,L|189:242,1,78.75,8|0,3:0|0:0,0:0:0:0:
195,230,107720,6,0,P|207:297|224:388,1,157.500006008148,4|0,0:0|3:0,0:0:0:0:
227,380,108446,1,8,0:3:0:0:
355,219,108688,2,0,P|349:257|343:299,1,78.7500030040742,8|0,0:1|0:0,0:0:0:0:
268,210,109171,5,2,0:0:0:0:
436,232,109413,1,2,0:3:0:0:
503,131,109655,5,8,0:3:0:0:
365,188,109897,1,0,3:0:0:0:
262,24,110139,6,0,L|274:122,1,78.75,8|0,3:0|0:0,0:0:0:0:
284,131,110623,6,0,P|289:92|296:50,1,78.7500030040742,4|2,0:0|0:0,0:0:0:0:
187,102,111107,1,0,3:0:0:0:
365,188,111349,1,8,0:3:0:0:
289,254,111591,2,0,P|294:292|300:331,1,78.7500030040742,8|2,0:1|0:3,0:0:0:0:
98,228,112075,5,2,0:0:0:0:
301,180,112317,1,8,0:3:0:0:
86,144,112559,5,8,3:0:0:0:
257,253,112800,1,0,3:0:0:0:
40,314,113042,6,0,L|139:327,1,78.75,8|0,3:0|0:0,0:0:0:0:
149,327,113526,6,0,P|107:290|139:198,1,157.500006008148,4|0,0:0|3:0,0:0:0:0:
140,198,114252,1,8,0:3:0:0:
308,306,114494,2,0,P|314:267|320:228,1,78.7500030040742,8|0,0:1|0:0,0:0:0:0:
245,167,114978,5,2,0:0:0:0:
409,254,115220,1,2,0:3:0:0:
242,365,115462,2,0,P|227:337|243:267,1,78.7500030040742,0|8,3:0|0:3,0:0:0:0:
414,37,115946,6,0,L|404:127,1,78.75,8|0,3:0|0:0,0:0:0:0:
391,143,116430,6,0,L|405:37,1,78.7500030040742,4|0,0:0|0:0,0:0:0:0:
201,198,116913,1,2,0:3:0:0:
305,226,117155,1,8,0:3:0:0:
188,110,117397,5,8,0:1:0:0:
188,110,117639,1,2,0:3:0:0:
243,316,117881,5,2,0:0:0:0:
139,250,118123,1,2,0:3:0:0:
285,105,118365,5,8,3:1:0:0:
335,203,118607,1,0,3:3:0:0:
130,150,118849,6,0,P|138:91|142:52,1,78.75,8|0,3:0|0:0,0:0:0:0:
134,40,119333,6,0,P|181:22|266:94,1,157.500006008148,4|0,0:0|3:0,0:0:0:0:
272,76,120059,1,8,0:3:0:0:
202,227,120300,2,0,P|194:187|187:146,1,78.7500030040742,8|0,0:1|0:0,0:0:0:0:
101,234,120784,5,2,0:0:0:0:
270,172,121026,1,2,0:3:0:0:
101,241,121268,5,0,3:0:0:0:
273,295,121510,1,8,0:3:0:0:
81,378,121752,6,0,P|111:359|159:364,1,78.75,8|0,3:0|0:0,0:0:0:0:
184,364,122236,6,0,L|28:337,1,157.500006008148,4|0,0:0|3:0,0:0:0:0:
180,189,122962,1,8,0:3:0:0:
257,265,123204,2,0,P|217:270|178:275,1,78.7500030040742
371,374,123688,5,2,0:0:0:0:
484,237,123930,1,2,0:3:0:0:
277,124,124171,5,8,0:1:0:0:
380,291,124413,1,8,3:0:0:0:
488,127,124655,5,8,0:3:0:0:
269,240,124897,1,2,0:3:0:0:
360,0,125139,6,0,L|388:159,1,146.999995513916,4|0,0:0|0:0,0:0:0:0:
384,152,125865,1,8,0:3:0:0:
227,16,126107,2,0,P|222:58|215:108,1,73.4999977569581,8|0,0:1|0:0,0:0:0:0:
108,256,126591,5,2,0:0:0:0:
84,148,126833,1,2,0:3:0:0:
211,304,127075,5,0,3:0:0:0:
240,197,127317,1,8,0:3:0:0:
86,350,127559,5,8,3:0:0:0:
86,350,128042,6,0,P|93:305|215:312,1,188.999994232178,4|8,3:2|0:3,0:0:0:0:
336,382,129010,1,2,0:3:0:0:
313,292,129252,1,0,0:0:0:0:
431,382,129494,5,2,0:0:0:0:
230,331,129736,1,2,3:0:0:0:
399,246,129978,1,8,0:1:0:0:
275,194,130220,1,8,0:3:0:0:
346,137,130462,6,0,L|329:28,1,94.499997116089,8|0,3:0|0:0,0:0:0:0:
318,25,130946,5,4,3:2:0:0:
245,5,131188,1,2,0:3:0:0:
188,54,131430,1,2,0:0:0:0:
279,186,131671,5,8,0:3:0:0:
221,138,131913,1,2,0:3:0:0:
149,161,132155,1,2,0:0:0:0:
292,270,132397,5,8,0:1:0:0:
292,270,132881,1,2,0:3:0:0:
358,304,133123,1,2,0:3:0:0:
426,273,133365,1,2,0:3:0:0:
434,198,133607,1,2,0:3:0:0:
276,103,133849,5,8,0:3:0:0:
276,103,134333,5,2,0:0:0:0:
299,174,134575,1,8,0:3:0:0:
244,226,134817,2,0,P|191:219|129:213,1,102.374995313645,2|0,3:0|0:0,0:0:0:0:
119,221,135300,1,8,0:1:0:0:
68,152,135542,6,0,B|107:192|69:235|69:235|33:269|9:304|32:361|82:378|121:345|126:321,1,304.500009292603,2|0,0:0|0:0,0:0:0:0:
256,192,138204,12,0,142075,0:0:0:0:
356,343,142559,6,0,L|447:330,1,84,4|8,0:0|0:1,0:0:0:0:
468,350,142921,1,0,3:0:0:0:
468,350,143042,1,0,3:0:0:0:
293,270,143284,6,0,L|358:262,1,42,2|0,0:0|3:0,0:0:0:0:
447,189,143526,1,2,3:0:0:0:
443,191,143647,1,8,3:0:0:0:
440,194,143768,2,0,L|379:183,1,42,0|2,3:0|0:0,0:0:0:0:
309,138,144010,6,0,B|295:98|295:98|309:51,1,84,8|2,3:0|0:3,0:0:0:0:
189,223,144494,2,0,B|203:263|203:263|189:310,1,84,0|2,3:0|0:3,0:0:0:0:
32,160,144978,2,0,L|127:172,1,84,0|2,3:0|0:0,0:0:0:0:
156,149,145341,1,0,0:0:0:0:
156,149,145462,5,0,3:0:0:0:
16,240,145704,2,0,L|33:318,1,42,8|8,0:1|3:0,0:0:0:0:
59,358,145946,1,0,3:0:0:0:
86,339,146067,1,0,0:0:0:0:
119,332,146188,1,0,3:0:0:0:
151,338,146309,1,0,3:0:0:0:
176,360,146430,2,0,P|197:367|218:371,1,42,2|0,0:0|3:0,0:0:0:0:
336,304,146671,2,0,P|315:311|294:315,1,42,0|2,3:0|0:0,0:0:0:0:
216,214,146913,6,0,P|253:232|301:227,1,84,8|2,3:0|0:3,0:0:0:0:
445,323,147397,2,0,P|403:320|366:338,1,84,0|0,3:0|3:0,0:0:0:0:
512,259,147881,1,2,3:2:0:0:
382,215,148123,1,2,0:0:0:0:
489,75,148365,5,4,0:0:0:0:
327,147,148607,2,0,L|309:76,1,42,8|0,0:1|3:0,0:0:0:0:
240,16,148849,1,0,3:0:0:0:
240,16,148970,1,0,0:0:0:0:
240,16,149091,2,0,L|222:87,1,42,2|0,0:0|0:0,0:0:0:0:
168,150,149333,1,0,3:0:0:0:
137,164,149454,1,0,3:0:0:0:
103,163,149575,1,0,3:0:0:0:
74,144,149696,1,2,0:0:0:0:
61,112,149817,6,0,P|68:76|85:23,1,84,8|2,3:0|0:3,0:0:0:0:
246,135,150300,2,0,P|204:154|161:147,1,84,0|2,3:3|0:0,0:0:0:0:
0,265,150784,2,0,P|41:261|78:279,1,84,0|0,3:0|3:0,0:0:0:0:
91,313,151147,1,2,0:0:0:0:
91,313,151268,6,0,L|178:294,1,84,4|8,0:0|0:1,0:0:0:0:
179,300,151631,1,0,3:0:0:0:
179,300,151752,2,0,L|167:365,1,42,0|0,3:0|0:0,0:0:0:0:
263,240,151994,2,0,L|285:313,1,42,2|0,0:0|3:0,0:0:0:0:
308,380,152236,1,2,0:0:0:0:
320,369,152357,2,0,B|356:349|356:349|406:358,1,84,0|4,3:0|3:0,0:0:0:0:
427,375,152720,5,2,0:0:0:0:
349,244,152962,1,2,0:3:0:0:
496,112,153204,5,2,0:0:0:0:
460,224,153446,1,2,0:3:0:0:
320,32,153688,5,0,3:0:0:0:
344,116,153930,1,2,0:3:0:0:
112,64,154171,6,0,P|152:71|194:79,1,84,4|8,0:0|0:1,0:0:0:0:
202,85,154534,1,0,3:0:0:0:
202,85,154655,2,0,L|190:134,1,42,0|0,3:0|0:0,0:0:0:0:
112,192,154897,2,0,L|124:241,1,42,2|0,3:2|0:0,0:0:0:0:
231,322,155139,1,0,3:0:0:0:
243,294,155260,1,0,3:0:0:0:
242,264,155381,1,0,3:0:0:0:
229,237,155502,1,2,0:0:0:0:
204,220,155623,6,0,P|160:225|110:235,1,84,8|2,3:0|0:3,0:0:0:0:
276,108,156107,2,0,P|317:115|359:120,1,84,0|2,3:0|0:0,0:0:0:0:
483,265,156591,2,0,B|468:228|468:228|484:183,1,84,0|2,3:0|0:0,0:0:0:0:
316,246,157075,5,4,0:0:0:0:
432,102,157317,2,0,L|378:112,1,42,8|0,0:1|3:0,0:0:0:0:
305,201,157559,2,0,L|357:212,1,42,0|0,3:0|0:0,0:0:0:0:
475,360,157800,1,2,0:0:0:0:
487,328,157921,1,0,3:0:0:0:
481,294,158042,2,0,L|429:282,1,42,4|2,3:0|0:0,0:0:0:0:
338,320,158284,1,0,3:0:0:0:
305,311,158405,1,2,0:0:0:0:
272,302,158526,6,0,P|286:363|295:403,1,84,8|2,3:0|0:3,0:0:0:0:
176,223,159010,2,0,P|190:162|199:122,1,84,0|2,3:0|0:3,0:0:0:0:
77,295,159494,2,0,P|40:315|0:317,1,84,0|2,3:0|0:0,0:0:0:0:
176,223,159978,5,4,0:0:0:0:
6,168,160220,1,8,0:1:0:0:
6,172,160341,1,0,3:0:0:0:
5,176,160462,2,0,L|15:228,1,42,0|0,3:0|0:0,0:0:0:0:
116,121,160704,2,0,L|108:162,1,42,2|0,3:2|0:0,0:0:0:0:
49,65,160946,1,2,0:0:0:0:
54,56,161067,2,0,B|87:31|87:31|139:41,1,84,0|4,3:0|3:0,0:0:0:0:
155,47,161430,6,0,L|243:35,1,84,8|2,3:0|0:0,0:0:0:0:
361,184,161913,2,0,P|343:136|356:91,1,84,0|2,3:0|0:3,0:0:0:0:
228,288,162397,2,0,L|140:276,1,84,0|2,3:0|0:3,0:0:0:0:
329,380,162881,6,0,P|370:372|426:360,1,84,8|8,3:0|0:1,0:0:0:0:
418,368,163244,1,0,3:0:0:0:
418,368,163365,2,0,P|425:330|428:302,1,42,0|0,3:0|0:0,0:0:0:0:
361,251,163607,2,0,P|354:213|351:185,1,42,2|0,3:2|0:0,0:0:0:0:
436,151,163849,1,0,3:0:0:0:
452,126,163970,1,0,3:0:0:0:
452,96,164091,1,0,3:0:0:0:
440,69,164212,1,2,0:0:0:0:
420,45,164333,6,0,P|378:32|335:37,1,84,8|2,3:0|0:0,0:0:0:0:
149,82,164817,2,0,P|145:123|158:163,1,84,2|2,3:0|0:3,0:0:0:0:
348,123,165300,2,0,P|297:115|249:110,1,84,0|2,3:0|0:3,0:0:0:0:
56,250,165784,6,0,P|98:244|155:237,1,84,4|8,0:0|0:1,0:0:0:0:
167,228,166147,1,0,3:0:0:0:
167,228,166268,1,0,3:0:0:0:
260,333,166510,1,2,0:0:0:0:
257,336,166631,1,0,3:0:0:0:
254,339,166752,6,0,P|258:312|265:272,1,42,2|0,0:0|3:0,0:0:0:0:
315,197,166994,2,0,P|319:219|321:238,1,42,0|2,3:2|0:0,0:0:0:0:
480,146,167236,5,0,3:0:0:0:
451,142,167356,1,0,3:0:0:0:
422,137,167477,1,2,0:3:0:0:
393,133,167598,1,0,3:0:0:0:
363,129,167720,2,0,P|354:93|381:33,1,84,2|2,3:0|0:0,0:0:0:0:
394,36,168083,1,8,3:0:0:0:
394,36,168204,5,2,3:2:0:0:
320,204,168446,1,2,0:3:0:0:
223,42,168688,6,0,P|229:88|237:146,1,84,4|8,0:0|0:1,0:0:0:0:
228,154,169050,1,0,3:0:0:0:
228,154,169171,1,0,3:0:0:0:
55,191,169413,6,0,P|85:194|117:201,1,42,2|0,0:3|3:0,0:0:0:0:
209,254,169655,1,2,0:3:0:0:
205,256,169776,1,0,3:0:0:0:
202,259,169897,2,0,P|178:261|143:269,1,42,4|0,0:3|3:0,0:0:0:0:
55,341,170139,5,2,3:2:0:0:
81,354,170259,1,8,3:0:0:0:
109,359,170381,1,2,0:0:0:0:
138,356,170501,1,0,3:0:0:0:
165,345,170623,6,0,P|174:309|146:249,1,84,8|2,3:0|0:3,0:0:0:0:
255,114,171107,2,0,P|241:153|250:193,1,84,0|2,3:0|0:0,0:0:0:0:
193,35,171591,5,4,0:0:0:0:
324,159,171833,2,0,P|360:154|393:150,1,42,8|0,0:1|3:0,0:0:0:0:
488,89,172075,1,0,3:0:0:0:
484,91,172196,1,0,0:0:0:0:
481,94,172317,2,0,P|454:91|419:88,1,42,0|0,3:0|0:0,0:0:0:0:
319,8,172559,6,0,P|329:34|327:74,1,42,2|0,3:2|3:0,0:0:0:0:
249,155,172800,2,0,P|249:136|255:113,1,42,8|4,3:0|0:3,0:0:0:0:
357,204,173042,5,2,3:2:0:0:
351,232,173162,1,8,0:3:0:0:
346,261,173283,1,2,0:0:0:0:
337,289,173405,6,0,P|301:270|252:273,1,84,2|2,0:0|0:2,0:0:0:0:
183,339,173768,2,0,P|205:346|239:342,1,42,2|0,0:0|3:0,0:0:0:0:
81,299,174010,5,2,3:2:0:0:
245,195,174252,1,2,0:0:0:0:
183,339,174494,6,0,L|171:238,1,84,4|8,0:0|0:1,0:0:0:0:
171,247,174857,1,0,3:0:0:0:
169,238,174978,6,0,P|199:243|239:253,1,42,0|0,3:0|0:0,0:0:0:0:
350,194,175220,1,0,3:0:0:0:
347,196,175341,1,0,0:0:0:0:
345,199,175462,2,0,P|321:207|272:209,1,42,0|2,3:0|0:0,0:0:0:0:
427,283,175704,2,0,P|407:276|386:272,1,42,0|4,3:0|0:3,0:0:0:0:
481,167,175946,6,0,P|485:194|492:238,1,42,2|8,3:2|0:3,0:0:0:0:
512,304,176188,1,2,3:2:0:0:
505,295,176309,2,0,B|469:275|469:275|419:284,1,84,2|0,0:0|0:0,0:0:0:0:
323,339,176671,1,2,3:2:0:0:
326,341,176792,1,8,0:3:0:0:
328,344,176913,6,0,P|352:352|401:354,1,42,0|0,3:0|0:0,0:0:0:0:
237,292,177155,2,0,P|216:295|196:302,1,42,2|0,3:2|3:0,0:0:0:0:
321,246,177397,6,0,P|327:211|335:151,1,84,4|2,0:0|0:0,0:0:0:0:
332,154,177760,1,0,3:0:0:0:
330,145,177881,6,0,P|295:151|262:163,1,42,0|0,3:0|0:0,0:0:0:0:
146,96,178123,2,0,P|166:99|189:106,1,42,0|0,3:0|0:0,0:0:0:0:
314,64,178365,2,0,P|293:67|271:74,1,42,2|2,3:0|0:0,0:0:0:0:
407,207,178607,1,2,3:2:0:0:
404,210,178728,1,4,0:3:0:0:
401,213,178849,6,0,P|406:181|409:147,1,42,0|8,3:0|0:3,0:0:0:0:
495,261,179091,2,0,P|492:240|487:214,1,42,8|0,3:0|3:0,0:0:0:0:
308,289,179333,6,0,P|354:295|401:300,1,84,2|0,0:3|3:0,0:0:0:0:
418,310,179696,1,8,0:3:0:0:
418,310,179817,5,2,3:2:0:0:
247,367,180059,1,2,3:2:0:0:
311,205,180300,1,4,0:0:0:0:
247,367,180542,6,0,P|238:339|223:308,1,42,8|0,0:1|3:0,0:0:0:0:
172,272,180784,2,0,P|147:256|111:248,1,42,0|0,3:0|0:0,0:0:0:0:
58,226,181026,2,0,P|28:225|-6:236,1,42,0|0,3:0|0:0,0:0:0:0:
117,343,181268,5,2,3:2:0:0:
137,316,181388,1,8,0:3:0:0:
144,284,181510,1,0,3:0:0:0:
135,252,181631,1,2,0:0:0:0:
111,227,181752,6,0,P|124:177|137:124,1,84,8|2,3:0|0:3,0:0:0:0:
122,117,182115,1,0,3:0:0:0:
122,117,182236,5,2,3:2:0:0:
226,195,182478,1,2,0:3:0:0:
377,45,182720,5,2,3:2:0:0:
257,95,182962,1,2,0:3:0:0:
448,194,183204,5,4,0:0:0:0:
342,119,183446,2,0,P|347:156|350:183,1,42,8|0,0:1|3:0,0:0:0:0:
359,252,183688,5,0,3:0:0:0:
326,243,183809,1,0,0:0:0:0:
293,251,183930,1,0,3:0:0:0:
265,269,184050,1,2,0:0:0:0:
234,282,184172,1,0,3:0:0:0:
200,276,184293,1,8,0:3:0:0:
172,257,184413,2,0,P|174:236|177:215,1,42,0|2,3:0|0:0,0:0:0:0:
86,99,184655,6,0,P|91:135|102:194,1,84,8|0,3:0|3:0,0:0:0:0:
90,210,185018,1,8,0:3:0:0:
90,210,185139,1,2,3:2:0:0:
183,64,185381,1,0,3:0:0:0:
184,60,185502,1,0,3:0:0:0:
187,57,185623,6,0,P|213:59|242:70,1,42,2|0,0:0|0:0,0:0:0:0:
343,108,185865,2,0,P|315:110|289:118,1,42,2|0,0:0|0:0,0:0:0:0:
145,182,186107,6,0,P|195:187|258:194,1,84,4|8,0:0|0:1,0:0:0:0:
255,178,186470,1,0,3:0:0:0:
255,178,186591,1,0,3:0:0:0:
340,303,186833,1,2,3:2:0:0:
337,306,186954,1,0,3:0:0:0:
334,309,187075,6,0,P|337:279|345:242,1,42,2|8,3:2|0:3,0:0:0:0:
387,158,187317,2,0,P|393:177|396:204,1,42,0|4,3:0|0:3,0:0:0:0:
310,102,187559,6,0,P|318:53|332:-2,1,84,8|2,3:0|0:3,0:0:0:0:
352,7,187921,1,0,3:0:0:0:
352,7,188042,1,2,3:2:0:0:
387,158,188284,5,2,0:0:0:0:
235,61,188526,2,0,P|198:55|150:76,1,84,2|0,0:0|3:0,0:0:0:0:
138,95,188889,1,4,0:3:0:0:
138,95,189010,5,4,0:0:0:0:
294,202,189252,1,8,0:1:0:0:
299,198,189373,1,2,0:0:0:0:
304,195,189494,6,0,P|271:181|238:176,1,52.5,0|0,3:0|0:0,0:0:0:0:
402,260,189736,2,0,P|427:253|451:242,1,52.5,8|0,3:0|0:0,0:0:0:0:
297,312,189978,2,0,P|285:335|279:361,1,52.5,2|8,0:0|0:3,0:0:0:0:
202,263,190220,1,8,0:3:0:0:
202,263,190341,1,2,0:0:0:0:
202,263,190462,6,0,B|153:270|153:270|129:292|129:292|75:302,1,125.999996154785,2|2,3:1|0:1,0:0:0:0:
0,271,190784,6,0,L|7:307,1,35,2|2,0:1|0:1,0:0:0:0:
14,342,190945,1,4,3:0:0:0:
165,182,191188,1,2,3:1:0:0:
48,192,191430,5,4,3:0:0:0:
267,286,191671,1,2,0:1:0:0:
125,84,191913,6,0,P|161:92|200:107,1,52.5,4|0,0:0|0:0,0:0:0:0:
321,165,192155,2,0,P|295:171|270:179,1,52.5,8|0,0:1|3:0,0:0:0:0:
155,273,192397,5,8,3:0:0:0:
193,255,192518,1,2,0:3:0:0:
234,261,192639,1,0,3:0:0:0:
267,286,192760,1,0,0:0:0:0:
281,325,192881,2,0,P|274:353|256:381,1,52.5,8|8,0:1|3:0,0:0:0:0:
365,236,193123,2,0,P|390:230|417:218,1,52.5,0|4,3:0|0:3,0:0:0:0:
499,359,193365,6,0,B|454:349|454:349|421:358|421:358|367:346,1,125.999996154785,2|2,0:1|0:1,0:0:0:0:
281,325,193688,6,0,L|270:275,1,35,2|2,0:1|0:1,0:0:0:0:
254,205,193849,1,4,3:0:0:0:
394,123,194091,1,2,3:1:0:0:
449,226,194333,5,2,3:1:0:0:
235,122,194575,1,2,0:1:0:0:
428,38,194817,6,0,P|367:49|312:59,1,105,4|8,0:0|0:1,0:0:0:0:
332,63,195180,1,0,3:0:0:0:
332,63,195300,6,0,B|320:38|320:38|335:7,1,52.5,0|0,3:0|0:0,0:0:0:0:
510,75,195542,2,0,B|519:102|519:102|506:130,1,52.5,0|0,3:0|0:0,0:0:0:0:
328,177,195784,6,0,P|292:167|274:164,1,52.5,2|0,3:0|3:3,0:0:0:0:
438,272,196026,2,0,P|466:266|492:262,1,52.5,0|4,3:0|0:3,0:0:0:0:
281,360,196268,6,0,B|252:319|252:319|274:260,1,105,2|0,3:1|3:0,0:0:0:0:
277,274,196631,1,2,3:0:0:0:
277,274,196752,2,0,P|243:284|213:289,1,52.5,0|2,3:0|0:0,0:0:0:0:
131,381,196994,2,0,P|106:376|80:368,1,52.5,0|0,3:0|0:0,0:0:0:0:
0,278,197236,5,2,3:2:0:0:
0,278,197478,1,8,0:3:0:0:
158,202,197720,6,0,L|136:88,1,105,4|8,0:0|0:1,0:0:0:0:
27,19,198083,1,8,0:3:0:0:
27,19,198204,2,0,L|14:83,1,52.5,0|2,3:0|0:3,0:0:0:0:
0,166,198446,1,8,0:3:0:0:
208,48,198688,6,0,P|246:41|269:39,1,52.5,2|0,3:0|3:0,0:0:0:0:
410,81,198930,1,0,3:0:0:0:
384,84,199050,1,2,0:0:0:0:
358,88,199171,6,0,L|345:138,1,52.5,2|0,3:2|0:0,0:0:0:0:
504,230,199413,2,0,L|491:180,1,52.5,2|8,0:3|0:3,0:0:0:0:
362,276,199655,2,0,L|349:326,1,52.5,2|8,0:0|0:3,0:0:0:0:
209,280,199897,1,8,3:0:0:0:
209,280,200018,1,0,0:0:0:0:
209,280,200139,6,0,B|274:305|297:252|364:277,1,157.5,2|0,0:0|0:0,0:0:0:0:
428,334,200623,6,0,P|453:289|429:226,1,105,4|8,0:0|0:1,0:0:0:0:
448,246,200986,1,2,3:2:0:0:
448,246,201107,2,0,L|509:259,1,52.5,0|0,3:0|0:0,0:0:0:0:
328,176,201349,2,0,L|267:189,1,52.5,8|0,3:0|0:0,0:0:0:0:
469,111,201591,5,4,3:0:0:0:
481,87,201712,1,0,3:0:0:0:
481,60,201833,1,2,0:0:0:0:
472,35,201954,1,0,3:3:0:0:
447,17,202075,6,0,B|402:42|402:42|342:27,1,105,2|0,0:0|0:0,0:0:0:0:
325,16,202438,1,2,0:3:0:0:
325,16,202559,2,0,P|310:54|301:106,1,52.5,0|0,3:0|0:0,0:0:0:0:
208,128,202800,2,0,P|218:152|225:177,1,52.5,4|2,3:0|0:0,0:0:0:0:
336,240,203042,1,2,0:3:0:0:
240,384,203284,1,2,3:0:0:0:
240,384,203405,1,0,3:0:0:0:
240,384,203526,6,0,B|192:371|192:371|161:382|161:382|106:369,1,125.999996154785,4|2,0:0|0:1,0:0:0:0:
23,339,203849,6,0,L|13:297,1,35,2|2,0:1|0:1,0:0:0:0:
5,267,204010,1,2,3:0:0:0:
194,107,204252,6,0,B|182:168,1,52.5,0|0,3:0|0:0,0:0:0:0:
150,302,204494,2,0,B|165:237,1,52.5,0|8,3:0|3:0,0:0:0:0:
297,153,204736,5,0,3:0:0:0:
292,157,204857,1,4,3:0:0:0:
287,160,204978,2,0,B|229:144|237:171|183:158,1,105,2|0,3:0|0:0,0:0:0:0:
80,202,205341,1,0,3:0:0:0:
77,197,205462,2,0,B|56:147|56:147|81:95,1,105,2|0,0:3|3:0,0:0:0:0:
156,14,205825,1,2,0:1:0:0:
161,18,205946,2,0,P|188:26|213:28,1,52.5,2|2,3:1|3:1,0:0:0:0:
363,123,206188,2,0,P|336:125|311:133,1,52.5,2|2,3:1|0:0,0:0:0:0:
158,272,206430,6,0,L|167:231,7,26.25,6|2|2|2|2|2|2|0,0:1|0:1|0:1|0:1|0:0|0:1|0:1|0:0,0:2:0:0:
191,242,206913,6,0,L|180:294,1,52.5,2|2,0:1|0:1,0:0:0:0:
352,384,207155,2,0,L|336:320,1,52.5,2|2,0:1|0:1,0:0:0:0:
464,160,207397,5,2,0:0:0:0:
484,196,207518,1,2,3:1:0:0:
494,236,207639,1,2,3:1:0:0:
477,274,207760,1,2,0:1:0:0:
446,303,207881,6,0,L|455:336,7,26.25,2|2|2|2|2|2|2|2,0:1|0:1|0:1|0:1|0:0|0:1|0:1|0:0,0:2:0:0:
429,347,208365,6,0,L|413:298,1,52.5,2|2,3:1|0:1,0:0:0:0:
281,172,208607,2,0,L|272:224,1,52.5,2|2,3:1|0:1,0:0:0:0:
128,352,208849,5,2,3:1:0:0:
87,364,208970,1,0,3:1:0:0:
46,354,209091,1,0,3:1:0:0:
15,326,209212,1,2,3:2:0:0:
2,286,209333,6,0,L|15:242,7,26.25,6|2|2|2|2|2|2|2,0:1|0:1|0:1|0:1|0:2|0:1|3:1|0:0,0:2:0:0:
40,255,209817,6,0,L|22:310,1,52.5,2|2,3:1|0:1,0:0:0:0:
193,148,210059,2,0,L|177:99,1,52.5,2|2,3:1|0:1,0:0:0:0:
0,144,210300,6,0,P|34:151|73:158,1,52.5,2|2,3:1|0:1,0:0:0:0:
191,263,210542,2,0,P|216:258|242:252,1,52.5,2|4,3:1|0:3,0:0:0:0:
384,64,210784,5,2,3:1:0:0:
355,95,210905,1,2,0:1:0:0:
351,137,211026,1,0,3:0:0:0:
367,175,211147,1,8,3:0:0:0:
398,202,211268,2,0,P|423:208|449:212,1,52.5,2|0,0:0|3:0,0:0:0:0:
511,375,211510,2,0,P|485:379|459:385,1,52.5,2|0,0:0|0:0,0:0:0:0:
343,306,211752,5,8,3:0:0:0:
299,287,211873,1,0,3:0:0:0:
251,290,211994,1,0,3:0:0:0:
210,314,212115,1,4,3:0:0:0:
185,354,212236,6,0,P|175:311|158:242,1,94.499997116089,4|8,0:0|0:1,0:0:0:0:
159,253,212599,1,0,3:0:0:0:
154,244,212720,2,0,P|127:251|91:263,1,47.2499985580445,0|0,3:0|0:0,0:0:0:0:
2,183,212962,2,0,P|26:191|52:196,1,47.2499985580445,0|0,3:0|0:0,0:0:0:0:
184,158,213204,5,0,3:0:0:0:
204,127,213324,1,0,3:0:0:0:
207,91,213445,1,8,3:0:0:0:
193,57,213566,1,2,0:0:0:0:
166,30,213688,6,0,P|207:60|269:49,1,94.499997116089,8|0,3:0|0:0,0:0:0:0:
271,35,214050,1,0,3:0:0:0:
271,35,214171,5,8,3:0:0:0:
454,77,214413,1,2,0:0:0:0:
265,201,214655,5,0,3:0:0:0:
454,166,214897,1,2,3:0:0:0:
269,302,215139,6,0,P|324:310|376:319,1,94.499997116089,4|8,0:0|0:1,0:0:0:0:
371,314,215502,1,0,3:0:0:0:
379,309,215623,2,0,P|389:349|390:373,1,47.2499985580445,0|0,3:0|0:0,0:0:0:0:
477,237,215865,2,0,P|467:277|465:296,1,47.2499985580445,8|0,3:0|0:0,0:0:0:0:
409,165,216107,5,0,3:0:0:0:
373,155,216228,1,0,3:0:0:0:
338,162,216349,1,8,3:0:0:0:
309,186,216469,1,2,0:0:0:0:
293,218,216591,6,0,P|287:187|278:120,1,94.499997116089,2|0,3:0|0:0,0:0:0:0:
298,97,216954,1,2,3:0:0:0:
298,97,217075,5,0,3:0:0:0:
147,236,217317,1,2,0:0:0:0:
122,17,217559,5,0,3:0:0:0:
208,154,217800,1,2,3:0:0:0:
14,56,218042,6,0,P|-1:88|19:155,1,94.499997116089,4|8,0:0|0:1,0:0:0:0:
17,150,218405,1,2,3:0:0:0:
23,157,218526,2,0,P|51:152|79:141,1,47.2499985580445,0|0,3:0|0:0,0:0:0:0:
160,230,218768,2,0,P|136:222|112:219,1,47.2499985580445,0|0,3:0|0:0,0:0:0:0:
168,326,219010,5,0,3:0:0:0:
200,323,219130,1,0,3:0:0:0:
233,320,219251,1,2,3:0:0:0:
266,317,219372,1,0,3:0:0:0:
299,312,219494,6,0,P|313:276|287:213,1,94.499997116089,8|2,3:0|0:0,0:0:0:0:
183,31,219978,2,0,P|176:84|166:140,1,94.499997116089,0|8,3:0|3:0,0:0:0:0:
271,55,220462,1,2,3:0:0:0:
78,157,220704,1,2,0:3:0:0:
262,234,220946,5,4,0:0:0:0:
169,124,221188,2,0,P|174:162|178:189,1,47.2499985580445,8|8,0:1|3:0,0:0:0:0:
176,271,221430,5,0,3:0:0:0:
196,245,221550,1,0,3:0:0:0:
226,231,221671,1,4,3:0:0:0:
262,234,221792,1,0,0:0:0:0:
291,248,221913,2,0,P|297:277|300:305,1,47.2499985580445,2|0,3:0|3:0,0:0:0:0:
363,384,222155,2,0,P|366:360|371:337,1,47.2499985580445,0|4,3:0|0:3,0:0:0:0:
479,270,222397,6,0,P|447:277|423:290,1,47.2499985580445,0|0,3:0|0:0,0:0:0:0:
291,248,222639,2,0,P|323:255|347:268,1,47.2499985580445,2|2,0:0|3:0,0:0:0:0:
501,185,222881,2,0,P|461:181|401:217,1,94.499997116089,8|2,3:0|3:0,0:0:0:0:
327,54,223365,2,0,P|335:105|346:173,1,94.499997116089,0|0,3:0|3:0,0:0:0:0:
396,1,223849,5,4,0:0:0:0:
258,134,224091,2,0,P|232:132|196:124,1,47.2499985580445,8|2,0:1|3:0,0:0:0:0:
114,51,224333,5,0,3:0:0:0:
134,82,224453,1,0,3:0:0:0:
137,118,224574,1,4,3:0:0:0:
123,152,224695,1,0,3:0:0:0:
100,176,224817,2,0,P|77:173|40:167,1,47.2499985580445,0|8,3:0|0:3,0:0:0:0:
175,242,225059,2,0,P|198:239|235:233,1,47.2499985580445,8|4,3:0|3:0,0:0:0:0:
121,327,225300,6,0,P|74:318|28:309,1,94.499997116089,2|0,3:0|0:0,0:0:0:0:
3,286,225663,1,0,3:0:0:0:
3,286,225784,5,8,3:0:0:0:
175,242,226026,1,0,3:0:0:0:
306,377,226268,5,2,3:0:0:0:
121,327,226510,1,8,3:0:0:0:
308,180,226752,5,4,0:0:0:0:
228,282,226994,2,0,P|223:249|220:220,1,47.2499985580445,8|8,0:1|3:0,0:0:0:0:
182,158,227236,5,0,3:0:0:0:
149,149,227357,1,0,3:0:0:0:
116,157,227478,1,2,3:0:0:0:
88,175,227598,1,0,3:0:0:0:
57,188,227720,5,2,3:0:0:0:
23,182,227841,1,8,3:0:0:0:
4,164,227962,1,2,3:0:0:0:
0,131,228083,1,4,3:0:0:0:
13,100,228204,6,0,P|38:85|64:79,1,47.2499985580445,2|0,3:0|0:0,0:0:0:0:
170,0,228446,2,0,P|158:32|147:65,1,47.2499985580445,0|0,3:3|3:0,0:0:0:0:
182,158,228688,6,0,P|152:145|128:143,1,47.2499985580445,2|0,3:0|3:0,0:0:0:0:
288,79,228930,2,0,P|266:88|243:91,1,47.2499985580445,0|0,3:0|3:3,0:0:0:0:
372,177,229171,6,0,P|342:164|318:162,1,47.2499985580445,2|0,3:0|0:0,0:0:0:0:
422,47,229413,2,0,P|426:83|429:121,1,47.2499985580445,2|0,3:0|0:0,0:0:0:0:
330,244,229655,5,4,0:0:0:0:
335,261,230139,1,2,0:0:0:0:
340,279,230623,1,2,0:0:0:0:
345,297,231107,6,0,P|267:235|169:274,1,210,2|2,0:0|0:0,0:0:0:0:
60,368,232559,6,0,B|85:296|39:284|65:201,1,168,2|2,0:0|0:0,0:0:0:0:
181,117,234010,6,0,B|238:83|326:100|252:177|361:212|426:169|474:96|423:19|348:-10|294:46,1,440.999986541748,2|0,0:0|0:0,0:0:0:0:
298,41,241268,5,6,0:0:0:0:
191,173,243688,6,0,L|111:164,1,78.75,2|0,0:0|0:0,0:0:0:0:
10,188,244171,6,0,P|43:173|107:193,1,105,4|2,0:0|0:0,0:0:0:0:
176,122,244534,1,8,3:0:0:0:
177,122,244655,2,0,P|187:146|190:179,1,52.5,0|0,3:0|0:0,0:0:0:0:
233,294,244897,2,0,P|235:268|246:244,1,52.5,8|0,3:0|0:0,0:0:0:0:
367,346,245139,2,0,P|340:341|315:337,1,52.5,2|8,0:0|3:0,0:0:0:0:
125,304,245381,1,0,3:0:0:0:
128,308,245502,1,2,0:0:0:0:
129,313,245623,6,0,P|188:303|257:287,1,105,4|2,0:0|0:0,0:0:0:0:
367,346,245986,1,8,3:0:0:0:
371,349,246107,2,0,B|380:324|380:324|372:282,1,52.5,0|0,3:0|0:0,0:0:0:0:
296,184,246349,2,0,B|288:206|288:206|298:241,1,52.5,8|0,3:0|0:0,0:0:0:0:
360,64,246591,5,8,3:0:0:0:
324,84,246711,1,0,3:0:0:0:
282,84,246832,1,2,3:0:0:0:
247,62,246953,1,2,0:0:0:0:
220,28,247075,6,0,P|242:54|227:126,1,105,4|8,0:0|0:1,0:0:0:0:
129,184,247438,1,8,3:0:0:0:
126,179,247559,2,0,P|119:146|133:116,1,52.5,0|0,3:0|0:0,0:0:0:0:
272,219,247800,6,0,L|211:234,1,52.5,8|0,3:0|0:0,0:0:0:0:
69,275,248042,2,0,P|101:281|137:292,1,52.5,8|0,3:0|3:0,0:0:0:0:
318,335,248284,1,0,3:0:0:0:
314,338,248405,1,2,0:0:0:0:
312,342,248526,6,0,B|284:321|284:321|202:344,1,105,4|8,0:0|3:0,0:0:0:0:
191,342,248889,1,2,0:0:0:0:
191,342,249010,5,0,3:0:0:0:
116,170,249252,1,8,3:0:0:0:
201,251,249494,5,0,3:0:0:0:
0,177,249736,1,2,3:0:0:0:
216,39,249978,5,4,0:0:0:0:
113,167,250220,1,8,0:1:0:0:
116,170,250341,1,0,3:0:0:0:
118,174,250462,6,0,P|113:145|106:100,1,52.5,0|0,3:0|0:0,0:0:0:0:
216,39,250704,2,0,P|211:64|207:90,1,52.5,0|0,3:0|0:0,0:0:0:0:
313,188,250946,2,0,P|308:162|304:136,1,52.5,8|2,3:0|0:0,0:0:0:0:
435,25,251188,1,0,3:0:0:0:
437,29,251309,1,0,3:0:0:0:
439,33,251430,6,0,P|431:95|419:175,1,105,4|0,0:0|3:0,0:0:0:0:
437,171,251792,1,2,0:3:0:0:
437,171,251913,5,0,3:0:0:0:
234,316,252155,1,2,0:0:0:0:
471,257,252397,5,0,3:0:0:0:
253,182,252639,1,2,0:0:0:0:
410,377,252881,5,4,0:0:0:0:
178,320,253123,1,8,0:1:0:0:
180,324,253244,1,0,3:0:0:0:
183,327,253365,2,0,P|211:321|253:314,1,52.5,0|0,3:0|0:0,0:0:0:0:
333,184,253607,5,8,3:0:0:0:
293,169,253728,1,0,0:0:0:0:
253,182,253849,1,8,3:0:0:0:
224,212,253970,1,0,3:0:0:0:
189,236,254091,1,0,3:0:0:0:
147,231,254212,1,2,0:0:0:0:
118,199,254333,6,0,P|105:170|132:99,1,105,4|8,0:0|3:0,0:0:0:0:
133,95,254696,1,0,3:0:0:0:
143,92,254817,2,0,P|176:99|209:109,1,52.5,2|0,3:0|0:3,0:0:0:0:
287,32,255059,2,0,P|313:29|339:25,1,52.5,0|0,3:0|0:0,0:0:0:0:
460,126,255300,6,0,P|429:102|357:120,1,94.499997116089,8|0,3:0|0:0,0:0:0:0:
314,145,255784,6,0,P|356:140|419:133,1,105,4|8,0:0|0:1,0:0:0:0:
512,216,256147,1,8,3:0:0:0:
511,221,256268,2,0,L|454:230,1,52.5,0|0,3:0|0:0,0:0:0:0:
286,255,256510,2,0,L|356:246,1,52.5,0|0,3:0|0:0,0:0:0:0:
499,331,256752,5,8,3:0:0:0:
465,314,256873,1,0,3:0:0:0:
428,316,256994,1,2,0:0:0:0:
396,334,257115,1,4,0:3:0:0:
376,364,257236,1,4,0:0:0:0:
222,221,257478,6,0,P|247:225|273:229,1,52.5,0|2,3:0|0:3,0:0:0:0:
425,139,257720,2,0,P|399:143|373:147,1,52.5,8|2,3:0|0:3,0:0:0:0:
191,64,257962,2,0,B|242:80|242:80|300:62,1,105,2|8,3:0|3:0,0:0:0:0:
299,71,258325,1,2,0:0:0:0:
299,71,258446,2,0,P|312:33|313:13,1,52.5,2|0,3:0|0:0,0:0:0:0:
245,180,258688,6,0,P|244:210|235:231,1,52.5,4|0,0:0|0:0,0:0:0:0:
86,299,258930,1,8,0:1:0:0:
60,273,259050,1,8,3:0:0:0:
51,237,259171,1,0,3:0:0:0:
64,202,259292,1,2,0:0:0:0:
90,176,259413,2,0,L|161:195,1,52.5,8|0,3:0|3:0,0:0:0:0:
5,52,259655,1,2,3:0:0:0:
9,54,259776,1,0,3:0:0:0:
13,57,259897,2,0,P|18:84|27:117,1,52.5,8|4,3:0|0:3,0:0:0:0:
131,4,260139,6,0,P|185:27|233:12,1,105,4|8,0:0|3:0,0:0:0:0:
429,77,260623,1,0,3:0:0:0:
390,61,260744,1,0,3:0:0:0:
348,62,260865,1,2,3:0:0:0:
313,85,260986,1,2,0:0:0:0:
295,123,261107,5,0,3:0:0:0:
496,208,261349,1,2,0:0:0:0:
220,303,261591,6,0,P|266:296|339:283,1,105,4|8,0:0|0:1,0:0:0:0:
402,343,261954,1,10,3:0:0:0:
406,339,262075,6,0,B|414:312|414:312|410:279,1,52.5,0|0,3:0|0:0,0:0:0:0:
261,200,262317,2,0,B|253:173|253:173|257:140,1,52.5,8|0,3:0|3:0,0:0:0:0:
432,177,262559,6,0,L|380:166,1,52.5,10|0,3:0|3:0,0:0:0:0:
208,64,262800,2,0,L|259:53,1,52.5,2|4,3:0|0:3,0:0:0:0:
425,94,263042,5,4,0:0:0:0:
186,218,263284,1,8,3:0:0:0:
186,218,263405,1,2,0:0:0:0:
186,218,263526,2,0,B|155:217|155:217|124:204,2,52.5,0|2|0,3:0|3:0|3:3,0:0:0:0:
461,273,264010,6,0,P|434:284|399:287,1,52.5,2|0,3:0|0:0,0:0:0:0:
315,374,264252,2,0,P|289:369|265:359,1,52.5,2|4,0:3|0:3,0:0:0:0:
128,288,264494,6,0,P|71:277|29:301,1,105,4|8,0:0|0:1,0:0:0:0:
104,376,264857,1,8,3:0:0:0:
108,372,264978,2,0,L|122:318,1,52.5,0|2,3:0|0:0,0:0:0:0:
128,160,265220,5,8,3:0:0:0:
168,150,265341,1,0,3:0:0:0:
209,141,265462,2,0,L|227:212,1,52.5,4|2,3:0|0:0,0:0:0:0:
304,320,265704,1,2,3:0:0:0:
345,326,265825,1,8,3:0:0:0:
384,312,265946,1,4,0:0:0:0:
120,349,266188,5,2,3:3:0:0:
116,317,266309,1,0,3:0:0:0:
128,288,266430,2,0,P|172:293|206:298,1,52.5,2|0,3:0|0:0,0:0:0:0:
367,195,266671,5,2,3:0:0:0:
338,205,266792,1,0,3:0:0:0:
307,199,266913,2,0,L|288:126,1,57.7500017623902,2|0,3:0|3:0,0:0:0:0:
465,89,267155,2,0,P|458:115|449:146,1,57.7500017623902,2|0,3:0|0:0,0:0:0:0:
393,300,267397,6,0,L|290:284,1,94.499997116089,4|8,0:0|0:1,0:0:0:0:
262,301,267760,1,8,3:0:0:0:
262,301,267881,1,0,3:0:0:0:
103,340,268123,1,8,3:0:0:0:
99,343,268244,1,0,3:0:0:0:
95,346,268365,6,0,P|125:352|163:358,1,47.2499985580445,2|8,3:0|0:3,0:0:0:0:
46,260,268607,2,0,P|16:266|-23:274,1,47.2499985580445,2|0,0:0|1:0,0:0:0:0:
146,232,268849,5,2,0:0:0:0:
0,166,269091,1,8,3:0:0:0:
117,47,269333,6,0,P|113:82|107:125,1,47.2499985580445,2|0,0:0|3:0,0:0:0:0:
220,166,269575,1,0,3:0:0:0:
218,170,269696,1,0,3:0:0:0:
218,174,269817,2,0,P|215:150|212:127,1,47.2499985580445,8|0,3:0|3:0,0:0:0:0:
70,211,270058,1,0,1:0:0:0:
68,215,270180,1,4,0:3:0:0:
67,219,270300,1,6,0:0:0:0:
174,318,270542,5,8,0:1:0:0:
169,309,270663,2,0,B|205:296|205:296|271:313,1,94.499997116089,8|0,3:0|3:0,0:0:0:0:
334,368,271026,2,0,P|364:360|403:351,1,47.2499985580445,0|0,3:0|3:0,0:0:0:0:
512,305,271268,2,0,P|482:297|443:288,1,47.2499985580445,2|0,3:0|3:0,0:0:0:0:
368,205,271510,2,0,P|377:256|382:276,1,47.2499985580445,2|0,0:0|1:0,0:0:0:0:
258,198,271752,5,2,0:0:0:0:
406,110,271994,1,8,3:0:0:0:
248,40,272236,5,2,0:0:0:0:
245,36,272357,1,0,3:0:0:0:
242,32,272478,2,0,P|285:36|319:42,1,47.2499985580445,2|0,0:0|0:0,0:0:0:0:
201,120,272720,2,0,P|167:124|131:128,1,47.2499985580445,0|0,3:0|3:0,0:0:0:0:
258,198,272962,5,2,0:0:0:0:
94,257,273204,1,6,0:0:0:0:
55,39,273446,5,8,0:1:0:0:
62,44,273567,2,0,B|78:74|78:74|62:145,1,94.499997116089,8|0,3:0|0:0,0:0:0:0:
11,197,273930,2,0,L|25:272,1,47.2499985580445,8|0,3:0|3:0,0:0:0:0:
111,282,274171,2,0,L|103:328,1,47.2499985580445,2|2,3:0|0:3,0:0:0:0:
216,349,274413,1,2,0:0:0:0:
214,344,274534,1,0,1:0:0:0:
212,339,274655,6,0,P|242:317|308:325,1,94.499997116089,2|8,0:0|3:0,0:0:0:0:
307,326,275018,1,0,0:0:0:0:
307,327,275139,2,0,P|327:347|335:376,1,47.2499985580445,2|8,0:0|3:0,0:0:0:0:
242,236,275381,2,0,P|248:203|256:163,1,47.2499985580445,2|0,3:0|0:0,0:0:0:0:
331,140,275623,1,8,3:0:0:0:
351,114,275743,1,0,3:0:0:0:
357,81,275864,1,2,3:0:0:0:
348,50,275985,1,4,0:3:0:0:
327,23,276107,1,6,0:0:0:0:
167,92,276349,5,8,0:1:0:0:
172,84,276470,2,0,B|201:74|201:74|268:92,1,94.499997116089,8|0,3:0|0:0,0:0:0:0:
284,173,276833,2,0,P|248:165|218:158,1,47.2499985580445,0|0,3:0|3:0,0:0:0:0:
363,239,277075,2,0,P|386:233|409:228,1,47.2499985580445,8|0,3:0|3:0,0:0:0:0:
280,302,277316,1,2,0:0:0:0:
279,297,277437,1,0,1:0:0:0:
278,292,277559,6,0,P|244:277|175:290,1,94.499997116089,2|8,0:0|3:0,0:0:0:0:
0,355,278042,2,0,L|101:367,1,94.499997116089,2|0,0:0|0:0,0:0:0:0:
277,271,278526,6,0,P|224:277|161:284,1,110.249996635437,8|0,3:0|0:0,0:0:0:0:
136,272,279010,6,0,P|116:238|143:163,1,94.499997116089,6|8,0:0|0:1,0:0:0:0:
147,162,279373,1,8,3:0:0:0:
147,162,279494,1,2,0:0:0:0:
52,63,279736,1,8,3:0:0:0:
48,66,279857,1,0,3:0:0:0:
44,69,279978,6,0,P|78:67|113:62,1,47.2499985580445,2|0,0:3|3:0,0:0:0:0:
218,23,280220,2,0,P|194:18|171:14,1,47.2499985580445,2|0,0:0|1:0,0:0:0:0:
283,91,280462,6,0,P|317:76|386:89,1,94.499997116089,2|8,0:0|3:0,0:0:0:0:
489,189,280946,1,2,0:0:0:0:
463,168,281066,1,0,3:0:0:0:
431,161,281187,1,2,3:0:0:0:
399,168,281308,1,0,3:0:0:0:
373,191,281430,6,0,P|368:216|363:248,1,47.2499985580445,2|0,3:2|0:0,0:0:0:0:
312,118,281671,2,0,P|307:94|303:70,1,47.2499985580445,0|4,3:0|0:3,0:0:0:0:
255,213,281913,5,6,0:0:0:0:
389,318,282155,1,8,0:1:0:0:
394,309,282276,2,0,B|358:296|358:296|292:313,1,94.499997116089,8|0,3:0|3:0,0:0:0:0:
254,368,282639,2,0,L|188:359,1,47.2499985580445,8|0,3:0|3:0,0:0:0:0:
175,266,282881,2,0,L|128:273,1,47.2499985580445,2|0,3:0|3:0,0:0:0:0:
46,355,283123,2,0,L|0:347,1,47.2499985580445,2|0,0:0|1:0,0:0:0:0:
175,266,283365,5,2,0:0:0:0:
21,199,283607,1,8,3:0:0:0:
153,58,283849,6,0,P|149:93|143:136,1,47.2499985580445,2|0,0:0|0:0,0:0:0:0:
240,202,284091,1,0,3:0:0:0:
243,198,284212,1,0,0:0:0:0:
247,195,284333,2,0,P|244:171|241:148,1,47.2499985580445,8|0,3:0|3:0,0:0:0:0:
367,239,284575,5,0,3:0:0:0:
301,64,284817,1,6,0:0:0:0:
473,159,285059,5,8,0:1:0:0:
480,152,285180,2,0,B|447:135|447:135|378:156,1,94.499997116089,8|0,3:0|0:0,0:0:0:0:
329,212,285542,2,0,L|337:259,1,47.2499985580445,8|0,3:0|3:0,0:0:0:0:
410,363,285784,2,0,L|417:316,1,47.2499985580445,2|0,3:0|3:0,0:0:0:0:
305,350,286026,1,2,0:0:0:0:
303,354,286147,1,0,1:0:0:0:
300,358,286268,6,0,P|249:354|188:348,1,94.499997116089,2|8,0:0|3:0,0:0:0:0:
33,294,286752,5,2,0:0:0:0:
110,355,286994,1,8,3:0:0:0:
103,148,287236,5,2,3:0:0:0:
155,247,287478,1,2,0:0:0:0:
242,90,287720,5,6,0:0:0:0:
327,207,287962,1,8,0:1:0:0:
324,210,288083,1,8,3:0:0:0:
321,213,288204,2,0,P|325:186|331:144,1,47.2499985580445,2|0,0:0|0:0,0:0:0:0:
434,158,288446,5,8,3:0:0:0:
443,191,288567,1,0,3:0:0:0:
435,224,288688,1,2,3:0:0:0:
417,252,288808,1,0,3:0:0:0:
404,283,288930,1,2,0:0:0:0:
410,317,289051,1,0,1:0:0:0:
432,340,289171,6,0,P|477:333|529:324,1,94.499997116089,2|8,0:0|3:0,0:0:0:0:
332,239,289655,2,0,P|297:247|270:253,1,47.2499985580445,2|0,0:0|3:0,0:0:0:0:
225,311,289897,1,8,3:0:0:0:
221,314,290018,1,0,3:0:0:0:
218,318,290139,6,0,P|194:312|171:307,1,47.2499985580445,2|0,3:0|3:0,0:0:0:0:
52,270,290381,2,0,P|75:264|98:259,1,47.2499985580445,0|0,3:0|0:0,0:0:0:0:
176,196,290623,6,0,P|184:150|163:109,1,94.499997116089,6|8,0:0|0:1,0:0:0:0:
126,87,290986,1,8,3:0:0:0:
126,87,291107,1,2,0:0:0:0:
237,23,291349,1,8,3:0:0:0:
233,26,291470,1,0,3:0:0:0:
229,29,291591,6,0,P|261:36|296:36,1,47.2499985580445,2|0,3:0|3:0,0:0:0:0:
382,77,291833,2,0,P|358:79|335:84,1,47.2499985580445,2|0,0:0|1:0,0:0:0:0:
257,154,292075,6,0,L|277:267,1,94.499997116089,2|8,0:0|3:0,0:0:0:0:
199,368,292559,5,2,0:0:0:0:
203,365,292680,1,0,3:0:0:0:
207,362,292800,2,0,P|175:355|140:355,1,47.2499985580445,8|0,3:0|0:0,0:0:0:0:
43,321,293042,5,2,3:2:0:0:
39,318,293163,1,0,3:0:0:0:
35,315,293284,2,0,P|67:308|102:308,1,47.2499985580445,2|0,0:0|0:0,0:0:0:0:
192,255,293526,6,0,B|198:221|198:221|175:161,1,94.499997116089,6|8,0:0|0:1,0:0:0:0:
175,159,293889,1,8,3:0:0:0:
175,159,294010,2,0,P|195:148|230:140,1,47.2499985580445,0|0,3:0|3:0,0:0:0:0:
356,205,294252,2,0,P|320:200|288:196,1,47.2499985580445,8|0,3:0|3:0,0:0:0:0:
429,45,294494,1,2,3:0:0:0:
452,68,294614,1,0,3:0:0:0:
464,99,294735,1,2,0:0:0:0:
463,131,294856,1,0,1:0:0:0:
449,161,294978,1,2,0:0:0:0:
327,56,295220,5,8,3:0:0:0:
322,64,295341,2,0,P|282:74|229:48,1,94.499997116089,2|8,0:0|3:0,0:0:0:0:
101,133,295704,6,0,P|129:124|163:124,1,47.2499985580445,0|0,3:0|0:0,0:0:0:0:
275,186,295946,2,0,P|247:177|213:177,1,47.2499985580445,8|8,3:0|3:0,0:0:0:0:
108,243,296188,2,0,P|136:234|170:234,1,47.2499985580445,0|8,3:0|3:0,0:0:0:0:
276,292,296430,5,2,0:0:0:0:
352,309,296671,1,0,0:0:0:0:
279,277,296913,1,0,0:0:0:0:
203,298,297155,1,0,0:0:0:0:
140,345,297397,1,0,0:0:0:0:
61,350,297639,1,0,0:0:0:0:
7,291,297881,5,2,0:0:0:0:
7,291,298365,1,2,0:0:0:0:
62,234,298607,1,0,0:0:0:0:
88,159,298849,1,0,0:0:0:0:
63,84,299091,1,0,0:0:0:0:
7,28,299333,5,2,0:0:0:0:
7,28,299817,1,2,0:0:0:0:
63,84,300059,1,0,0:0:0:0:
131,45,300300,2,0,P|170:46|211:59,1,78.75
352,128,301026,6,0,B|291:102|232:135|176:186|190:258|237:349|279:311|334:301|371:246|373:186|289:160|243:158|197:157|156:197|128:247|190:258|222:320|177:373,1,642.600015688477,2|0,0:0|0:0,0:0:0:0:
256,192,305260,12,0,314696,0:0:0:0:
