osu file format v14

[General]
AudioFilename: audio.mp3
AudioLeadIn: 0
PreviewTime: -1
Countdown: 0
SampleSet: Normal
StackLeniency: 0.7
Mode: 1
LetterboxInBreaks: 0
WidescreenStoryboard: 0

[Editor]
DistanceSpacing: 0.6
BeatDivisor: 4
GridSize: 4
TimelineZoom: 2.1

[Metadata]
Title:Hyakka Ryouran
TitleUnicode:百花繚乱
Artist:Kakumi Nishigomi
ArtistUnicode:Kakumi Nishigomi
Creator:Niko-nyan
Version:Inner Oni
Source:Taiko no Tatsujin
Tags:
BeatmapID:1587101
BeatmapSetID:753884

[Difficulty]
HPDrainRate:6
CircleSize:4
OverallDifficulty:6
ApproachRate:8
SliderMultiplier:1.4
SliderTickRate:1

[Events]
//Background and Video events
//Break Periods
//Storyboard Layer 0 (Background)
//Storyboard Layer 1 (Fail)
//Storyboard Layer 2 (Pass)
//Storyboard Layer 3 (Foreground)
//Storyboard Sound Samples

[TimingPoints]
1123,405.405405405405,4,1,0,100,1,0
1123,-100,4,1,0,100,0,0
4366,-90.9090909090909,4,1,0,100,0,0
6798,-100,4,1,0,100,0,0
10852,-90.9090909090909,4,1,0,100,0,0
11663,-86.9565217391304,4,1,0,100,0,0
12474,-86.9565217391304,4,1,0,100,0,0
13285,-100,4,1,0,100,0,0
14095,-100,4,1,0,100,0,0
18960,-90.9090909090909,4,1,0,100,0,0
19771,-86.9565217391304,4,1,0,100,0,0
20582,-100,4,1,0,100,0,0
25447,-90.9090909090909,4,1,0,100,0,0
26258,-83.3333333333333,4,1,0,100,0,0
27068,-100,4,1,0,100,0,0
31933,-83.3333333333333,4,1,0,100,0,0
32744,-90.9090909090909,4,1,0,100,0,0
33555,-100,4,1,0,100,0,0
40041,-90.9090909090909,4,1,0,100,0,0
41663,-86.9565217391304,4,1,0,100,0,0
43285,-83.3333333333333,4,1,0,100,0,0
44906,-80,4,1,0,100,0,0
45717,-76.9230769230769,4,1,0,100,0,0
46528,-90.9090909090909,4,1,0,100,0,0
48150,-86.9565217391304,4,1,0,100,0,0
49771,-83.3333333333333,4,1,0,100,0,0
51393,-80,4,1,0,100,0,0
53014,-100,4,1,0,100,0,1
78960,-100,4,1,0,100,0,0
82204,-90.9090909090909,4,1,0,100,0,0
85447,-100,4,1,0,100,0,0
88690,-100,4,1,0,100,0,0
89501,-90.9090909090909,4,1,0,100,0,0
90312,-86.9565217391304,4,1,0,100,0,0
91123,-83.3333333333333,4,1,0,100,0,0
91933,-100,4,1,0,100,0,0
101663,-90.9090909090909,4,1,0,100,0,0
102474,-83.3333333333333,4,1,0,100,0,0
103285,-76.9230769230769,4,1,0,100,0,0
104095,-71.4285714285714,4,1,0,100,0,0
104906,-100,4,1,0,100,0,0
109771,-100,4,1,0,100,0,1
113014,-100,4,1,0,100,0,0
116258,-100,4,1,0,100,0,1
117879,-90.9090909090909,4,1,0,100,0,1
118690,-83.3333333333333,4,1,0,100,0,1
119501,-100,4,1,0,100,0,1
124366,-90.9090909090909,4,1,0,100,0,1
125177,-83.3333333333333,4,1,0,100,0,1
125987,-100,4,1,0,100,0,1
129231,-86.9565217391304,4,1,0,100,0,1
130041,-83.3333333333333,4,1,0,100,0,1
130852,-80,4,1,0,100,0,1
131663,-76.9230769230769,4,1,0,100,0,1
132068,-100,4,1,0,100,0,0

[HitObjects]
212,168,1123,5,4,0:0:0:0:
204,164,1427,1,8,0:0:0:0:
204,164,1528,1,8,0:0:0:0:
204,164,1731,1,8,0:0:0:0:
212,168,1933,1,4,0:0:0:0:
212,176,2237,1,8,0:0:0:0:
212,176,2339,1,8,0:0:0:0:
212,176,2541,1,8,0:0:0:0:
212,168,2744,1,4,0:0:0:0:
212,176,3048,1,8,0:0:0:0:
212,176,3150,1,8,0:0:0:0:
212,176,3352,1,8,0:0:0:0:
212,168,3555,1,8,0:0:0:0:
212,176,3960,1,8,0:0:0:0:
212,176,4062,1,0,0:0:0:0:
212,176,4163,1,0,0:0:0:0:
212,176,4264,1,0,0:0:0:0:
212,176,4366,1,12,0:0:0:0:
200,168,4568,1,4,0:0:0:0:
208,180,4771,1,8,0:0:0:0:
208,180,4872,1,0,0:0:0:0:
208,184,4974,1,8,0:0:0:0:
212,168,5177,1,4,0:0:0:0:
200,176,5379,1,4,0:0:0:0:
200,176,5582,1,8,0:0:0:0:
200,176,5683,1,8,0:0:0:0:
200,176,5785,1,8,0:0:0:0:
200,176,5987,1,12,0:0:0:0:
200,176,6190,1,12,0:0:0:0:
200,176,6393,1,8,0:0:0:0:
216,164,6494,1,8,0:0:0:0:
200,176,6595,1,8,0:0:0:0:
200,176,6798,1,12,0:0:0:0:
208,176,7001,1,0,0:0:0:0:
208,176,7102,1,0,0:0:0:0:
208,176,7204,1,8,0:0:0:0:
208,176,7305,1,8,0:0:0:0:
208,176,7406,1,8,0:0:0:0:
208,168,7508,1,8,0:0:0:0:
212,168,7609,1,4,0:0:0:0:
200,168,7812,1,8,0:0:0:0:
208,168,8014,1,8,0:0:0:0:
208,168,8217,1,8,0:0:0:0:
204,168,8420,1,8,0:0:0:0:
212,168,8622,1,8,0:0:0:0:
204,168,8825,1,8,0:0:0:0:
208,168,9028,1,8,0:0:0:0:
212,168,9231,1,4,0:0:0:0:
204,168,9433,1,8,0:0:0:0:
204,168,9636,1,8,0:0:0:0:
196,164,9737,1,8,0:0:0:0:
192,164,9940,1,8,0:0:0:0:
208,168,10041,1,8,0:0:0:0:
208,172,10447,1,8,0:0:0:0:
208,172,10548,1,8,0:0:0:0:
208,172,10650,1,0,0:0:0:0:
216,172,10751,1,0,0:0:0:0:
212,168,10852,1,12,0:0:0:0:
208,168,11055,1,4,0:0:0:0:
212,160,11258,1,8,0:0:0:0:
200,156,11359,1,8,0:0:0:0:
212,160,11460,1,8,0:0:0:0:
212,168,11663,1,4,0:0:0:0:
212,160,11866,1,4,0:0:0:0:
212,160,12068,1,8,0:0:0:0:
200,156,12170,1,8,0:0:0:0:
212,160,12271,1,8,0:0:0:0:
212,160,12474,1,0,0:0:0:0:
212,168,12575,1,8,0:0:0:0:
212,160,12778,1,0,0:0:0:0:
212,160,12879,1,8,0:0:0:0:
212,160,13082,1,8,0:0:0:0:
212,160,13285,1,12,0:0:0:0:
208,164,14095,1,4,0:0:0:0:
208,164,14298,1,8,0:0:0:0:
208,164,14366,1,8,0:0:0:0:
208,164,14433,1,8,0:0:0:0:
208,164,14501,1,8,0:0:0:0:
224,164,14704,1,8,0:0:0:0:
224,164,14906,1,8,0:0:0:0:
216,168,15008,1,8,0:0:0:0:
224,164,15109,1,0,0:0:0:0:
224,164,15312,1,8,0:0:0:0:
224,164,15514,1,0,0:0:0:0:
220,156,15717,1,4,0:0:0:0:
216,152,16021,1,0,0:0:0:0:
216,152,16122,1,8,0:0:0:0:
220,152,16325,1,8,0:0:0:0:
220,152,16528,1,8,0:0:0:0:
220,156,16731,1,0,0:0:0:0:
216,152,16798,1,8,0:0:0:0:
216,152,16866,1,8,0:0:0:0:
216,152,16933,1,0,0:0:0:0:
216,152,17136,1,8,0:0:0:0:
220,152,17339,1,12,0:0:0:0:
232,156,17643,1,0,0:0:0:0:
232,156,17744,1,8,0:0:0:0:
232,152,17947,1,8,0:0:0:0:
208,144,18150,1,8,0:0:0:0:
220,140,18352,1,0,0:0:0:0:
220,140,18555,1,0,0:0:0:0:
216,136,18960,1,12,0:0:0:0:
232,144,19163,1,8,0:0:0:0:
232,140,19264,1,8,0:0:0:0:
232,144,19366,1,0,0:0:0:0:
232,140,19568,1,0,0:0:0:0:
232,140,19670,1,8,0:0:0:0:
216,136,19771,1,0,0:0:0:0:
240,140,19974,1,0,0:0:0:0:
224,144,20075,1,8,0:0:0:0:
224,144,20177,1,8,0:0:0:0:
224,144,20379,1,0,0:0:0:0:
216,136,20582,1,12,0:0:0:0:
232,136,20785,1,0,0:0:0:0:
224,144,20852,1,8,0:0:0:0:
224,144,20920,1,8,0:0:0:0:
232,128,20987,1,0,0:0:0:0:
224,144,21190,1,0,0:0:0:0:
224,144,21393,1,8,0:0:0:0:
216,168,21494,1,8,0:0:0:0:
224,144,21595,1,8,0:0:0:0:
224,144,21798,1,0,0:0:0:0:
224,144,22001,1,8,0:0:0:0:
224,144,22204,1,0,0:0:0:0:
220,136,22508,1,8,0:0:0:0:
220,136,22609,1,8,0:0:0:0:
220,136,22812,1,8,0:0:0:0:
220,136,23014,1,8,0:0:0:0:
224,144,23217,1,0,0:0:0:0:
216,144,23285,1,8,0:0:0:0:
216,144,23352,1,8,0:0:0:0:
224,144,23420,1,0,0:0:0:0:
224,144,23622,1,0,0:0:0:0:
224,144,23825,1,8,0:0:0:0:
224,144,24028,1,8,0:0:0:0:
232,144,24129,1,8,0:0:0:0:
224,144,24231,1,0,0:0:0:0:
228,136,24433,1,8,0:0:0:0:
228,136,24535,1,8,0:0:0:0:
224,144,24636,1,0,0:0:0:0:
216,136,24839,1,8,0:0:0:0:
216,136,25041,1,8,0:0:0:0:
224,144,25447,1,4,0:0:0:0:
204,140,25650,1,0,0:0:0:0:
204,140,25751,1,0,0:0:0:0:
224,144,25852,1,8,0:0:0:0:
224,144,26055,1,0,0:0:0:0:
220,160,26156,1,8,0:0:0:0:
224,144,26258,1,8,0:0:0:0:
224,144,26460,1,8,0:0:0:0:
216,152,26562,1,8,0:0:0:0:
224,144,26663,1,8,0:0:0:0:
224,136,26866,1,8,0:0:0:0:
224,144,27068,1,4,0:0:0:0:
220,136,27271,1,0,0:0:0:0:
224,144,27339,1,8,0:0:0:0:
224,144,27406,1,8,0:0:0:0:
220,136,27474,1,0,0:0:0:0:
220,136,27677,1,8,0:0:0:0:
220,136,27879,1,8,0:0:0:0:
220,168,27981,1,8,0:0:0:0:
220,136,28082,1,0,0:0:0:0:
220,136,28285,1,8,0:0:0:0:
220,136,28487,1,0,0:0:0:0:
220,136,28690,1,4,0:0:0:0:
208,128,28994,1,8,0:0:0:0:
220,136,29095,1,8,0:0:0:0:
212,136,29298,1,8,0:0:0:0:
212,136,29501,1,8,0:0:0:0:
212,136,29704,1,0,0:0:0:0:
228,136,29771,1,8,0:0:0:0:
228,136,29839,1,8,0:0:0:0:
212,136,29906,1,0,0:0:0:0:
212,136,30109,1,8,0:0:0:0:
212,136,30312,1,8,0:0:0:0:
216,140,30413,1,8,0:0:0:0:
216,140,30514,1,8,0:0:0:0:
212,136,30717,1,8,0:0:0:0:
212,136,30920,1,8,0:0:0:0:
212,136,31122,1,8,0:0:0:0:
212,136,31325,1,0,0:0:0:0:
212,136,31528,1,0,0:0:0:0:
212,136,31933,1,12,0:0:0:0:
212,136,32136,1,0,0:0:0:0:
212,136,32237,1,0,0:0:0:0:
212,136,32339,1,8,0:0:0:0:
212,136,32541,1,0,0:0:0:0:
212,136,32643,1,8,0:0:0:0:
212,136,32744,1,8,0:0:0:0:
212,136,32947,1,8,0:0:0:0:
212,136,33048,1,8,0:0:0:0:
212,136,33150,1,0,0:0:0:0:
212,136,33352,1,8,0:0:0:0:
212,136,33555,1,4,0:0:0:0:
212,136,33758,1,0,0:0:0:0:
224,132,33825,1,8,0:0:0:0:
224,132,33893,1,8,0:0:0:0:
212,136,33960,1,0,0:0:0:0:
212,136,34163,1,8,0:0:0:0:
212,136,34366,1,8,0:0:0:0:
224,156,34467,1,8,0:0:0:0:
212,136,34568,1,0,0:0:0:0:
212,136,34771,1,8,0:0:0:0:
212,136,34974,1,8,0:0:0:0:
212,136,35177,1,0,0:0:0:0:
212,136,35278,1,8,0:0:0:0:
212,136,35481,1,8,0:0:0:0:
208,128,35582,1,0,0:0:0:0:
212,136,35785,1,8,0:0:0:0:
212,136,35987,1,8,0:0:0:0:
204,128,36190,1,0,0:0:0:0:
232,128,36258,1,8,0:0:0:0:
232,128,36325,1,8,0:0:0:0:
208,128,36393,1,0,0:0:0:0:
208,128,36595,1,0,0:0:0:0:
216,128,36798,1,4,0:0:0:0:
208,128,37001,1,4,0:0:0:0:
204,128,37204,1,8,0:0:0:0:
200,124,37305,1,8,0:0:0:0:
208,128,37406,1,8,0:0:0:0:
208,128,37609,1,4,0:0:0:0:
204,128,37812,1,4,0:0:0:0:
208,128,38014,1,8,0:0:0:0:
208,128,38116,1,8,0:0:0:0:
208,128,38217,1,8,0:0:0:0:
208,128,38420,1,0,0:0:0:0:
208,128,38622,1,8,0:0:0:0:
204,128,38825,1,8,0:0:0:0:
208,128,38927,1,8,0:0:0:0:
208,128,39129,1,8,0:0:0:0:
204,128,39231,1,8,0:0:0:0:
208,128,39433,1,8,0:0:0:0:
208,128,39636,1,8,0:0:0:0:
208,128,40041,1,4,0:0:0:0:
204,128,40244,1,4,0:0:0:0:
208,128,40447,1,8,0:0:0:0:
196,124,40548,1,0,0:0:0:0:
208,128,40650,1,0,0:0:0:0:
208,128,40751,1,0,0:0:0:0:
208,128,40852,1,8,0:0:0:0:
208,128,41055,1,8,0:0:0:0:
208,120,41156,1,8,0:0:0:0:
204,128,41258,1,0,0:0:0:0:
208,128,41663,1,4,0:0:0:0:
208,128,41866,1,4,0:0:0:0:
208,128,42068,1,8,0:0:0:0:
208,120,42170,1,0,0:0:0:0:
204,128,42271,1,0,0:0:0:0:
216,132,42372,1,0,0:0:0:0:
208,128,42474,1,8,0:0:0:0:
208,128,42575,1,8,0:0:0:0:
208,128,42677,1,8,0:0:0:0:
200,128,42778,1,8,0:0:0:0:
208,128,42879,1,0,0:0:0:0:
204,128,43285,1,4,0:0:0:0:
208,128,43487,1,4,0:0:0:0:
208,128,43690,1,8,0:0:0:0:
192,132,43791,1,0,0:0:0:0:
208,128,43893,1,0,0:0:0:0:
188,128,43994,1,0,0:0:0:0:
204,128,44095,1,8,0:0:0:0:
204,128,44298,1,8,0:0:0:0:
184,124,44400,1,8,0:0:0:0:
208,128,44501,1,0,0:0:0:0:
208,128,44906,1,4,0:0:0:0:
204,128,45109,1,8,0:0:0:0:
196,116,45210,1,8,0:0:0:0:
204,128,45312,1,0,0:0:0:0:
208,128,45514,1,8,0:0:0:0:
208,128,45717,1,8,0:0:0:0:
196,112,45818,1,8,0:0:0:0:
208,128,45920,1,0,0:0:0:0:
196,112,46021,1,0,0:0:0:0:
204,128,46122,1,8,0:0:0:0:
208,128,46325,1,8,0:0:0:0:
200,112,46427,1,8,0:0:0:0:
208,128,46528,1,4,0:0:0:0:
208,128,46731,1,4,0:0:0:0:
200,112,46933,1,8,0:0:0:0:
196,112,47035,1,0,0:0:0:0:
204,128,47136,1,0,0:0:0:0:
196,116,47237,1,0,0:0:0:0:
208,128,47339,1,8,0:0:0:0:
196,116,47643,1,8,0:0:0:0:
208,128,47744,1,8,0:0:0:0:
204,128,48150,1,4,0:0:0:0:
208,128,48352,1,4,0:0:0:0:
208,128,48555,1,0,0:0:0:0:
196,116,48656,1,8,0:0:0:0:
208,128,48758,1,8,0:0:0:0:
196,116,48859,1,0,0:0:0:0:
204,128,48960,1,8,0:0:0:0:
196,116,49062,1,8,0:0:0:0:
204,128,49163,1,8,0:0:0:0:
224,120,49264,1,0,0:0:0:0:
208,128,49366,1,8,0:0:0:0:
208,128,49771,1,4,0:0:0:0:
204,128,49974,1,4,0:0:0:0:
204,128,50177,1,0,0:0:0:0:
196,116,50278,1,8,0:0:0:0:
208,128,50379,1,8,0:0:0:0:
196,116,50481,1,8,0:0:0:0:
200,128,50582,1,0,0:0:0:0:
200,128,50785,1,8,0:0:0:0:
196,116,50886,1,8,0:0:0:0:
204,128,50987,1,0,0:0:0:0:
200,128,51393,1,12,0:0:0:0:
200,128,51798,1,12,0:0:0:0:
200,128,52204,1,12,0:0:0:0:
192,120,52406,1,0,0:0:0:0:
192,120,52508,1,8,0:0:0:0:
200,128,52609,1,0,0:0:0:0:
192,120,52812,1,12,0:0:0:0:
200,128,53014,1,4,0:0:0:0:
200,128,53217,1,0,0:0:0:0:
224,140,53285,1,8,0:0:0:0:
228,136,53352,1,8,0:0:0:0:
200,128,53420,1,0,0:0:0:0:
200,128,53622,1,0,0:0:0:0:
200,128,53825,1,8,0:0:0:0:
188,88,53927,1,8,0:0:0:0:
200,128,54028,1,0,0:0:0:0:
200,128,54231,1,8,0:0:0:0:
200,128,54433,1,0,0:0:0:0:
204,124,54636,1,4,0:0:0:0:
192,120,54940,1,0,0:0:0:0:
204,124,55041,1,8,0:0:0:0:
196,116,55244,1,8,0:0:0:0:
204,124,55447,1,4,0:0:0:0:
204,124,55650,1,0,0:0:0:0:
216,128,55717,1,8,0:0:0:0:
216,132,55785,1,8,0:0:0:0:
204,124,55852,1,0,0:0:0:0:
204,124,56055,1,8,0:0:0:0:
204,124,56258,1,4,0:0:0:0:
204,124,56460,1,8,0:0:0:0:
204,124,56663,1,8,0:0:0:0:
204,124,56866,1,8,0:0:0:0:
204,124,57271,1,8,0:0:0:0:
204,124,57474,1,8,0:0:0:0:
204,124,57677,1,8,0:0:0:0:
204,124,58082,1,8,0:0:0:0:
204,124,58285,1,8,0:0:0:0:
204,124,58487,1,8,0:0:0:0:
204,124,58690,1,8,0:0:0:0:
204,124,58791,1,8,0:0:0:0:
204,120,58893,1,8,0:0:0:0:
204,124,59095,1,8,0:0:0:0:
204,120,59501,1,4,0:0:0:0:
200,120,59704,1,0,0:0:0:0:
192,124,59771,1,8,0:0:0:0:
184,144,59839,1,8,0:0:0:0:
204,120,59906,1,0,0:0:0:0:
200,120,60109,1,0,0:0:0:0:
204,120,60312,1,8,0:0:0:0:
180,108,60413,1,8,0:0:0:0:
204,120,60514,1,0,0:0:0:0:
200,120,60717,1,8,0:0:0:0:
204,120,60920,1,0,0:0:0:0:
200,120,61122,1,4,0:0:0:0:
196,124,61427,1,8,0:0:0:0:
204,120,61528,1,0,0:0:0:0:
200,120,61731,1,8,0:0:0:0:
204,120,61933,1,0,0:0:0:0:
200,120,62136,1,0,0:0:0:0:
196,120,62204,1,8,0:0:0:0:
196,120,62271,1,8,0:0:0:0:
204,120,62339,1,0,0:0:0:0:
204,120,62541,1,0,0:0:0:0:
200,120,62744,1,12,0:0:0:0:
200,120,63048,1,8,0:0:0:0:
204,120,63352,1,8,0:0:0:0:
204,120,63555,1,8,0:0:0:0:
192,112,63758,1,0,0:0:0:0:
192,108,63960,1,0,0:0:0:0:
204,120,64366,1,4,0:0:0:0:
204,120,64568,1,8,0:0:0:0:
192,112,64670,1,8,0:0:0:0:
204,120,64771,1,0,0:0:0:0:
204,120,64974,1,8,0:0:0:0:
192,112,65075,1,8,0:0:0:0:
204,120,65177,1,0,0:0:0:0:
204,120,65379,1,8,0:0:0:0:
192,112,65481,1,8,0:0:0:0:
204,120,65582,1,0,0:0:0:0:
204,120,65785,1,8,0:0:0:0:
204,120,65987,1,4,0:0:0:0:
204,120,66190,1,0,0:0:0:0:
204,128,66258,1,8,0:0:0:0:
204,128,66325,1,8,0:0:0:0:
204,120,66393,1,0,0:0:0:0:
204,120,66595,1,0,0:0:0:0:
204,120,66798,1,8,0:0:0:0:
188,112,66900,1,8,0:0:0:0:
204,120,67001,1,0,0:0:0:0:
204,120,67204,1,8,0:0:0:0:
204,120,67406,1,0,0:0:0:0:
204,120,67609,1,0,0:0:0:0:
204,120,67812,1,8,0:0:0:0:
188,112,67913,1,8,0:0:0:0:
204,120,68014,1,8,0:0:0:0:
204,120,68217,1,8,0:0:0:0:
204,120,68420,1,0,0:0:0:0:
204,120,68622,1,0,0:0:0:0:
200,128,68690,1,8,0:0:0:0:
200,128,68758,1,8,0:0:0:0:
204,120,68825,1,0,0:0:0:0:
204,120,69028,1,8,0:0:0:0:
204,120,69231,1,4,0:0:0:0:
204,120,69433,1,8,0:0:0:0:
184,112,69535,1,8,0:0:0:0:
204,120,69636,1,8,0:0:0:0:
204,120,69839,1,8,0:0:0:0:
204,120,70244,1,8,0:0:0:0:
184,112,70345,1,0,0:0:0:0:
204,120,70447,1,8,0:0:0:0:
204,120,70650,1,8,0:0:0:0:
204,120,71055,1,0,0:0:0:0:
184,112,71156,1,8,0:0:0:0:
204,120,71258,1,0,0:0:0:0:
204,120,71460,1,8,0:0:0:0:
204,120,71663,1,8,0:0:0:0:
204,120,71967,1,8,0:0:0:0:
204,120,72271,1,8,0:0:0:0:
204,120,72474,1,4,0:0:0:0:
204,120,72677,1,0,0:0:0:0:
204,120,72744,1,8,0:0:0:0:
204,120,72812,1,8,0:0:0:0:
204,120,72879,1,0,0:0:0:0:
204,120,73082,1,0,0:0:0:0:
204,120,73285,1,8,0:0:0:0:
188,112,73386,1,8,0:0:0:0:
204,120,73487,1,0,0:0:0:0:
204,120,73690,1,8,0:0:0:0:
204,120,73893,1,0,0:0:0:0:
204,120,74095,1,0,0:0:0:0:
204,120,74298,1,8,0:0:0:0:
188,112,74400,1,8,0:0:0:0:
204,120,74501,1,8,0:0:0:0:
204,120,74704,1,8,0:0:0:0:
204,120,74906,1,0,0:0:0:0:
204,120,75109,1,0,0:0:0:0:
212,128,75177,1,8,0:0:0:0:
212,128,75244,1,8,0:0:0:0:
204,120,75312,1,0,0:0:0:0:
204,120,75514,1,8,0:0:0:0:
204,120,75717,1,4,0:0:0:0:
204,120,76021,1,0,0:0:0:0:
204,120,76325,1,8,0:0:0:0:
204,120,76629,1,8,0:0:0:0:
204,120,76933,1,8,0:0:0:0:
204,120,77339,1,8,0:0:0:0:
204,120,77541,1,8,0:0:0:0:
204,120,77744,1,8,0:0:0:0:
208,120,77845,1,8,0:0:0:0:
208,116,78048,1,0,0:0:0:0:
204,120,78150,1,8,0:0:0:0:
204,120,78555,1,4,0:0:0:0:
204,120,78960,1,12,0:0:0:0:
204,120,79163,1,0,0:0:0:0:
204,120,79366,1,0,0:0:0:0:
204,120,79568,1,8,0:0:0:0:
204,120,79771,1,0,0:0:0:0:
204,120,79974,1,0,0:0:0:0:
204,120,80177,1,0,0:0:0:0:
204,120,80379,1,0,0:0:0:0:
204,120,80582,1,0,0:0:0:0:
204,120,80785,1,0,0:0:0:0:
204,120,80987,1,8,0:0:0:0:
204,120,81089,1,8,0:0:0:0:
212,120,81291,1,0,0:0:0:0:
204,120,81393,1,8,0:0:0:0:
204,120,81595,1,0,0:0:0:0:
204,120,81798,1,0,0:0:0:0:
204,120,82204,1,12,0:0:0:0:
204,120,82406,1,0,0:0:0:0:
204,120,82609,1,0,0:0:0:0:
204,120,82812,1,8,0:0:0:0:
204,120,83014,1,0,0:0:0:0:
204,120,83217,1,0,0:0:0:0:
204,120,83420,1,8,0:0:0:0:
208,124,83521,1,8,0:0:0:0:
204,120,83622,1,8,0:0:0:0:
204,120,83825,1,0,0:0:0:0:
204,120,84028,1,0,0:0:0:0:
204,120,84231,1,8,0:0:0:0:
200,112,84332,1,8,0:0:0:0:
204,120,84433,1,8,0:0:0:0:
204,120,84636,1,8,0:0:0:0:
204,120,84839,1,0,0:0:0:0:
204,120,85041,1,0,0:0:0:0:
204,120,85447,1,12,0:0:0:0:
200,112,85751,1,8,0:0:0:0:
204,120,85852,1,8,0:0:0:0:
200,112,86055,1,8,0:0:0:0:
204,120,86258,1,4,0:0:0:0:
200,112,86562,1,8,0:0:0:0:
204,120,86663,1,8,0:0:0:0:
200,112,86866,1,8,0:0:0:0:
204,120,87068,1,4,0:0:0:0:
204,120,87271,1,4,0:0:0:0:
204,120,87474,1,8,0:0:0:0:
200,112,87575,1,8,0:0:0:0:
204,120,87677,1,8,0:0:0:0:
204,120,87879,1,8,0:0:0:0:
200,100,87981,1,8,0:0:0:0:
204,120,88082,1,0,0:0:0:0:
204,120,88285,1,4,0:0:0:0:
204,120,88690,1,4,0:0:0:0:
204,120,88893,1,8,0:0:0:0:
204,120,89095,1,8,0:0:0:0:
204,120,89298,1,8,0:0:0:0:
204,120,89501,1,0,0:0:0:0:
204,120,89704,1,8,0:0:0:0:
204,120,89906,1,8,0:0:0:0:
204,120,90008,1,8,0:0:0:0:
204,120,90109,1,0,0:0:0:0:
204,120,90312,1,0,0:0:0:0:
204,120,90514,1,8,0:0:0:0:
204,120,90616,1,8,0:0:0:0:
204,120,90717,1,8,0:0:0:0:
204,120,90920,1,8,0:0:0:0:
204,120,91122,1,6,0:0:0:0:
204,120,91933,1,4,0:0:0:0:
204,120,92136,1,0,0:0:0:0:
204,120,92237,1,8,0:0:0:0:
204,120,92339,1,8,0:0:0:0:
204,120,92541,1,0,0:0:0:0:
200,120,92643,1,8,0:0:0:0:
204,120,92744,1,0,0:0:0:0:
204,120,92812,1,8,0:0:0:0:
204,120,92879,1,8,0:0:0:0:
204,120,92947,1,0,0:0:0:0:
196,116,93048,1,8,0:0:0:0:
204,120,93150,1,0,0:0:0:0:
204,120,93352,1,0,0:0:0:0:
204,120,93555,1,8,0:0:0:0:
204,120,93758,1,0,0:0:0:0:
192,120,93859,1,0,0:0:0:0:
204,120,93960,1,8,0:0:0:0:
196,116,94062,1,8,0:0:0:0:
204,120,94163,1,8,0:0:0:0:
192,120,94264,1,0,0:0:0:0:
204,120,94366,1,8,0:0:0:0:
196,128,94433,1,8,0:0:0:0:
196,128,94501,1,8,0:0:0:0:
204,120,94568,1,0,0:0:0:0:
204,120,94670,1,0,0:0:0:0:
204,120,94771,1,8,0:0:0:0:
208,116,95177,1,4,0:0:0:0:
208,116,95379,1,8,0:0:0:0:
196,104,95481,1,8,0:0:0:0:
208,116,95582,1,0,0:0:0:0:
208,116,95785,1,0,0:0:0:0:
204,100,95886,1,0,0:0:0:0:
208,116,95987,1,8,0:0:0:0:
204,100,96055,1,8,0:0:0:0:
208,116,96122,1,8,0:0:0:0:
200,120,96190,1,0,0:0:0:0:
200,120,96291,1,8,0:0:0:0:
200,120,96393,1,8,0:0:0:0:
192,112,96494,1,0,0:0:0:0:
208,116,96595,1,8,0:0:0:0:
208,116,96798,1,0,0:0:0:0:
192,112,96900,1,8,0:0:0:0:
208,116,97001,1,8,0:0:0:0:
192,112,97102,1,0,0:0:0:0:
208,116,97204,1,8,0:0:0:0:
192,112,97305,1,8,0:0:0:0:
208,116,97406,1,8,0:0:0:0:
208,124,97508,1,0,0:0:0:0:
208,116,97609,1,0,0:0:0:0:
192,124,97677,1,8,0:0:0:0:
208,120,97744,1,8,0:0:0:0:
208,116,97812,1,0,0:0:0:0:
208,124,97913,1,0,0:0:0:0:
208,116,98014,1,8,0:0:0:0:
208,116,98420,1,12,0:0:0:0:
208,120,98724,1,0,0:0:0:0:
208,116,98825,1,8,0:0:0:0:
208,116,99028,1,0,0:0:0:0:
208,116,99231,1,4,0:0:0:0:
208,120,99535,1,0,0:0:0:0:
208,116,99636,1,8,0:0:0:0:
208,120,99839,1,8,0:0:0:0:
208,116,100041,1,4,0:0:0:0:
208,116,100244,1,4,0:0:0:0:
208,116,100447,1,8,0:0:0:0:
200,120,100548,1,8,0:0:0:0:
208,128,100650,1,8,0:0:0:0:
208,128,100852,1,8,0:0:0:0:
208,128,100954,1,8,0:0:0:0:
208,116,101055,1,0,0:0:0:0:
208,116,101258,1,0,0:0:0:0:
208,116,101663,1,8,0:0:0:0:
200,128,101764,1,8,0:0:0:0:
208,116,101866,1,8,0:0:0:0:
216,124,101967,1,8,0:0:0:0:
208,116,102068,1,0,0:0:0:0:
216,112,102170,1,0,0:0:0:0:
208,116,102271,1,0,0:0:0:0:
216,112,102372,1,0,0:0:0:0:
208,116,102474,1,8,0:0:0:0:
216,112,102575,1,8,0:0:0:0:
208,116,102677,1,8,0:0:0:0:
216,112,102778,1,8,0:0:0:0:
208,116,102879,1,0,0:0:0:0:
216,112,102981,1,0,0:0:0:0:
208,116,103082,1,0,0:0:0:0:
216,112,103183,1,0,0:0:0:0:
208,116,103285,1,8,0:0:0:0:
220,120,103352,1,0,0:0:0:0:
220,120,103420,1,0,0:0:0:0:
208,116,103487,1,8,0:0:0:0:
216,112,103589,1,0,0:0:0:0:
208,116,103690,1,8,0:0:0:0:
220,120,103758,1,0,0:0:0:0:
220,120,103825,1,0,0:0:0:0:
208,116,103893,1,8,0:0:0:0:
220,128,103994,1,0,0:0:0:0:
208,116,104095,1,8,0:0:0:0:
220,120,104163,1,0,0:0:0:0:
220,120,104231,1,0,0:0:0:0:
208,116,104298,1,8,0:0:0:0:
200,120,104400,1,0,0:0:0:0:
208,116,104501,1,8,0:0:0:0:
220,120,104568,1,0,0:0:0:0:
220,120,104636,1,0,0:0:0:0:
208,116,104704,1,8,0:0:0:0:
228,132,104805,1,0,0:0:0:0:
88,88,104906,2,0,L|184:192,2,140
236,128,106122,1,12,0:0:0:0:
240,132,106528,1,4,0:0:0:0:
240,132,107339,1,4,0:0:0:0:
240,132,108150,1,4,0:0:0:0:
236,132,109771,1,4,0:0:0:0:
236,132,110075,1,8,0:0:0:0:
236,132,110177,1,8,0:0:0:0:
224,128,110379,1,8,0:0:0:0:
224,128,110582,1,8,0:0:0:0:
228,144,110683,1,8,0:0:0:0:
224,128,110785,1,0,0:0:0:0:
228,144,110886,1,0,0:0:0:0:
224,128,110987,1,8,0:0:0:0:
220,132,111089,1,0,0:0:0:0:
220,128,111190,1,0,0:0:0:0:
224,128,111393,1,4,0:0:0:0:
228,140,111697,1,8,0:0:0:0:
224,128,111798,1,0,0:0:0:0:
224,128,112001,1,0,0:0:0:0:
224,128,112204,1,8,0:0:0:0:
244,128,112305,1,8,0:0:0:0:
224,128,112406,1,8,0:0:0:0:
224,128,112508,1,8,0:0:0:0:
224,128,112609,1,0,0:0:0:0:
224,128,112812,1,0,0:0:0:0:
224,128,113014,1,4,0:0:0:0:
224,128,113825,1,4,0:0:0:0:
224,128,114636,1,4,0:0:0:0:
224,128,115447,1,0,0:0:0:0:
224,128,115650,1,0,0:0:0:0:
232,128,115717,1,8,0:0:0:0:
232,132,115785,1,8,0:0:0:0:
224,128,115852,1,0,0:0:0:0:
224,128,116055,1,0,0:0:0:0:
224,136,116258,1,4,0:0:0:0:
224,128,116460,1,0,0:0:0:0:
216,136,116562,1,0,0:0:0:0:
220,132,116663,1,8,0:0:0:0:
224,128,116866,1,8,0:0:0:0:
224,128,117068,1,0,0:0:0:0:
224,128,117271,1,8,0:0:0:0:
224,128,117474,1,8,0:0:0:0:
216,128,117879,1,4,0:0:0:0:
216,128,118082,1,8,0:0:0:0:
228,136,118183,1,0,0:0:0:0:
228,136,118285,1,8,0:0:0:0:
216,128,118487,1,8,0:0:0:0:
216,136,118589,1,0,0:0:0:0:
216,128,118690,1,8,0:0:0:0:
216,136,118791,1,0,0:0:0:0:
216,128,118893,1,8,0:0:0:0:
216,128,118960,1,8,0:0:0:0:
216,128,119028,1,0,0:0:0:0:
216,128,119095,1,8,0:0:0:0:
216,136,119197,1,8,0:0:0:0:
216,128,119298,1,8,0:0:0:0:
216,128,119501,1,4,0:0:0:0:
216,128,119704,1,0,0:0:0:0:
200,144,119771,1,8,0:0:0:0:
208,144,119839,1,8,0:0:0:0:
216,128,119906,1,0,0:0:0:0:
216,128,120109,1,8,0:0:0:0:
216,128,120312,1,8,0:0:0:0:
216,128,120514,1,0,0:0:0:0:
216,128,120717,1,8,0:0:0:0:
216,128,120920,1,8,0:0:0:0:
216,128,121122,1,4,0:0:0:0:
216,128,121325,1,0,0:0:0:0:
200,140,121427,1,8,0:0:0:0:
216,128,121528,1,0,0:0:0:0:
200,140,121731,1,8,0:0:0:0:
216,128,121933,1,0,0:0:0:0:
216,128,122136,1,0,0:0:0:0:
176,164,122204,1,8,0:0:0:0:
208,144,122271,1,8,0:0:0:0:
216,128,122339,1,0,0:0:0:0:
200,140,122541,1,8,0:0:0:0:
216,128,122744,1,4,0:0:0:0:
216,128,122947,1,0,0:0:0:0:
200,140,123048,1,8,0:0:0:0:
216,128,123150,1,0,0:0:0:0:
216,128,123352,1,8,0:0:0:0:
224,120,123555,1,0,0:0:0:0:
216,128,123758,1,8,0:0:0:0:
204,136,123859,1,0,0:0:0:0:
216,128,123960,1,8,0:0:0:0:
216,128,124163,1,8,0:0:0:0:
228,116,124366,1,4,0:0:0:0:
224,120,124568,1,8,0:0:0:0:
204,136,124670,1,8,0:0:0:0:
216,128,124771,1,0,0:0:0:0:
216,128,124974,1,8,0:0:0:0:
216,128,125177,1,0,0:0:0:0:
200,132,125278,1,8,0:0:0:0:
228,116,125379,1,0,0:0:0:0:
200,132,125481,1,0,0:0:0:0:
228,116,125582,1,8,0:0:0:0:
228,116,125785,1,8,0:0:0:0:
228,116,125987,1,4,0:0:0:0:
228,116,126190,1,0,0:0:0:0:
208,144,126258,1,8,0:0:0:0:
208,144,126325,1,8,0:0:0:0:
228,116,126393,1,0,0:0:0:0:
228,116,126595,1,0,0:0:0:0:
228,116,126798,1,8,0:0:0:0:
228,116,127001,1,8,0:0:0:0:
228,116,127204,1,0,0:0:0:0:
216,128,127305,1,0,0:0:0:0:
228,116,127406,1,8,0:0:0:0:
228,116,127609,1,0,0:0:0:0:
228,116,127812,1,8,0:0:0:0:
216,128,127913,1,8,0:0:0:0:
228,116,128014,1,8,0:0:0:0:
228,116,128217,1,8,0:0:0:0:
228,116,128420,1,0,0:0:0:0:
228,116,128622,1,0,0:0:0:0:
208,140,128690,1,8,0:0:0:0:
208,140,128758,1,8,0:0:0:0:
228,116,128825,1,0,0:0:0:0:
216,128,128927,1,8,0:0:0:0:
228,116,129028,1,0,0:0:0:0:
228,116,129231,1,8,0:0:0:0:
224,128,129332,1,8,0:0:0:0:
228,116,129433,1,0,0:0:0:0:
224,128,129535,1,8,0:0:0:0:
228,116,129636,1,0,0:0:0:0:
224,128,129737,1,8,0:0:0:0:
228,116,129839,1,0,0:0:0:0:
224,128,129940,1,0,0:0:0:0:
228,116,130041,1,8,0:0:0:0:
224,128,130143,1,8,0:0:0:0:
228,116,130244,1,0,0:0:0:0:
224,128,130345,1,8,0:0:0:0:
228,116,130447,1,0,0:0:0:0:
224,128,130548,1,0,0:0:0:0:
228,116,130650,1,8,0:0:0:0:
224,128,130751,1,8,0:0:0:0:
224,128,130852,1,0,0:0:0:0:
224,128,130954,1,8,0:0:0:0:
228,116,131055,1,0,0:0:0:0:
224,128,131156,1,0,0:0:0:0:
228,116,131258,1,8,0:0:0:0:
224,128,131359,1,8,0:0:0:0:
228,116,131460,1,0,0:0:0:0:
228,116,131663,1,12,0:0:0:0:
228,116,131866,1,12,0:0:0:0:
228,116,132068,1,12,0:0:0:0:
