osu file format v14

[General]
AudioFilename: audio.mp3
AudioLeadIn: 0
PreviewTime: 65470
Countdown: 0
SampleSet: Soft
StackLeniency: 0.4
Mode: 0
LetterboxInBreaks: 0
WidescreenStoryboard: 1

[Editor]
DistanceSpacing: 1.5
BeatDivisor: 4
GridSize: 4
TimelineZoom: 1.5

[Metadata]
Title:lonely pirouette
TitleUnicode:lonely pirouette
Artist:Kakka
ArtistUnicode:閣下
Creator:ponbot
Version:hard
Source:
Tags:shizuku- satellite gazimal shikibe mayu kazato asa japanese rock j-rock pop j-pop 絶対征服わんわん zettai seifuku wanwan Medansy
BeatmapID:3126057
BeatmapSetID:1495810

[Difficulty]
HPDrainRate:4
CircleSize:3.8
OverallDifficulty:6
ApproachRate:8
SliderMultiplier:1.1
SliderTickRate:1

[Events]
//Background and Video events
0,0,"o_o.jpg",0,0
//Break Periods
2,132434,140308
2,170081,173837
//Storyboard Layer 0 (Background)
//Storyboard Layer 1 (Fail)
//Storyboard Layer 2 (Pass)
//Storyboard Layer 3 (Foreground)
//Storyboard Layer 4 (Overlay)
//Storyboard Sound Samples

[TimingPoints]
470,294.117647058824,4,2,4,40,1,0
2528,-100,4,2,4,40,0,0
2749,-100,4,2,4,5,0,0
2822,-100,4,2,4,40,0,0
4881,-100,4,2,4,40,0,0
5102,-100,4,2,4,5,0,0
5175,-100,4,2,4,40,0,0
8705,-100,4,2,4,5,0,0
9146,-100,4,2,1,60,0,0
9808,-100,4,2,1,5,0,0
9881,-100,4,2,1,60,0,0
11499,-100,4,2,1,65,0,0
12234,-100,4,2,1,60,0,0
14440,-100,4,2,1,5,0,0
14587,-100,4,2,1,70,0,0
17234,-100,4,2,1,50,0,0
17528,-100,4,2,1,60,0,0
18117,-100,4,2,1,80,0,0
19293,-100,4,2,2,70,0,0
26352,-100,4,2,1,70,0,0
28705,-142.857142857143,4,2,1,60,0,0
33411,-100,4,2,1,60,0,0
35764,-100,4,2,1,70,0,0
56131,-100,4,2,1,40,0,0
56352,-100,4,2,1,70,0,0
56425,-100,4,2,1,50,0,0
56646,-100,4,2,1,70,0,0
56720,-100,4,2,1,60,0,0
56940,-100,4,2,1,70,0,0
64587,-100,4,2,1,80,0,0
66205,-100,4,2,1,100,0,1
83852,-100,4,2,1,60,0,0
84587,-100,4,2,1,100,0,1
85175,-100,4,2,2,80,0,0
92234,-100,4,2,1,80,0,0
94587,-100,4,2,1,70,0,0
104293,-100,4,2,1,60,0,0
113264,-100,4,2,1,100,0,1
130911,-100,4,2,1,60,0,0
131499,-100,4,2,1,50,0,0
143901,-100,4,2,1,35,0,0
143999,-100,4,2,1,50,0,0
148705,-100,4,2,1,65,0,0
151058,-100,4,2,1,70,0,0
160470,-100,4,2,1,100,0,1
165175,-100,4,2,2,100,0,1
168999,-100,4,2,1,100,0,1
169072,-100,4,2,2,100,0,1
169881,-100,4,2,1,60,0,0
190488,-100,4,2,0,30,0,0
191058,-100,4,2,1,60,0,0
192087,-100,4,2,2,60,0,0
193264,-100,4,2,3,100,0,0
193337,-100,4,2,2,5,0,0
195028,-100,4,2,2,80,0,1
195102,-100,4,2,2,60,0,0
195322,-100,4,2,2,80,0,1
195396,-100,4,2,2,60,0,0
195617,-100,4,2,3,100,0,1
195690,-100,4,2,1,100,0,1
202675,-100,4,2,3,100,0,0
202749,-100,4,2,1,80,0,0
203117,-100,4,2,1,100,0,1
212234,-100,4,2,2,80,0,0
220322,-100,4,2,1,80,0,0
220396,-100,4,2,2,80,0,0
221572,-100,4,2,2,5,0,0
221646,-100,4,2,2,80,0,0
225764,-100,4,2,1,80,0,0
225911,-100,4,2,2,80,0,0
228705,-100,4,2,1,80,0,0
228852,-100,4,2,2,80,0,0
238117,-100,4,2,1,80,0,0
245249,-100,4,2,1,20,0,0
249881,-100,4,2,1,5,0,0

[Colours]
Combo1 : 167,112,250
Combo2 : 250,133,165
Combo3 : 127,127,127

[HitObjects]
256,192,470,5,2,0:0:0:0:
256,192,617,12,0,2528,0:0:0:0:
256,192,2822,5,2,0:0:0:0:
256,192,2970,12,0,4881,0:0:0:0:
256,192,5175,5,2,0:0:0:0:
256,192,5322,12,0,8705,0:0:0:0:
256,192,9146,5,0,3:0:0:0:
256,192,9220,1,0,3:0:0:0:
256,192,9293,2,0,B|235:162|235:162|163:133|113:184,1,165,0|0,1:0|0:0,0:0:0:0:
84,264,9881,6,0,B|190:312|268:225|210:198|299:105|415:160,1,385,4|0,3:1|0:0,0:0:0:0:
468,232,11058,2,0,L|476:288,2,55,0|8|4,1:0|3:0|3:0,0:0:0:0:
508,156,11499,5,0,1:0:0:0:
414,48,11793,1,0,1:0:0:0:
295,124,12087,1,0,1:0:0:0:
295,124,12234,1,4,1:2:0:0:
386,241,12528,6,0,L|343:251,3,27.5,0|0|8|8,1:0|1:0|0:3|0:3,0:0:0:0:
320,288,12822,2,0,L|282:264,3,27.5,4|4|4|4,0:3|0:3|0:3|0:3,0:0:0:0:
240,274,13117,2,0,L|230:231,3,27.5,4|4|4|4,3:0|3:0|3:0|3:0,0:0:0:0:
193,207,13411,5,0,1:0:0:0:
193,207,13558,1,8,0:3:0:0:
132,262,13705,1,4,0:3:0:0:
132,262,13852,1,4,0:3:0:0:
59,222,13999,1,4,1:2:0:0:
106,53,14587,6,0,L|174:62,1,55,4|0,1:0|3:0,0:0:0:0:
232,120,14881,1,0,3:0:0:0:
299,56,15028,2,0,L|375:40,2,55,4|0|0,1:2|3:0|3:0,0:0:0:0:
232,120,15470,6,0,L|235:188,1,55,4|0,1:2|3:0,0:0:0:0:
241,268,15764,1,0,3:0:0:0:
150,289,15911,2,0,L|91:303,2,55,4|0|0,1:2|3:0|3:0,0:0:0:0:
333,280,16352,2,0,L|395:289,1,55,4|0,1:0|3:0,0:0:0:0:
243,322,16646,6,0,L|240:267,1,55,4|0,1:2|0:0,0:0:0:0:
234,174,16940,1,4,1:2:0:0:
368,192,17234,6,0,L|404:173,3,27.5,2|0|2|0,3:0|1:0|1:3|1:0,0:0:0:0:
448,176,17528,2,0,L|460:137,3,27.5,2|0|2|0,3:0|1:0|1:3|1:0,0:0:0:0:
493,108,17822,2,0,L|474:72,3,27.5,2|0|2|0,3:0|1:0|1:3|1:0,0:0:0:0:
476,28,18117,1,2,3:0:0:0:
476,28,19293,6,0,L|412:37,1,55,4|2,3:1|0:0,0:0:0:0:
353,82,19587,2,0,L|289:91,1,55,0|2,1:0|0:0,0:0:0:0:
240,40,19881,1,0,3:0:0:0:
240,40,20028,2,0,P|187:28|128:62,1,110,2|2,0:0|0:0,0:0:0:0:
110,128,20470,1,0,3:0:0:0:
28,112,20617,2,0,L|14:56,2,55,2|0|2,0:0|1:0|0:0,0:0:0:0:
189,112,21058,6,0,P|190:139|181:165,1,55,2|2,3:2|0:0,0:0:0:0:
115,213,21352,2,0,P|113:240|122:266,1,55,2|2,1:2|0:0,0:0:0:0:
196,368,21646,2,0,L|211:259,1,110,0|0,3:0|1:0,0:0:0:0:
287,214,22087,1,2,0:0:0:0:
204,246,22234,2,0,L|217:302,1,55,0|2,3:0|0:0,0:0:0:0:
320,356,22528,2,0,L|307:300,1,55,0|2,1:0|0:0,0:0:0:0:
376,246,22822,5,2,3:2:0:0:
376,246,22970,1,2,0:0:0:0:
444,292,23117,2,0,P|456:267|457:236,1,55,0|2,1:0|0:0,0:0:0:0:
416,172,23411,2,0,P|417:144|429:120,1,55,2|2,3:2|0:0,0:0:0:0:
496,72,23705,1,2,1:2:0:0:
496,72,23852,1,2,0:0:0:0:
436,8,23999,6,0,L|313:21,1,110,4|0,3:1|1:0,0:0:0:0:
276,85,24440,1,0,0:0:0:0:
344,132,24587,2,0,P|344:168|331:210,1,55,0|2,3:0|0:0,0:0:0:0:
278,240,24881,1,0,1:0:0:0:
278,240,25028,1,2,0:0:0:0:
323,308,25175,6,0,P|288:319|244:319,1,55,0|2,3:0|0:0,0:0:0:0:
193,353,25470,2,0,P|171:323|157:282,1,55,0|2,1:0|0:0,0:0:0:0:
86,278,25764,1,2,3:2:0:0:
132,209,25911,1,2,1:2:0:0:
54,182,26058,2,0,P|51:127|47:91,1,82.5,2|0,1:2|0:0,0:0:0:0:
41,71,26352,5,4,1:2:0:0:
188,4,26646,1,0,3:0:0:0:
188,4,26793,2,0,P|185:31|183:58,1,55,4|0,1:2|3:0,0:0:0:0:
276,136,27087,1,0,3:0:0:0:
276,136,27234,2,0,P|273:108|271:81,1,55,4|0,1:2|0:0,0:0:0:0:
364,4,27528,5,0,3:0:0:0:
364,4,27675,2,0,B|361:31|358:61|358:61|376:97|416:89,1,110,4|0,1:0|3:0,0:0:0:0:
480,76,28117,1,0,1:0:0:0:
451,153,28264,1,0,3:0:0:0:
512,208,28411,2,0,P|510:235|507:262,1,55,8|4,3:0|3:0,0:0:0:0:
492,340,28705,6,0,B|405:326|379:248|379:248|328:318|247:309|247:309|152:200|35:253,1,538.999983551026,4|0,1:0|0:0,0:0:0:0:
118,359,31058,6,0,B|178:291|141:217|141:217|192:211|230:159|212:103|212:103|166:122|128:85,1,384.999988250733,4|0,1:0|0:0,0:0:0:0:
182,28,32675,1,0,3:0:0:0:
182,28,32749,1,0,3:0:0:0:
182,28,32822,2,0,L|222:16,2,38.4999988250733,0|8|4,1:0|0:3|0:3,0:0:0:0:
72,144,33411,6,0,P|57:120|54:93,1,55,4|2,3:1|0:3,0:0:0:0:
64,224,33705,2,0,P|37:217|15:200,1,55,0|2,3:0|0:3,0:0:0:0:
114,286,33999,2,0,P|90:300|63:303,1,55,0|2,3:0|0:3,0:0:0:0:
194,294,34293,2,0,P|187:320|170:342,1,55,0|2,3:0|0:3,0:0:0:0:
273,294,34587,6,0,P|270:267|256:244,1,55,0|2,3:0|0:3,0:0:0:0:
345,254,34881,2,0,P|361:232|368:205,1,55,0|2,3:0|0:3,0:0:0:0:
424,276,35175,2,0,P|451:272|474:258,1,55,0|2,3:0|0:3,0:0:0:0:
464,347,35470,2,0,P|485:363|512:370,1,55,0|2,3:0|0:3,0:0:0:0:
392,384,35764,6,0,L|363:376,3,27.5,0|0|0|0,1:0|1:0|1:0|1:0,0:0:0:0:
332,332,36058,2,0,L|303:324,3,27.5,0|0|0|8,3:0|3:0|1:0|1:3,0:0:0:0:
272,280,36352,2,0,L|301:272,3,27.5,4|4|0|0,1:3|1:3|3:0|3:0,0:0:0:0:
332,228,36646,2,0,L|361:220,3,27.5,8|8|0|0,1:3|1:3|3:0|3:0,0:0:0:0:
392,176,36940,5,8,1:3:0:0:
392,176,37014,1,8,1:3:0:0:
392,176,37087,2,0,L|397:130,1,27.5,0|0,3:0|3:0,0:0:0:0:
339,146,37234,2,0,L|344:100,3,27.5,4|4|0|0,1:3|1:3|3:0|3:0,0:0:0:0:
292,122,37528,1,0,1:0:0:0:
84,192,38117,5,6,3:1:0:0:
146,138,38264,1,0,3:0:0:0:
146,138,38411,2,0,L|137:68,1,55,2|0,1:2|0:0,0:0:0:0:
66,46,38705,2,0,P|25:92|29:144,1,110,2|2,0:0|1:2,0:0:0:0:
0,300,39293,2,0,P|53:284|107:284,1,110,2|0,3:2|1:0,0:0:0:0:
176,238,39734,2,0,P|192:274|191:310,1,55,2|0,3:2|3:0,0:0:0:0:
248,350,40028,1,2,3:2:0:0:
307,293,40175,2,0,L|372:287,1,55,2|0,1:2|3:0,0:0:0:0:
444,279,40470,5,2,3:1:0:0:
339,139,40764,2,0,P|315:175|310:202,1,55,2|0,1:2|3:0,0:0:0:0:
239,225,41058,2,0,P|226:173|233:102,1,110,2|2,0:0|1:2,0:0:0:0:
356,12,41646,2,0,P|426:13|464:29,1,110,2|0,3:2|1:0,0:0:0:0:
510,94,42087,2,0,L|501:152,1,55,2|0,3:2|3:0,0:0:0:0:
422,147,42381,1,2,3:2:0:0:
422,147,42528,2,0,L|413:205,1,55,0|0,1:0|3:0,0:0:0:0:
444,279,42822,5,2,3:1:0:0:
316,384,43117,2,0,L|247:374,1,55,2|0,1:2|3:0,0:0:0:0:
220,304,43411,2,0,L|151:294,1,55,2|0,3:2|3:0,0:0:0:0:
94,337,43705,1,2,1:2:0:0:
0,200,43999,2,0,L|20:76,1,110,2|2,3:2|1:2,0:0:0:0:
86,45,44440,2,0,P|96:70|97:98,1,55,2|0,3:2|3:0,0:0:0:0:
88,183,44734,1,2,3:2:0:0:
88,183,44881,1,0,1:0:0:0:
209,294,45175,6,0,B|255:286|255:286|277:292|277:292|329:282,1,110,2|0,3:1|1:0,0:0:0:0:
371,222,45617,2,0,P|367:174|352:159,1,55,2|0,3:2|0:0,0:0:0:0:
283,151,45911,2,0,P|246:120|225:120,1,55,2|0,3:2|1:0,0:0:0:0:
173,165,46205,1,2,3:2:0:0:
124,104,46352,5,0,3:0:0:0:
124,104,46499,1,0,1:0:0:0:
168,34,46646,2,0,L|228:22,1,55,8|4,3:0|3:0,0:0:0:0:
296,57,46940,1,4,1:3:0:0:
233,209,47234,1,0,3:0:0:0:
400,195,47528,5,0,1:0:0:0:
400,195,47675,2,0,P|406:246|411:304,1,110,0|0,3:0|3:0,0:0:0:0:
329,325,48117,1,0,1:0:0:0:
329,326,48264,2,0,P|323:275|318:217,1,110,0|0,3:0|3:0,0:0:0:0:
233,209,48705,1,0,1:0:0:0:
243,294,48852,1,0,3:0:0:0:
243,294,48999,2,0,P|197:328|146:333,2,110,0|0|4,0:0|1:0|0:3,0:0:0:0:
84,276,49881,6,0,L|61:164,1,110,2|0,3:2|0:0,0:0:0:0:
104,97,50322,1,2,1:2:0:0:
151,171,50470,1,0,0:0:0:0:
151,171,50617,2,0,P|204:131|208:66,1,110,0|0,3:0|0:0,0:0:0:0:
289,60,51058,2,0,L|273:-3,2,55,2|0|0,0:0|3:0|3:0,0:0:0:0:
386,193,51646,1,0,1:0:0:0:
443,133,51793,1,0,3:0:0:0:
362,115,51940,1,2,3:2:0:0:
483,233,52234,5,0,1:0:0:0:
483,233,52381,2,0,P|477:285|468:343,1,110,0|0,3:0|3:0,0:0:0:0:
389,345,52822,1,0,1:0:0:0:
389,345,52969,2,0,P|395:293|404:235,1,110,0|0,3:0|3:0,0:0:0:0:
329,198,53411,1,0,1:0:0:0:
316,282,53558,1,0,3:0:0:0:
316,282,53705,2,0,P|269:263|245:202,2,110,2|2|4,0:0|1:2|0:3,0:0:0:0:
405,143,54587,6,0,L|397:17,1,110,2|0,3:2|0:0,0:0:0:0:
319,6,55028,1,2,3:2:0:0:
272,74,55175,1,0,1:0:0:0:
199,46,55322,1,0,3:0:0:0:
199,46,55470,2,0,L|144:41,1,55,0|0,1:0|3:0,0:0:0:0:
62,32,55764,5,0,1:0:0:0:
24,192,56058,2,0,L|-14:208,3,27.5,0|0|0|0,3:0|1:0|1:0|1:0,0:0:0:0:
57,248,56352,2,0,L|52:275,3,27.5,2|0|0|0,3:2|1:0|1:0|1:0,0:0:0:0:
120,258,56646,2,0,L|141:283,3,27.5,2|0|0|0,3:2|1:0|1:0|1:0,0:0:0:0:
169,215,56940,6,0,P|166:186|163:160,2,55,4|0|0,3:1|3:0|1:0,0:0:0:0:
226,287,57381,1,0,3:0:0:0:
226,287,57455,1,0,3:0:0:0:
226,287,57528,2,0,P|266:300|353:275,1,110,0|0,3:0|1:0,0:0:0:0:
414,297,57970,1,0,3:0:0:0:
414,297,58117,6,0,L|404:359,2,55,0|0|0,3:0|3:0|1:0,0:0:0:0:
479,245,58558,1,0,3:0:0:0:
479,245,58631,1,0,3:0:0:0:
479,245,58705,2,0,L|466:129,1,110,0|0,3:0|1:0,0:0:0:0:
432,60,59146,1,0,3:0:0:0:
354,30,59293,6,0,P|336:85|328:148,1,110,0|0,3:0|1:0,0:0:0:0:
259,181,59734,1,0,3:0:0:0:
184,145,59881,2,0,P|175:176|176:207,2,55,0|0|0,3:0|3:0|1:0,0:0:0:0:
205,65,60322,1,0,3:0:0:0:
205,65,60396,1,0,3:0:0:0:
205,65,60470,6,0,P|145:50|95:47,1,110,0|0,3:0|1:0,0:0:0:0:
21,72,60911,1,0,3:0:0:0:
21,72,61058,2,0,L|29:129,1,55,0|0,3:0|1:0,0:0:0:0:
4,205,61352,1,2,0:0:0:0:
154,272,61646,1,2,3:2:0:0:
256,128,63411,6,0,L|247:83,4,27.5,0|0|0|0|0,1:0|1:0|3:0|3:0|1:0,0:0:0:0:
284,205,63852,2,0,P|349:218|399:239,1,110,6|0,3:2|3:0,0:0:0:0:
411,250,64220,1,0,3:0:0:0:
411,250,64293,2,0,L|454:231,3,27.5,0|0|0|0,1:0|1:0|3:0|3:0,0:0:0:0:
459,187,64587,2,0,L|476:143,3,27.5,2|0|8|0,1:2|0:0|0:3|0:0,0:0:0:0:
448,108,64881,1,4,0:3:0:0:
448,108,65028,1,6,1:2:0:0:
256,12,66205,6,0,P|252:67|254:123,1,110,4|0,3:1|3:0,0:0:0:0:
210,191,66646,2,0,P|238:202|264:201,1,55,2|0,1:2|3:0,0:0:0:0:
289,206,66867,1,0,0:0:0:0:
315,210,66940,2,0,P|332:247|308:329,1,110,2|2,1:2|1:2,0:0:0:0:
249,348,67381,1,0,3:0:0:0:
249,348,67455,1,0,0:0:0:0:
249,348,67528,6,0,B|200:321|200:321|147:330,1,110,2|2,1:2|1:2,0:0:0:0:
76,373,67970,2,0,P|61:336|66:305,1,55,2|0,3:2|1:0,0:0:0:0:
0,267,68264,2,0,P|31:241|62:236,1,55,2|0,3:2|1:0,0:0:0:0:
102,179,68558,1,2,3:2:0:0:
102,179,68631,1,0,3:0:0:0:
102,179,68705,6,0,L|89:56,1,110,0|0,1:0|1:0,0:0:0:0:
162,29,69146,1,2,3:2:0:0:
234,68,69293,2,0,L|222:177,1,110,2|0,1:2|1:0,0:0:0:0:
299,206,69734,1,2,3:2:0:0:
241,264,69881,1,2,1:2:0:0:
241,264,70028,2,0,L|187:255,1,55,2|0,3:2|1:0,0:0:0:0:
294,326,70322,2,0,L|421:307,1,110,2|8,3:2|0:3,0:0:0:0:
502,177,70911,6,0,P|516:124|513:69,1,110,4|0,3:1|3:0,0:0:0:0:
454,11,71352,2,0,L|387:2,1,55,2|0,1:2|3:0,0:0:0:0:
372,9,71572,1,0,3:0:0:0:
345,15,71646,2,0,L|288:7,2,55,2|2|0,1:2|3:2|1:0,0:0:0:0:
383,98,72087,1,2,3:2:0:0:
383,98,72161,1,0,0:0:0:0:
383,98,72234,6,0,P|328:100|277:118,1,110,0|2,1:0|1:2,0:0:0:0:
195,126,72675,2,0,P|201:153|217:176,1,55,2|0,3:2|1:0,0:0:0:0:
266,241,72970,2,0,P|285:221|294:196,1,55,2|0,3:2|1:0,0:0:0:0:
276,118,73264,5,2,3:2:0:0:
44,46,73705,1,2,1:0:0:0:
44,46,73852,2,0,P|93:24|151:29,2,110,2|2|6,1:0|1:0|1:1,0:0:0:0:
124,190,74734,1,0,0:0:0:0:
70,253,74881,1,8,0:3:0:0:
70,253,75028,1,4,0:3:0:0:
128,310,75175,2,0,L|118:359,4,27.5,2|0|2|0|2,1:3|1:0|1:3|1:0|1:3,0:0:0:0:
201,271,75617,6,0,P|267:261|320:255,1,110,4|0,3:1|3:0,0:0:0:0:
385,291,76058,2,0,P|392:264|387:232,1,55,2|0,1:2|3:0,0:0:0:0:
305,202,76352,2,0,P|302:229|309:256,1,55,2|0,3:2|0:0,0:0:0:0:
380,152,76646,2,0,L|442:138,1,55,2|0,1:2|0:0,0:0:0:0:
488,48,76940,6,0,B|444:40|444:40|420:48|420:48|363:41,1,110,2|0,3:2|1:0,0:0:0:0:
298,29,77381,2,0,P|281:77|315:130,2,110,2|2|2,0:0|3:2|3:2,0:0:0:0:
216,14,78117,2,0,P|162:22|108:32,1,110,0|0,0:0|1:0,0:0:0:0:
57,98,78558,1,2,0:0:0:0:
57,98,78705,2,0,P|47:152|39:206,1,110,0|0,3:0|1:0,0:0:0:0:
102,258,79146,1,2,0:0:0:0:
178,223,79293,5,0,3:0:0:0:
178,223,79440,2,0,L|240:213,1,55,2|0,1:2|1:0,0:0:0:0:
273,285,79734,2,0,L|336:297,1,55,2|0,1:2|1:0,0:0:0:0:
344,380,80028,1,2,3:2:0:0:
344,380,80175,1,0,1:0:0:0:
180,351,80470,6,0,P|124:333|64:345,1,110,4|2,1:2|3:2,0:0:0:0:
12,286,80911,2,0,P|9:239|58:194,1,110,0|2,1:0|3:2,0:0:0:0:
131,210,81352,2,0,L|198:199,2,55,0|2|0,1:0|3:2|3:0,0:0:0:0:
102,132,81793,2,0,L|86:11,1,110,2|0,1:2|3:0,0:0:0:0:
169,35,82234,2,0,P|194:11|226:3,1,55,2|0,1:2|3:0,0:0:0:0:
275,58,82528,2,0,P|306:74|323:102,1,55,2|0,1:2|3:0,0:0:0:0:
320,172,82822,5,6,1:0:0:0:
223,306,83117,2,0,P|270:309|294:293,1,55,2|0,1:0|3:0,0:0:0:0:
343,354,83411,2,0,P|360:310|353:282,1,55,2|2,1:0|3:2,0:0:0:0:
435,267,83705,1,2,1:0:0:0:
435,267,83852,1,6,1:0:0:0:
320,172,84587,2,0,L|290:167,3,27.5,0|0|0|0,1:0|1:0|1:0|1:0,0:0:0:0:
358,128,84881,2,0,L|388:123,3,27.5,0|0|0|0,1:0|1:0|1:0|1:0,0:0:0:0:
320,84,85175,5,4,3:1:0:0:
473,22,85470,2,0,L|463:83,1,55,0|2,1:0|0:0,0:0:0:0:
505,147,85764,1,0,3:0:0:0:
505,147,85911,2,0,L|489:259,1,110,2|2,0:0|0:0,0:0:0:0:
428,311,86352,2,0,L|443:376,2,55,0|2|0,3:0|0:0|1:0,0:0:0:0:
355,271,86793,1,2,0:0:0:0:
295,328,86940,2,0,P|258:320|240:305,1,55,2|2,3:2|0:0,0:0:0:0:
165,333,87234,2,0,P|161:295|170:274,1,55,2|2,1:2|0:0,0:0:0:0:
181,201,87528,5,0,3:0:0:0:
181,201,87675,1,2,0:0:0:0:
105,228,87822,1,0,1:0:0:0:
105,228,87970,1,2,0:0:0:0:
40,176,88117,2,0,L|32:110,1,55,0|2,3:0|0:0,0:0:0:0:
108,88,88411,2,0,L|117:20,1,55,0|2,1:0|0:0,0:0:0:0:
201,39,88705,5,0,3:0:0:0:
201,39,88852,1,2,0:0:0:0:
275,75,88999,2,0,B|286:137|263:131|274:187,1,110,0|2,1:0|3:2,0:0:0:0:
343,227,89440,1,2,0:0:0:0:
411,173,89587,2,0,P|390:155|364:147,1,55,2|2,1:2|0:0,0:0:0:0:
272,265,89881,6,0,P|220:246|191:184,2,110,0|0|0,3:0|1:0|3:0,0:0:0:0:
303,347,90617,1,2,0:0:0:0:
303,347,90764,2,0,L|361:355,1,55,0|2,1:0|0:0,0:0:0:0:
439,365,91058,2,0,P|488:306|480:267,1,110,0|0,3:0|1:0,0:0:0:0:
512,202,91499,1,2,0:0:0:0:
512,202,91646,2,0,L|489:152,2,55,2|2|2,3:2|1:2|1:2,0:0:0:0:
352,160,92234,6,0,P|364:88|345:32,1,110,4|0,1:2|3:0,0:0:0:0:
272,54,92675,2,0,P|231:25|173:24,1,110,4|0,1:2|3:0,0:0:0:0:
141,101,93117,2,0,P|91:131|95:188,1,110,4|0,1:2|3:0,0:0:0:0:
163,214,93558,2,0,P|179:245|232:209,1,110,4|0,1:2|3:0,0:0:0:0:
213,139,93999,1,0,1:0:0:0:
213,139,94146,1,8,0:3:0:0:
141,101,94293,2,0,L|100:95,4,27.5,8|8|4|4|4,0:3|0:3|0:3|0:3|3:1,0:0:0:0:
276,7,94881,6,0,B|308:12|308:12|313:8|313:8|349:31|349:31|385:35,1,110,0|0,1:0|3:0,0:0:0:0:
440,95,95322,1,0,3:0:0:0:
440,95,95470,2,0,B|439:113|439:113|436:112|436:112|439:134|424:153,1,55,0|0,1:0|3:0,0:0:0:0:
353,174,95764,2,0,B|351:199|351:199|353:204|353:204|359:253|359:253|350:275|357:302,1,110,2|0,3:1|1:2,0:0:0:0:
397,264,96205,2,0,B|386:256|380:240|380:240|341:209|341:209|336:207|336:207|320:188,1,110,2|0,3:1|3:0,0:0:0:0:
308,106,96646,1,2,1:1:0:0:
225,248,96940,6,0,B|235:298|235:298|239:300|239:300|192:339,1,110,0|0,3:0|1:0,0:0:0:0:
131,383,97381,1,0,3:0:0:0:
131,383,97528,2,0,B|113:374|113:374|91:376|91:376|89:379|89:379|65:374,1,55,0|0,3:0|3:0,0:0:0:0:
5,342,97822,2,0,B|-3:319|-3:319|1:316|1:316|6:297|6:297|23:279,1,55,0|0,1:0|3:0,0:0:0:0:
82,251,98117,2,0,B|69:231|69:231|70:185|70:185|73:181|73:181|62:140,1,110,2|0,3:1|1:0,0:0:0:0:
35,164,98558,2,0,B|65:182|65:182|66:187|66:187|98:220|98:220|121:225,1,110,2|0,3:1|1:0,0:0:0:0:
141,299,98999,1,2,3:1:0:0:
152,134,99293,6,0,B|154:114|142:94|142:94|139:88|139:88|154:43|154:43|179:34,1,110,0|0,3:0|1:0,0:0:0:0:
250,19,99734,1,0,3:0:0:0:
250,19,99881,2,0,B|259:43|259:43|272:52|272:52|266:76,1,55,0|0,3:0|3:0,0:0:0:0:
338,109,100175,2,0,B|335:121|316:131|316:131|317:135|317:135|289:148,1,55,0|0,1:0|3:0,0:0:0:0:
244,204,100470,6,0,B|252:246|252:246|255:244|255:244|287:268|287:268|290:271|290:271|330:265,1,110,2|0,3:1|1:0,0:0:0:0:
383,233,100911,2,0,B|425:238|425:238|424:235|424:235|457:212|457:212|461:210|461:210|468:170,1,110,2|0,3:1|3:0,0:0:0:0:
453,109,101352,1,2,1:1:0:0:
327,1,101646,6,0,B|327:13|327:13|326:18|326:18|328:32|328:32|322:55|322:55|322:69|322:69|324:81|324:81|318:108|318:108|313:114|313:114|310:125,1,110,0|0,3:0|1:0,0:0:0:0:
236,93,102087,2,0,B|236:105|236:105|235:110|235:110|237:124|237:124|231:147|231:147|231:161|231:161|233:173|233:173|227:200|227:200|222:206|222:206|219:217,1,110,0|0,3:0|3:0,0:0:0:0:
143,204,102528,1,0,1:0:0:0:
256,324,102822,5,0,1:0:0:0:
256,324,102970,1,0,3:0:0:0:
320,271,103117,1,0,1:0:0:0:
398,295,103264,2,0,L|406:340,2,27.5,0|0|0,3:0|3:0|1:0,0:0:0:0:
462,242,103558,1,8,0:3:0:0:
462,242,103705,2,0,B|482:184|482:184|466:180|466:180|456:123,1,110,4|4,0:3|3:1,0:0:0:0:
374,7,104293,5,0,1:0:0:0:
309,158,104587,2,0,P|296:138|283:87,1,55,0|0,1:0|3:0,0:0:0:0:
244,37,104881,2,0,P|222:54|208:78,1,55,0|0,1:0|3:0,0:0:0:0:
194,159,105175,2,0,L|200:203,3,27.5,0|0|0|0,1:0|3:0|3:0|3:0,0:0:0:0:
232,232,105470,2,0,L|205:267,3,27.5,0|0|0|0,1:0|3:0|3:0|3:0,0:0:0:0:
207,310,105764,2,0,L|163:316,3,27.5,0|0|0|0,1:0|3:0|3:0|3:0,0:0:0:0:
134,347,106058,1,0,1:0:0:0:
134,347,106131,1,0,3:0:0:0:
134,347,106205,2,0,L|99:320,1,27.5,0|0,3:0|3:0,0:0:0:0:
73,330,106352,5,0,1:0:0:0:
0,181,106646,2,0,L|60:186,1,55,0|0,1:0|3:0,0:0:0:0:
132,158,106940,2,0,L|192:163,1,55,0|0,1:0|3:0,0:0:0:0:
232,232,107234,2,0,L|272:251,3,27.5,0|0|0|0,1:0|3:0|3:0|3:0,0:0:0:0:
290,290,107529,2,0,L|332:275,3,27.5,0|0|0|0,1:0|3:0|3:0|3:0,0:0:0:0:
372,291,107823,2,0,L|391:251,3,27.5,0|0|0|0,1:0|3:0|3:0|3:0,0:0:0:0:
429,233,108117,1,0,1:0:0:0:
429,233,108190,1,8,3:0:0:0:
429,233,108264,2,0,L|414:191,1,27.5,8|8,3:0|3:0,0:0:0:0:
428,151,108411,1,0,1:0:0:0:
428,151,108484,1,4,3:0:0:0:
428,151,108558,2,0,L|388:132,1,27.5,4|4,3:0|3:0,0:0:0:0:
365,122,108705,5,6,3:2:0:0:
256,243,108999,2,0,P|249:153|247:127,2,110,2|2|2,1:2|3:2|1:2,0:0:0:0:
147,367,109881,2,0,P|88:362|60:308,1,110,2|2,0:0|1:2,0:0:0:0:
0,267,110322,2,0,L|30:157,1,110,2|2,0:0|3:2,0:0:0:0:
102,121,110764,1,0,1:0:0:0:
234,219,111058,6,0,L|219:288,2,55,2|8|4,3:2|0:3|0:3,0:0:0:0:
189,149,111499,1,2,1:2:0:0:
308,35,111793,1,2,1:2:0:0:
448,120,112087,1,4,3:1:0:0:
339,244,112381,2,0,L|335:211,5,27.5,0|0|0|0|0|0,3:0|3:0|1:0|1:0|3:0|3:0,0:0:0:0:
331,179,112822,1,4,1:2:0:0:
331,179,112970,1,4,1:2:0:0:
485,237,113264,6,0,P|480:279|473:351,1,110,4|0,3:1|3:0,0:0:0:0:
399,383,113705,2,0,L|340:372,1,55,2|0,1:2|3:0,0:0:0:0:
317,295,113999,2,0,L|258:284,1,55,2|0,1:2|3:0,0:0:0:0:
192,325,114293,1,2,1:2:0:0:
192,325,114440,1,0,3:0:0:0:
126,274,114587,6,0,P|119:215|148:165,1,110,2|2,1:2|1:2,0:0:0:0:
85,110,115028,2,0,L|20:203,2,110,2|2|2,3:2|3:2|3:2,0:0:0:0:
88,82,115690,1,0,3:0:0:0:
92,54,115764,6,0,L|134:3,2,55,0|0|0,1:0|0:0|1:0,0:0:0:0:
176,129,116205,1,2,3:2:0:0:
176,129,116352,2,0,L|141:171,2,55,2|0|0,1:2|0:0|1:0,0:0:0:0:
230,67,116793,1,2,3:2:0:0:
302,117,116940,1,2,1:2:0:0:
302,117,117087,2,0,P|331:120|366:104,1,55,2|0,3:2|1:0,0:0:0:0:
387,35,117381,2,0,L|507:18,1,110,2|8,3:2|0:3,0:0:0:0:
508,184,117970,6,0,P|471:176|416:225,1,110,4|0,3:1|0:0,0:0:0:0:
336,228,118411,2,0,L|351:280,1,55,2|0,1:2|3:0,0:0:0:0:
340,306,118631,1,0,3:0:0:0:
331,332,118705,2,0,L|349:384,2,55,2|2|0,1:2|3:2|1:0,0:0:0:0:
254,301,119146,1,2,3:2:0:0:
254,301,119220,1,0,0:0:0:0:
254,301,119293,6,0,L|142:285,1,110,0|2,1:0|1:2,0:0:0:0:
82,231,119734,2,0,P|65:252|60:280,1,55,2|0,3:2|1:0,0:0:0:0:
46,360,120028,2,0,P|85:362|108:348,1,55,2|0,3:2|1:0,0:0:0:0:
145,285,120322,5,4,3:1:0:0:
393,246,120764,1,2,1:0:0:0:
393,246,120911,2,0,L|405:378,2,110,2|2|6,1:0|1:0|3:1,0:0:0:0:
280,367,121793,1,0,3:0:0:0:
273,284,121940,2,0,L|268:206,1,55,8|4,0:3|0:3,0:0:0:0:
264,150,122234,2,0,L|261:100,4,27.5,2|0|2|0|2,1:3|1:0|1:3|1:0|1:3,0:0:0:0:
338,185,122675,6,0,P|391:198|458:175,1,110,4|0,3:1|0:0,0:0:0:0:
511,136,123117,2,0,P|487:110|454:99,1,55,2|0,1:2|0:0,0:0:0:0:
406,48,123411,2,0,P|391:76|389:107,1,55,2|0,3:2|3:0,0:0:0:0:
306,111,123705,2,0,L|293:46,1,55,2|0,1:2|0:0,0:0:0:0:
225,13,123999,6,0,P|208:60|201:144,1,110,2|2,3:2|1:2,0:0:0:0:
139,175,124440,2,0,L|76:166,1,55,2|0,0:0|3:0,0:0:0:0:
15,212,124734,2,0,L|5:273,1,55,2|0,0:0|1:0,0:0:0:0:
54,333,125028,6,0,L|173:355,1,110,2|0,3:2|3:2,0:0:0:0:
229,304,125470,1,0,1:0:0:0:
186,233,125617,1,2,0:0:0:0:
186,233,125764,2,0,P|193:163|202:116,1,110,2|0,3:2|1:0,0:0:0:0:
263,70,126205,1,2,0:0:0:0:
281,154,126352,5,2,3:2:0:0:
281,154,126499,2,0,P|341:151|386:117,2,110,2|2|2,1:2|3:2|3:2,0:0:0:0:
200,124,127234,1,0,1:0:0:0:
90,0,127528,6,0,P|37:10|6:54,1,110,4|0,1:2|3:0,0:0:0:0:
70,105,127970,2,0,P|80:166|78:229,1,110,0|0,1:0|3:0,0:0:0:0:
51,294,128411,1,0,1:0:0:0:
51,294,128558,6,0,P|71:321|150:317,1,110,0|0,3:0|1:0,0:0:0:0:
195,260,128999,1,0,3:0:0:0:
195,260,129146,1,0,3:0:0:0:
255,315,129293,2,0,L|322:329,1,55,0|0,1:0|3:0,0:0:0:0:
349,254,129587,2,0,L|279:238,1,55,0|0,1:0|3:0,0:0:0:0:
257,168,129881,1,6,1:0:0:0:
382,61,130175,6,0,L|395:118,1,55,2|0,1:0|3:0,0:0:0:0:
477,118,130470,2,0,L|465:183,1,55,2|0,1:0|3:0,0:0:0:0:
433,249,130764,1,2,1:0:0:0:
433,249,130911,1,2,1:0:0:0:
256,192,131499,5,0,1:0:0:0:
256,192,131572,1,0,1:0:0:0:
256,192,131646,2,0,L|256:308,2,110,0|4|4,3:0|0:3|3:2,0:0:0:0:
409,132,141058,6,0,L|416:96,2,36.6666666666667,0|0|0,1:0|1:0|1:0,0:0:0:0:
368,168,141352,2,0,L|374:204,2,36.6666666666667,4|4|4,0:3|0:3|0:3,0:0:0:0:
319,142,141646,1,2,3:2:0:0:
168,210,141940,6,0,L|183:124,1,73.3333333333333,2|0,0:0|1:0,0:0:0:0:
232,120,142234,2,0,L|217:34,1,73.3333333333333,10|0,0:0|0:0,0:0:0:0:
192,0,142528,1,2,0:0:0:0:
86,126,142822,2,0,P|41:98|-13:94,2,110,0|2|10,0:0|1:2|0:0,0:0:0:0:
168,210,143607,1,0,0:0:0:0:
168,210,143705,1,2,0:2:0:0:
84,281,143901,1,0,1:0:0:0:
84,281,143999,6,0,P|126:318|198:318,1,110,2|2,3:2|0:0,0:0:0:0:
337,367,144587,2,0,L|353:265,1,73.3333333333333,10|0,0:0|1:0,0:0:0:0:
401,279,144881,2,0,L|417:177,1,73.3333333333333,2|0,0:0|0:0,0:0:0:0:
465,191,145175,1,2,0:0:0:0:
397,39,145470,2,0,P|352:26|302:43,1,73.3333333333333,0|4,3:0|3:0,0:0:0:0:
273,15,145764,2,0,P|246:53|247:106,1,73.3333333333333,10|0,0:0|3:0,0:0:0:0:
211,125,146058,1,2,0:0:0:0:
70,211,146352,6,0,L|49:92,1,110,2|2,3:2|0:0,0:0:0:0:
211,125,146940,2,0,L|223:198,1,73.3333333333333,10|0,0:0|0:0,0:0:0:0:
183,234,147234,1,2,0:0:0:0:
92,371,147528,2,0,P|152:344|203:345,1,110,2|2,0:0|1:2,0:0:0:0:
291,286,148019,1,0,0:0:0:0:
291,286,148117,2,0,L|370:307,1,73.3333333333333,2|0,1:2|1:0,0:0:0:0:
387,353,148411,2,0,L|466:332,1,73.3333333333333,2|0,3:2|1:0,0:0:0:0:
510,319,148705,5,4,3:1:0:0:
383,213,148999,2,0,L|369:146,1,55,0|0,3:0|3:0,0:0:0:0:
448,128,149293,2,0,L|462:52,1,55,0|0,3:0|3:0,0:0:0:0:
415,9,149587,1,0,3:0:0:0:
415,9,149734,1,0,3:0:0:0:
337,36,149881,1,0,3:0:0:0:
222,154,150175,6,0,B|134:140|178:82|88:68,1,165,2|0,0:0|0:0,0:0:0:0:
25,122,150764,2,0,L|-12:127,2,36.6666666666667,2|2|2,0:0|0:0|0:0,0:0:0:0:
73,158,151058,5,4,3:1:0:0:
73,158,151205,2,0,P|57:210|47:264,1,110,0|0,3:0|3:0,0:0:0:0:
106,322,151646,1,0,1:0:0:0:
185,293,151793,1,0,3:0:0:0:
185,293,151940,2,0,L|243:301,1,55,0|0,0:0|3:0,0:0:0:0:
303,352,152234,5,0,1:0:0:0:
384,360,152381,2,0,P|409:312|408:258,1,110,0|0,3:0|3:0,0:0:0:0:
487,234,152822,2,0,L|456:186,1,55,0|0,1:0|3:0,0:0:0:0:
374,183,153117,2,0,L|374:124,1,55,0|0,0:0|3:0,0:0:0:0:
403,51,153411,6,0,P|355:24|297:31,1,110,0|0,1:0|0:0,0:0:0:0:
250,93,153852,1,0,3:0:0:0:
198,35,153999,1,0,1:0:0:0:
198,35,154146,2,0,P|173:76|197:154,1,110,0|0,3:0|3:0,0:0:0:0:
252,176,154587,5,0,1:0:0:0:
161,312,154881,2,0,P|133:311|109:299,1,55,0|0,0:0|3:0,0:0:0:0:
32,329,155175,2,0,P|24:302|29:275,1,55,2|0,1:2|3:0,0:0:0:0:
90,219,155470,2,0,L|96:149,1,55,2|0,0:0|3:0,0:0:0:0:
23,88,155764,5,2,1:2:0:0:
23,88,155911,2,0,B|68:81|68:81|86:84|86:84|132:77,1,110,0|0,0:0|3:0,0:0:0:0:
195,25,156352,2,0,B|296:18|246:125|350:117,1,192.5,0|2,1:0|0:0,0:0:0:0:
370,151,156940,2,0,L|431:137,1,55,0|0,1:0|3:0,0:0:0:0:
486,84,157234,2,0,L|520:75,2,27.5,2|2|0,0:0|0:0|3:0,0:0:0:0:
435,18,157528,6,0,P|389:9|324:0,1,110,0|0,1:0|3:0,0:0:0:0:
198,105,158117,2,0,B|125:125|201:211|122:233,1,165,0|0,1:0|3:0,0:0:0:0:
42,208,158705,1,0,1:0:0:0:
5,283,158852,1,0,3:0:0:0:
5,283,158999,2,0,L|22:337,1,55,0|0,1:0|0:0,0:0:0:0:
100,358,159293,6,0,L|108:385,3,27.5,8|8|4|4,3:0|3:0|3:0|3:0,0:0:0:0:
151,347,159587,2,0,L|159:374,3,27.5,0|0|0|0,1:0|3:0|3:0|3:0,0:0:0:0:
202,336,159881,2,0,L|210:363,3,27.5,0|0|0|0,1:0|1:0|1:0|1:0,0:0:0:0:
253,325,160175,2,0,L|261:352,3,27.5,0|0|0|0,1:0|1:0|1:0|1:0,0:0:0:0:
302,357,160470,6,0,P|351:379|405:373,1,110,4|0,1:0|1:0,0:0:0:0:
471,321,160911,1,0,3:0:0:0:
471,321,160984,1,0,3:0:0:0:
471,321,161058,2,0,L|480:255,1,55,0|0,1:0|3:0,0:0:0:0:
406,226,161352,2,0,L|415:160,1,55,0|0,1:0|3:0,0:0:0:0:
417,144,161572,1,0,0:0:0:0:
421,116,161646,2,0,L|430:50,1,55,0|0,1:0|3:0,0:0:0:0:
372,1,161940,6,0,P|345:-1|316:9,1,55,0|0,1:0|3:0,0:0:0:0:
257,62,162234,2,0,P|239:92|249:175,1,110,0|0,1:0|1:0,0:0:0:0:
309,228,162675,1,0,3:0:0:0:
309,228,162749,1,0,3:0:0:0:
309,228,162822,6,0,P|274:269|220:273,1,110,0|0,1:0|1:0,0:0:0:0:
148,313,163264,1,0,3:0:0:0:
83,261,163411,2,0,L|22:273,2,55,0|0|0,1:0|0:0|1:0,0:0:0:0:
137,200,163852,1,0,3:0:0:0:
137,200,163925,1,0,3:0:0:0:
137,200,163999,2,0,P|133:134|107:76,1,110,0|0,1:0|1:0,0:0:0:0:
47,49,164440,1,0,3:0:0:0:
121,13,164587,2,0,L|186:25,1,55,0|0,1:0|3:0,0:0:0:0:
207,98,164881,2,0,L|272:86,1,55,0|0,1:0|3:0,0:0:0:0:
324,35,165175,6,0,L|362:27,3,27.5,4|2|2|0,1:0|0:0|3:2|0:0,0:0:0:0:
399,60,165470,2,0,L|431:81,3,27.5,2|0|2|2,3:2|0:0|1:2|0:0,0:0:0:0:
434,130,165764,2,0,L|445:182,1,55,2|2,3:2|3:2,0:0:0:0:
364,224,166058,2,0,L|334:269,1,55,2|2,1:2|3:2,0:0:0:0:
251,271,166352,6,0,L|236:293,3,27.5,2|2|2|0,3:2|0:0|1:2|0:0,0:0:0:0:
201,239,166646,2,0,L|186:261,3,27.5,2|0|2|2,3:2|0:0|3:2|0:0,0:0:0:0:
151,207,166940,2,0,P|91:202|34:189,1,110,2|2,1:2|1:2,0:0:0:0:
4,118,167381,1,2,0:0:0:0:
45,46,167528,6,0,L|103:36,1,55,4|2,3:1|0:2,0:0:0:0:
138,109,167822,2,0,L|196:119,1,55,2|2,3:2|0:2,0:0:0:0:
209,37,168117,2,0,L|267:27,1,55,2|2,3:2|3:2,0:0:0:0:
302,100,168411,2,0,L|360:110,1,55,2|2,3:2|3:2,0:0:0:0:
417,53,168705,6,0,L|448:46,3,27.5,2|2|8|8,1:2|1:2|3:0|3:0,0:0:0:0:
481,95,168999,2,0,L|507:111,3,27.5,4|4|4|4,3:2|3:3|3:3|3:3,0:0:0:0:
496,169,169293,2,0,L|503:199,3,27.5,8|8|8|8,3:0|3:0|3:0|3:0,0:0:0:0:
454,231,169587,1,4,3:0:0:0:
454,231,169661,1,4,3:0:0:0:
454,231,169734,2,0,L|437:257,1,27.5,4|4,3:0|3:0,0:0:0:0:
380,245,169881,5,4,3:1:0:0:
331,39,174587,6,0,P|339:93|343:148,1,110,4|2,3:1|3:2,0:0:0:0:
180,171,175175,2,0,P|171:116|167:61,1,110,2|2,3:2|3:2,0:0:0:0:
20,138,175764,1,2,3:2:0:0:
56,298,176058,1,2,3:2:0:0:
217,262,176352,2,0,P|279:274|308:280,1,82.5,0|0,1:0|1:0,0:0:0:0:
306,294,176646,2,0,P|341:300|369:306,1,55,0|2,3:0|1:2,0:0:0:0:
440,321,176940,6,0,P|463:287|449:216,1,110,2|0,3:2|1:0,0:0:0:0:
497,153,177381,1,8,0:3:0:0:
497,153,177528,2,0,L|444:120,1,55,4|0,0:3|1:0,0:0:0:0:
441,41,177822,2,0,L|386:53,1,55,4|4,0:3|0:3,0:0:0:0:
312,16,178117,1,0,3:0:0:0:
202,139,178411,2,0,L|210:174,3,27.5,0|0|0|0,3:0|0:0|3:0|0:0,0:0:0:0:
261,190,178705,2,0,L|253:225,3,27.5,0|0|0|0,3:0|1:0|1:0|1:0,0:0:0:0:
202,241,178999,2,0,L|210:276,3,27.5,0|0|0|0,3:0|1:0|1:0|1:0,0:0:0:0:
261,292,179293,6,0,P|203:316|159:341,1,110,4|2,3:1|1:2,0:0:0:0:
9,277,179881,1,2,1:2:0:0:
64,216,180028,1,0,0:0:0:0:
64,216,180175,2,0,P|60:184|54:150,1,55,2|0,3:2|1:0,0:0:0:0:
39,80,180470,2,0,P|89:47|147:54,1,110,2|0,0:0|1:0,0:0:0:0:
197,106,180911,5,2,3:2:0:0:
134,258,181205,1,2,3:2:0:0:
297,220,181499,1,2,0:0:0:0:
297,220,181646,2,0,P|311:178|308:94,1,110,2|0,3:2|1:0,0:0:0:0:
380,65,182087,1,2,3:2:0:0:
380,65,182234,2,0,P|401:101|409:176,1,110,2|0,1:2|3:0,0:0:0:0:
481,208,182675,1,2,1:2:0:0:
418,262,182822,5,2,0:0:0:0:
418,262,182970,2,0,L|410:318,1,55,0|0,3:0|1:0,0:0:0:0:
333,345,183264,2,0,L|325:289,1,55,2|0,3:2|1:0,0:0:0:0:
251,266,183558,1,2,1:2:0:0:
251,266,183705,2,0,L|213:276,3,27.5,0|0|0|0,3:0|1:0|1:0|1:0,0:0:0:0:
191,298,183999,6,0,L|70:282,1,110,4|2,3:1|1:2,0:0:0:0:
87,201,184440,2,0,L|-22:226,2,110,2|2|2,3:2|3:2|3:2,0:0:0:0:
139,138,185175,1,0,3:0:0:0:
139,138,185322,1,0,0:0:0:0:
204,197,185470,1,0,1:0:0:0:
203,196,185617,2,0,P|257:198|290:156,1,110,0|0,3:0|3:0,0:0:0:0:
359,111,186058,2,0,L|344:54,1,55,2|2,1:2|0:0,0:0:0:0:
280,6,186352,6,0,L|245:0,4,27.5,2|0|0|0|2,1:2|3:0|3:0|3:0|3:2,0:0:0:0:
196,56,186793,2,0,L|161:62,4,27.5,2|0|8|8|8,1:2|3:0|3:0|3:0|3:0,0:0:0:0:
106,12,187234,2,0,L|71:6,2,27.5,4|4|4,3:0|3:0|3:0,0:0:0:0:
18,66,187528,6,0,L|27:107,3,27.5,0|0|4|4,1:0|1:0|0:3|0:3,0:0:0:0:
79,114,187822,2,0,L|70:155,3,27.5,6|0|0|0,0:0|0:0|3:0|3:0,0:0:0:0:
31,181,188117,1,4,3:0:0:0:
31,181,188190,1,4,3:0:0:0:
31,181,188264,2,0,L|40:222,1,27.5,4|4,3:0|3:0,0:0:0:0:
50,257,188411,1,0,1:0:0:0:
206,199,188705,5,4,3:1:0:0:
206,199,188852,1,0,3:0:0:0:
324,364,190322,1,0,3:0:0:0:
324,364,190396,1,0,3:0:0:0:
324,364,190470,2,0,B|326:338|311:316|311:316|334:308|347:286|347:286|329:246|347:206,1,165,2|0,1:2|0:0,0:0:0:0:
420,245,191058,6,0,L|439:132,1,110,4|0,1:2|1:0,0:0:0:0:
403,61,191499,1,0,1:0:0:0:
329,94,191646,1,0,3:0:0:0:
329,94,191793,1,0,1:0:0:0:
266,37,191940,1,4,3:0:0:0:
266,37,192087,1,4,1:2:0:0:
214,297,193264,6,0,B|254:250|202:174|192:239|86:194|93:39|247:33|239:130|239:130|238:144|272:140|286:107|311:80|322:130|390:122|318:137|314:145|318:160|328:163|397:126|334:144|307:151|356:167|263:188|300:193|295:205|303:199|304:189|296:235|321:243|310:62|359:283|330:216|200:186|330:217|311:158|364:335|373:149|208:169|291:276|304:277|251:201|254:216,1,605,2|0,1:2|0:0,0:0:0:0:
269,230,195028,1,6,1:2:0:0:
269,230,195322,1,6,1:2:0:0:
269,230,195617,6,0,B|267:190|267:190|280:169|280:169|288:143|288:143|282:128|282:128,1,110,4|0,1:0|3:0,0:0:0:0:
242,54,196058,2,0,B|229:44|229:44|203:48|203:48|203:42|203:42|180:56,1,55,0|2,1:0|3:2,0:0:0:0:
171,53,196278,1,0,0:0:0:0:
144,61,196352,2,0,B|119:73|119:73|114:71|114:71|103:68|103:68|75:62,1,55,2|0,1:2|3:0,0:0:0:0:
35,125,196646,2,0,B|20:143|20:143|24:142|24:142|31:152|31:152|37:166|37:166|36:180,1,55,0|2,1:0|3:2,0:0:0:0:
83,240,196940,5,2,1:2:0:0:
83,240,197087,2,0,B|73:250|73:250|58:258|58:258|40:260|40:260|24:282,1,55,2|0,3:2|1:0,0:0:0:0:
9,343,197381,2,0,B|32:347|32:347|51:355|51:355|79:335|79:335|81:330|81:330|124:323,1,110,2|8,3:2|0:3,0:0:0:0:
189,354,197822,1,4,1:3:0:0:
189,354,197970,6,0,B|216:332|216:332|244:348|244:348|300:346,1,110,6|0,1:2|3:0,0:0:0:0:
363,315,198411,2,0,B|363:303|363:303|376:293|376:293|378:278|378:278|372:261,1,55,2|0,1:2|3:0,0:0:0:0:
362,242,198631,1,0,3:0:0:0:
350,216,198705,2,0,B|351:192|351:192|358:184|358:184|383:172,1,55,2|2,1:2|3:2,0:0:0:0:
456,195,198999,1,0,1:0:0:0:
508,131,199146,6,0,B|515:118|515:118|515:99|515:99|474:52|474:52|454:65,1,110,2|0,3:2|0:0,0:0:0:0:
383,37,199587,1,2,1:2:0:0:
321,91,199734,2,0,B|308:73|308:73|290:56|290:56|292:44,1,55,2|0,3:2|1:0,0:0:0:0:
214,17,200028,2,0,B|208:36|208:36|209:53|209:53|206:66|206:66|208:93,1,55,2|0,3:2|1:0,0:0:0:0:
159,138,200322,5,4,3:1:0:0:
314,337,200764,1,2,1:1:0:0:
314,337,200911,2,0,B|319:329|319:329|320:279|320:279|334:250|334:250|326:215,2,110,2|2|6,3:1|1:1|3:1,0:0:0:0:
158,383,201793,1,0,3:0:0:0:
158,383,201940,2,0,B|134:380|134:380|122:373|122:373|109:374|109:374|102:372,1,55,8|4,0:3|0:3,0:0:0:0:
83,293,202234,2,0,B|73:293|73:293|66:297|66:297|60:295|60:295|53:298,4,27.5,2|0|2|0|2,1:3|1:0|1:3|1:0|1:3,0:0:0:0:
159,261,202675,6,0,B|183:260|183:260|202:256|202:256|238:263|238:263,1,55,4|0,1:2|0:0,0:0:0:0:
252,189,202970,1,0,0:0:0:0:
252,189,203043,1,0,3:0:0:0:
252,189,203117,2,0,B|226:185|226:185|226:182|226:182|217:180|217:180|213:182|213:182|182:179,1,55,4|0,1:0|0:0,0:0:0:0:
119,166,203411,2,0,B|98:142|98:142|85:137|85:137|61:144|61:144|40:139|40:139|21:121,1,110,2|2,3:2|1:2,0:0:0:0:
16,44,203852,1,0,0:0:0:0:
90,8,203999,6,0,B|113:12|113:12|110:32|110:32|111:50|111:50|137:61|137:61|171:53,1,110,2|2,3:2|1:2,0:0:0:0:
234,29,204440,2,0,B|249:33|249:33|255:33|255:33|258:39|258:39|269:43|269:43|284:55,1,55,2|0,3:2|0:0,0:0:0:0:
331,124,204734,1,2,3:2:0:0:
331,124,204881,1,0,1:0:0:0:
386,63,205028,6,0,B|423:49|423:49|457:55|457:55|469:91,1,110,2|0,3:2|0:0,0:0:0:0:
432,164,205470,1,0,1:0:0:0:
505,212,205617,1,2,3:2:0:0:
505,212,205764,2,0,B|509:236|509:236|504:238|504:238|496:275|496:275|504:303|504:303|490:325,1,110,2|0,3:2|1:0,0:0:0:0:
421,348,206205,1,2,0:0:0:0:
358,302,206352,5,2,3:2:0:0:
358,302,206499,2,0,B|345:296|345:296|332:284|332:284|329:290|329:290|312:292|312:292|294:286,1,55,2|0,1:2|1:0,0:0:0:0:
239,329,206793,2,0,B|226:331|226:331|216:344|216:344|196:348|196:348|187:343,1,55,2|0,3:2|1:0,0:0:0:0:
113,339,207087,1,2,3:2:0:0:
113,339,207234,1,0,1:0:0:0:
4,214,207528,6,0,B|27:217|27:217|64:199|64:199|89:202|89:202|100:214|122:215,1,110,4|2,1:2|3:2,0:0:0:0:
181,247,207970,2,0,B|194:237|194:237|194:221|194:221|222:194|222:194|241:209|272:207,1,110,2|2,1:2|3:2,0:0:0:0:
342,195,208411,1,0,1:0:0:0:
342,195,208558,2,0,B|354:181|354:181|366:177|366:177|360:134,1,55,2|0,3:2|3:0,0:0:0:0:
347,72,208852,2,0,B|365:61|365:61|388:62|388:62|398:59,2,55,0|0|0,1:0|3:0|3:0,0:0:0:0:
278,26,209293,2,0,B|270:44|270:44|265:73|265:73|278:96,1,55,0|0,1:0|3:0,0:0:0:0:
193,112,209587,2,0,B|179:92|179:92|177:74|177:74|185:43,1,55,2|2,1:2|3:2,0:0:0:0:
117,8,209881,5,6,1:0:0:0:
24,144,210175,2,0,B|24:155|24:155|29:164|29:164|57:178|57:178|70:176,1,55,2|0,1:0|3:0,0:0:0:0:
80,258,210470,2,0,B|90:261|90:261|101:259|101:259|123:237|123:237|125:224,1,55,2|0,1:0|3:0,0:0:0:0:
196,193,210764,1,2,1:0:0:0:
196,193,210911,1,2,3:1:0:0:
264,145,211058,2,0,B|298:149|298:149|321:136|321:136|333:140|333:140|390:133,2,110,0|2|2,1:0|3:1|3:1,0:0:0:0:
204,96,211793,1,0,1:0:0:0:
201,91,211867,1,0,1:0:0:0:
197,86,211940,2,0,L|151:77,3,27.5,2|0|0|0,3:1|1:0|1:0|1:0,0:0:0:0:
129,72,212234,5,6,3:1:0:0:
256,192,212381,12,4,216940,3:1:0:0:
220,328,217234,6,0,P|209:295|213:258,1,55,2|0,1:2|0:0,0:0:0:0:
280,233,217528,2,0,P|291:266|287:303,1,55,2|0,3:2|0:0,0:0:0:0:
366,330,217822,1,2,1:2:0:0:
366,330,217970,6,0,L|491:311,1,110,2|0,3:2|3:0,0:0:0:0:
511,239,218411,2,0,P|507:198|481:179,1,55,2|0,1:2|3:0,0:0:0:0:
482,108,218705,2,0,P|441:99|415:117,1,55,2|0,3:2|3:0,0:0:0:0:
348,96,218999,2,0,P|327:131|337:162,1,55,2|0,1:2|3:0,0:0:0:0:
266,198,219293,5,2,3:2:0:0:
266,198,219440,1,2,3:2:0:0:
200,147,219587,2,0,L|219:22,1,110,2|2,1:2|3:2,0:0:0:0:
142,2,220028,2,0,L|132:65,1,55,0|2,3:0|1:2,0:0:0:0:
58,91,220322,6,0,P|31:146|42:209,1,110,4|2,3:2|3:2,0:0:0:0:
113,234,220764,1,2,1:2:0:0:
113,234,220911,1,0,3:0:0:0:
58,295,221058,2,0,L|12:286,3,27.5,2|0|2|0,1:2|1:0|1:2|1:0,0:0:0:0:
104,332,221352,1,2,3:2:0:0:
104,332,221425,1,0,0:0:0:0:
104,332,221499,2,0,L|146:327,1,27.5
172,323,221646,6,0,P|242:325|282:343,1,110,4|2,3:1|1:2,0:0:0:0:
345,293,222087,1,0,0:0:0:0:
321,214,222234,2,0,P|290:198|216:218,1,110,2|2,3:2|1:2,0:0:0:0:
142,185,222675,6,0,P|122:129|145:70,1,110,2|2,3:2|3:2,0:0:0:0:
198,28,223117,2,0,L|268:41,1,55,2|0,1:2|3:0,0:0:0:0:
298,106,223411,2,0,L|364:97,1,55,2|0,3:2|3:0,0:0:0:0:
419,50,223705,1,2,1:2:0:0:
501,192,223999,5,2,3:2:0:0:
501,192,224146,1,2,3:2:0:0:
449,256,224293,2,0,P|412:262|334:282,1,110,2|2,1:2|3:2,0:0:0:0:
269,314,224734,1,2,3:2:0:0:
269,314,224881,1,2,1:2:0:0:
233,239,225028,6,0,P|174:226|109:215,1,110,2|2,3:2|3:2,0:0:0:0:
55,172,225470,2,0,P|44:198|41:229,1,55,2|2,1:2|3:2,0:0:0:0:
5,299,225764,2,0,L|65:316,1,55,4|2,3:2|1:2,0:0:0:0:
81,341,225984,1,0,1:0:0:0:
81,341,226058,2,0,L|117:333,3,27.5,2|0|2|0,3:2|1:0|1:2|1:0,0:0:0:0:
148,325,226352,6,0,P|150:297|153:270,1,55,4|0,1:0|3:0,0:0:0:0:
233,239,226646,2,0,P|230:211|227:184,1,55,2|0,1:2|3:0,0:0:0:0:
208,165,226867,1,0,3:0:0:0:
188,146,226940,2,0,P|181:81|222:39,1,110,2|2,1:2|1:2,0:0:0:0:
291,26,227381,1,2,3:2:0:0:
291,26,227455,1,0,3:0:0:0:
291,26,227528,6,0,L|352:39,1,55,2|0,1:2|3:0,0:0:0:0:
364,117,227822,2,0,L|425:130,1,55,2|0,1:2|3:0,0:0:0:0:
498,149,228117,1,2,1:2:0:0:
444,304,228411,2,0,P|389:314|338:333,1,110,2|4,1:2|3:2,0:0:0:0:
183,381,228999,5,0,3:0:0:0:
183,381,229146,1,0,3:0:0:0:
252,336,229293,2,0,P|264:299|256:271,1,55,0|0,3:0|3:0,0:0:0:0:
282,204,229587,2,0,P|250:181|221:180,1,55,0|0,1:0|1:0,0:0:0:0:
179,118,229881,1,0,1:0:0:0:
87,253,230175,6,0,P|71:252|59:242,3,27.5,0|0|0|0,3:0|1:0|1:0|1:0,0:0:0:0:
12,219,230470,2,0,P|8:203|14:188,3,27.5,0|0|0|0,3:0|1:0|1:0|1:0,0:0:0:0:
22,136,230764,2,0,P|36:128|51:129,3,27.5,0|0|0|0,3:0|1:0|1:0|1:0,0:0:0:0:
91,100,231058,5,4,3:1:0:0:
174,242,231352,2,0,L|248:229,1,55,0|2,1:0|0:0,0:0:0:0:
267,160,231646,2,0,L|341:147,1,55,0|2,3:0|0:0,0:0:0:0:
398,191,231940,1,0,1:0:0:0:
398,191,232087,1,2,0:0:0:0:
471,152,232234,6,0,P|488:98|461:47,1,110,0|0,3:0|1:0,0:0:0:0:
391,17,232675,1,2,0:0:0:0:
325,67,232822,2,0,L|265:60,1,55,2|2,3:2|0:0,0:0:0:0:
192,52,233117,1,2,1:2:0:0:
192,52,233264,1,2,0:0:0:0:
158,127,233411,6,0,P|132:116|115:95,1,55,0|2,3:0|0:0,0:0:0:0:
44,53,233705,2,0,P|34:89|37:117,1,55,0|2,1:0|0:0,0:0:0:0:
5,185,233999,1,0,3:0:0:0:
5,185,234146,1,2,0:0:0:0:
64,249,234293,1,0,1:0:0:0:
64,249,234440,1,2,0:0:0:0:
136,209,234587,6,0,P|174:204|245:239,1,110,0|0,3:0|1:0,0:0:0:0:
252,313,235028,1,2,0:0:0:0:
318,264,235175,2,0,P|349:261|380:244,1,55,2|2,3:2|0:0,0:0:0:0:
447,280,235470,2,0,P|453:249|447:214,1,55,2|2,1:2|0:0,0:0:0:0:
481,149,235764,5,4,3:1:0:0:
354,43,236058,2,0,L|343:107,1,55,0|2,1:0|0:0,0:0:0:0:
266,110,236352,1,0,3:0:0:0:
266,110,236499,2,0,L|247:218,1,110,2|2,0:0|0:0,0:0:0:0:
232,302,236940,5,0,3:0:0:0:
232,302,237087,1,2,0:0:0:0:
152,325,237234,2,0,P|113:322|87:309,1,55,0|2,1:0|0:0,0:0:0:0:
41,256,237528,1,0,3:0:0:0:
113,216,237675,1,2,1:2:0:0:
42,172,237822,2,0,P|37:120|35:94,1,55,0|2,1:0|0:0,0:0:0:0:
79,46,238117,6,0,P|131:26|198:50,1,110,4|0,1:2|3:0,0:0:0:0:
259,10,238558,2,0,P|294:53|292:124,1,110,4|0,1:2|3:0,0:0:0:0:
348,170,238999,2,0,P|318:217|249:237,1,110,4|0,1:2|3:0,0:0:0:0:
197,195,239440,2,0,P|186:231|225:307,1,110,4|0,1:0|3:0,0:0:0:0:
291,316,239881,1,0,1:0:0:0:
337,248,240028,1,8,3:0:0:0:
394,306,240175,1,4,3:3:0:0:
436,235,240322,1,4,3:3:0:0:
498,290,240470,5,6,3:2:0:0:
416,128,240911,2,0,L|304:112,1,110,0|0,1:0|3:0,0:0:0:0:
260,44,241352,2,0,L|148:60,1,110,0|0,1:0|3:0,0:0:0:0:
80,101,241793,1,0,1:0:0:0:
181,231,242087,1,0,3:0:0:0:
181,231,242161,1,0,3:0:0:0:
181,231,242234,2,0,L|104:239,1,55,0|0,1:0|3:0,0:0:0:0:
92,311,242528,2,0,L|169:319,1,55,0|0,1:0|0:0,0:0:0:0:
202,377,242822,5,0,3:0:0:0:
368,304,243264,2,0,L|345:173,1,110,0|0,1:0|3:0,0:0:0:0:
276,156,243705,2,0,L|299:25,1,110,0|0,1:0|3:0,0:0:0:0:
362,0,244146,1,0,1:0:0:0:
508,97,244440,1,0,3:0:0:0:
508,97,244514,1,0,3:0:0:0:
508,97,244587,2,0,L|497:162,1,55,0|0,1:0|3:0,0:0:0:0:
422,183,244881,2,0,L|412:128,1,55,0|0,1:0|0:0,0:0:0:0:
345,81,245175,5,4,1:0:0:0:
256,192,245249,12,0,249881,0:0:0:0:
