osu file format v14

[General]
AudioFilename: audio.mp3
AudioLeadIn: 0
PreviewTime: 40575
Countdown: 0
SampleSet: Soft
StackLeniency: 0.7
Mode: 3
LetterboxInBreaks: 0
SpecialStyle: 0
WidescreenStoryboard: 0

[Editor]
DistanceSpacing: 1
BeatDivisor: 4
GridSize: 16
TimelineZoom: 1

[Metadata]
Title:Alfheim
TitleUnicode:Alfheim
Artist:Kakka
ArtistUnicode:閣下
Creator:Tidek
Version:Freya
Source:
Tags:SV memorization Celt Challenge Diverse System
BeatmapID:1966772
BeatmapSetID:941878

[Difficulty]
HPDrainRate:8
CircleSize:4
OverallDifficulty:6.5
ApproachRate:5
SliderMultiplier:1.4
SliderTickRate:1

[Events]
//Background and Video events
0,0,"bierstadt_albert_forest_sunrise.jpg",0,0
//Break Periods
//Storyboard Layer 0 (Background)
//Storyboard Layer 1 (Fail)
//Storyboard Layer 2 (Pass)
//Storyboard Layer 3 (Foreground)
//Storyboard Sound Samples

[TimingPoints]
4950,468.75,4,2,0,20,1,0
5887,600000000.571429,4,2,0,20,1,0
6825,468.75,4,2,0,20,1,0
7762,-1000,4,2,0,20,0,0
7879,-200,4,2,0,20,0,0
7996,-111.111111111111,4,2,0,20,0,0
8114,-76.9230769230769,4,2,0,20,0,0
8231,600000000.571429,4,2,0,20,1,0
8700,468.75,4,2,0,20,1,0
11512,600000000.571429,4,2,0,20,1,0
11746,468.75,4,2,0,20,1,0
11746,-1000,4,2,0,20,0,0
11863,-200,4,2,0,20,0,0
11980,-111.111111111111,4,2,0,20,0,0
12097,-76.9230769230769,4,2,0,20,0,0
12214,600000000.571429,4,2,0,20,1,0
12450,468.75,4,2,0,20,1,0
13387,600000000.571429,4,2,0,20,1,0
14325,468.75,4,2,0,20,1,0
15262,-1000,4,2,0,20,0,0
15379,-200,4,2,0,20,0,0
15496,-111.111111111111,4,2,0,20,0,0
15614,-76.9230769230769,4,2,0,20,0,0
15731,600000000.571429,4,2,0,20,1,0
16200,468.75,4,2,0,20,1,0
19012,600000000.571429,4,2,0,20,1,0
19246,468.75,4,2,0,20,1,0
19773,-83.3333333333333,4,2,0,20,0,0
19831,-71.4285714285714,4,2,0,20,0,0
19890,-62.5,4,2,0,20,0,0
19950,468.75,4,2,0,20,1,0
27450,-1000,4,2,0,20,0,0
27625,-27.027027027027,4,2,0,20,0,0
27684,-100,4,2,0,20,0,0
27918,-1000,4,2,0,20,0,0
28094,-27.027027027027,4,2,0,20,0,0
28153,-100,4,2,0,20,0,0
29325,-1000,4,2,0,20,0,0
29501,-27.027027027027,4,2,0,20,0,0
29559,-1000,4,2,0,20,0,0
29735,-27.027027027027,4,2,0,20,0,0
29793,-1000,4,2,0,20,0,0
29881,-27.027027027027,4,2,0,20,0,0
29910,-1000,4,2,0,20,0,0
29998,-27.027027027027,4,2,0,20,0,0
30028,-1000,4,2,0,20,0,0
30116,-27.027027027027,4,2,0,20,0,0
30145,-1000,4,2,0,20,0,0
30233,-27.027027027027,4,2,0,20,0,0
30262,-100,4,2,0,20,0,0
32606,-66.6666666666667,4,2,0,20,0,0
32723,-200,4,2,0,20,0,0
32840,-66.6666666666667,4,2,0,20,0,0
32957,-200,4,2,0,20,0,0
33075,-66.6666666666667,4,2,0,20,0,0
33192,-200,4,2,0,20,0,0
33309,-66.6666666666667,4,2,0,20,0,0
33426,-200,4,2,0,20,0,0
33543,-66.6666666666667,4,2,0,20,0,0
33660,-200,4,2,0,20,0,0
33778,-66.6666666666667,4,2,0,20,0,0
33895,-200,4,2,0,20,0,0
34012,-66.6666666666667,4,2,0,20,0,0
34071,-200,4,2,0,20,0,0
34129,-66.6666666666667,4,2,0,20,0,0
34188,-200,4,2,0,20,0,0
34246,-66.6666666666667,4,2,0,20,0,0
34363,-200,4,2,0,20,0,0
34481,-66.6666666666667,4,2,0,20,0,0
34510,-200,4,2,0,20,0,0
34539,-66.6666666666667,4,2,0,20,0,0
34568,-200,4,2,0,20,0,0
34598,-66.6666666666667,4,2,0,20,0,0
34598,-66.6666666666667,4,2,0,20,0,0
34627,-200,4,2,0,20,0,0
34657,-200,4,2,0,20,0,0
34715,-66.6666666666667,4,2,0,20,0,0
34774,-200,4,2,0,20,0,0
34832,-66.6666666666667,4,2,0,20,0,0
34891,-200,4,2,0,20,0,0
34950,-66.6666666666667,4,2,0,20,0,0
35009,-200,4,2,0,20,0,0
35067,-66.6666666666667,4,2,0,20,0,0
35126,-200,4,2,0,20,0,0
35184,-66.6666666666667,4,2,0,20,0,0
35243,-200,4,2,0,20,0,0
35301,-66.6666666666667,4,2,0,20,0,0
35360,-200,4,2,0,20,0,0
35418,-66.6666666666667,4,2,0,20,0,0
35496,-200,4,2,0,20,0,0
35575,-100,4,2,0,20,0,0
35887,-66.6666666666667,4,2,0,20,0,0
35946,-200,4,2,0,20,0,0
36004,-66.6666666666667,4,2,0,20,0,0
36043,-200,4,2,0,20,0,0
36082,-100,4,2,0,20,0,0
36121,-66.6666666666667,4,2,0,20,0,0
36209,-200,4,2,0,20,0,0
36297,-100,4,2,0,20,0,0
39637,-40,4,2,0,20,0,0
40575,-100,4,2,0,20,0,0
41395,-1000,4,2,0,20,0,0
41483,-27.027027027027,4,2,0,20,0,0
41512,-100,4,2,0,20,0,0
42332,-71.4285714285714,4,2,0,20,0,0
42450,-1000,4,2,0,20,0,0
42625,-27.027027027027,4,2,0,20,0,0
42684,-100,4,2,0,20,0,0
43153,-1000,4,2,0,20,0,0
43241,-27.027027027027,4,2,0,20,0,0
43270,-1000,4,2,0,20,0,0
43358,-27.027027027027,4,2,0,20,0,0
43387,-100,4,2,0,20,0,0
44207,-71.4285714285714,4,2,0,20,0,0
44325,-100,4,2,0,20,0,0
45731,-1000,4,2,0,20,0,0
45819,-27.027027027027,4,2,0,20,0,0
45848,-1000,4,2,0,20,0,0
45936,-27.027027027027,4,2,0,20,0,0
45965,-1000,4,2,0,20,0,0
46053,-27.027027027027,4,2,0,20,0,0
46082,-1000,4,2,0,20,0,0
46170,-27.027027027027,4,2,0,20,0,0
46200,-100,4,2,0,20,0,0
46785,-52.6315789473684,4,2,0,20,0,0
46815,-1000,4,2,0,20,0,0
46844,-52.6315789473684,4,2,0,20,0,0
46873,-1000,4,2,0,20,0,0
46903,-100,4,2,0,20,0,0
48895,-1000,4,2,0,20,0,0
48983,-27.027027027027,4,2,0,20,0,0
49012,-100,4,2,0,20,0,0
49832,-71.4285714285714,4,2,0,20,0,0
49950,-1000,4,2,0,20,0,0
50125,-27.027027027027,4,2,0,20,0,0
50184,-100,4,2,0,20,0,0
50653,-1000,4,2,0,20,0,0
50741,-27.027027027027,4,2,0,20,0,0
50770,-1000,4,2,0,20,0,0
50858,-27.027027027027,4,2,0,20,0,0
50887,-100,4,2,0,20,0,0
51707,-71.4285714285714,4,2,0,20,0,0
51825,-100,4,2,0,20,0,0
53231,-1000,4,2,0,20,0,0
53319,-27.027027027027,4,2,0,20,0,0
53348,-1000,4,2,0,20,0,0
53436,-27.027027027027,4,2,0,20,0,0
53465,-1000,4,2,0,20,0,0
53553,-27.027027027027,4,2,0,20,0,0
53582,-1000,4,2,0,20,0,0
53670,-27.027027027027,4,2,0,20,0,0
53700,-100,4,2,0,20,0,0
54285,-52.6315789473684,4,2,0,20,0,0
54315,-1000,4,2,0,20,0,0
54344,-52.6315789473684,4,2,0,20,0,0
54373,-1000,4,2,0,20,0,0
54403,-100,4,2,0,20,0,0
55106,-76.9230769230769,4,2,0,20,0,0
55223,-111.111111111111,4,2,0,20,0,0
55340,-200,4,2,0,20,0,0
55457,-1000,4,2,0,20,0,0
55575,-100,4,2,0,20,0,0
56395,-1000,4,2,0,20,0,0
56483,-27.027027027027,4,2,0,20,0,0
56512,-100,4,2,0,20,0,0
57332,-71.4285714285714,4,2,0,20,0,0
57450,-1000,4,2,0,20,0,0
57625,-27.027027027027,4,2,0,20,0,0
57684,-100,4,2,0,20,0,0
58153,-1000,4,2,0,20,0,0
58241,-27.027027027027,4,2,0,20,0,0
58270,-1000,4,2,0,20,0,0
58358,-27.027027027027,4,2,0,20,0,0
58387,-100,4,2,0,20,0,0
60731,-1000,4,2,0,20,0,0
60819,-27.027027027027,4,2,0,20,0,0
60848,-1000,4,2,0,20,0,0
60936,-27.027027027027,4,2,0,20,0,0
60965,-1000,4,2,0,20,0,0
61053,-27.027027027027,4,2,0,20,0,0
61082,-1000,4,2,0,20,0,0
61170,-27.027027027027,4,2,0,20,0,0
61200,-100,4,2,0,20,0,0
61785,-52.6315789473684,4,2,0,20,0,0
61815,-1000,4,2,0,20,0,0
61844,-52.6315789473684,4,2,0,20,0,0
61873,-1000,4,2,0,20,0,0
61903,-100,4,2,0,20,0,0
63895,-1000,4,2,0,20,0,0
63983,-27.027027027027,4,2,0,20,0,0
64012,-100,4,2,0,20,0,0
64832,-71.4285714285714,4,2,0,20,0,0
64950,-1000,4,2,0,20,0,0
65125,-27.027027027027,4,2,0,20,0,0
65184,-100,4,2,0,20,0,0
65653,-1000,4,2,0,20,0,0
65741,-27.027027027027,4,2,0,20,0,0
65770,-1000,4,2,0,20,0,0
65858,-27.027027027027,4,2,0,20,0,0
65887,-100,4,2,0,20,0,0
68231,-1000,4,2,0,20,0,0
68319,-27.027027027027,4,2,0,20,0,0
68348,-1000,4,2,0,20,0,0
68436,-27.027027027027,4,2,0,20,0,0
68465,-1000,4,2,0,20,0,0
68553,-27.027027027027,4,2,0,20,0,0
68582,-1000,4,2,0,20,0,0
68670,-27.027027027027,4,2,0,20,0,0
68700,-100,4,2,0,20,0,0
69285,-52.6315789473684,4,2,0,20,0,0
69315,-1000,4,2,0,20,0,0
69344,-52.6315789473684,4,2,0,20,0,0
69373,-1000,4,2,0,20,0,0
69403,-100,4,2,0,20,0,0
69520,600000000.571429,4,2,0,20,1,0
69871,468.75,4,2,0,20,1,0
69988,600000000.571429,4,2,0,20,1,0
70105,468.75,4,2,0,20,1,0
70339,-1000,4,2,0,20,0,0
70397,-200,4,2,0,20,0,0
70456,-111.111111111111,4,2,0,20,0,0
70515,-76.9230769230769,4,2,0,20,0,0
70575,468.75,4,2,0,20,1,0
71629,600000000.571429,4,2,0,20,1,0
71746,468.75,4,2,0,20,1,0
71980,600000000.571429,4,2,0,20,1,0
72214,468.75,4,2,0,20,1,0
72448,600000000.571429,4,2,0,20,1,0
72682,468.75,4,2,0,20,1,0
73267,-71.4285714285714,4,2,0,20,0,0
73502,600000000.571429,4,2,0,20,1,0
73619,468.75,4,2,0,20,1,0
73853,600000000.571429,4,2,0,20,1,0
73970,468.75,4,2,0,20,1,0
73970,-1000,4,2,0,20,0,0
74058,-27.027027027027,4,2,0,20,0,0
74087,-1000,4,2,0,20,0,0
74175,-27.027027027027,4,2,0,20,0,0
74204,-1000,4,2,0,20,0,0
74292,-27.027027027027,4,2,0,20,0,0
74325,468.75,4,2,0,20,1,0
75262,-200,4,2,0,20,0,0
75965,-100,4,2,0,20,0,0
76200,-1000,4,2,0,20,0,0
76288,-27.027027027027,4,2,0,20,0,0
76317,-100,4,2,0,20,0,0
77137,-200,4,2,0,20,0,0
77371,-100,4,2,0,20,0,0
77957,-1000,4,2,0,20,0,0
78045,-27.027027027027,4,2,0,20,0,0
78075,-100,4,2,0,20,0,0
79129,600000000.571429,4,2,0,20,1,0
79246,468.75,4,2,0,20,1,0
79480,600000000.571429,4,2,0,20,1,0
79714,468.75,4,2,0,20,1,0
79948,600000000.571429,4,2,0,20,1,0
80182,468.75,4,2,0,20,1,0
80767,-71.4285714285714,4,2,0,20,0,0
81002,600000000.571429,4,2,0,20,1,0
81119,468.75,4,2,0,20,1,0
81353,600000000.571429,4,2,0,20,1,0
81470,468.75,4,2,0,20,1,0
81470,-1000,4,2,0,20,0,0
81558,-27.027027027027,4,2,0,20,0,0
81587,-1000,4,2,0,20,0,0
81675,-27.027027027027,4,2,0,20,0,0
81704,-1000,4,2,0,20,0,0
81792,-27.027027027027,4,2,0,20,0,0
81821,-100,4,2,0,20,0,0
81825,468.75,4,2,0,20,1,0
82762,-200,4,2,0,20,0,0
83465,-100,4,2,0,20,0,0
83700,-1000,4,2,0,20,0,0
83788,-27.027027027027,4,2,0,20,0,0
83817,-100,4,2,0,20,0,0
84637,-200,4,2,0,20,0,0
84871,-100,4,2,0,20,0,0
85457,-1000,4,2,0,20,0,0
85545,-27.027027027027,4,2,0,20,0,0
85575,-100,4,2,0,20,0,0
86629,600000000.571429,4,2,0,20,1,0
86746,468.75,4,2,0,20,1,0
86980,600000000.571429,4,2,0,20,1,0
87214,468.75,4,2,0,20,1,0
87448,600000000.571429,4,2,0,20,1,0
87682,468.75,4,2,0,20,1,0
88267,-71.4285714285714,4,2,0,20,0,0
88502,600000000.571429,4,2,0,20,1,0
88619,468.75,4,2,0,20,1,0
88853,600000000.571429,4,2,0,20,1,0
88970,468.75,4,2,0,20,1,0
88970,-1000,4,2,0,20,0,0
89058,-27.027027027027,4,2,0,20,0,0
89087,-1000,4,2,0,20,0,0
89175,-27.027027027027,4,2,0,20,0,0
89204,-1000,4,2,0,20,0,0
89292,-27.027027027027,4,2,0,20,0,0
89325,468.75,4,2,0,20,1,0
90262,-200,4,2,0,20,0,0
90965,-100,4,2,0,20,0,0
91200,-1000,4,2,0,20,0,0
91288,-27.027027027027,4,2,0,20,0,0
91317,-100,4,2,0,20,0,0
92137,-200,4,2,0,20,0,0
92371,-100,4,2,0,20,0,0
92957,-1000,4,2,0,20,0,0
93045,-27.027027027027,4,2,0,20,0,0
93075,-100,4,2,0,20,0,0
94129,600000000.571429,4,2,0,20,1,0
94246,468.75,4,2,0,20,1,0
94480,600000000.571429,4,2,0,20,1,0
94714,468.75,4,2,0,20,1,0
94948,600000000.571429,4,2,0,20,1,0
95182,468.75,4,2,0,20,1,0
95767,-71.4285714285714,4,2,0,20,0,0
96002,600000000.571429,4,2,0,20,1,0
96119,468.75,4,2,0,20,1,0
96353,600000000.571429,4,2,0,20,1,0
96470,468.75,4,2,0,20,1,0
96470,-1000,4,2,0,20,0,0
96558,-27.027027027027,4,2,0,20,0,0
96587,-1000,4,2,0,20,0,0
96675,-27.027027027027,4,2,0,20,0,0
96704,-1000,4,2,0,20,0,0
96792,-27.027027027027,4,2,0,20,0,0
96821,-100,4,2,0,20,0,0
96825,468.75,4,2,0,20,1,0
97762,-200,4,2,0,20,0,0
98465,-100,4,2,0,20,0,0
98700,-1000,4,2,0,20,0,0
98788,-27.027027027027,4,2,0,20,0,0
98817,-100,4,2,0,20,0,0
100106,-400,4,2,0,20,0,0
100575,-100,4,2,0,20,0,0
101512,-833.333333333333,4,2,0,20,0,0
102450,-100,4,2,0,20,0,0
103387,-833.333333333333,4,2,0,20,0,0
104325,-100,4,2,0,20,0,0
105262,-833.333333333333,4,2,0,20,0,0
106200,-100,4,2,0,20,0,0
107137,-200,4,2,0,20,0,0
108075,-100,4,2,0,20,0,0
109012,-833.333333333333,4,2,0,20,0,0
109950,-100,4,2,0,20,0,0
110887,-833.333333333333,4,2,0,20,0,0
111825,-100,4,2,0,20,0,0
112762,-833.333333333333,4,2,0,20,0,0
113700,-100,4,2,0,20,0,0
114168,-1000,4,2,0,20,0,0
114344,-27.027027027027,4,2,0,20,0,0
114403,-1000,4,2,0,20,0,0
114491,-27.027027027027,4,2,0,20,0,0
114520,-1000,4,2,0,20,0,0
114608,-27.027027027027,4,2,0,20,0,0
114637,-100,4,2,0,20,0,0
115106,-1000,4,2,0,20,0,0
115194,-27.027027027027,4,2,0,20,0,0
115223,-1000,4,2,0,20,0,0
115311,-27.027027027027,4,2,0,20,0,0
115340,-1000,4,2,0,20,0,0
115428,-27.027027027027,4,2,0,20,0,0
115457,-1000,4,2,0,20,0,0
115545,-27.027027027027,4,2,0,20,0,0
115575,-100,4,2,0,20,0,0
116512,-833.333333333333,4,2,0,20,0,0
117450,-100,4,2,0,20,0,0
118387,-833.333333333333,4,2,0,20,0,0
119325,-100,4,2,0,20,0,0
120262,-833.333333333333,4,2,0,20,0,0
121200,-100,4,2,0,20,0,0
122137,-200,4,2,0,20,0,0
123075,-100,4,2,0,20,0,0
124012,-833.333333333333,4,2,0,20,0,0
124950,-100,4,2,0,20,0,0
125887,-833.333333333333,4,2,0,20,0,0
126825,-100,4,2,0,20,0,0
127762,-833.333333333333,4,2,0,20,0,0
128700,-100,4,2,0,20,0,0
129168,-1000,4,2,0,20,0,0
129344,-27.027027027027,4,2,0,20,0,0
129403,-1000,4,2,0,20,0,0
129491,-27.027027027027,4,2,0,20,0,0
129520,-1000,4,2,0,20,0,0
129608,-27.027027027027,4,2,0,20,0,0
129637,-90.9090909090909,4,2,0,20,0,0
129754,-83.3333333333333,4,2,0,20,0,0
129871,-76.9230769230769,4,2,0,20,0,0
129989,-71.4285714285714,4,2,0,20,0,0
130106,-400,4,2,0,20,0,0
130575,-200,4,2,0,20,0,0

[HitObjects]
64,192,4950,128,0,5887:0:0:0:0:
448,192,4950,1,0,0:0:0:0:
192,192,4950,1,0,0:0:0:0:
320,192,5184,1,0,0:0:0:0:
192,192,5418,1,0,0:0:0:0:
320,192,5653,1,0,0:0:0:0:
448,192,5887,1,0,0:0:0:0:
192,192,5887,1,0,0:0:0:0:
320,192,5887,1,0,0:0:0:0:
448,192,6825,128,0,7762:0:0:0:0:
192,192,6825,1,0,0:0:0:0:
320,192,6825,1,0,0:0:0:0:
64,192,7059,1,0,0:0:0:0:
192,192,7293,1,0,0:0:0:0:
64,192,7528,1,0,0:0:0:0:
320,192,7528,1,0,0:0:0:0:
320,192,7762,1,0,0:0:0:0:
192,192,7762,128,0,8231:0:0:0:0:
320,192,8700,1,0,0:0:0:0:
448,192,8700,1,0,0:0:0:0:
64,192,8700,128,0,9637:0:0:0:0:
192,192,8934,1,0,0:0:0:0:
320,192,9168,1,0,0:0:0:0:
448,192,9403,1,0,0:0:0:0:
192,192,9637,1,0,0:0:0:0:
320,192,9637,128,0,9871:0:0:0:0:
192,192,9871,1,0,0:0:0:0:
448,192,9871,128,0,10106:0:0:0:0:
320,192,10106,128,0,10340:0:0:0:0:
64,192,10106,1,0,0:0:0:0:
64,192,10340,128,0,10575:0:0:0:0:
448,192,10340,1,0,0:0:0:0:
192,192,10575,128,0,10809:0:0:0:0:
448,192,10575,1,0,0:0:0:0:
64,192,10809,128,0,11043:0:0:0:0:
320,192,10809,1,0,0:0:0:0:
192,192,11043,1,0,0:0:0:0:
448,192,11043,128,0,11512:0:0:0:0:
320,192,11278,1,0,0:0:0:0:
64,192,11278,1,0,0:0:0:0:
64,192,11512,1,0,0:0:0:0:
320,192,11512,1,0,0:0:0:0:
192,192,11512,1,0,0:0:0:0:
320,192,11746,1,0,0:0:0:0:
192,192,11746,128,0,12214:0:0:0:0:
64,192,11746,1,0,0:0:0:0:
64,192,12214,1,0,0:0:0:0:
448,192,12214,1,0,0:0:0:0:
320,192,12214,1,0,0:0:0:0:
64,192,12449,1,0,0:0:0:0:
320,192,12449,1,0,0:0:0:0:
448,192,12450,128,0,13387:0:0:0:0:
192,192,12684,1,0,0:0:0:0:
64,192,12918,1,0,0:0:0:0:
320,192,13153,1,0,0:0:0:0:
64,192,13387,1,0,0:0:0:0:
192,192,13387,1,0,0:0:0:0:
320,192,13387,1,0,0:0:0:0:
320,192,14325,1,0,0:0:0:0:
192,192,14325,1,0,0:0:0:0:
64,192,14325,128,0,15262:0:0:0:0:
448,192,14559,1,0,0:0:0:0:
320,192,14793,1,0,0:0:0:0:
192,192,15028,1,0,0:0:0:0:
448,192,15028,1,0,0:0:0:0:
192,192,15262,1,0,0:0:0:0:
320,192,15262,128,0,15731:0:0:0:0:
448,192,16200,128,0,17137:0:0:0:0:
64,192,16200,1,0,0:0:0:0:
192,192,16200,1,0,0:0:0:0:
320,192,16434,1,0,0:0:0:0:
192,192,16668,1,0,0:0:0:0:
64,192,16903,1,0,0:0:0:0:
320,192,17137,1,0,0:0:0:0:
192,192,17137,128,0,17371:0:0:0:0:
320,192,17371,1,0,0:0:0:0:
64,192,17371,128,0,17606:0:0:0:0:
192,192,17606,128,0,17840:0:0:0:0:
448,192,17606,1,0,0:0:0:0:
448,192,17840,128,0,18075:0:0:0:0:
64,192,17840,1,0,0:0:0:0:
320,192,18075,128,0,18309:0:0:0:0:
64,192,18075,1,0,0:0:0:0:
448,192,18309,128,0,18543:0:0:0:0:
192,192,18309,1,0,0:0:0:0:
320,192,18543,1,0,0:0:0:0:
64,192,18543,128,0,19012:0:0:0:0:
192,192,18778,1,0,0:0:0:0:
448,192,18778,1,0,0:0:0:0:
448,192,19012,1,0,0:0:0:0:
192,192,19012,1,0,0:0:0:0:
320,192,19012,1,0,0:0:0:0:
192,192,19246,1,0,0:0:0:0:
448,192,19246,1,0,0:0:0:0:
320,192,19246,128,0,19714:0:0:0:0:
64,192,19714,1,0,0:0:0:0:
192,192,19714,1,0,0:0:0:0:
448,192,19714,1,0,0:0:0:0:
192,192,19949,1,0,0:0:0:0:
64,192,19950,128,0,20887:0:0:0:0:
448,192,19950,128,0,20184:0:0:0:0:
320,192,20184,128,0,20418:0:0:0:0:
192,192,20418,128,0,20653:0:0:0:0:
448,192,20653,128,0,20887:0:0:0:0:
192,192,20887,128,0,21121:0:0:0:0:
320,192,20887,128,0,21121:0:0:0:0:
64,192,21121,128,0,21356:0:0:0:0:
448,192,21121,128,0,21356:0:0:0:0:
192,192,21356,128,0,21590:0:0:0:0:
320,192,21356,128,0,21590:0:0:0:0:
64,192,21590,128,0,21825:0:0:0:0:
448,192,21590,128,0,21825:0:0:0:0:
320,192,21825,128,0,22762:0:0:0:0:
192,192,21825,128,0,22059:0:0:0:0:
64,192,22059,128,0,22293:0:0:0:0:
448,192,22293,128,0,22528:0:0:0:0:
192,192,22528,128,0,22762:0:0:0:0:
64,192,22762,128,0,22996:0:0:0:0:
448,192,22762,128,0,22996:0:0:0:0:
192,192,22996,128,0,23231:0:0:0:0:
320,192,22996,128,0,23231:0:0:0:0:
64,192,23231,128,0,23465:0:0:0:0:
448,192,23231,128,0,23465:0:0:0:0:
320,192,23465,128,0,23700:0:0:0:0:
192,192,23465,128,0,23700:0:0:0:0:
64,192,23700,128,0,24637:0:0:0:0:
448,192,23700,128,0,23934:0:0:0:0:
320,192,23934,128,0,24168:0:0:0:0:
192,192,24168,128,0,24403:0:0:0:0:
448,192,24403,128,0,24637:0:0:0:0:
192,192,24637,128,0,24871:0:0:0:0:
320,192,24637,128,0,24871:0:0:0:0:
64,192,24871,128,0,25106:0:0:0:0:
448,192,24871,128,0,25106:0:0:0:0:
192,192,25106,128,0,25340:0:0:0:0:
320,192,25106,128,0,25340:0:0:0:0:
64,192,25340,128,0,25575:0:0:0:0:
448,192,25340,1,0,0:0:0:0:
192,192,25575,128,0,25809:0:0:0:0:
448,192,25575,128,0,25809:0:0:0:0:
64,192,25809,128,0,26043:0:0:0:0:
320,192,25809,128,0,26043:0:0:0:0:
192,192,26043,128,0,26278:0:0:0:0:
448,192,26043,128,0,26746:0:0:0:0:
320,192,26278,128,0,26512:0:0:0:0:
64,192,26512,128,0,26746:0:0:0:0:
192,192,26746,128,0,27450:0:0:0:0:
320,192,26746,128,0,26981:0:0:0:0:
64,192,26981,128,0,27215:0:0:0:0:
448,192,27215,128,0,27450:0:0:0:0:
64,192,27450,128,0,27684:0:0:0:0:
320,192,27450,128,0,27684:0:0:0:0:
192,192,27684,128,0,27918:0:0:0:0:
64,192,27918,128,0,28153:0:0:0:0:
320,192,27918,128,0,28153:0:0:0:0:
192,192,28153,128,0,28387:0:0:0:0:
448,192,28387,128,0,28621:0:0:0:0:
320,192,28387,128,0,28621:0:0:0:0:
64,192,28621,128,0,28856:0:0:0:0:
192,192,28621,128,0,28856:0:0:0:0:
320,192,28856,128,0,29090:0:0:0:0:
448,192,28856,128,0,29090:0:0:0:0:
64,192,29090,128,0,29325:0:0:0:0:
192,192,29090,128,0,29325:0:0:0:0:
320,192,29325,1,0,0:0:0:0:
448,192,29325,1,0,0:0:0:0:
320,192,29559,1,0,0:0:0:0:
448,192,29559,1,0,0:0:0:0:
320,192,29793,1,0,0:0:0:0:
448,192,29793,1,0,0:0:0:0:
448,192,29910,1,0,0:0:0:0:
320,192,29910,1,0,0:0:0:0:
320,192,30028,1,0,0:0:0:0:
448,192,30028,1,0,0:0:0:0:
448,192,30145,1,0,0:0:0:0:
320,192,30145,1,0,0:0:0:0:
64,192,30262,128,0,30496:0:0:0:0:
192,192,30262,1,0,0:0:0:0:
192,192,30496,128,0,30731:0:0:0:0:
320,192,30496,1,0,0:0:0:0:
320,192,30731,128,0,30965:0:0:0:0:
448,192,30731,1,0,0:0:0:0:
448,192,30965,128,0,31200:0:0:0:0:
64,192,30965,1,0,0:0:0:0:
192,192,31200,128,0,31668:0:0:0:0:
320,192,31200,128,0,31434:0:0:0:0:
64,192,31434,128,0,31668:0:0:0:0:
320,192,31668,128,0,32137:0:0:0:0:
448,192,31668,128,0,31903:0:0:0:0:
192,192,31903,128,0,32137:0:0:0:0:
64,192,32137,128,0,32371:0:0:0:0:
448,192,32137,1,0,0:0:0:0:
320,192,32371,128,0,32606:0:0:0:0:
448,192,32371,1,0,0:0:0:0:
192,192,32606,1,0,0:0:0:0:
64,192,32606,1,0,0:0:0:0:
64,192,32840,1,0,0:0:0:0:
192,192,32840,1,0,0:0:0:0:
320,192,33075,1,0,0:0:0:0:
448,192,33075,1,0,0:0:0:0:
320,192,33309,1,0,0:0:0:0:
448,192,33309,1,0,0:0:0:0:
192,192,33543,128,0,33660:0:0:0:0:
320,192,33543,128,0,33660:0:0:0:0:
192,192,33778,128,0,33895:0:0:0:0:
320,192,33778,128,0,33895:0:0:0:0:
64,192,34012,1,0,0:0:0:0:
320,192,34129,1,0,0:0:0:0:
192,192,34246,1,0,0:0:0:0:
320,192,34246,1,0,0:0:0:0:
448,192,34481,1,0,0:0:0:0:
320,192,34539,1,0,0:0:0:0:
192,192,34598,1,0,0:0:0:0:
320,192,34715,1,0,0:0:0:0:
448,192,34715,1,0,0:0:0:0:
448,192,34832,1,0,0:0:0:0:
64,192,34950,1,0,0:0:0:0:
64,192,35067,1,0,0:0:0:0:
448,192,35184,1,0,0:0:0:0:
448,192,35301,1,0,0:0:0:0:
64,192,35418,1,0,0:0:0:0:
64,192,35575,128,0,35809:0:0:0:0:
320,192,35887,1,0,0:0:0:0:
320,192,36004,1,0,0:0:0:0:
192,192,36082,1,0,0:0:0:0:
320,192,36121,1,0,0:0:0:0:
320,192,36297,1,0,0:0:0:0:
448,192,36434,1,0,0:0:0:0:
64,192,36512,128,0,36746:0:0:0:0:
320,192,36883,128,0,38700:0:0:0:0:
192,192,40575,1,0,0:0:0:0:
64,192,40575,128,0,41395:0:0:0:0:
448,192,40575,1,0,0:0:0:0:
320,192,40809,1,0,0:0:0:0:
192,192,41043,1,0,0:0:0:0:
320,192,41278,1,0,0:0:0:0:
64,192,41512,128,0,41746:0:0:0:0:
448,192,41512,1,0,0:0:0:0:
192,192,41512,1,0,0:0:0:0:
320,192,41746,128,0,41981:0:0:0:0:
192,192,41981,128,0,42215:0:0:0:0:
448,192,42215,128,0,42450:0:0:0:0:
64,192,42450,1,0,0:0:0:0:
320,192,42450,1,0,0:0:0:0:
192,192,42450,1,0,0:0:0:0:
320,192,42684,1,0,0:0:0:0:
64,192,42684,128,0,43153:0:0:0:0:
192,192,42684,1,0,0:0:0:0:
192,192,42918,1,0,0:0:0:0:
448,192,43153,1,0,0:0:0:0:
320,192,43153,1,0,0:0:0:0:
320,192,43270,1,0,0:0:0:0:
448,192,43270,1,0,0:0:0:0:
64,192,43387,1,0,0:0:0:0:
192,192,43387,128,0,43621:0:0:0:0:
320,192,43621,128,0,43856:0:0:0:0:
64,192,43856,128,0,44090:0:0:0:0:
448,192,44090,128,0,44325:0:0:0:0:
192,192,44325,128,0,44793:0:0:0:0:
320,192,44325,128,0,44559:0:0:0:0:
448,192,44793,128,0,45028:0:0:0:0:
64,192,44793,128,0,45262:0:0:0:0:
192,192,45028,1,0,0:0:0:0:
320,192,45028,1,0,0:0:0:0:
192,192,45262,1,0,0:0:0:0:
448,192,45262,1,0,0:0:0:0:
320,192,45262,128,0,45496:0:0:0:0:
192,192,45496,128,0,45731:0:0:0:0:
320,192,45731,1,0,0:0:0:0:
448,192,45731,1,0,0:0:0:0:
448,192,45848,1,0,0:0:0:0:
320,192,45848,1,0,0:0:0:0:
320,192,45965,1,0,0:0:0:0:
448,192,45965,1,0,0:0:0:0:
448,192,46082,1,0,0:0:0:0:
320,192,46082,1,0,0:0:0:0:
64,192,46200,128,0,46434:0:0:0:0:
192,192,46200,1,0,0:0:0:0:
448,192,46434,128,0,46551:0:0:0:0:
320,192,46551,128,0,46668:0:0:0:0:
192,192,46668,128,0,46785:0:0:0:0:
64,192,46668,1,0,0:0:0:0:
448,192,46785,1,0,0:0:0:0:
320,192,46844,1,0,0:0:0:0:
64,192,46903,1,0,0:0:0:0:
64,192,47020,1,0,0:0:0:0:
192,192,47137,1,0,0:0:0:0:
320,192,47254,1,0,0:0:0:0:
320,192,47371,1,0,0:0:0:0:
64,192,47371,1,0,0:0:0:0:
448,192,47489,1,0,0:0:0:0:
448,192,47606,1,0,0:0:0:0:
192,192,47606,1,0,0:0:0:0:
192,192,47840,1,0,0:0:0:0:
320,192,47840,1,0,0:0:0:0:
320,192,48075,1,0,0:0:0:0:
448,192,48075,128,0,48895:0:0:0:0:
64,192,48075,1,0,0:0:0:0:
192,192,48309,1,0,0:0:0:0:
320,192,48543,1,0,0:0:0:0:
192,192,48778,1,0,0:0:0:0:
448,192,49012,128,0,49246:0:0:0:0:
64,192,49012,1,0,0:0:0:0:
320,192,49012,1,0,0:0:0:0:
192,192,49246,128,0,49481:0:0:0:0:
320,192,49481,128,0,49715:0:0:0:0:
64,192,49715,128,0,49950:0:0:0:0:
448,192,49950,1,0,0:0:0:0:
192,192,49950,1,0,0:0:0:0:
320,192,49950,1,0,0:0:0:0:
192,192,50184,1,0,0:0:0:0:
448,192,50184,128,0,50653:0:0:0:0:
320,192,50184,1,0,0:0:0:0:
320,192,50418,1,0,0:0:0:0:
64,192,50653,1,0,0:0:0:0:
192,192,50653,1,0,0:0:0:0:
192,192,50770,1,0,0:0:0:0:
64,192,50770,1,0,0:0:0:0:
448,192,50887,1,0,0:0:0:0:
320,192,50887,128,0,51121:0:0:0:0:
192,192,51121,128,0,51356:0:0:0:0:
448,192,51356,128,0,51590:0:0:0:0:
64,192,51590,128,0,51825:0:0:0:0:
320,192,51825,128,0,52293:0:0:0:0:
192,192,51825,128,0,52059:0:0:0:0:
64,192,52293,128,0,52528:0:0:0:0:
448,192,52293,128,0,52762:0:0:0:0:
320,192,52528,1,0,0:0:0:0:
192,192,52528,1,0,0:0:0:0:
320,192,52762,1,0,0:0:0:0:
64,192,52762,1,0,0:0:0:0:
192,192,52762,128,0,52996:0:0:0:0:
320,192,52996,128,0,53231:0:0:0:0:
192,192,53231,1,0,0:0:0:0:
64,192,53231,1,0,0:0:0:0:
64,192,53348,1,0,0:0:0:0:
192,192,53348,1,0,0:0:0:0:
192,192,53465,1,0,0:0:0:0:
64,192,53465,1,0,0:0:0:0:
64,192,53582,1,0,0:0:0:0:
192,192,53582,1,0,0:0:0:0:
448,192,53700,128,0,53934:0:0:0:0:
320,192,53700,1,0,0:0:0:0:
64,192,53934,128,0,54051:0:0:0:0:
192,192,54051,128,0,54168:0:0:0:0:
320,192,54168,128,0,54285:0:0:0:0:
448,192,54168,1,0,0:0:0:0:
64,192,54285,1,0,0:0:0:0:
192,192,54344,1,0,0:0:0:0:
448,192,54403,1,0,0:0:0:0:
448,192,54520,1,0,0:0:0:0:
320,192,54637,1,0,0:0:0:0:
192,192,54754,1,0,0:0:0:0:
192,192,54871,1,0,0:0:0:0:
448,192,54871,1,0,0:0:0:0:
64,192,54989,1,0,0:0:0:0:
320,192,55106,1,0,0:0:0:0:
64,192,55106,128,0,55575:0:0:0:0:
192,192,55575,1,0,0:0:0:0:
320,192,55575,1,0,0:0:0:0:
448,192,55575,128,0,56395:0:0:0:0:
64,192,55809,1,0,0:0:0:0:
320,192,56043,1,0,0:0:0:0:
192,192,56073,1,0,0:0:0:0:
64,192,56102,1,0,0:0:0:0:
192,192,56278,1,0,0:0:0:0:
64,192,56512,1,0,0:0:0:0:
320,192,56512,1,0,0:0:0:0:
448,192,56512,128,0,56746:0:0:0:0:
192,192,56746,1,0,0:0:0:0:
320,192,56805,1,0,0:0:0:0:
192,192,56864,1,0,0:0:0:0:
320,192,56922,1,0,0:0:0:0:
192,192,56981,128,0,57215:0:0:0:0:
64,192,57215,128,0,57450:0:0:0:0:
192,192,57450,1,0,0:0:0:0:
320,192,57450,1,0,0:0:0:0:
448,192,57450,1,0,0:0:0:0:
448,192,57684,1,0,0:0:0:0:
320,192,57684,1,0,0:0:0:0:
192,192,57684,1,0,0:0:0:0:
64,192,57742,1,0,0:0:0:0:
320,192,57801,1,0,0:0:0:0:
192,192,57918,1,0,0:0:0:0:
320,192,57948,1,0,0:0:0:0:
448,192,57977,1,0,0:0:0:0:
64,192,58153,1,0,0:0:0:0:
192,192,58153,1,0,0:0:0:0:
192,192,58270,1,0,0:0:0:0:
64,192,58270,1,0,0:0:0:0:
448,192,58387,1,0,0:0:0:0:
320,192,58387,1,0,0:0:0:0:
192,192,58621,1,0,0:0:0:0:
320,192,58739,1,0,0:0:0:0:
192,192,58856,128,0,59090:0:0:0:0:
448,192,59090,1,0,0:0:0:0:
320,192,59129,1,0,0:0:0:0:
192,192,59168,1,0,0:0:0:0:
64,192,59207,1,0,0:0:0:0:
448,192,59246,1,0,0:0:0:0:
320,192,59285,1,0,0:0:0:0:
64,192,59325,128,0,59793:0:0:0:0:
192,192,59325,1,0,0:0:0:0:
192,192,59793,1,0,0:0:0:0:
320,192,59823,1,0,0:0:0:0:
448,192,59852,1,0,0:0:0:0:
64,192,60028,1,0,0:0:0:0:
192,192,60028,1,0,0:0:0:0:
448,192,60262,1,0,0:0:0:0:
320,192,60262,1,0,0:0:0:0:
64,192,60262,128,0,60496:0:0:0:0:
448,192,60496,1,0,0:0:0:0:
320,192,60555,1,0,0:0:0:0:
448,192,60614,1,0,0:0:0:0:
320,192,60672,1,0,0:0:0:0:
192,192,60731,1,0,0:0:0:0:
64,192,60731,1,0,0:0:0:0:
64,192,60848,1,0,0:0:0:0:
192,192,60848,1,0,0:0:0:0:
192,192,60965,1,0,0:0:0:0:
64,192,60965,1,0,0:0:0:0:
192,192,61082,1,0,0:0:0:0:
64,192,61082,1,0,0:0:0:0:
448,192,61200,1,0,0:0:0:0:
320,192,61239,1,0,0:0:0:0:
192,192,61278,1,0,0:0:0:0:
64,192,61317,1,0,0:0:0:0:
448,192,61356,1,0,0:0:0:0:
320,192,61395,1,0,0:0:0:0:
64,192,61434,128,0,61551:0:0:0:0:
192,192,61551,128,0,61668:0:0:0:0:
320,192,61668,128,0,61785:0:0:0:0:
448,192,61668,1,0,0:0:0:0:
64,192,61785,1,0,0:0:0:0:
192,192,61844,1,0,0:0:0:0:
448,192,61903,1,0,0:0:0:0:
448,192,62020,1,0,0:0:0:0:
320,192,62137,1,0,0:0:0:0:
192,192,62254,1,0,0:0:0:0:
192,192,62371,1,0,0:0:0:0:
448,192,62371,1,0,0:0:0:0:
64,192,62489,1,0,0:0:0:0:
64,192,62606,1,0,0:0:0:0:
320,192,62606,1,0,0:0:0:0:
448,192,62840,1,0,0:0:0:0:
320,192,62879,1,0,0:0:0:0:
192,192,62918,1,0,0:0:0:0:
64,192,62957,1,0,0:0:0:0:
448,192,62996,1,0,0:0:0:0:
320,192,63035,1,0,0:0:0:0:
64,192,63075,128,0,63895:0:0:0:0:
192,192,63075,1,0,0:0:0:0:
448,192,63309,1,0,0:0:0:0:
192,192,63543,1,0,0:0:0:0:
320,192,63573,1,0,0:0:0:0:
448,192,63602,1,0,0:0:0:0:
320,192,63778,1,0,0:0:0:0:
448,192,64012,1,0,0:0:0:0:
192,192,64012,1,0,0:0:0:0:
64,192,64012,128,0,64246:0:0:0:0:
320,192,64246,1,0,0:0:0:0:
192,192,64305,1,0,0:0:0:0:
320,192,64364,1,0,0:0:0:0:
192,192,64422,1,0,0:0:0:0:
320,192,64481,128,0,64715:0:0:0:0:
448,192,64715,128,0,64950:0:0:0:0:
320,192,64950,1,0,0:0:0:0:
192,192,64950,1,0,0:0:0:0:
64,192,64950,1,0,0:0:0:0:
64,192,65184,1,0,0:0:0:0:
192,192,65184,1,0,0:0:0:0:
320,192,65184,1,0,0:0:0:0:
448,192,65242,1,0,0:0:0:0:
192,192,65301,1,0,0:0:0:0:
320,192,65418,1,0,0:0:0:0:
192,192,65448,1,0,0:0:0:0:
64,192,65477,1,0,0:0:0:0:
448,192,65653,1,0,0:0:0:0:
320,192,65653,1,0,0:0:0:0:
320,192,65770,1,0,0:0:0:0:
448,192,65770,1,0,0:0:0:0:
64,192,65887,1,0,0:0:0:0:
192,192,65887,1,0,0:0:0:0:
320,192,66121,1,0,0:0:0:0:
192,192,66239,1,0,0:0:0:0:
320,192,66356,128,0,66590:0:0:0:0:
64,192,66590,1,0,0:0:0:0:
192,192,66629,1,0,0:0:0:0:
320,192,66668,1,0,0:0:0:0:
448,192,66707,1,0,0:0:0:0:
64,192,66746,1,0,0:0:0:0:
192,192,66785,1,0,0:0:0:0:
448,192,66825,128,0,67293:0:0:0:0:
320,192,66825,1,0,0:0:0:0:
320,192,67293,1,0,0:0:0:0:
192,192,67323,1,0,0:0:0:0:
64,192,67352,1,0,0:0:0:0:
448,192,67528,1,0,0:0:0:0:
320,192,67528,1,0,0:0:0:0:
64,192,67762,1,0,0:0:0:0:
192,192,67762,1,0,0:0:0:0:
448,192,67762,128,0,67996:0:0:0:0:
64,192,67996,1,0,0:0:0:0:
192,192,68055,1,0,0:0:0:0:
64,192,68114,1,0,0:0:0:0:
192,192,68172,1,0,0:0:0:0:
320,192,68231,1,0,0:0:0:0:
448,192,68231,1,0,0:0:0:0:
448,192,68348,1,0,0:0:0:0:
320,192,68348,1,0,0:0:0:0:
320,192,68465,1,0,0:0:0:0:
448,192,68465,1,0,0:0:0:0:
320,192,68582,1,0,0:0:0:0:
448,192,68582,1,0,0:0:0:0:
64,192,68700,1,0,0:0:0:0:
192,192,68739,1,0,0:0:0:0:
320,192,68778,1,0,0:0:0:0:
448,192,68817,1,0,0:0:0:0:
64,192,68856,1,0,0:0:0:0:
192,192,68895,1,0,0:0:0:0:
448,192,68934,128,0,69051:0:0:0:0:
320,192,69051,128,0,69168:0:0:0:0:
192,192,69168,128,0,69285:0:0:0:0:
64,192,69168,1,0,0:0:0:0:
448,192,69285,1,0,0:0:0:0:
320,192,69344,1,0,0:0:0:0:
64,192,69403,1,0,0:0:0:0:
64,192,69520,1,0,0:0:0:0:
64,192,69871,1,0,0:0:0:0:
192,192,70105,1,0,0:0:0:0:
320,192,70105,1,0,0:0:0:0:
448,192,70105,128,0,70339:0:0:0:0:
64,192,70575,128,0,71512:0:0:0:0:
192,192,70575,1,0,0:0:0:0:
448,192,70575,1,0,0:0:0:0:
320,192,70575,1,0,0:0:0:0:
192,192,70809,1,0,0:0:0:0:
320,192,71043,1,0,0:0:0:0:
192,192,71278,1,0,0:0:0:0:
448,192,71512,1,0,0:0:0:0:
64,192,71746,128,0,71980:0:0:0:0:
448,192,71980,1,0,0:0:0:0:
192,192,72214,128,0,72448:0:0:0:0:
64,192,72682,128,0,73385:0:0:0:0:
320,192,72682,1,0,0:0:0:0:
192,192,72916,1,0,0:0:0:0:
320,192,73150,1,0,0:0:0:0:
448,192,73385,1,0,0:0:0:0:
192,192,73385,1,0,0:0:0:0:
320,192,73619,1,0,0:0:0:0:
64,192,73619,128,0,73853:0:0:0:0:
320,192,73970,1,0,0:0:0:0:
448,192,73970,1,0,0:0:0:0:
448,192,74087,1,0,0:0:0:0:
320,192,74087,1,0,0:0:0:0:
320,192,74204,1,0,0:0:0:0:
448,192,74204,1,0,0:0:0:0:
320,192,74325,1,0,0:0:0:0:
448,192,74325,128,0,75262:0:0:0:0:
192,192,74793,1,0,0:0:0:0:
320,192,75262,1,0,0:0:0:0:
64,192,75262,1,0,0:0:0:0:
192,192,75379,1,0,0:0:0:0:
448,192,75496,1,0,0:0:0:0:
192,192,75731,1,0,0:0:0:0:
320,192,75731,1,0,0:0:0:0:
448,192,75965,128,0,76200:0:0:0:0:
192,192,76200,1,0,0:0:0:0:
320,192,76317,1,0,0:0:0:0:
448,192,76317,128,0,76668:0:0:0:0:
192,192,76668,1,0,0:0:0:0:
64,192,76668,128,0,77020:0:0:0:0:
320,192,76903,1,0,0:0:0:0:
448,192,77020,128,0,77137:0:0:0:0:
64,192,77137,1,0,0:0:0:0:
192,192,77137,1,0,0:0:0:0:
64,192,77371,128,0,77606:0:0:0:0:
448,192,77606,128,0,77957:0:0:0:0:
192,192,77840,1,0,0:0:0:0:
320,192,77957,1,0,0:0:0:0:
192,192,78075,1,0,0:0:0:0:
64,192,78075,128,0,79012:0:0:0:0:
320,192,78309,1,0,0:0:0:0:
192,192,78543,1,0,0:0:0:0:
320,192,78778,1,0,0:0:0:0:
192,192,79012,1,0,0:0:0:0:
448,192,79012,1,0,0:0:0:0:
64,192,79246,128,0,79480:0:0:0:0:
448,192,79480,1,0,0:0:0:0:
192,192,79714,128,0,79948:0:0:0:0:
64,192,80182,128,0,80885:0:0:0:0:
320,192,80182,1,0,0:0:0:0:
192,192,80416,1,0,0:0:0:0:
320,192,80650,1,0,0:0:0:0:
192,192,80885,1,0,0:0:0:0:
448,192,80885,1,0,0:0:0:0:
320,192,81119,1,0,0:0:0:0:
64,192,81119,128,0,81353:0:0:0:0:
320,192,81470,1,0,0:0:0:0:
448,192,81470,1,0,0:0:0:0:
448,192,81587,1,0,0:0:0:0:
320,192,81587,1,0,0:0:0:0:
320,192,81704,1,0,0:0:0:0:
448,192,81704,1,0,0:0:0:0:
320,192,81825,1,0,0:0:0:0:
448,192,81825,128,0,82762:0:0:0:0:
192,192,82293,1,0,0:0:0:0:
320,192,82762,1,0,0:0:0:0:
64,192,82762,1,0,0:0:0:0:
64,192,82879,1,0,0:0:0:0:
448,192,82996,1,0,0:0:0:0:
192,192,83231,1,0,0:0:0:0:
320,192,83231,1,0,0:0:0:0:
448,192,83465,128,0,83700:0:0:0:0:
192,192,83700,1,0,0:0:0:0:
320,192,83817,1,0,0:0:0:0:
448,192,83817,128,0,84168:0:0:0:0:
192,192,84168,1,0,0:0:0:0:
64,192,84168,128,0,84520:0:0:0:0:
320,192,84403,1,0,0:0:0:0:
448,192,84520,128,0,84637:0:0:0:0:
64,192,84637,1,0,0:0:0:0:
192,192,84637,1,0,0:0:0:0:
64,192,84871,128,0,85106:0:0:0:0:
448,192,85106,128,0,85457:0:0:0:0:
320,192,85340,1,0,0:0:0:0:
192,192,85457,1,0,0:0:0:0:
448,192,85575,128,0,86512:0:0:0:0:
320,192,85575,1,0,0:0:0:0:
64,192,85575,1,0,0:0:0:0:
192,192,85575,1,0,0:0:0:0:
320,192,85809,1,0,0:0:0:0:
192,192,86043,1,0,0:0:0:0:
320,192,86278,1,0,0:0:0:0:
64,192,86512,1,0,0:0:0:0:
448,192,86746,128,0,86980:0:0:0:0:
64,192,86980,1,0,0:0:0:0:
320,192,87214,128,0,87448:0:0:0:0:
448,192,87682,128,0,88385:0:0:0:0:
192,192,87682,1,0,0:0:0:0:
320,192,87916,1,0,0:0:0:0:
192,192,88150,1,0,0:0:0:0:
64,192,88385,1,0,0:0:0:0:
320,192,88385,1,0,0:0:0:0:
192,192,88619,1,0,0:0:0:0:
448,192,88619,128,0,88853:0:0:0:0:
192,192,88970,1,0,0:0:0:0:
64,192,88970,1,0,0:0:0:0:
64,192,89087,1,0,0:0:0:0:
192,192,89087,1,0,0:0:0:0:
192,192,89204,1,0,0:0:0:0:
64,192,89204,1,0,0:0:0:0:
192,192,89325,1,0,0:0:0:0:
64,192,89325,128,0,90262:0:0:0:0:
320,192,89793,1,0,0:0:0:0:
192,192,90262,1,0,0:0:0:0:
448,192,90262,1,0,0:0:0:0:
320,192,90379,1,0,0:0:0:0:
64,192,90496,1,0,0:0:0:0:
320,192,90731,1,0,0:0:0:0:
192,192,90731,1,0,0:0:0:0:
64,192,90965,128,0,91200:0:0:0:0:
320,192,91200,1,0,0:0:0:0:
192,192,91317,1,0,0:0:0:0:
64,192,91317,128,0,91668:0:0:0:0:
320,192,91668,1,0,0:0:0:0:
448,192,91668,128,0,92020:0:0:0:0:
192,192,91903,1,0,0:0:0:0:
64,192,92020,128,0,92137:0:0:0:0:
448,192,92137,1,0,0:0:0:0:
320,192,92137,1,0,0:0:0:0:
448,192,92371,128,0,92606:0:0:0:0:
64,192,92606,128,0,92957:0:0:0:0:
320,192,92840,1,0,0:0:0:0:
192,192,92957,1,0,0:0:0:0:
320,192,93075,1,0,0:0:0:0:
448,192,93075,128,0,94012:0:0:0:0:
192,192,93309,1,0,0:0:0:0:
320,192,93543,1,0,0:0:0:0:
192,192,93778,1,0,0:0:0:0:
320,192,94012,1,0,0:0:0:0:
64,192,94012,1,0,0:0:0:0:
448,192,94246,128,0,94480:0:0:0:0:
64,192,94480,1,0,0:0:0:0:
320,192,94714,128,0,94948:0:0:0:0:
448,192,95182,128,0,95885:0:0:0:0:
192,192,95182,1,0,0:0:0:0:
320,192,95416,1,0,0:0:0:0:
192,192,95650,1,0,0:0:0:0:
320,192,95885,1,0,0:0:0:0:
64,192,95885,1,0,0:0:0:0:
192,192,96119,1,0,0:0:0:0:
448,192,96119,128,0,96353:0:0:0:0:
192,192,96470,1,0,0:0:0:0:
64,192,96470,1,0,0:0:0:0:
64,192,96587,1,0,0:0:0:0:
192,192,96587,1,0,0:0:0:0:
192,192,96704,1,0,0:0:0:0:
64,192,96704,1,0,0:0:0:0:
192,192,96825,1,0,0:0:0:0:
64,192,96825,128,0,97762:0:0:0:0:
320,192,97293,1,0,0:0:0:0:
192,192,97762,1,0,0:0:0:0:
448,192,97762,1,0,0:0:0:0:
448,192,97879,1,0,0:0:0:0:
64,192,97996,1,0,0:0:0:0:
320,192,98231,1,0,0:0:0:0:
192,192,98231,1,0,0:0:0:0:
64,192,98465,128,0,98700:0:0:0:0:
320,192,98700,1,0,0:0:0:0:
192,192,98817,1,0,0:0:0:0:
64,192,98817,128,0,99168:0:0:0:0:
320,192,99168,1,0,0:0:0:0:
448,192,99168,128,0,99520:0:0:0:0:
192,192,99403,1,0,0:0:0:0:
64,192,99520,128,0,99637:0:0:0:0:
320,192,99637,1,0,0:0:0:0:
448,192,99637,128,0,100106:0:0:0:0:
192,192,99871,1,0,0:0:0:0:
320,192,99989,1,0,0:0:0:0:
64,192,100106,1,0,0:0:0:0:
448,192,100575,1,0,0:0:0:0:
320,192,100575,1,0,0:0:0:0:
64,192,100575,128,0,102450:0:0:0:0:
192,192,100575,128,0,100809:0:0:0:0:
448,192,100809,128,0,100926:0:0:0:0:
320,192,100926,128,0,101043:0:0:0:0:
448,192,101043,128,0,101160:0:0:0:0:
192,192,101160,128,0,101278:0:0:0:0:
448,192,101278,128,0,101395:0:0:0:0:
320,192,101395,128,0,101512:0:0:0:0:
192,192,101512,1,0,0:0:0:0:
448,192,101512,128,0,102450:0:0:0:0:
320,192,102450,128,0,104325:0:0:0:0:
192,192,102450,128,0,102684:0:0:0:0:
448,192,102684,128,0,102801:0:0:0:0:
192,192,102801,128,0,102918:0:0:0:0:
64,192,102918,128,0,103035:0:0:0:0:
448,192,103035,128,0,103153:0:0:0:0:
64,192,103153,128,0,103270:0:0:0:0:
192,192,103270,128,0,103387:0:0:0:0:
448,192,103387,128,0,104325:0:0:0:0:
64,192,103387,1,0,0:0:0:0:
192,192,104325,128,0,106200:0:0:0:0:
64,192,104325,128,0,104559:0:0:0:0:
320,192,104559,128,0,104676:0:0:0:0:
448,192,104676,128,0,104793:0:0:0:0:
64,192,104793,128,0,104910:0:0:0:0:
320,192,104910,128,0,105028:0:0:0:0:
64,192,105028,128,0,105145:0:0:0:0:
448,192,105145,128,0,105262:0:0:0:0:
320,192,105262,128,0,106200:0:0:0:0:
64,192,105262,1,0,0:0:0:0:
448,192,106200,128,0,108075:0:0:0:0:
64,192,106200,128,0,106434:0:0:0:0:
320,192,106434,128,0,106551:0:0:0:0:
192,192,106551,128,0,106668:0:0:0:0:
64,192,106668,128,0,106785:0:0:0:0:
320,192,106785,128,0,106903:0:0:0:0:
64,192,106903,128,0,107020:0:0:0:0:
192,192,107020,128,0,107137:0:0:0:0:
64,192,107137,1,0,0:0:0:0:
320,192,107137,128,0,107371:0:0:0:0:
192,192,107371,128,0,107606:0:0:0:0:
64,192,107606,128,0,107840:0:0:0:0:
320,192,107840,128,0,107957:0:0:0:0:
192,192,107957,128,0,108075:0:0:0:0:
64,192,108075,128,0,109950:0:0:0:0:
320,192,108075,128,0,108309:0:0:0:0:
448,192,108309,128,0,108426:0:0:0:0:
192,192,108426,128,0,108543:0:0:0:0:
320,192,108543,128,0,108660:0:0:0:0:
192,192,108660,128,0,108778:0:0:0:0:
448,192,108778,128,0,108895:0:0:0:0:
320,192,108895,128,0,109012:0:0:0:0:
448,192,109012,128,0,109950:0:0:0:0:
192,192,109012,1,0,0:0:0:0:
320,192,109950,128,0,111825:0:0:0:0:
192,192,109950,128,0,110184:0:0:0:0:
448,192,110184,128,0,110301:0:0:0:0:
64,192,110301,128,0,110418:0:0:0:0:
192,192,110418,128,0,110535:0:0:0:0:
64,192,110535,128,0,110653:0:0:0:0:
448,192,110653,128,0,110770:0:0:0:0:
192,192,110770,128,0,110887:0:0:0:0:
448,192,110887,128,0,111825:0:0:0:0:
64,192,110887,1,0,0:0:0:0:
192,192,111825,128,0,113700:0:0:0:0:
64,192,111825,128,0,112059:0:0:0:0:
320,192,112059,128,0,112176:0:0:0:0:
448,192,112176,128,0,112293:0:0:0:0:
64,192,112293,128,0,112410:0:0:0:0:
448,192,112410,128,0,112528:0:0:0:0:
320,192,112528,128,0,112645:0:0:0:0:
64,192,112645,128,0,112762:0:0:0:0:
448,192,112762,1,0,0:0:0:0:
320,192,112762,128,0,113700:0:0:0:0:
448,192,113700,128,0,114168:0:0:0:0:
64,192,113700,128,0,113817:0:0:0:0:
320,192,113817,128,0,113934:0:0:0:0:
192,192,113934,128,0,114051:0:0:0:0:
320,192,114051,128,0,114168:0:0:0:0:
64,192,114168,1,0,0:0:0:0:
192,192,114168,1,0,0:0:0:0:
192,192,114403,1,0,0:0:0:0:
64,192,114403,1,0,0:0:0:0:
64,192,114520,1,0,0:0:0:0:
448,192,114637,128,0,115106:0:0:0:0:
192,192,114637,1,0,0:0:0:0:
320,192,114871,1,0,0:0:0:0:
192,192,115106,1,0,0:0:0:0:
64,192,115106,1,0,0:0:0:0:
192,192,115223,1,0,0:0:0:0:
64,192,115223,1,0,0:0:0:0:
64,192,115340,1,0,0:0:0:0:
192,192,115340,1,0,0:0:0:0:
192,192,115457,1,0,0:0:0:0:
64,192,115457,1,0,0:0:0:0:
64,192,115575,1,0,0:0:0:0:
192,192,115575,1,0,0:0:0:0:
448,192,115575,128,0,117450:0:0:0:0:
320,192,115575,128,0,115809:0:0:0:0:
192,192,115809,128,0,115926:0:0:0:0:
64,192,115926,128,0,116043:0:0:0:0:
192,192,116043,128,0,116160:0:0:0:0:
320,192,116043,1,0,0:0:0:0:
64,192,116160,128,0,116278:0:0:0:0:
320,192,116278,128,0,116395:0:0:0:0:
192,192,116395,128,0,116512:0:0:0:0:
320,192,116512,1,0,0:0:0:0:
64,192,116512,128,0,117450:0:0:0:0:
192,192,116981,1,0,0:0:0:0:
320,192,116981,1,0,0:0:0:0:
192,192,117450,128,0,119325:0:0:0:0:
320,192,117450,128,0,117684:0:0:0:0:
64,192,117684,128,0,117801:0:0:0:0:
320,192,117801,128,0,117918:0:0:0:0:
448,192,117918,128,0,118035:0:0:0:0:
64,192,117918,1,0,0:0:0:0:
320,192,118035,128,0,118153:0:0:0:0:
64,192,118153,128,0,118270:0:0:0:0:
448,192,118270,128,0,118387:0:0:0:0:
64,192,118387,128,0,119325:0:0:0:0:
320,192,118387,1,0,0:0:0:0:
320,192,118856,1,0,0:0:0:0:
448,192,118856,1,0,0:0:0:0:
320,192,119325,128,0,121200:0:0:0:0:
448,192,119325,128,0,119559:0:0:0:0:
64,192,119559,128,0,119676:0:0:0:0:
192,192,119676,128,0,119793:0:0:0:0:
448,192,119793,128,0,119910:0:0:0:0:
64,192,119793,1,0,0:0:0:0:
192,192,119910,128,0,120028:0:0:0:0:
448,192,120028,128,0,120145:0:0:0:0:
64,192,120145,128,0,120262:0:0:0:0:
192,192,120262,128,0,121200:0:0:0:0:
448,192,120262,1,0,0:0:0:0:
64,192,120731,1,0,0:0:0:0:
448,192,120731,1,0,0:0:0:0:
64,192,121200,128,0,123075:0:0:0:0:
448,192,121200,128,0,121434:0:0:0:0:
192,192,121434,128,0,121551:0:0:0:0:
320,192,121551,128,0,121668:0:0:0:0:
448,192,121668,128,0,121785:0:0:0:0:
192,192,121668,1,0,0:0:0:0:
320,192,121785,128,0,121903:0:0:0:0:
192,192,121903,128,0,122020:0:0:0:0:
320,192,122020,128,0,122137:0:0:0:0:
448,192,122137,1,0,0:0:0:0:
192,192,122137,128,0,122371:0:0:0:0:
320,192,122371,128,0,122606:0:0:0:0:
448,192,122606,128,0,122840:0:0:0:0:
192,192,122606,1,0,0:0:0:0:
192,192,122840,128,0,122957:0:0:0:0:
320,192,122957,128,0,123075:0:0:0:0:
448,192,123075,128,0,124950:0:0:0:0:
192,192,123075,128,0,123309:0:0:0:0:
64,192,123309,128,0,123426:0:0:0:0:
320,192,123426,128,0,123543:0:0:0:0:
192,192,123543,128,0,123660:0:0:0:0:
64,192,123543,1,0,0:0:0:0:
320,192,123660,128,0,123778:0:0:0:0:
64,192,123778,128,0,123895:0:0:0:0:
192,192,123895,128,0,124012:0:0:0:0:
64,192,124012,128,0,124950:0:0:0:0:
320,192,124012,1,0,0:0:0:0:
192,192,124481,1,0,0:0:0:0:
320,192,124481,1,0,0:0:0:0:
192,192,124950,128,0,126825:0:0:0:0:
320,192,124950,128,0,125184:0:0:0:0:
64,192,125184,128,0,125301:0:0:0:0:
448,192,125301,128,0,125418:0:0:0:0:
320,192,125418,128,0,125535:0:0:0:0:
64,192,125418,1,0,0:0:0:0:
448,192,125535,128,0,125653:0:0:0:0:
64,192,125653,128,0,125770:0:0:0:0:
320,192,125770,128,0,125887:0:0:0:0:
64,192,125887,128,0,126825:0:0:0:0:
448,192,125887,1,0,0:0:0:0:
320,192,126356,1,0,0:0:0:0:
448,192,126356,1,0,0:0:0:0:
320,192,126825,128,0,128700:0:0:0:0:
448,192,126825,128,0,127059:0:0:0:0:
192,192,127059,128,0,127176:0:0:0:0:
64,192,127176,128,0,127293:0:0:0:0:
448,192,127293,128,0,127410:0:0:0:0:
192,192,127293,1,0,0:0:0:0:
64,192,127410,128,0,127528:0:0:0:0:
192,192,127528,128,0,127645:0:0:0:0:
448,192,127645,128,0,127762:0:0:0:0:
64,192,127762,1,0,0:0:0:0:
192,192,127762,128,0,128700:0:0:0:0:
64,192,128231,1,0,0:0:0:0:
448,192,128231,1,0,0:0:0:0:
64,192,128700,128,0,129168:0:0:0:0:
448,192,128700,128,0,128817:0:0:0:0:
192,192,128817,128,0,128934:0:0:0:0:
320,192,128934,128,0,129051:0:0:0:0:
192,192,129051,128,0,129168:0:0:0:0:
448,192,129168,1,0,0:0:0:0:
320,192,129168,1,0,0:0:0:0:
320,192,129403,1,0,0:0:0:0:
448,192,129403,1,0,0:0:0:0:
448,192,129520,1,0,0:0:0:0:
64,192,129637,128,0,130106:0:0:0:0:
320,192,129637,1,0,0:0:0:0:
192,192,129871,1,0,0:0:0:0:
320,192,130106,128,0,130575:0:0:0:0:
448,192,130106,128,0,131043:0:0:0:0:
