osu file format v14

[General]
AudioFilename: audio.mp3
AudioLeadIn: 0
PreviewTime: 61963
Countdown: 0
SampleSet: Soft
StackLeniency: 0.7
Mode: 0
LetterboxInBreaks: 0
WidescreenStoryboard: 1

[Editor]
Bookmarks: 2651,19986,20651,41317,73317,73817,105317,137317,137817,147984,179984,211984,243984,244484,259984
DistanceSpacing: 1.3
BeatDivisor: 4
GridSize: 32
TimelineZoom: 2.3

[Metadata]
Title:Zan'ei
TitleUnicode:残影
Artist:kakichoco
ArtistUnicode:柿チョコ
Creator:Lasse
Version:Zelasse's Expert
Source:
Tags:zelq heroine japanese rock zanei 焔雷 enrai enlight 奥山アキラ Okuyama Akira
BeatmapID:3608828
BeatmapSetID:1759729

[Difficulty]
HPDrainRate:5.8
CircleSize:4
OverallDifficulty:8.5
ApproachRate:9.2
SliderMultiplier:1.7
SliderTickRate:1

[Events]
//Background and Video events
0,0,"345t3.jpg",0,0
//Break Periods
//Storyboard Layer 0 (Background)
//Storyboard Layer 1 (Fail)
//Storyboard Layer 2 (Pass)
//Storyboard Layer 3 (Foreground)
//Storyboard Layer 4 (Overlay)
//Storyboard Sound Samples

[TimingPoints]
-2681,333.333333333333,4,2,1,70,1,0
2652,-142.857142857143,4,2,1,56,0,0
7985,-142.857142857143,4,2,1,60,0,0
8152,-142.857142857143,4,2,1,40,0,0
8652,-142.857142857143,4,2,1,62,0,0
8818,-142.857142857143,4,2,1,63,0,0
8985,-142.857142857143,4,2,1,64,0,0
9152,-142.857142857143,4,2,1,65,0,0
9234,-142.857142857143,4,2,1,66,0,0
9318,333.333333333333,4,2,1,70,1,0
9318,-100,4,2,1,70,0,0
9901,-100,4,2,1,30,0,0
9984,-100,4,2,1,70,0,0
10484,-100,4,2,2,70,0,0
10567,-100,4,2,1,70,0,0
12234,-100,4,2,1,30,0,0
12317,-100,4,2,2,70,0,0
12484,-100,4,2,1,70,0,0
15234,-100,4,2,1,30,0,0
15317,-100,4,2,1,70,0,0
18484,-100,4,2,2,70,0,0
18567,-100,4,2,1,70,0,0
19901,-100,4,2,1,30,0,0
19984,-125,4,2,1,62,0,0
30484,-142.857142857143,4,2,1,62,0,0
30567,-142.857142857143,4,2,1,52,0,0
30651,-116.279069767442,4,2,1,64,0,0
40984,-116.279069767442,4,2,1,62,0,0
41317,-131.578947368421,4,2,1,60,0,0
41651,-131.578947368421,4,2,1,55,0,0
51984,-131.578947368421,4,2,99,52,0,0
54651,-104.166666666667,4,1,1,50,0,0
54817,-104.166666666667,4,1,1,51,0,0
54984,-104.166666666667,4,1,1,52,0,0
55151,-104.166666666667,4,1,1,53,0,0
55317,-104.166666666667,4,1,1,54,0,0
55484,-104.166666666667,4,1,1,55,0,0
55651,-104.166666666667,4,1,1,56,0,0
55817,-104.166666666667,4,1,1,57,0,0
55984,-104.166666666667,4,1,1,58,0,0
56151,-104.166666666667,4,1,1,59,0,0
56317,-104.166666666667,4,1,1,60,0,0
56484,-104.166666666667,4,1,1,61,0,0
56651,-104.166666666667,4,1,1,62,0,0
56817,-104.166666666667,4,1,1,63,0,0
56984,-104.166666666667,4,1,1,64,0,0
57317,-116.279069767442,4,2,1,65,0,0
57651,-116.279069767442,4,2,2,65,0,0
57817,-116.279069767442,4,2,1,65,0,0
58317,-116.279069767442,4,2,2,65,0,0
58984,-116.279069767442,4,2,1,65,0,0
59317,-116.279069767442,4,2,2,65,0,0
59984,-116.279069767442,4,2,1,70,0,0
60234,-116.279069767442,4,2,1,40,0,0
60317,-116.279069767442,4,2,2,70,0,0
61151,-116.279069767442,4,2,1,70,0,0
62317,-131.578947368421,4,2,1,50,0,0
62651,-90.9090909090909,4,2,1,75,0,0
62901,-90.9090909090909,4,2,1,35,0,0
62984,-90.9090909090909,4,2,1,75,0,0
67651,-90.9090909090909,4,2,2,75,0,0
67901,-90.9090909090909,4,2,1,35,0,0
67984,-90.9090909090909,4,2,1,75,0,0
68734,-90.9090909090909,4,2,1,35,0,0
68817,-90.9090909090909,4,2,1,75,0,0
73567,-90.9090909090909,4,2,1,35,0,0
73651,-90.9090909090909,4,2,1,75,0,0
74651,-90.9090909090909,4,2,2,75,0,0
74817,-90.9090909090909,4,2,1,75,0,0
75901,-90.9090909090909,4,2,1,35,0,0
75984,-90.9090909090909,4,2,1,75,0,0
83317,-100,4,2,1,65,0,0
83984,-83.3333333333333,4,2,1,75,0,0
88151,-83.3333333333333,4,2,1,70,0,0
88484,-83.3333333333333,4,2,1,68,0,0
88651,-83.3333333333333,4,2,1,66,0,0
88817,-83.3333333333333,4,2,1,64,0,0
88984,-83.3333333333333,4,2,1,62,0,0
89151,-83.3333333333333,4,2,1,60,0,0
89317,-100,4,2,1,70,0,0
89901,-100,4,2,1,30,0,0
89984,-100,4,2,1,70,0,0
91651,-100,4,2,2,70,0,0
91901,-100,4,2,1,30,0,0
91984,-100,4,2,1,70,0,0
93151,-100,4,2,2,70,0,0
93317,-100,4,2,1,70,0,0
94651,-100,4,2,1,64,0,0
95984,-100,4,2,2,56,0,0
96817,-100,4,2,1,64,0,0
98317,-100,4,2,2,52,0,0
98651,-100,4,2,1,58,0,0
98984,-100,4,2,1,56,0,0
99317,-100,4,2,1,54,0,0
99484,-100,4,2,1,62,0,0
100317,-100,4,2,1,60,0,0
101401,-125,4,2,1,60,0,0
102651,-100,4,2,1,64,0,0
102984,-100,4,2,1,62,0,0
103817,-90.9090909090909,4,2,1,65,0,0
104151,-90.9090909090909,4,2,1,62,0,0
105317,-116.279069767442,4,2,1,64,0,0
115984,-131.578947368421,4,2,1,60,0,0
116317,-131.578947368421,4,2,1,55,0,0
126651,-131.578947368421,4,2,99,52,0,0
129317,-104.166666666667,4,1,1,50,0,0
129484,-104.166666666667,4,1,1,51,0,0
129651,-104.166666666667,4,1,1,52,0,0
129817,-104.166666666667,4,1,1,53,0,0
129984,-104.166666666667,4,1,1,54,0,0
130151,-104.166666666667,4,1,1,55,0,0
130317,-104.166666666667,4,1,1,56,0,0
130484,-104.166666666667,4,1,1,57,0,0
130651,-104.166666666667,4,1,1,58,0,0
130817,-104.166666666667,4,1,1,59,0,0
130984,-104.166666666667,4,1,1,60,0,0
131151,-104.166666666667,4,1,1,61,0,0
131317,-104.166666666667,4,1,1,62,0,0
131484,-104.166666666667,4,1,1,63,0,0
131651,-104.166666666667,4,1,1,64,0,0
131984,-116.279069767442,4,2,1,65,0,0
132317,-116.279069767442,4,2,2,65,0,0
132483,-116.279069767442,4,2,1,65,0,0
132984,-116.279069767442,4,2,2,65,0,0
133984,-116.279069767442,4,2,1,65,0,0
134317,-116.279069767442,4,2,2,65,0,0
134651,-116.279069767442,4,2,1,70,0,0
134900,-116.279069767442,4,2,1,40,0,0
134983,-116.279069767442,4,2,2,70,0,0
135817,-116.279069767442,4,2,1,70,0,0
136984,-131.578947368421,4,2,1,50,0,0
137317,-90.9090909090909,4,2,1,75,0,0
137567,-90.9090909090909,4,2,1,35,0,0
137651,-90.9090909090909,4,2,1,75,0,0
139234,-90.9090909090909,4,2,1,35,0,0
139317,-90.9090909090909,4,2,1,75,0,0
141817,-90.9090909090909,4,2,2,75,0,0
141984,-90.9090909090909,4,2,1,75,0,0
142317,-90.9090909090909,4,2,2,75,0,0
142567,-90.9090909090909,4,2,1,35,0,0
142651,-90.9090909090909,4,2,1,75,0,0
145984,-90.9090909090909,4,2,2,75,0,0
146151,-90.9090909090909,4,2,1,75,0,0
148234,-90.9090909090909,4,2,1,35,0,0
148317,-90.9090909090909,4,2,1,75,0,0
149317,-90.9090909090909,4,2,2,75,0,0
149484,-90.9090909090909,4,2,1,75,0,0
150317,-90.9090909090909,4,2,2,75,0,0
150567,-90.9090909090909,4,2,1,35,0,0
150650,-90.9090909090909,4,2,1,75,0,0
152401,-90.9090909090909,4,2,1,35,0,0
152484,-90.9090909090909,4,2,1,75,0,0
157984,-100,4,2,1,65,0,0
158651,-83.3333333333333,4,2,1,75,0,0
162817,-83.3333333333333,4,2,1,70,0,0
163151,-83.3333333333333,4,2,1,68,0,0
163317,-83.3333333333333,4,2,1,66,0,0
163484,-83.3333333333333,4,2,1,64,0,0
163651,-83.3333333333333,4,2,1,62,0,0
163817,-83.3333333333333,4,2,1,60,0,0
163984,-100,4,2,1,75,0,0
164484,-100,4,2,2,75,0,0
165317,-100,4,2,1,75,0,0
165984,-100,4,2,2,75,0,0
166651,-100,4,2,1,75,0,0
167151,-100,4,2,2,75,0,0
167984,-100,4,2,1,70,0,0
169317,-94.3396226415094,4,2,1,72,0,0
169567,-94.3396226415094,4,2,1,32,0,0
169651,-94.3396226415094,4,2,1,72,0,0
174317,-94.3396226415094,4,2,2,72,0,0
174484,-94.3396226415094,4,2,1,72,0,0
178651,-94.3396226415094,4,2,1,68,0,0
179151,-94.3396226415094,4,2,1,70,0,0
179651,-94.3396226415094,4,2,1,72,0,0
179984,-89.2857142857143,4,2,1,74,0,0
181317,-89.2857142857143,4,2,2,74,0,0
181484,-89.2857142857143,4,2,1,74,0,0
182317,-89.2857142857143,4,2,2,74,0,0
182567,-89.2857142857143,4,2,1,34,0,0
182651,-89.2857142857143,4,2,1,74,0,0
183317,-89.2857142857143,4,2,2,74,0,0
183484,-89.2857142857143,4,2,1,74,0,0
183984,-89.2857142857143,4,2,2,74,0,0
184151,-89.2857142857143,4,2,1,74,0,0
184484,-89.2857142857143,4,2,2,74,0,0
185234,-89.2857142857143,4,2,2,34,0,0
185317,-89.2857142857143,4,2,1,74,0,0
186651,-89.2857142857143,4,2,2,74,0,0
186817,-89.2857142857143,4,2,1,74,0,0
187984,-89.2857142857143,4,2,2,75,0,0
189151,-89.2857142857143,4,2,1,75,0,0
189401,-89.2857142857143,4,2,1,35,0,0
189484,-89.2857142857143,4,2,1,75,0,0
189651,-133.333333333333,4,2,1,70,0,0
189817,-133.333333333333,4,2,1,5,0,0
190484,-133.333333333333,4,2,1,30,0,0
190651,-153.846153846153,4,2,1,60,0,0
190984,-153.846153846153,4,2,1,55,0,0
201317,-153.846153846153,4,2,99,52,0,0
203984,-100,4,1,1,50,0,0
204151,-100,4,1,1,51,0,0
204317,-100,4,1,1,52,0,0
204484,-100,4,1,1,53,0,0
204651,-100,4,1,1,54,0,0
204817,-100,4,1,1,55,0,0
204984,-100,4,1,1,56,0,0
205151,-100,4,1,1,57,0,0
205317,-100,4,1,1,58,0,0
205484,-100,4,1,1,59,0,0
205651,-100,4,1,1,60,0,0
205817,-100,4,1,1,61,0,0
205984,-100,4,1,1,62,0,0
206151,-100,4,1,1,63,0,0
206317,-116.279069767442,4,1,1,64,0,0
206651,-116.279069767442,4,2,1,65,0,0
206984,-116.279069767442,4,2,2,65,0,0
207151,-116.279069767442,4,2,1,65,0,0
207651,-116.279069767442,4,2,2,65,0,0
208651,-116.279069767442,4,2,1,65,0,0
208984,-116.279069767442,4,2,2,65,0,0
209317,-116.279069767442,4,2,1,70,0,0
209567,-116.279069767442,4,2,1,40,0,0
209651,-116.279069767442,4,2,2,70,0,0
210484,-116.279069767442,4,2,1,70,0,0
211984,-60.2409638554217,4,2,1,60,0,0
212067,-60.2409638554217,4,2,1,30,0,0
212151,-60.2409638554217,4,2,1,60,0,0
212234,-60.2409638554217,4,2,1,30,0,0
212317,-142.857142857143,4,2,1,72,0,0
212651,-142.857142857143,4,2,2,60,0,0
213317,-142.857142857143,4,2,1,74,0,0
213817,-142.857142857143,4,2,1,65,0,0
214651,-90.9090909090909,4,2,1,75,0,0
214901,-90.9090909090909,4,2,1,35,0,0
214984,-90.9090909090909,4,2,1,75,0,0
215151,-90.9090909090909,4,2,2,75,0,0
215401,-90.9090909090909,4,2,1,35,0,0
215484,-90.9090909090909,4,2,1,75,0,0
216984,-90.9090909090909,4,2,2,75,0,0
217234,-90.9090909090909,4,2,1,35,0,0
217317,-90.9090909090909,4,2,1,75,0,0
220651,-90.9090909090909,4,2,2,75,0,0
220817,-90.9090909090909,4,2,1,75,0,0
222901,-90.9090909090909,4,2,1,35,0,0
222984,-90.9090909090909,4,2,1,75,0,0
223984,-90.9090909090909,4,2,2,75,0,0
224151,-90.9090909090909,4,2,1,75,0,0
224901,-90.9090909090909,4,2,1,35,0,0
224984,-90.9090909090909,4,2,2,75,0,0
225234,-90.9090909090909,4,2,1,35,0,0
225317,-90.9090909090909,4,2,1,75,0,0
232651,-100,4,2,1,65,0,0
233317,-83.3333333333333,4,2,1,75,0,0
238651,-90.9090909090909,4,2,1,75,0,0
239151,-90.9090909090909,4,2,2,75,0,0
239984,-90.9090909090909,4,2,1,75,0,0
240651,-90.9090909090909,4,2,2,75,0,0
241317,-90.9090909090909,4,2,1,75,0,0
241817,-90.9090909090909,4,2,2,75,0,0
242817,-90.9090909090909,4,2,1,70,0,0
243151,-90.9090909090909,4,2,1,68,0,0
243317,-90.9090909090909,4,2,1,66,0,0
243484,-90.9090909090909,4,2,1,64,0,0
243651,-90.9090909090909,4,2,1,62,0,0
243817,-90.9090909090909,4,2,1,60,0,0
243984,-83.3333333333333,4,2,1,72,0,0
244234,-83.3333333333333,4,2,1,32,0,0
244317,-83.3333333333333,4,2,1,72,0,0
249567,-83.3333333333333,4,2,1,32,0,0
249651,-83.3333333333333,4,2,1,72,0,0
250651,-83.3333333333333,4,2,2,72,0,0
250817,-83.3333333333333,4,2,1,72,0,0
251901,-83.3333333333333,4,2,1,32,0,0
251984,-83.3333333333333,4,2,1,74,0,0
254484,-100,4,2,1,60,0,0
254567,-133.333333333333,4,2,1,5,0,0
254817,-133.333333333333,4,2,1,20,0,0
255317,-133.333333333333,4,2,1,40,0,0
255651,-133.333333333333,4,2,1,38,0,0
255984,-133.333333333333,4,2,1,36,0,0
256317,-133.333333333333,4,2,1,34,0,0
256651,-133.333333333333,4,2,1,32,0,0
256984,-133.333333333333,4,2,1,30,0,0
257317,-133.333333333333,4,2,1,28,0,0
257651,-200,4,2,1,26,0,0
257734,-200,4,2,1,5,0,0
259984,-200,4,2,99,10,0,0

[Colours]
Combo1 : 240,140,140
Combo2 : 200,180,220
Combo3 : 240,200,155
Combo4 : 150,185,220

[HitObjects]
139,128,2652,6,0,P|82:120|20:142,1,118.999996368408,6|0,1:2|0:2,0:2:0:0:
10,262,3152,2,0,P|66:269|128:247,1,118.999996368408,0|8,1:2|0:3,0:2:0:0:
248,369,3652,5,8,2:3:0:0:
248,369,3902,1,4,0:3:0:0:
248,369,4152,2,0,B|265:314|265:314|241:235,1,118.999996368408,2|0,1:2|0:2,0:2:0:0:
291,161,4652,2,0,B|273:102|273:102|290:47,1,118.999996368408,0|0,1:2|1:2,0:2:0:0:
484,54,5235,5,8,0:3:0:0:
484,54,5318,2,0,B|429:69|437:80|374:99,1,118.999996368408,2|0,1:2|0:2,0:2:0:0:
181,116,5818,2,0,B|244:135|236:146|291:161,1,118.999996368408,0|0,1:2|0:2,0:2:0:0:
375,251,6318,2,0,P|381:218|385:179,1,59.4999981842042,8|0,0:3|0:2,0:2:0:0:
352,153,6568,1,4,0:3:0:0:
352,153,6652,1,4,0:3:0:0:
472,210,6818,6,0,P|482:258|486:343,1,118.999996368408,2|8,0:2|0:2,0:2:0:0:
292,379,7318,2,0,P|280:320|277:261,1,118.999996368408,2|4,0:2|0:3,0:2:0:0:
58,197,7985,6,0,L|0:187,2,59.4999981842042,4|0|0,1:2|0:2|0:2,0:2:0:0:
129,270,8652,5,8,0:2:0:0:
129,270,8735,1,8,0:2:0:0:
227,191,8902,5,8,0:3:0:0:
244,156,8985,1,4,0:3:0:0:
243,117,9068,1,4,0:3:0:0:
229,80,9152,1,8,0:3:0:0:
198,56,9235,1,8,0:3:0:0:
198,56,9318,2,0,B|142:65|142:65|100:99|100:99|41:109,1,170,4|12,1:1|0:2,0:2:0:0:
41,109,9984,5,2,1:2:0:0:
227,191,10151,1,0,1:2:0:0:
152,238,10317,1,8,0:2:0:0:
254,372,10484,2,0,P|335:348|419:334,1,170,4|0,1:2|0:0,0:0:0:0:
392,153,10984,2,0,P|310:176|226:190,1,170,8|2,0:2|1:2,0:0:0:0:
162,151,11484,1,0,1:2:0:0:
114,306,11651,2,0,B|108:349|108:349|134:313,1,85,8|0,0:2|1:2,0:2:0:0:
40,128,11984,5,6,1:2:0:0:
40,128,12151,2,0,P|15:163|16:204,1,85,0|12,0:0|0:2,0:0:0:0:
114,306,12484,1,0,0:2:0:0:
203,266,12651,2,0,P|227:231|226:190,1,85,2|0,1:2|1:2,0:0:0:0:
369,77,12984,2,0,P|393:111|392:152,1,85,8|2,0:2|1:2,0:0:0:0:
318,219,13317,1,0,0:0:0:0:
395,383,13484,1,0,1:2:0:0:
504,241,13651,1,8,0:2:0:0:
406,290,13817,5,8,0:2:0:0:
406,290,13901,1,8,0:2:0:0:
298,130,14067,5,8,0:2:0:0:
298,130,14151,1,8,0:3:0:0:
159,367,14317,5,4,0:3:0:0:
187,358,14401,1,4,0:3:0:0:
215,350,14484,1,8,0:2:0:0:
242,340,14567,1,8,0:2:0:0:
271,332,14651,2,0,P|181:321|95:301,1,170,4|12,1:1|0:2,0:2:0:0:
103,303,15317,5,0,1:2:0:0:
194,139,15484,1,0,1:2:0:0:
103,174,15651,1,8,0:2:0:0:
8,21,15817,2,0,B|105:-2|76:89|189:54,1,170,6|0,1:2|1:2,0:2:0:0:
288,190,16317,2,0,P|309:142|287:96,1,85,8|0,0:2|0:0,0:2:0:0:
255,21,16651,1,0,1:2:0:0:
194,139,16817,1,2,1:2:0:0:
453,55,16984,2,0,P|413:54|365:46,1,85,8|0,0:2|0:2,0:2:0:0:
495,162,17317,6,0,P|494:201|486:249,1,85,4|0,1:1|1:2,0:0:0:0:
354,378,17651,2,0,P|354:338|362:290,1,85,12|2,0:2|1:2,0:0:0:0:
287,190,17984,1,8,0:2:0:0:
287,190,18067,2,0,B|243:198|243:198|206:181,1,85,8|0,0:2|0:0,0:0:0:0:
161,120,18317,1,8,0:2:0:0:
17,299,18484,5,4,1:2:0:0:
106,373,18651,1,8,0:2:0:0:
106,373,18734,2,0,P|123:314|73:249,1,127.5,8|8,0:2|0:3,0:0:0:0:
24,120,19151,5,8,0:2:0:0:
24,120,19234,1,8,0:2:0:0:
24,120,19317,2,0,P|12:179|35:220,1,85,8|4,0:2|0:3,0:0:0:0:
165,307,19651,1,8,0:2:0:0:
165,307,19734,2,0,B|207:301|207:301|245:318,1,85,8|0,0:2|0:0,0:0:0:0:
318,363,19984,6,0,B|368:369|368:369|402:349|402:349|453:368,1,136,4|8,1:2|0:2,0:2:0:0:
512,311,20484,1,2,0:2:0:0:
445,228,20651,2,0,L|525:221,1,68,0|0,1:2|0:2,0:2:0:0:
433,118,20984,2,0,L|513:111,1,68,8|0,0:2|0:2,0:2:0:0:
371,181,21317,1,2,1:2:0:0:
367,186,21401,2,0,L|258:195,1,102,8|8,0:0|0:2,0:0:0:0:
171,163,21817,2,0,P|177:194|178:235,1,68,0|0,1:2|0:2,0:2:0:0:
81,275,22151,2,0,P|75:244|74:203,1,68,0|8,1:2|0:2,0:2:0:0:
100,89,22484,5,0,2:2:0:0:
100,89,22567,1,0,2:2:0:0:
100,89,22651,2,0,P|47:90|7:180,1,136,2|8,1:2|0:2,0:2:0:0:
171,163,23151,1,2,0:2:0:0:
229,87,23317,2,0,P|226:49|215:15,1,68,0|0,1:2|1:2,0:2:0:0:
336,81,23651,2,0,P|326:113|324:147,1,68,8|0,0:2|0:2,0:2:0:0:
377,248,23984,6,0,L|538:237,1,136,2|8,1:2|0:2,0:2:0:0:
427,355,24484,2,0,P|363:358|294:332,1,136,0|0,1:2|1:2,0:2:0:0:
188,380,24984,2,0,L|203:289,1,68,8|0,0:2|0:2,0:2:0:0:
49,215,25317,6,0,B|112:233|112:233|175:189,1,136,2|8,1:2|0:2,0:2:0:0:
252,224,25817,1,2,0:2:0:0:
315,161,25984,2,0,L|300:70,1,68,0|0,1:2|1:2,0:2:0:0:
415,184,26317,2,0,L|400:93,1,68,8|0,0:2|0:2,0:2:0:0:
479,12,26651,5,2,1:2:0:0:
479,12,26817,2,0,P|489:45|490:79,1,68,0|8,0:2|0:2,0:2:0:0:
327,13,27151,2,0,P|360:3|394:2,1,68,0|0,1:2|0:2,0:2:0:0:
328,165,27484,2,0,P|318:132|317:98,1,68,0|8,1:2|0:2,0:2:0:0:
153,20,27817,5,0,0:2:0:0:
153,20,27984,2,0,P|211:50|223:126,2,136,2|8|2,1:2|0:2|1:2,0:2:0:0:
23,116,28817,2,0,P|24:83|37:39,1,68,0|8,1:2|0:2,0:2:0:0:
127,171,29151,2,0,P|112:235|53:265,1,136,2|0,1:2|0:2,0:2:0:0:
205,280,29651,5,10,0:2:0:0:
165,343,29817,1,0,1:2:0:0:
228,383,29984,5,0,1:2:0:0:
319,348,30151,1,2,1:2:0:0:
387,381,30317,5,8,0:2:0:0:
359,238,30484,2,0,L|367:207,1,29.7499990921021,0|0,1:2|1:0,0:0:0:0:
431,138,30651,6,0,B|376:186|376:186|353:117,1,146.200002230835,4|8,1:2|0:2,0:2:0:0:
416,56,31151,1,2,0:2:0:0:
272,19,31317,2,0,P|307:9|344:5,1,73.1000011154175,0|0,1:2|1:2,0:2:0:0:
282,131,31651,2,0,P|317:121|353:116,1,73.1000011154175,8|0,0:2|0:2,0:2:0:0:
191,92,31984,5,2,1:2:0:0:
187,87,32067,2,0,P|140:83|72:137,1,109.650001673126,8|8,0:0|0:2,0:0:0:0:
130,248,32484,2,0,P|83:252|3:188,1,146.200002230835,0|0,1:2|1:2,0:2:0:0:
110,351,32984,2,0,P|151:340|196:340,1,73.1000011154175,8|0,0:2|0:2,0:0:0:0:
297,384,33317,6,0,P|349:334|420:331,1,146.200002230835,2|8,1:2|0:2,0:2:0:0:
506,349,33817,1,2,0:2:0:0:
437,242,33984,2,0,B|524:231,1,73.1000011154175,0|0,1:2|1:2,0:2:0:0:
397,120,34317,2,0,B|484:109,1,73.1000011154175,8|0,0:2|0:2,0:2:0:0:
338,200,34651,6,0,P|266:197|214:147,1,146.200002230835,2|8,1:2|0:2,0:2:0:0:
385,92,35151,2,0,P|333:42|262:40,1,146.200002230835,0|0,1:2|1:2,0:2:0:0:
85,32,35651,2,0,P|126:28|163:17,1,73.1000011154175,8|0,0:2|0:2,0:2:0:0:
196,166,35984,6,0,B|131:139|131:139|58:190,1,146.200002230835,2|10,1:2|2:2,2:2:0:0:
3,250,36484,1,2,0:2:0:0:
77,348,36651,2,0,P|78:308|89:267,1,73.1000011154175,0|0,1:2|1:2,0:2:0:0:
194,312,36984,2,0,P|193:352|182:393,1,73.1000011154175,8|0,0:2|0:2,0:2:0:0:
352,261,37317,5,2,1:2:0:0:
352,261,37484,2,0,L|276:248,1,73.1000011154175,0|8,0:2|0:2,0:2:0:0:
439,316,37817,2,0,L|465:388,1,73.1000011154175,0|0,1:2|0:2,0:2:0:0:
444,214,38151,2,0,L|493:154,1,73.1000011154175,0|8,1:2|0:2,0:2:0:0:
468,87,38484,1,0,0:2:0:0:
438,19,38651,5,2,1:2:0:0:
396,120,38817,1,0,0:2:0:0:
295,78,38984,1,8,0:2:0:0:
295,78,39317,5,2,1:2:0:0:
228,109,39484,1,0,1:2:0:0:
156,92,39651,1,8,0:2:0:0:
120,28,39817,1,0,1:2:0:0:
153,114,39984,5,2,0:2:0:0:
75,132,40151,1,0,1:2:0:0:
25,195,40317,1,8,0:2:0:0:
15,275,40484,1,0,1:2:0:0:
56,344,40651,5,2,1:2:0:0:
189,310,40817,1,8,0:2:0:0:
228,239,40984,5,8,0:3:0:0:
260,349,41151,1,4,0:3:0:0:
464,339,41317,6,0,P|400:333|328:313,1,129.199998422852,4|0,1:1|1:2,0:2:0:0:
228,239,41817,2,0,P|234:175|254:103,2,129.199998422852,2|0|2,0:2|0:2|0:2,0:2:0:0:
133,360,42651,5,0,1:2:0:0:
144,312,42817,1,2,0:2:0:0:
110,276,42984,1,0,1:2:0:0:
260,349,43151,5,2,0:2:0:0:
41,232,43484,5,2,0:2:0:0:
7,196,43651,1,0,1:2:0:0:
18,148,43817,1,2,0:2:0:0:
10,37,43984,6,0,B|54:46|54:46|78:75|78:75|134:88,1,129.199998422852,0|0,1:2|1:2,0:2:0:0:
150,196,44484,2,0,B|195:185|195:185|219:156|219:156|263:147,1,129.199998422852,2|2,0:2|0:2,0:2:0:0:
263,147,44984,1,0,1:2:0:0:
373,190,45151,6,0,P|384:142|317:83,1,129.199998422852,2|0,0:2|0:2,0:2:0:0:
201,30,45651,2,0,P|233:28|269:19,1,64.5999992114258,2|0,1:2|0:0,0:2:0:0:
263,147,45984,2,0,P|231:149|195:158,1,64.5999992114258,0|0,1:2|0:0,0:0:0:0:
125,235,46317,2,0,P|132:266|134:298,1,64.5999992114258,0|0,1:2|3:2,0:0:0:0:
219,362,46651,6,0,B|291:347|261:314|329:302,1,129.199998422852,2|0,1:2|1:2,0:2:0:0:
418,246,47151,2,0,B|455:283|455:283|421:362,2,129.199998422852,2|2|2,0:2|0:2|0:2,0:2:0:0:
286,144,47984,5,0,1:2:0:0:
265,190,48151,1,0,0:0:0:0:
296,229,48317,1,0,1:2:0:0:
455,162,48484,5,0,0:0:0:0:
296,229,48817,5,2,0:2:0:0:
265,190,48984,1,0,1:2:0:0:
286,144,49151,1,0,0:2:0:0:
451,34,49317,6,0,P|462:98|455:162,1,129.199998422852,2|0,1:2|1:2,0:2:0:0:
286,144,49817,2,0,P|278:80|289:16,1,129.199998422852,2|2,0:2|0:2,0:2:0:0:
370,57,50317,1,0,1:2:0:0:
197,119,50484,6,0,B|152:110|152:110|128:81|128:81|83:70,1,129.199998422852,2|0,0:2|0:2,0:2:0:0:
0,164,50984,2,0,P|9:199|18:254,1,64.5999992114258,2|0,1:2|0:2,0:0:0:0:
88,322,51317,2,0,P|94:291|103:260,1,64.5999992114258,0|0,1:2|0:2,0:0:0:0:
245,263,51651,2,0,P|238:231|230:200,1,64.5999992114258,0|0,1:2|0:2,0:0:0:0:
92,172,51984,5,2,3:2:0:0:
92,172,54651,5,0,0:2:0:0:
163,151,54817,1,0,0:2:0:0:
187,223,54984,1,0,0:2:0:0:
115,245,55151,1,0,0:2:0:0:
92,172,55317,5,0,0:2:0:0:
187,223,55484,1,0,0:2:0:0:
238,130,55651,1,0,0:2:0:0:
139,76,55817,1,0,0:2:0:0:
92,172,55984,5,0,0:2:0:0:
238,130,56151,1,0,0:2:0:0:
283,278,56317,1,0,0:2:0:0:
433,227,56484,1,0,0:2:0:0:
497,278,56651,6,0,P|503:319|487:366,1,81.6000019921876,2|0,0:2|0:2,2:0:0:0:
338,173,56984,5,8,2:2:0:0:
332,153,57067,1,8,2:2:0:0:
331,132,57151,1,8,2:2:0:0:
335,112,57234,1,8,2:2:0:0:
343,94,57317,2,0,B|427:104|409:49|503:61,1,146.200002230835,4|4,1:1|0:2,0:2:0:0:
481,59,57817,1,0,1:2:0:0:
290,30,57984,6,0,P|253:26|217:19,1,73.1000011154175,12|0,0:2|0:0,0:2:0:0:
128,148,58317,2,0,P|131:111|138:75,1,73.1000011154175,6|0,0:2|1:2,0:0:0:0:
82,0,58651,1,4,0:0:0:0:
222,111,58817,6,0,B|226:171|238:190|243:264,1,146.200002230835,0|0,1:2|0:0,0:0:0:0:
155,354,59317,2,0,P|124:372|88:373,1,73.1000011154175,12|0,0:2|0:0,0:0:0:0:
64,278,59651,2,0,P|94:259|130:258,1,73.1000011154175,4|0,0:2|0:0,0:0:0:0:
254,384,59984,5,4,1:1:0:0:
254,384,60317,1,10,0:2:0:0:
444,331,60484,1,0,1:2:0:0:
462,257,60651,1,14,0:2:0:0:
320,209,60817,1,0,1:2:0:0:
307,136,60984,1,6,0:2:0:0:
443,57,61151,5,6,1:2:0:0:
443,57,61484,1,10,0:2:0:0:
334,282,61651,1,10,0:2:0:0:
334,282,62317,6,0,B|344:313|344:313|323:350,1,64.5999992114258,0|0,3:2|3:2,0:2:0:0:
254,384,62651,6,0,B|156:360|223:295|86:265,1,187.000005706787,4|12,1:1|0:2,0:2:0:0:
12,322,63151,1,2,0:2:0:0:
100,384,63317,1,0,1:2:0:0:
19,205,63484,1,0,1:2:0:0:
111,114,63651,6,0,P|156:102|199:84,1,93.5000028533936,10|0,0:2|1:2,0:2:0:0:
333,5,63984,2,0,P|319:49|314:96,1,93.5000028533936,2|0,0:2|1:2,0:2:0:0:
315,251,64317,2,0,P|282:217|245:189,1,93.5000028533936,10|0,0:2|0:0,0:2:0:0:
93,18,64651,6,0,P|20:70|22:160,1,187.000005706787,2|10,1:2|0:2,0:0:0:0:
115,221,65151,1,0,0:2:0:0:
38,357,65317,6,0,L|24:264,1,93.5000028533936,2|0,1:2|0:0,0:2:0:0:
209,384,65651,1,8,0:2:0:0:
301,343,65817,2,0,L|315:250,1,93.5000028533936,2|0,0:2|1:2,0:2:0:0:
464,161,66151,2,0,L|478:254,1,93.5000028533936,0|8,1:2|0:2,0:2:0:0:
220,283,66484,6,0,P|163:238|193:123,1,187.000005706787,6|0,1:2|1:2,0:2:0:0:
370,178,66984,1,10,0:2:0:0:
461,77,67151,1,0,1:2:0:0:
356,0,67317,1,2,1:2:0:0:
461,77,67484,1,0,1:2:0:0:
370,178,67651,2,0,P|324:165|257:152,1,93.5000028533936,12|0,0:2|0:0,0:2:0:0:
87,14,67984,5,6,1:2:0:0:
27,158,68151,1,0,0:2:0:0:
179,134,68317,1,8,0:2:0:0:
115,217,68484,2,0,B|126:293|105:359,1,140.25000428009,2|0,2:2|0:0,0:0:0:0:
105,355,68817,1,2,1:2:0:0:
272,334,68984,2,0,P|267:287|255:242,1,93.5000028533936,8|0,0:2|0:2,0:0:0:0:
362,87,69317,5,6,1:2:0:0:
472,201,69484,1,0,0:2:0:0:
343,244,69651,1,8,0:2:0:0:
388,172,69817,2,0,B|367:238|403:284|380:357,1,187.000005706787,2|2,1:2|1:2,0:2:0:0:
177,384,70317,2,0,P|165:338|170:292,1,93.5000028533936,8|0,0:2|1:2,0:2:0:0:
266,198,70651,5,6,1:2:0:0:
156,105,70817,1,0,0:2:0:0:
262,182,70984,1,10,0:2:0:0:
169,292,71151,1,0,0:2:0:0:
246,186,71317,1,2,1:2:0:0:
356,279,71484,1,0,1:2:0:0:
250,202,71651,1,10,0:2:0:0:
343,92,71817,1,0,1:2:0:0:
236,0,71984,5,12,0:2:0:0:
236,0,72067,2,0,L|230:47,1,46.7500014266968,8|8,0:2|0:3,0:0:0:0:
156,105,72234,2,0,L|162:151,2,46.7500014266968,8|4|4,0:3|0:3|0:3,0:0:0:0:
39,56,72484,1,8,0:2:0:0:
39,56,72567,1,8,0:2:0:0:
39,56,72651,2,0,L|31:-11,3,46.7500014266968,8|8|4|4,0:3|0:3|0:3|0:3,0:0:0:0:
57,148,72984,5,8,0:2:0:0:
54,194,73067,1,8,0:2:0:0:
51,241,73151,1,8,0:2:0:0:
48,287,73234,1,8,0:2:0:0:
46,333,73317,6,0,P|148:322|168:224,1,187.000005706787,4|12,1:1|0:2,0:2:0:0:
281,213,73817,1,2,0:2:0:0:
199,149,73984,1,0,1:2:0:0:
258,312,74151,1,0,1:2:0:0:
411,288,74317,6,0,L|405:386,1,93.5000028533936,10|0,0:2|0:2,0:2:0:0:
512,220,74651,1,6,1:2:0:0:
512,220,74817,1,0,1:2:0:0:
370,145,74984,2,0,P|410:65|499:64,1,187.000005706787,10|2,0:2|0:2,0:2:0:0:
478,136,75484,1,0,1:2:0:0:
331,217,75651,2,0,B|238:200|275:230|171:208,1,140.25000428009,12|0,0:2|0:2,0:2:0:0:
112,200,75984,5,4,1:2:0:0:
186,137,76151,1,0,0:2:0:0:
123,61,76317,1,10,0:2:0:0:
123,61,76484,1,0,1:2:0:0:
332,0,76651,5,6,0:2:0:0:
249,70,76817,1,0,1:2:0:0:
319,154,76984,1,10,0:2:0:0:
319,154,77151,1,0,1:2:0:0:
467,131,77317,5,2,0:2:0:0:
478,221,77484,2,0,P|480:166|462:123,1,93.5000028533936,0|8,1:2|0:2,0:2:0:0:
323,291,77817,2,0,B|446:275|387:322|513:311,1,187.000005706787,6|0,1:2|0:2,0:2:0:0:
284,384,78317,1,12,0:2:0:0:
241,237,78484,5,2,1:2:0:0:
323,291,78651,1,0,1:2:0:0:
196,331,78817,1,0,1:2:0:0:
221,155,78984,1,8,0:2:0:0:
147,134,79151,1,2,0:2:0:0:
71,115,79317,1,0,1:2:0:0:
71,115,79401,2,0,P|46:172|46:265,1,140.25000428009,8|8,0:0|0:2,0:0:0:0:
0,317,79817,5,2,0:2:0:0:
139,250,79984,1,4,1:2:0:0:
109,322,80151,1,0,1:2:0:0:
242,310,80317,1,10,0:2:0:0:
212,382,80484,1,0,1:2:0:0:
387,368,80651,6,0,L|293:374,1,93.5000028533936,2|0,0:2|1:2,0:2:0:0:
441,194,80984,2,0,L|347:200,1,93.5000028533936,10|0,0:2|1:2,0:2:0:0:
345,210,81234,1,0,1:2:0:0:
342,219,81317,5,12,0:2:0:0:
413,275,81484,1,0,1:2:0:0:
512,148,81651,1,8,0:2:0:0:
441,92,81817,1,0,1:2:0:0:
512,72,81984,5,2,1:2:0:0:
437,167,82151,1,0,1:2:0:0:
318,138,82317,1,8,0:2:0:0:
287,4,82484,1,6,1:2:0:0:
220,374,82817,5,10,0:2:0:0:
220,374,82984,1,10,0:2:0:0:
22,207,83317,5,8,0:3:0:0:
22,207,83401,1,8,0:3:0:0:
22,207,83484,1,4,0:3:0:0:
22,207,83567,1,4,0:3:0:0:
22,207,83651,2,0,L|118:196,1,85,12|0,0:2|0:2,0:2:0:0:
211,50,83984,6,0,P|165:46|91:60,1,101.999996887207,12|0,0:1|1:2,0:0:0:0:
398,147,84317,2,0,P|402:101|388:27,1,101.999996887207,10|0,0:2|1:2,0:0:0:0:
301,334,84651,2,0,P|347:338|421:324,1,101.999996887207,10|0,0:2|1:2,0:0:0:0:
114,237,84984,2,0,P|110:283|124:357,1,101.999996887207,10|0,0:2|1:2,0:0:0:0:
309,107,85317,5,14,0:2:0:0:
309,107,85484,1,0,1:2:0:0:
171,139,85651,1,10,0:2:0:0:
171,139,85817,1,0,1:2:0:0:
203,277,85984,1,10,0:2:0:0:
203,277,86151,1,0,1:2:0:0:
341,245,86317,1,10,0:2:0:0:
341,245,86484,1,0,1:2:0:0:
223,70,86651,5,14,0:2:0:0:
223,70,86817,1,0,1:2:0:0:
134,225,86984,1,10,0:2:0:0:
134,225,87151,1,0,1:2:0:0:
289,314,87317,1,10,0:2:0:0:
289,314,87484,1,0,1:2:0:0:
378,159,87651,1,10,0:2:0:0:
378,159,87817,1,0,1:2:0:0:
480,219,87984,6,0,B|476:193|476:193|486:149|486:149|479:119,1,101.999996887207,6|0,1:2|1:2,0:2:0:0:
479,119,88234,1,0,1:2:0:0:
479,119,88317,1,8,0:2:0:0:
376,52,88484,1,8,0:2:0:0:
294,141,88651,1,8,0:2:0:0:
338,238,88817,1,8,0:3:0:0:
313,153,88984,1,4,0:3:0:0:
319,229,89151,1,4,0:3:0:0:
330,321,89317,6,0,B|371:328|371:328|426:310,1,85,4|0,1:1|0:2,0:2:0:0:
255,359,89651,2,0,B|198:333|198:333|127:351,1,127.5,12|0,0:2|0:2,0:2:0:0:
62,374,89984,1,2,1:2:0:0:
5,299,90151,1,0,1:2:0:0:
50,217,90317,1,8,0:2:0:0:
153,269,90484,6,0,B|138:236|138:236|172:145|172:145|159:105,1,170,6|0,1:2|1:2,0:2:0:0:
258,90,90984,2,0,L|91:57,1,170,10|0,0:2|1:2,0:2:0:0:
73,132,91484,1,2,1:2:0:0:
230,223,91651,2,0,P|289:227|347:179,1,127.5,12|0,0:2|0:2,0:2:0:0:
368,108,91984,6,0,P|361:68|373:14,1,85,4|0,1:1|1:2,0:0:0:0:
506,183,92317,2,0,P|513:141|506:99,1,85,12|0,0:2|1:2,0:0:0:0:
352,297,92651,1,8,0:2:0:0:
352,297,92734,2,0,B|440:290,1,85,8|0,0:2|0:0,0:0:0:0:
500,344,92984,5,8,0:2:0:0:
375,209,93151,1,4,1:2:0:0:
274,359,93317,5,10,0:2:0:0:
274,359,93401,1,8,0:2:0:0:
274,359,93484,2,0,B|189:365,1,85,0|8,1:3|0:3,0:0:0:0:
0,260,93817,5,10,0:2:0:0:
0,260,93901,1,8,0:2:0:0:
0,260,93984,2,0,B|85:254,1,85,8|4,0:2|2:3,0:0:0:0:
242,110,94317,5,10,0:2:0:0:
258,136,94401,1,8,0:2:0:0:
263,168,94484,1,8,0:3:0:0:
256,198,94567,1,0,0:0:0:0:
237,224,94651,1,4,1:1:0:0:
0,91,95984,5,2,0:3:0:0:
122,75,96317,1,2,0:3:0:0:
244,59,96651,1,2,0:3:0:0:
314,10,96817,5,2,1:2:0:0:
330,132,96984,1,2,1:2:0:0:
346,254,97151,1,2,1:2:0:0:
512,192,98317,5,2,0:3:0:0:
346,254,98651,5,8,0:2:0:0:
470,304,98817,1,8,0:2:0:0:
425,235,98984,1,8,0:3:0:0:
390,322,99151,1,8,0:3:0:0:
390,322,99317,1,4,0:3:0:0:
267,220,99484,6,0,B|229:267|229:267|263:382,1,170,4|0,1:2|0:2,0:2:0:0:
151,173,99984,2,0,B|189:126|189:126|157:20,1,170,4|0,1:2|0:2,0:2:0:0:
73,9,100484,1,0,1:2:0:0:
89,92,100651,1,8,0:2:0:0:
266,43,100984,1,0,1:2:0:0:
339,0,101317,5,8,0:2:0:0:
361,134,101484,2,0,L|265:115,1,68,8|0,0:3|0:0,0:0:0:0:
447,191,101817,2,0,L|466:95,1,68,4|0,0:3|1:2,0:0:0:0:
390,277,102151,5,8,0:3:0:0:
464,272,102317,1,4,0:3:0:0:
512,332,102484,1,4,0:3:0:0:
378,374,102651,6,0,L|183:347,1,170,4|0,1:2|0:2,0:2:0:0:
136,384,103151,1,0,1:2:0:0:
137,223,103317,2,0,P|68:219|10:311,1,170,8|0,0:2|1:2,0:2:0:0:
189,149,103817,6,0,B|293:137|242:92|366:74,1,187.000005706787,4|0,1:1|1:2,0:2:0:0:
441,114,104317,1,8,0:2:0:0:
433,21,104484,1,0,1:2:0:0:
364,167,104651,1,8,0:2:0:0:
360,190,104734,1,8,0:2:0:0:
362,214,104817,1,8,0:2:0:0:
370,236,104901,1,8,0:2:0:0:
383,255,104984,1,8,0:3:0:0:
396,274,105067,1,8,0:3:0:0:
404,295,105151,1,4,0:3:0:0:
406,319,105234,1,4,0:3:0:0:
401,342,105317,6,0,P|365:332|329:327,1,73.1000011154175,4|0,1:2|0:0,0:2:0:0:
203,371,105651,2,0,P|212:335|217:299,1,73.1000011154175,8|0,0:2|0:2,0:0:0:0:
28,229,105984,2,0,P|9:299|0:372,1,146.200002230835,2|8,1:2|0:2,0:2:0:0:
112,318,106484,1,0,0:2:0:0:
17,218,106651,6,0,P|5:183|4:147,1,73.1000011154175,2|0,1:2|0:0,0:2:0:0:
150,15,106984,2,0,B|244:29|190:54|302:70,1,146.200002230835,8|0,0:2|0:0,0:0:0:0:
217,145,107484,1,0,1:2:0:0:
344,209,107651,2,0,P|355:174|356:138,1,73.1000011154175,8|0,0:2|0:2,0:0:0:0:
136,104,107984,5,2,1:2:0:0:
253,233,108151,1,0,0:0:0:0:
183,303,108317,2,0,L|111:318,1,73.1000011154175,8|0,0:2|0:2,0:0:0:0:
320,348,108651,2,0,L|391:363,2,73.1000011154175,2|0|8,1:2|1:2|0:2,0:2:0:0:
183,303,109151,1,0,0:2:0:0:
356,138,109317,6,0,P|401:166|411:218,1,109.650001673126,2|0,1:2|0:0,0:2:0:0:
350,272,109651,2,0,L|278:256,1,73.1000011154175,8|0,0:2|1:2,0:0:0:0:
95,182,109984,1,0,0:0:0:0:
7,265,110151,2,0,P|79:245|90:168,1,146.200002230835,0|0,1:2|0:2,0:0:0:0:
170,33,110651,6,0,P|133:27|97:20,1,73.1000011154175,2|0,1:2|0:0,2:2:0:0:
223,120,110984,2,0,P|217:156|210:192,1,73.1000011154175,10|0,2:2|0:2,0:0:0:0:
302,54,111317,1,2,1:2:0:0:
302,54,111484,1,0,1:2:0:0:
419,125,111651,2,0,P|439:91|428:43,1,73.1000011154175,8|0,0:2|0:2,0:2:0:0:
223,120,111984,5,2,1:2:0:0:
308,168,112151,2,0,L|318:240,1,73.1000011154175,0|8,0:2|0:2,0:2:0:0:
433,355,112484,2,0,L|365:327,1,73.1000011154175,0|0,1:2|0:2,0:2:0:0:
208,369,112817,2,0,L|265:323,1,73.1000011154175,0|8,1:2|0:2,0:2:0:0:
412,247,113151,1,0,0:2:0:0:
223,120,113317,5,2,1:2:0:0:
143,166,113484,1,0,0:2:0:0:
59,116,113651,2,0,P|55:77|68:28,1,73.1000011154175,8|0,0:2|0:2,0:0:0:0:
296,68,113984,5,2,1:2:0:0:
376,22,114151,1,0,1:2:0:0:
460,72,114317,2,0,P|464:111|451:160,1,73.1000011154175,8|0,0:2|1:2,0:0:0:0:
369,218,114651,5,2,0:2:0:0:
223,120,114817,1,8,2:2:0:0:
235,212,114984,1,2,1:2:0:0:
247,304,115151,1,0,1:2:0:0:
332,140,115317,5,10,0:0:0:0:
166,267,115484,1,8,0:0:0:0:
166,267,115567,1,8,0:0:0:0:
166,267,115651,2,0,L|69:255,1,73.1000011154175,8|4,0:3|0:3,0:0:0:0:
14,66,115984,6,0,B|53:55|53:55|85:16|85:16|122:5,1,129.199998422852,4|0,1:1|1:2,0:2:0:0:
206,60,116484,2,0,P|221:87|222:119,1,64.5999992114258,2|0,0:2|0:0,0:2:0:0:
321,220,116817,2,0,B|360:231|360:231|392:270|392:270|429:280,1,129.199998422852,0|2,0:2|0:2,0:0:0:0:
495,189,117317,5,0,1:2:0:0:
512,148,117484,1,2,0:2:0:0:
500,104,117651,1,0,1:2:0:0:
321,220,117817,5,2,0:2:0:0:
407,34,118151,5,2,0:2:0:0:
390,75,118317,1,0,1:2:0:0:
402,119,118484,1,2,0:2:0:0:
321,220,118651,6,0,P|254:210|165:190,1,129.199998422852,0|0,1:2|1:2,0:2:0:0:
87,228,119151,2,0,P|96:161|117:72,1,129.199998422852,2|2,0:2|0:2,0:2:0:0:
109,100,119651,1,0,1:2:0:0:
291,62,119817,6,0,B|259:119|259:119|194:76,1,129.199998422852,2|0,0:2|0:2,0:2:0:0:
68,32,120317,2,0,B|95:13|95:13|126:21,1,64.5999992114258,2|0,1:2|0:0,0:2:0:0:
205,83,120651,2,0,L|218:228,1,129.199998422852,0|0,1:2|1:2,0:0:0:0:
142,281,121151,1,0,3:2:0:0:
36,222,121317,6,0,P|11:264|21:345,1,129.199998422852,2|0,1:2|1:2,0:2:0:0:
165,370,121817,2,0,P|176:307|147:250,1,129.199998422852,2|2,0:2|0:2,0:2:0:0:
225,192,122317,2,0,P|256:187|288:181,1,64.5999992114258,0|2,1:2|0:2,0:0:0:0:
424,277,122651,5,0,1:2:0:0:
447,322,122817,1,0,0:0:0:0:
423,367,122984,1,0,1:2:0:0:
265,310,123151,5,0,0:0:0:0:
423,367,123484,5,2,0:2:0:0:
447,322,123651,1,0,1:2:0:0:
424,277,123817,1,0,0:2:0:0:
507,205,123984,6,0,B|437:190|466:170|386:155,1,129.199998422852,2|0,1:2|1:2,0:2:0:0:
301,74,124484,2,0,B|258:122|258:122|289:183,1,129.199998422852,2|2,0:2|0:2,0:2:0:0:
287,179,124984,1,0,1:2:0:0:
226,305,125151,6,0,P|162:342|92:324,1,129.199998422852,2|0,0:2|0:2,0:2:0:0:
23,266,125651,2,0,P|32:235|35:196,1,64.5999992114258,2|0,1:2|0:2,0:0:0:0:
152,215,125984,2,0,P|143:184|140:145,1,64.5999992114258,0|0,1:2|0:2,0:0:0:0:
13,28,126317,2,0,P|4:59|1:98,1,64.5999992114258,0|0,1:2|0:2,0:0:0:0:
52,171,126651,5,2,3:2:0:0:
52,171,129317,5,0,0:2:0:0:
127,155,129484,1,0,0:2:0:0:
157,85,129651,1,0,0:2:0:0:
123,17,129817,1,0,0:2:0:0:
82,79,129984,5,0,0:2:0:0:
127,155,130151,1,0,0:2:0:0:
207,191,130317,1,0,0:2:0:0:
292,169,130484,1,0,0:2:0:0:
235,118,130651,5,0,0:2:0:0:
127,155,130817,1,0,0:2:0:0:
99,266,130984,1,0,0:2:0:0:
171,355,131151,1,0,0:2:0:0:
91,384,131317,6,0,P|53:367|14:358,1,81.6000019921876,10|8,2:2|2:2,2:0:0:0:
243,283,131651,5,8,2:2:0:0:
261,273,131734,1,8,2:2:0:0:
280,266,131817,1,8,2:2:0:0:
299,261,131901,1,8,2:2:0:0:
321,258,131984,2,0,P|320:329|367:383,1,146.200002230835,4|4,1:1|0:2,0:2:0:0:
367,383,132484,1,0,1:2:0:0:
501,339,132651,6,0,P|501:267|454:213,1,146.200002230835,12|4,0:0|0:2,0:0:0:0:
370,194,133151,1,2,0:0:0:0:
318,49,133317,5,4,1:2:0:0:
394,0,133484,2,0,B|445:47|445:47|401:137,1,146.200002230835,6|0,1:2|0:0,0:0:0:0:
284,152,133984,2,0,P|248:142|212:139,1,73.1000011154175,12|0,0:0|0:0,0:0:0:0:
116,191,134317,2,0,P|80:181|44:178,1,73.1000011154175,4|0,0:0|0:0,0:0:0:0:
165,38,134651,5,4,1:1:0:0:
165,38,134984,1,10,0:2:0:0:
237,12,135151,1,0,1:2:0:0:
339,88,135317,1,14,0:2:0:0:
212,139,135484,1,0,1:2:0:0:
176,242,135651,1,6,0:2:0:0:
355,313,135817,1,6,1:2:0:0:
257,384,136151,5,10,0:2:0:0:
257,384,136317,1,10,0:2:0:0:
257,384,136984,6,0,B|253:358|253:358|247:348|247:348|243:321,1,64.5999992114258,0|0,3:2|3:2,0:2:0:0:
277,238,137317,6,0,B|212:215|212:215|163:258|83:230,1,187.000005706787,4|12,1:1|0:2,0:2:0:0:
0,189,137817,1,2,0:2:0:0:
83,129,137984,1,0,1:2:0:0:
15,288,138151,1,0,1:2:0:0:
178,280,138317,6,0,P|190:325|191:371,1,93.5000028533936,10|0,0:2|1:2,0:2:0:0:
365,221,138651,2,0,P|352:175|351:129,1,93.5000028533936,2|0,0:2|1:2,0:2:0:0:
285,331,138984,2,0,P|351:316|431:326,1,140.25000428009,10|0,0:2|0:0,0:2:0:0:
502,354,139317,5,2,1:2:0:0:
474,264,139484,1,0,1:2:0:0:
507,176,139651,1,10,0:2:0:0:
147,35,139984,6,0,P|205:27|252:31,1,93.5000028533936,2|0,1:2|0:0,0:2:0:0:
83,197,140317,1,8,0:2:0:0:
83,197,140484,2,0,P|75:139|79:92,1,93.5000028533936,2|0,0:2|1:2,0:2:0:0:
245,261,140817,2,0,P|187:269|140:265,1,93.5000028533936,0|8,1:2|0:2,0:2:0:0:
327,147,141151,6,0,B|444:136|398:174|522:162,1,187.000005706787,6|0,1:2|1:2,0:2:0:0:
481,249,141651,1,10,0:2:0:0:
438,76,141817,1,4,1:2:0:0:
418,1,141984,1,2,1:2:0:0:
327,147,142151,1,0,1:2:0:0:
254,177,142317,2,0,P|208:163|141:151,1,93.5000028533936,12|0,0:2|0:0,0:2:0:0:
0,164,142651,5,6,1:2:0:0:
81,160,142817,1,0,0:2:0:0:
164,154,142984,1,8,0:2:0:0:
254,153,143151,1,2,2:2:0:0:
254,153,143234,1,2,2:2:0:0:
254,153,143317,2,0,P|262:203|265:265,1,93.5000028533936,0|2,1:2|1:2,0:0:0:0:
115,379,143651,2,0,P|107:329|104:267,1,93.5000028533936,8|0,0:2|0:2,0:0:0:0:
247,267,143984,5,6,1:2:0:0:
409,305,144151,1,0,0:2:0:0:
328,288,144317,1,8,0:2:0:0:
491,320,144484,2,0,P|512:243|508:127,1,187.000005706787,2|2,1:2|1:2,0:2:0:0:
483,50,144984,1,8,0:2:0:0:
483,50,145151,1,0,1:2:0:0:
418,180,145317,5,6,1:2:0:0:
325,224,145484,1,0,0:2:0:0:
222,211,145651,1,10,0:2:0:0:
138,251,145817,5,0,0:2:0:0:
233,227,145984,5,6,1:2:0:0:
208,118,146151,1,0,1:2:0:0:
108,65,146317,1,10,0:2:0:0:
54,0,146484,5,0,1:2:0:0:
103,86,146651,6,0,P|133:79|162:61,1,46.7500014266968,12|8,0:2|0:2,0:0:0:0:
263,25,146817,2,0,P|240:20|218:10,1,46.7500014266968,8|8,0:3|0:3,0:0:0:0:
298,141,146984,2,0,P|320:136|342:126,1,46.7500014266968,4|0,0:3|0:2,0:2:0:0:
512,33,147151,5,8,0:2:0:0:
484,33,147234,1,8,0:2:0:0:
459,46,147317,1,8,0:3:0:0:
442,69,147401,1,8,0:3:0:0:
440,96,147484,1,4,0:3:0:0:
448,122,147567,1,4,0:3:0:0:
419,152,147651,5,8,0:2:0:0:
458,175,147734,1,8,0:2:0:0:
475,218,147817,1,8,0:2:0:0:
471,264,147901,1,8,0:2:0:0:
502,296,147984,6,0,P|437:301|374:363,1,140.25000428009,4|0,1:1|0:2,0:2:0:0:
307,379,148317,2,0,B|278:341|278:341|301:281,1,93.5000028533936,12|0,0:2|0:2,0:0:0:0:
204,158,148651,1,2,1:2:0:0:
107,255,148817,1,0,1:2:0:0:
2,162,148984,2,0,P|13:116|11:69,1,93.5000028533936,10|0,0:2|0:2,0:2:0:0:
212,250,149317,6,0,P|201:204|203:157,1,93.5000028533936,6|0,1:2|1:2,0:0:0:0:
449,82,149651,2,0,P|459:127|457:174,1,93.5000028533936,10|0,0:2|0:0,0:2:0:0:
373,225,149984,1,2,0:2:0:0:
373,225,150151,1,0,1:2:0:0:
198,30,150317,2,0,P|152:19|105:21,1,93.5000028533936,12|0,0:2|0:0,0:2:0:0:
297,164,150651,5,4,1:2:0:0:
314,71,150817,1,0,0:2:0:0:
86,178,150984,1,10,0:2:0:0:
179,195,151151,1,0,1:2:0:0:
271,357,151317,1,6,0:2:0:0:
178,374,151484,1,0,1:2:0:0:
288,256,151651,2,0,P|295:209|296:163,1,93.5000028533936,10|0,0:2|1:2,0:0:0:0:
54,357,151984,5,2,0:2:0:0:
66,266,152151,2,0,P|51:197|29:130,1,140.25000428009,0|0,1:2|0:0,0:2:0:0:
0,48,152484,2,0,B|43:31|43:31|81:59,1,93.5000028533936,6|0,1:2|0:0,0:2:0:0:
17,140,152817,1,0,0:2:0:0:
206,267,152984,2,0,B|249:284|249:284|287:256,1,93.5000028533936,12|2,0:2|1:2,0:0:0:0:
193,32,153317,6,0,P|182:75|178:134,1,93.5000028533936,0|0,1:2|1:2,0:0:0:0:
236,183,153651,1,8,0:2:0:0:
492,50,153817,1,2,0:2:0:0:
371,14,153984,1,0,1:2:0:0:
444,210,154151,1,0,0:0:0:0:
319,160,154317,2,0,P|315:113|303:68,1,93.5000028533936,8|0,0:2|0:2,0:0:0:0:
422,301,154651,6,0,P|469:295|510:274,1,93.5000028533936,4|0,1:2|1:2,0:0:0:0:
336,363,154984,2,0,P|294:341|248:335,1,93.5000028533936,10|0,0:2|1:2,0:0:0:0:
108,378,155317,2,0,P|71:319|96:199,1,187.000005706787,2|10,0:2|0:2,0:2:0:0:
177,245,155817,1,0,1:2:0:0:
319,160,155984,5,12,0:2:0:0:
224,123,156151,1,0,1:2:0:0:
27,48,156317,1,8,0:2:0:0:
124,84,156484,1,0,1:2:0:0:
303,68,156651,5,2,1:2:0:0:
203,34,156817,1,0,1:2:0:0:
41,130,156984,5,8,0:2:0:0:
249,204,157151,1,6,1:2:0:0:
470,117,157484,5,10,0:2:0:0:
470,117,157651,1,10,0:2:0:0:
374,178,157984,5,8,0:3:0:0:
393,220,158067,1,8,0:3:0:0:
365,257,158151,1,4,0:3:0:0:
339,295,158234,1,4,0:3:0:0:
357,338,158317,2,0,P|402:347|447:364,1,85,12|0,0:2|0:2,0:2:0:0:
208,367,158651,6,0,P|189:320|194:270,1,101.999996887207,12|0,0:1|1:2,0:0:0:0:
303,16,158984,2,0,P|322:63|317:113,1,101.999996887207,10|0,0:2|1:2,0:0:0:0:
138,206,159317,2,0,P|88:194|37:186,1,101.999996887207,10|0,0:2|1:2,0:0:0:0:
373,178,159651,2,0,P|423:189|474:197,1,101.999996887207,10|0,0:2|1:2,0:0:0:0:
229,87,159984,5,14,0:2:0:0:
229,87,160151,1,0,1:2:0:0:
282,296,160317,1,10,0:2:0:0:
282,296,160484,1,0,1:2:0:0:
151,218,160651,1,10,0:2:0:0:
151,218,160817,1,0,1:2:0:0:
360,165,160984,1,10,0:2:0:0:
360,165,161151,1,0,1:2:0:0:
118,108,161317,5,14,0:2:0:0:
118,108,161484,1,0,1:2:0:0:
393,275,161651,1,10,0:2:0:0:
393,275,161817,1,0,1:2:0:0:
172,329,161984,1,10,0:2:0:0:
172,329,162151,1,0,1:2:0:0:
339,54,162317,1,10,0:2:0:0:
339,54,162484,1,0,1:2:0:0:
120,8,162651,6,0,B|112:37|112:37|122:88|122:88|118:107,1,101.999996887207,6|0,1:2|1:2,0:2:0:0:
42,166,162901,1,0,1:2:0:0:
42,166,162984,2,0,B|12:124|12:124|30:69,1,101.999996887207,8|8,0:2|0:2,0:0:0:0:
255,195,163317,1,8,0:2:0:0:
63,286,163484,1,8,0:3:0:0:
125,233,163651,1,4,0:3:0:0:
200,255,163817,1,4,0:3:0:0:
254,195,163984,6,0,P|260:153|257:110,1,85,4|0,1:1|1:2,0:0:0:0:
217,43,164317,1,0,1:2:0:0:
319,250,164484,2,0,B|431:270|371:202|511:231,1,170,14|0,0:2|1:2,0:0:0:0:
361,72,164984,2,0,P|357:114|363:156,1,85,12|0,0:2|1:2,0:0:0:0:
460,321,165317,5,6,1:2:0:0:
460,321,165484,1,8,0:2:0:0:
390,378,165651,2,0,P|352:363|308:354,1,85,0|0,1:2|1:2,0:0:0:0:
219,179,165984,2,0,P|204:216|195:260,1,85,14|0,0:2|1:2,0:0:0:0:
18,335,166317,2,0,P|55:349|99:358,1,85,8|0,0:2|1:2,0:0:0:0:
282,277,166651,5,14,0:2:0:0:
84,198,166817,1,0,1:2:0:0:
103,274,166984,1,0,1:2:0:0:
323,135,167151,5,12,0:2:0:0:
125,56,167317,1,0,1:2:0:0:
144,132,167484,1,0,1:2:0:0:
366,222,167651,5,12,0:2:0:0:
447,170,167817,2,0,P|456:125|445:71,1,85,0|6,1:2|1:2,0:0:0:0:
239,41,168151,6,0,L|242:20,4,21.25,8|0|8|0|8,0:2|0:0|0:2|0:0|0:2,0:0:0:0:
307,120,168484,1,8,0:2:0:0:
203,215,168651,1,8,0:2:0:0:
338,320,168817,1,0,1:2:0:0:
338,320,168901,1,0,1:2:0:0:
338,320,168984,2,0,B|380:304|380:304|359:350,1,85,8|8,0:2|0:3,0:2:0:0:
256,384,169234,5,4,0:3:0:0:
256,384,169317,2,2,B|221:377|221:377|203:327|168:291|168:291|111:317,1,180.200000274963,6|12,1:1|0:2,0:1:0:0:
315,218,169817,2,0,B|339:179|339:179|320:138,1,90.1000001374817,0|0,0:0|1:2,0:0:0:0:
126,21,170151,1,2,1:2:0:0:
237,172,170317,1,8,0:2:0:0:
386,58,170484,1,0,1:2:0:0:
240,75,170651,6,2,B|178:90|178:90|150:145|67:170,1,180.200000274963,2|8,2:2|0:2,2:1:0:0:
23,126,171151,1,0,0:0:0:0:
162,224,171317,1,2,1:2:0:0:
386,58,171567,1,2,0:2:0:0:
386,58,171651,1,8,0:2:0:0:
512,180,171817,1,0,0:2:0:0:
453,260,171984,6,2,B|399:274|399:274|362:326|362:326|294:345,2,180.200000274963,2|8|0,1:2|0:2|1:2,0:1:0:0:
512,180,172817,1,0,1:2:0:0:
323,0,172984,1,8,0:2:0:0:
207,83,173151,6,2,B|323:112|256:138|379:167,1,180.200000274963,6|0,1:2|1:2,0:1:0:0:
477,96,173651,2,0,P|485:49|471:-2,1,90.1000001374817,10|0,0:2|1:2,0:0:0:0:
284,226,173984,1,0,1:2:0:0:
205,170,174151,2,0,P|196:125|206:82,1,90.1000001374817,0|12,1:2|0:2,0:0:0:0:
387,76,174484,5,0,1:2:0:0:
387,76,174567,1,0,1:0:0:0:
387,76,174651,1,4,1:2:0:0:
395,171,174817,1,2,0:2:0:0:
403,267,174984,1,8,0:2:0:0:
270,336,175151,5,2,3:2:0:0:
270,336,175234,1,0,3:2:0:0:
270,336,175317,1,0,1:2:0:0:
284,226,175484,1,2,1:2:0:0:
301,120,175651,1,8,0:2:0:0:
146,5,175817,5,2,3:2:0:0:
146,5,175901,1,0,3:2:0:0:
146,5,175984,1,4,1:2:0:0:
212,117,176151,1,2,0:2:0:0:
127,221,176317,2,0,P|83:222|39:210,1,90.1000001374817,8|0,0:2|1:2,0:0:0:0:
101,104,176651,5,2,0:2:0:0:
101,104,176734,1,2,0:2:0:0:
101,104,176817,1,0,1:2:0:0:
181,346,176984,2,0,P|225:347|269:335,1,90.1000001374817,8|0,0:2|1:2,0:0:0:0:
396,181,177317,6,2,B|413:134|413:134|375:63|375:63|389:1,2,180.200000274963,4|8|2,1:2|0:2|1:2,0:1:0:0:
332,229,178151,1,0,1:2:0:0:
457,384,178317,1,10,0:2:0:0:
512,189,178484,1,0,0:2:0:0:
333,342,178651,5,10,0:2:0:0:
301,338,178734,1,8,0:2:0:0:
269,335,178817,1,8,0:2:0:0:
237,332,178901,1,8,0:2:0:0:
205,329,178984,1,8,0:2:0:0:
234,232,179151,5,8,0:2:0:0:
238,200,179234,1,8,0:2:0:0:
241,168,179317,1,8,0:3:0:0:
244,136,179401,1,8,0:3:0:0:
247,104,179484,1,4,0:3:0:0:
104,42,179651,5,8,0:2:0:0:
68,68,179734,1,8,0:2:0:0:
47,107,179817,1,8,0:2:0:0:
45,152,179901,1,8,0:2:0:0:
63,193,179984,6,2,B|108:203|108:203|149:177,1,95.2000011621094,4|0,1:1|0:2,0:1:0:0:
239,333,180317,2,2,B|191:322|191:322|152:348,1,95.2000011621094,12|0,0:2|0:2,0:1:0:0:
337,244,180651,5,2,1:1:0:0:
403,278,180817,1,0,1:2:0:0:
459,226,180984,1,10,0:2:0:0:
392,192,181151,1,0,0:2:0:0:
389,65,181317,5,6,1:1:0:0:
319,140,181484,1,0,1:2:0:0:
288,42,181651,1,10,0:2:0:0:
153,17,181817,5,2,1:1:0:0:
183,89,181984,1,0,0:2:0:0:
105,78,182151,1,2,1:2:0:0:
8,215,182317,6,2,B|100:201|62:235|167:221,1,142.800001743164,14|0,0:2|0:2,0:1:0:0:
223,266,182651,6,2,B|231:226|231:226|226:210|226:210|234:173,1,95.2000011621094,6|0,1:2|0:2,0:1:0:0:
330,292,182984,2,0,B|322:329|322:329|327:345|327:345|318:384,1,95.2000011621094,10|0,0:2|1:2,0:2:0:0:
421,232,183317,2,0,B|468:242|468:242|518:221,1,95.2000011621094,6|0,0:1|0:2,0:2:0:0:
411,104,183651,2,0,B|454:85|454:85|501:95,1,95.2000011621094,10|0,0:2|1:2,0:2:0:0:
331,22,183984,5,6,0:1:0:0:
259,48,184151,1,0,1:2:0:0:
188,74,184317,1,8,0:2:0:0:
120,104,184484,5,6,1:2:0:0:
120,104,184567,1,0,1:2:0:0:
120,104,184651,1,0,1:2:0:0:
246,146,184817,1,0,1:2:0:0:
371,188,184984,2,0,P|388:226|359:330,1,142.800001743164,12|0,0:2|0:2,0:2:0:0:
303,369,185317,6,0,L|200:356,1,95.2000011621094,6|0,1:1|1:2,0:0:0:0:
94,248,185651,2,0,L|-9:235,1,95.2000011621094,8|0,0:2|0:2,0:0:0:0:
183,158,185984,5,2,1:1:0:0:
116,102,186151,1,0,1:2:0:0:
186,54,186317,1,10,0:2:0:0:
253,110,186484,1,0,0:2:0:0:
333,66,186651,5,6,1:1:0:0:
297,190,186817,1,0,1:2:0:0:
253,110,186984,1,10,0:2:0:0:
377,146,187151,1,0,1:2:0:0:
457,170,187317,6,0,P|471:115|475:72,1,95.2000011621094,2|0,0:1|1:2,0:0:0:0:
151,166,187651,2,0,P|156:118|168:72,1,95.2000011621094,8|0,0:2|1:2,0:0:0:0:
280,288,187984,5,14,0:1:0:0:
188,312,188151,1,0,1:2:0:0:
325,373,188317,1,12,0:2:0:0:
316,203,188484,1,0,1:2:0:0:
369,120,188651,5,2,1:2:0:0:
223,164,188817,1,0,1:2:0:0:
258,27,188984,1,8,0:2:0:0:
387,136,189151,6,2,B|443:169|443:169|393:42,1,190.400002324219,4|10,1:2|0:2,0:1:0:0:
239,16,189651,6,0,B|236:79|170:110|72:65|168:15|51:-16|-15:35|26:99,1,318.750012159348,10|0,0:2|0:2,0:2:0:0:
0,184,190651,6,0,P|52:172|112:175,1,110.499994941712,4|0,1:1|1:2,0:2:0:0:
118,274,191151,2,0,P|66:286|6:283,1,110.499994941712,2|0,0:2|0:2,0:2:0:0:
255,333,191817,2,0,P|249:369|275:395,1,55.2499974708558,2|0,0:2|1:2,0:2:0:0:
342,296,192151,2,0,P|363:325|401:325,1,55.2499974708558,2|0,0:2|1:2,0:2:0:0:
377,207,192484,2,0,P|413:212|439:186,1,55.2499974708558,2|0,0:2|1:2,0:2:0:0:
339,119,192817,2,0,P|368:97|368:59,1,55.2499974708558,2|0,0:2|1:2,0:2:0:0:
292,26,193151,5,2,0:2:0:0:
292,26,193317,2,0,B|261:30|261:30|215:6|215:6|170:21,1,110.499994941712,0|0,1:2|1:2,0:2:0:0:
150,102,193817,2,0,L|211:90,1,55.2499974708558,2|0,0:2|1:2,0:2:0:0:
144,187,194151,2,0,L|205:175,1,55.2499974708558,2|0,0:2|1:2,0:2:0:0:
64,151,194484,1,2,0:2:0:0:
64,151,194651,2,0,P|54:187|57:217,1,55.2499974708558,0|0,1:0|0:2,0:0:0:0:
131,271,194984,2,0,L|253:247,2,110.499994941712,2|0|0,1:2|1:2|1:2,0:2:0:0:
131,271,195817,1,0,3:2:0:0:
196,355,195984,6,0,L|304:334,1,110.499994941712,2|0,1:2|1:2,0:2:0:0:
400,304,196484,2,0,P|393:333|391:376,1,55.2499974708558,2|0,0:2|1:2,0:2:0:0:
488,380,196817,2,0,P|495:351|497:308,1,55.2499974708558,2|0,0:2|1:2,0:2:0:0:
465,233,197151,1,2,0:2:0:0:
465,233,197317,2,0,B|458:196|458:196|482:156|482:156|475:122,2,110.499994941712,0|0|0,1:2|1:2|1:2,0:2:0:0:
408,286,198151,1,2,0:2:0:0:
347,238,198317,2,0,L|357:182,1,55.2499974708558,0|0,1:2|0:2,0:2:0:0:
257,110,198651,6,0,P|311:111|358:83,1,110.499994941712,2|0,1:2|1:2,0:2:0:0:
413,21,199151,2,0,P|382:4|344:-1,1,55.2499974708558,2|0,0:2|1:2,0:2:0:0:
475,76,199484,2,0,P|492:45|497:7,1,55.2499974708558,2|0,0:2|1:2,0:2:0:0:
420,138,199817,1,2,1:2:0:0:
420,138,199984,2,0,P|451:154|489:160,1,55.2499974708558,0|0,1:0|2:0,0:0:0:0:
358,83,200317,2,0,P|341:114|336:152,1,55.2499974708558,0|0,1:2|0:2,0:0:0:0:
270,205,200651,5,2,1:2:0:0:
335,244,200817,1,0,1:2:0:0:
402,282,200984,1,0,1:2:0:0:
470,318,201151,1,0,1:2:0:0:
376,384,201317,5,2,3:2:0:0:
431,252,203984,5,0,0:2:0:0:
373,198,204151,1,0,0:2:0:0:
316,145,204317,1,0,0:2:0:0:
259,93,204484,1,0,0:2:0:0:
202,40,204651,5,0,0:2:0:0:
220,127,204817,1,0,0:2:0:0:
238,212,204984,1,0,0:2:0:0:
256,297,205151,1,0,0:2:0:0:
274,384,205317,5,0,0:2:0:0:
315,292,205484,1,0,0:2:0:0:
357,198,205651,1,0,0:2:0:0:
397,107,205817,1,0,0:2:0:0:
438,15,205984,5,2,0:2:0:0:
438,15,206151,1,0,0:2:0:0:
318,87,206317,5,8,2:2:0:0:
299,88,206401,1,8,2:2:0:0:
281,87,206484,1,8,2:2:0:0:
264,82,206567,1,8,2:2:0:0:
247,74,206651,2,0,P|171:41|100:49,1,146.200002230835,4|4,1:1|0:2,0:2:0:0:
39,11,207151,1,0,1:2:0:0:
79,145,207317,6,0,L|53:298,2,146.200002230835,12|4|4,0:0|0:2|1:2,0:0:0:0:
175,234,208151,2,0,L|150:378,1,146.200002230835,6|0,1:2|0:0,0:0:0:0:
274,356,208651,2,0,L|298:211,1,146.200002230835,12|4,0:0|0:0,0:0:0:0:
509,47,209317,5,4,1:1:0:0:
509,47,209651,1,10,0:2:0:0:
402,74,209817,1,0,1:2:0:0:
485,156,209984,1,14,0:2:0:0:
304,83,210151,1,0,1:2:0:0:
410,45,210317,1,6,0:2:0:0:
442,253,210484,1,6,1:2:0:0:
137,36,210817,5,10,0:2:0:0:
137,36,210984,1,10,0:2:0:0:
137,36,211984,6,0,B|134:72|134:72|154:44,1,70.5500010226822,0|0,1:2|0:0,0:0:0:0:
53,110,212151,6,0,B|32:139|32:139|63:125,1,70.5500010226822,0|0,1:2|0:0,0:0:0:0:
152,161,212317,6,0,B|213:177|213:177|237:227|237:227|376:258,1,237.999992736817,4|0,1:1|1:2,0:2:0:0:
406,195,213151,1,0,1:2:0:0:
222,252,213317,6,0,B|189:264|189:264|149:357|149:357|109:370,1,178.499994552612,6|8,1:2|0:2,0:2:0:0:
109,370,213901,1,8,0:2:0:0:
109,370,213984,1,8,0:3:0:0:
23,322,214151,1,8,0:3:0:0:
79,266,214317,2,0,P|83:236|82:207,1,59.4999981842042,4|4,0:3|0:3,0:0:0:0:
239,375,214651,6,0,P|338:350|429:338,1,187.000005706787,4|10,1:1|0:2,0:2:0:0:
352,129,215151,2,0,P|253:153|161:154,1,187.000005706787,6|2,1:2|1:2,0:2:0:0:
291,253,215651,1,8,0:2:0:0:
478,150,215817,6,0,P|490:96|371:19,1,187.000005706787,6|0,1:2|1:2,0:2:0:0:
251,122,216317,1,10,0:2:0:0:
143,54,216484,1,0,1:2:0:0:
0,231,216651,1,2,0:2:0:0:
91,294,216817,1,0,1:2:0:0:
91,294,216901,1,0,1:2:0:0:
91,294,216984,2,0,P|94:247|102:201,1,93.5000028533936,12|0,0:2|0:0,0:2:0:0:
229,38,217317,5,6,1:2:0:0:
352,129,217484,1,0,0:2:0:0:
189,183,217651,1,8,0:2:0:0:
312,23,217817,1,2,2:2:0:0:
312,23,217984,1,0,1:2:0:0:
478,151,218151,1,2,1:2:0:0:
467,258,218317,1,8,0:2:0:0:
455,354,218484,1,0,0:2:0:0:
345,280,218651,6,0,P|301:266|255:256,1,93.5000028533936,6|0,1:2|0:2,0:0:0:0:
17,307,218984,1,8,0:2:0:0:
106,374,219151,2,0,P|119:329|129:283,1,93.5000028533936,2|0,1:2|0:2,0:2:0:0:
62,166,219484,1,2,1:2:0:0:
143,94,219651,1,8,0:2:0:0:
102,8,219817,1,0,1:2:0:0:
189,183,219984,5,6,1:2:0:0:
307,30,220151,1,0,0:2:0:0:
443,77,220317,1,10,0:2:0:0:
358,98,220484,1,0,0:2:0:0:
419,252,220651,1,6,1:2:0:0:
504,273,220817,1,0,1:2:0:0:
349,115,220984,1,10,0:2:0:0:
264,136,221151,1,0,1:2:0:0:
465,0,221317,5,12,0:2:0:0:
477,22,221401,1,8,0:2:0:0:
482,47,221484,1,8,0:3:0:0:
481,72,221567,1,8,0:3:0:0:
473,97,221651,1,4,0:3:0:0:
264,136,221817,5,8,0:2:0:0:
264,136,221901,1,8,0:2:0:0:
264,136,221984,2,0,L|269:182,1,46.7500014266968,8|8,0:3|0:3,0:0:0:0:
394,231,222151,2,0,L|387:277,1,46.7500014266968,4|4,0:3|0:3,0:0:0:0:
252,375,222317,5,8,0:2:0:0:
216,338,222401,1,8,0:2:0:0:
167,321,222484,1,8,0:2:0:0:
116,324,222567,1,8,0:2:0:0:
72,350,222651,2,0,B|105:365|105:365|158:338|166:262|103:226,1,187.000005706787,4|14,1:1|0:2,0:2:0:0:
3,194,223151,1,2,0:2:0:0:
103,99,223317,2,0,P|115:53|121:7,1,93.5000028533936,0|0,1:2|1:2,0:0:0:0:
281,227,223651,2,0,P|269:181|263:135,1,93.5000028533936,10|0,0:2|0:2,0:2:0:0:
492,61,223984,5,6,1:2:0:0:
355,0,224151,1,0,1:2:0:0:
492,61,224317,2,0,P|503:106|509:152,1,93.5000028533936,10|0,0:2|0:0,0:2:0:0:
407,283,224651,2,0,B|320:264|371:245|254:220,1,140.25000428009,2|0,0:2|0:0,0:0:0:0:
212,285,224984,2,0,B|191:323|191:323|212:368,1,93.5000028533936,12|0,0:2|0:0,0:2:0:0:
327,147,225317,5,4,1:2:0:0:
123,96,225484,1,0,0:2:0:0:
207,164,225651,1,10,0:2:0:0:
230,72,225817,1,0,1:2:0:0:
96,196,225984,5,6,0:2:0:0:
0,173,226151,1,0,1:2:0:0:
21,0,226317,1,10,0:2:0:0:
44,96,226484,1,0,1:2:0:0:
207,164,226651,5,2,0:2:0:0:
327,147,226817,2,0,P|339:98|339:51,1,93.5000028533936,0|8,1:2|0:2,0:2:0:0:
185,237,227151,2,0,P|173:286|173:333,1,93.5000028533936,6|0,1:2|0:0,0:2:0:0:
250,384,227484,1,0,0:2:0:0:
381,335,227651,2,0,P|430:347|477:347,1,93.5000028533936,8|2,0:2|1:2,0:0:0:0:
411,209,227984,5,4,1:2:0:0:
269,294,228151,1,0,1:2:0:0:
411,209,228317,1,8,0:2:0:0:
248,168,228484,2,0,L|156:149,2,93.5000028533936,2|0|0,0:2|1:2|0:0,0:0:0:0:
466,87,228984,2,0,P|491:124|489:170,1,93.5000028533936,8|0,0:2|0:2,0:0:0:0:
292,377,229317,6,0,P|266:339|268:293,1,93.5000028533936,4|0,1:2|1:2,0:0:0:0:
99,88,229651,2,0,P|71:130|75:175,1,93.5000028533936,10|0,0:2|1:2,0:0:0:0:
177,262,229984,1,2,0:2:0:0:
177,262,230151,1,0,1:2:0:0:
336,184,230317,2,8,P|338:138|312:100,1,93.5000028533936,10|0,0:2|1:2,0:2:0:0:
99,88,230651,5,12,0:2:0:0:
203,69,230817,1,0,1:2:0:0:
312,100,230984,5,8,0:2:0:0:
416,81,231151,1,0,1:2:0:0:
353,24,231317,5,2,1:2:0:0:
353,24,231484,1,0,1:2:0:0:
248,168,231651,1,8,0:2:0:0:
385,345,231817,1,6,1:2:0:0:
297,372,232151,5,10,0:2:0:0:
420,194,232317,1,10,0:2:0:0:
249,3,232651,5,8,0:3:0:0:
249,3,232734,1,8,0:3:0:0:
249,3,232817,1,4,0:3:0:0:
249,3,232901,1,4,0:3:0:0:
249,2,232984,2,0,L|262:106,1,85,12|0,0:2|0:0,0:2:0:0:
151,194,233317,6,0,P|100:187|51:174,1,101.999996887207,12|0,0:1|1:2,0:0:0:0:
361,194,233651,2,0,P|412:187|461:174,1,101.999996887207,10|0,0:2|1:2,0:0:0:0:
127,284,233984,2,0,P|76:290|27:303,1,101.999996887207,10|0,0:2|1:2,0:0:0:0:
385,284,234317,2,0,P|436:290|485:303,1,101.999996887207,10|0,0:2|1:2,0:0:0:0:
151,194,234651,5,14,0:2:0:0:
127,284,234817,1,0,1:2:0:0:
361,194,234984,5,10,0:2:0:0:
385,284,235151,1,0,1:2:0:0:
83,131,235317,5,10,0:2:0:0:
59,221,235484,1,0,1:2:0:0:
429,131,235651,5,10,0:2:0:0:
453,221,235817,1,0,1:2:0:0:
109,40,235984,5,14,0:2:0:0:
109,40,236151,1,0,1:2:0:0:
257,357,236317,5,10,0:2:0:0:
257,357,236484,1,0,1:2:0:0:
403,40,236651,5,10,0:2:0:0:
403,40,236817,1,0,1:2:0:0:
256,193,236984,5,10,0:2:0:0:
256,193,237151,1,0,1:2:0:0:
134,135,237317,6,0,P|82:120|8:108,2,101.999996887207,10|0|8,2:2|1:2|0:2,0:0:0:0:
345,275,237817,2,0,P|383:184|334:97,1,203.999993774414,0|0,1:2|1:2,0:0:0:0:
189,285,238317,5,8,0:2:0:0:
161,315,238401,1,8,0:2:0:0:
134,345,238484,1,0,1:2:0:0:
94,334,238567,1,0,1:0:0:0:
54,323,238651,2,0,P|48:276|37:231,1,93.5000028533936,4|0,1:1|1:2,0:0:0:0:
134,135,238984,1,0,1:2:0:0:
269,345,239151,2,0,P|321:324|455:292,1,187.000005706787,14|0,0:2|1:2,0:0:0:0:
512,175,239651,2,0,P|506:128|495:83,1,93.5000028533936,12|0,0:2|1:2,0:0:0:0:
359,0,239984,5,6,1:2:0:0:
239,110,240151,2,0,B|133:86|200:50|71:25,1,187.000005706787,8|0,0:2|1:2,0:0:0:0:
0,175,240651,2,0,P|13:224|23:277,1,93.5000028533936,14|0,0:2|1:2,0:0:0:0:
239,110,240984,2,0,P|225:159|216:212,1,93.5000028533936,8|0,0:2|1:2,0:0:0:0:
355,372,241317,5,14,0:2:0:0:
141,257,241484,1,0,1:2:0:0:
163,356,241651,1,0,1:2:0:0:
232,216,241817,5,12,0:2:0:0:
446,331,241984,1,0,1:2:0:0:
424,232,242151,1,0,1:2:0:0:
292,300,242317,5,12,0:2:0:0:
292,300,242484,1,0,1:2:0:0:
512,188,242651,5,6,1:2:0:0:
441,113,242817,2,0,L|447:75,4,23.3750007133484,8|8|8|8|8,0:2|0:0|0:2|0:0|0:2,0:0:0:0:
331,221,243151,1,8,0:2:0:0:
207,157,243317,1,8,0:2:0:0:
70,271,243484,5,8,0:3:0:0:
131,315,243651,1,4,0:3:0:0:
190,264,243817,1,4,0:3:0:0:
288,365,243984,6,0,B|276:330|276:330|302:262|302:262|290:202,1,152.999995330811,6|0,1:1|0:2,0:2:0:0:
383,246,244317,2,0,B|332:252|332:252|285:212,1,101.999996887207,12|0,0:2|0:2,0:2:0:0:
338,64,244651,2,0,B|389:58|389:58|427:90,1,101.999996887207,0|0,1:2|1:2,0:2:0:0:
246,117,244984,5,10,0:2:0:0:
130,128,245151,1,0,1:2:0:0:
14,139,245317,1,2,0:1:0:0:
14,139,245484,1,0,1:2:0:0:
145,220,245651,6,0,B|161:200|161:172|161:172|136:79|136:79|135:53|153:27,1,203.999993774414,8|0,0:2|1:2,0:2:0:0:
278,134,246151,1,0,1:2:0:0:
278,134,246234,1,0,1:2:0:0:
278,134,246317,2,2,L|284:22,1,101.999996887207,10|0,0:2|1:2,0:1:0:0:
480,159,246651,6,2,B|426:130|426:130|337:174|392:270,2,203.999993774414,2|8|0,1:2|0:2|1:2,0:1:0:0:
502,258,247484,1,2,1:2:0:0:
447,343,247651,1,8,0:2:0:0:
348,364,247817,1,0,1:2:0:0:
249,284,247984,6,2,B|243:168|272:213|268:81,1,203.999993774414,2|8,0:2|0:2,0:1:0:0:
156,0,248484,1,8,0:2:0:0:
153,25,248567,1,8,0:2:0:0:
150,50,248651,1,8,0:2:0:0:
147,76,248734,1,8,0:2:0:0:
145,101,248817,2,2,L|136:169,1,50.9999984436036,8|0,0:3|0:2,0:1:0:0:
59,223,248984,2,2,P|35:231|1:226,1,50.9999984436036,4|0,0:3|0:2,0:1:0:0:
119,312,249151,2,2,P|143:320|177:315,1,50.9999984436036,8|8,0:2|0:2,0:1:0:0:
286,384,249317,6,2,B|278:355|277:335|277:335|297:286|297:286|297:263|284:227,1,152.999995330811,6|0,1:1|0:2,0:1:0:0:
345,166,249651,2,0,B|363:200|379:203|379:203|430:195|430:195|439:189|439:189|491:181|491:181|515:198|513:236,1,203.999993774414,12|0,0:2|1:2,0:1:0:0:
457,267,250151,1,2,1:2:0:0:
405,117,250317,2,0,B|396:96|396:96|413:42|413:42|404:11,1,101.999996887207,8|0,0:2|1:2,0:2:0:0:
330,0,250651,5,6,2:1:0:0:
265,96,250817,1,0,1:2:0:0:
192,40,250984,1,10,0:2:0:0:
218,176,251151,1,0,0:2:0:0:
147,123,251317,1,0,1:2:0:0:
76,204,251484,1,0,1:2:0:0:
23,261,251651,2,2,B|80:244|80:244|108:262|108:262|175:271,1,152.999995330811,8|0,0:2|0:2,0:1:0:0:
226,336,251984,6,2,B|196:355|196:355|130:350,1,101.999996887207,6|0,1:1|1:2,0:1:0:0:
211,199,252317,1,14,0:2:0:0:
300,219,252484,1,0,1:2:0:0:
406,246,252651,1,10,0:2:0:0:
406,246,252734,1,8,0:2:0:0:
406,246,252817,1,8,0:2:0:0:
384,367,252984,1,8,0:2:0:0:
485,274,253151,6,2,B|497:326|497:326|470:373,1,101.999996887207,4|0,1:2|1:2,0:1:0:0:
302,240,253484,1,10,0:2:0:0:
454,150,253651,1,8,0:2:0:0:
295,134,253817,1,10,0:2:0:0:
295,134,253901,1,8,0:2:0:0:
295,134,253984,1,8,0:2:0:0:
379,76,254151,1,8,0:3:0:0:
300,39,254317,5,10,0:2:0:0:
300,39,254401,1,8,0:2:0:0:
300,39,254484,2,0,B|193:20|233:73|110:40,1,170,4|0,0:3|0:0,0:2:0:0:
116,38,255317,5,2,0:2:0:0:
160,156,255651,5,0,0:2:0:0:
210,259,255984,5,0,0:2:0:0:
256,349,256317,5,0,0:2:0:0:
232,260,256651,5,2,0:2:0:0:
213,182,256984,5,0,0:2:0:0:
196,108,257317,5,0,0:2:0:0:
180,37,257651,6,0,B|206:143|296:127|384:73|456:137|426:354|256:294|201:203|250:58|329:11,1,595,2|2,0:2|0:2,0:2:0:0:
