osu file format v14

[General]
AudioFilename: audio.mp3
AudioLeadIn: 0
PreviewTime: 137272
Countdown: 0
SampleSet: Soft
StackLeniency: 0.7
Mode: 0
LetterboxInBreaks: 0
WidescreenStoryboard: 0

[Editor]
DistanceSpacing: 1.3
BeatDivisor: 4
GridSize: 32
TimelineZoom: 1.8

[Metadata]
Title:Reirou no Hibiki
TitleUnicode:玲瓏の響
Artist:kakichoco
ArtistUnicode:柿チョコ
Creator:SMOKELIND
Version:X
Source:
Tags:Pepekcz Shizuku- Shikibe Mayu Ayesha Altugle Kazato Asa gazimal 焔雷 Enlight Japanese Rock JRock J-Rock müchette muchette
BeatmapID:3808973
BeatmapSetID:1853651

[Difficulty]
HPDrainRate:5
CircleSize:4
OverallDifficulty:9
ApproachRate:9.4
SliderMultiplier:2.47
SliderTickRate:1

[Events]
//Background and Video events
0,0,"98797564_p0.jpg",0,0
//Break Periods
//Storyboard Layer 0 (Background)
//Storyboard Layer 1 (Fail)
//Storyboard Layer 2 (Pass)
//Storyboard Layer 3 (Foreground)
//Storyboard Layer 4 (Overlay)
//Storyboard Sound Samples

[TimingPoints]
510,300,4,2,77,27,1,0
510,-212.765957446809,4,2,77,27,0,0
9510,-175.438596491228,4,2,77,47,0,0
10034,-175.438596491228,4,2,77,5,0,0
10110,-85.4700854700855,4,2,77,87,0,0
10185,-85.4700854700855,4,2,77,5,0,0
10260,-85.4700854700855,4,2,77,87,0,0
10635,-85.4700854700855,4,2,77,5,0,0
10710,-85.4700854700855,4,2,77,87,0,0
11085,-85.4700854700855,4,2,77,5,0,0
11160,-85.4700854700855,4,2,77,87,0,0
11235,-85.4700854700855,4,2,77,5,0,0
11310,-85.4700854700855,4,2,77,87,0,0
11385,-85.4700854700855,4,2,77,5,0,0
11460,-85.4700854700855,4,2,77,87,0,0
12060,-85.4700854700855,4,2,7,87,0,0
12285,-85.4700854700855,4,2,7,5,0,0
12360,-85.4700854700855,4,2,7,87,0,0
12435,-85.4700854700855,4,2,7,5,0,0
12510,-85.4700854700855,4,2,77,87,0,0
12735,-85.4700854700855,4,2,77,5,0,0
12810,-85.4700854700855,4,2,77,87,0,0
13035,-85.4700854700855,4,2,77,5,0,0
13110,-85.4700854700855,4,2,77,87,0,0
13485,-85.4700854700855,4,2,77,5,0,0
13560,-85.4700854700855,4,2,77,87,0,0
13635,-85.4700854700855,4,2,77,5,0,0
13710,-85.4700854700855,4,2,77,87,0,0
13785,-85.4700854700855,4,2,77,5,0,0
13860,-85.4700854700855,4,2,77,87,0,0
14310,-68.0272108843537,4,2,7,87,0,0
14384,-68.0272108843537,4,2,7,5,0,0
14460,-68.0272108843537,4,2,7,87,0,0
14684,-68.0272108843537,4,2,7,5,0,0
14760,-68.0272108843537,4,2,7,87,0,0
14910,-85.4700854700855,4,2,77,87,0,0
15135,-85.4700854700855,4,2,77,5,0,0
15210,-85.4700854700855,4,2,77,87,0,0
15435,-85.4700854700855,4,2,77,5,0,0
15510,-85.4700854700855,4,2,77,87,0,0
15885,-85.4700854700855,4,2,77,5,0,0
15960,-85.4700854700855,4,2,77,87,0,0
16035,-85.4700854700855,4,2,77,5,0,0
16110,-85.4700854700855,4,2,77,87,0,0
16185,-85.4700854700855,4,2,77,5,0,0
16260,-85.4700854700855,4,2,77,87,0,0
16710,-85.4700854700855,4,2,7,87,0,0
16785,-85.4700854700855,4,2,7,5,0,0
16860,-85.4700854700855,4,2,7,87,0,0
17085,-85.4700854700855,4,2,7,5,0,0
17160,-85.4700854700855,4,2,7,87,0,0
17310,-85.4700854700855,4,2,77,87,0,0
17535,-85.4700854700855,4,2,77,5,0,0
17610,-85.4700854700855,4,2,77,87,0,0
17985,-85.4700854700855,4,2,77,5,0,0
18060,-85.4700854700855,4,2,77,87,0,0
18285,-85.4700854700855,4,2,77,5,0,0
18360,-85.4700854700855,4,2,77,87,0,0
18435,-85.4700854700855,4,2,77,5,0,0
18510,-85.4700854700855,4,2,77,87,0,0
18585,-85.4700854700855,4,2,77,5,0,0
18660,-85.4700854700855,4,2,77,87,0,0
19935,-85.4700854700855,4,2,77,5,0,0
20010,-85.4700854700855,4,2,77,87,0,0
20685,-85.4700854700855,4,2,77,5,0,0
20760,-85.4700854700855,4,2,77,87,0,0
20835,-85.4700854700855,4,2,77,5,0,0
20910,-85.4700854700855,4,2,77,87,0,0
20985,-85.4700854700855,4,2,77,5,0,0
21060,-85.4700854700855,4,2,77,87,0,0
21510,-85.4700854700855,4,2,7,87,0,0
21585,-85.4700854700855,4,2,7,5,0,0
21660,-85.4700854700855,4,2,7,87,0,0
21885,-85.4700854700855,4,2,7,5,0,0
21960,-85.4700854700855,4,2,7,87,0,0
22110,-85.4700854700855,4,2,77,87,0,0
22335,-85.4700854700855,4,2,77,5,0,0
22410,-85.4700854700855,4,2,77,87,0,0
22635,-85.4700854700855,4,2,77,5,0,0
22710,-85.4700854700855,4,2,77,87,0,0
23085,-85.4700854700855,4,2,77,5,0,0
23160,-85.4700854700855,4,2,77,87,0,0
23235,-85.4700854700855,4,2,77,5,0,0
23310,-85.4700854700855,4,2,77,87,0,0
23385,-85.4700854700855,4,2,77,5,0,0
23460,-85.4700854700855,4,2,77,87,0,0
23910,-85.4700854700855,4,2,7,87,0,0
23985,-85.4700854700855,4,2,7,5,0,0
24060,-85.4700854700855,4,2,7,87,0,0
24285,-85.4700854700855,4,2,7,5,0,0
24360,-85.4700854700855,4,2,7,87,0,0
24510,-85.4700854700855,4,2,77,87,0,0
24735,-85.4700854700855,4,2,77,5,0,0
24810,-85.4700854700855,4,2,77,87,0,0
25035,-85.4700854700855,4,2,77,5,0,0
25110,-85.4700854700855,4,2,77,87,0,0
25485,-85.4700854700855,4,2,77,5,0,0
25560,-85.4700854700855,4,2,77,87,0,0
25635,-85.4700854700855,4,2,77,5,0,0
25710,-85.4700854700855,4,2,77,87,0,0
25785,-85.4700854700855,4,2,77,5,0,0
25860,-85.4700854700855,4,2,77,87,0,0
26310,-85.4700854700855,4,2,7,87,0,0
26385,-85.4700854700855,4,2,7,5,0,0
26460,-85.4700854700855,4,2,7,87,0,0
26685,-85.4700854700855,4,2,7,5,0,0
26760,-85.4700854700855,4,2,7,87,0,0
26910,-85.4700854700855,4,2,77,87,0,0
27135,-85.4700854700855,4,2,77,5,0,0
27210,-85.4700854700855,4,2,77,87,0,0
27585,-85.4700854700855,4,2,77,5,0,0
27660,-85.4700854700855,4,2,77,87,0,0
28335,-85.4700854700855,4,2,77,5,0,0
28410,-85.4700854700855,4,2,77,87,0,0
29610,-149.253731343284,4,2,77,57,0,0
38310,-85.4700854700856,4,2,77,67,0,0
38910,-129.87012987013,4,2,77,67,0,0
42734,-129.87012987013,4,2,77,5,0,0
42810,-129.87012987013,4,2,77,67,0,0
43334,-129.87012987013,4,2,77,5,0,0
43410,-129.87012987013,4,2,77,67,0,0
48510,-114.942528735632,4,2,77,67,0,0
49635,-114.942528735632,4,2,77,5,0,0
49710,-114.942528735632,4,2,77,67,0,0
52710,-212.765957446808,4,2,77,67,0,0
53310,-212.765957446809,4,2,77,27,0,0
55110,-114.942528735632,4,2,77,67,0,0
55710,-93.4579439252336,4,2,77,77,0,0
58110,-68.0272108843537,4,2,77,87,0,0
58334,-68.0272108843537,4,2,77,5,0,0
58410,-85.4700854700855,4,2,77,87,0,0
58485,-85.4700854700855,4,2,77,5,0,0
58560,-85.4700854700855,4,2,77,87,0,0
59010,-175.438596491228,4,2,77,87,0,0
59234,-175.438596491228,4,2,77,5,0,0
59310,-129.87012987013,4,2,77,87,0,0
59610,-103.092783505155,4,2,77,87,0,0
59910,-85.4700854700855,4,2,77,87,0,0
60285,-85.4700854700855,4,2,77,5,0,0
60360,-85.4700854700855,4,2,77,87,0,0
60435,-85.4700854700855,4,2,77,5,0,0
60510,-85.4700854700855,4,2,77,87,0,0
61410,-175.438596491228,4,2,77,87,0,0
61634,-175.438596491228,4,2,77,5,0,0
61710,-85.4700854700855,4,2,77,87,0,0
62910,-68.0272108843537,4,2,77,87,0,0
63134,-68.0272108843537,4,2,77,5,0,0
63209,-85.4700854700855,4,2,77,87,0,0
63285,-85.4700854700855,4,2,77,5,0,0
63360,-85.4700854700855,4,2,77,87,0,0
63809,-175.438596491228,4,2,77,87,0,0
64034,-175.438596491228,4,2,77,5,0,0
64110,-85.4700854700855,4,2,77,87,0,0
64710,-85.4700854700855,4,2,7,87,0,0
64785,-85.4700854700855,4,2,7,5,0,0
64860,-85.4700854700855,4,2,7,87,0,0
64935,-85.4700854700855,4,2,7,5,0,0
65010,-85.4700854700855,4,2,7,87,0,0
65085,-85.4700854700855,4,2,7,5,0,0
65160,-85.4700854700855,4,2,7,87,0,0
65235,-85.4700854700855,4,2,7,5,0,0
65310,-85.4700854700855,4,2,77,87,0,0
65610,-103.092783505155,4,2,77,87,0,0
66209,-175.438596491228,4,2,77,87,0,0
66434,-175.438596491228,4,2,77,5,0,0
66509,-85.4700854700855,4,2,77,87,0,0
67710,-93.4579439252336,4,2,77,87,0,0
69510,-93.4579439252336,4,2,7,87,0,0
69884,-93.4579439252336,4,2,7,5,0,0
69960,-93.4579439252336,4,2,7,87,0,0
70034,-93.4579439252336,4,2,7,5,0,0
70110,-68.0272108843537,4,2,77,87,0,0
70334,-68.0272108843537,4,2,77,5,0,0
70410,-175.438596491228,4,2,77,87,0,0
70710,-68.0272108843537,4,2,77,87,0,0
70934,-68.0272108843537,4,2,77,5,0,0
71010,-175.438596491228,4,2,77,87,0,0
71310,-68.0272108843537,4,2,77,87,0,0
71534,-68.0272108843537,4,2,77,5,0,0
71610,-175.438596491228,4,2,77,87,0,0
71910,-93.4579439252336,4,2,77,87,0,0
72510,-129.87012987013,4,2,77,87,0,0
73710,-129.87012987013,4,2,7,87,0,0
74910,-93.4579439252336,4,2,77,87,0,0
74984,-93.4579439252336,4,2,77,5,0,0
75060,-93.4579439252336,4,2,77,87,0,0
75434,-93.4579439252336,4,2,77,5,0,0
75510,-93.4579439252336,4,2,77,87,0,0
75884,-93.4579439252336,4,2,77,5,0,0
75960,-93.4579439252336,4,2,77,87,0,0
76260,-68.0272108843537,4,2,77,87,0,0
76334,-68.0272108843537,4,2,77,5,0,0
76410,-78.7401574803149,4,2,77,87,0,0
76484,-78.7401574803149,4,2,77,5,0,0
76560,-93.4579439252336,4,2,77,87,0,0
76634,-93.4579439252336,4,2,77,5,0,0
76710,-72.992700729927,4,2,77,87,0,0
77310,-85.4700854700855,4,2,77,87,0,0
77535,-85.4700854700855,4,2,77,5,0,0
77610,-85.4700854700855,4,2,77,87,0,0
77835,-85.4700854700855,4,2,77,5,0,0
77910,-85.4700854700855,4,2,77,87,0,0
78435,-85.4700854700855,4,2,77,5,0,0
78510,-85.4700854700855,4,2,77,87,0,0
79110,-85.4700854700855,4,2,7,87,0,0
79185,-85.4700854700855,4,2,7,5,0,0
79260,-85.4700854700855,4,2,7,87,0,0
79485,-85.4700854700855,4,2,7,5,0,0
79560,-85.4700854700855,4,2,7,87,0,0
79710,-85.4700854700855,4,2,77,87,0,0
79935,-85.4700854700855,4,2,77,5,0,0
80010,-85.4700854700855,4,2,77,87,0,0
80235,-85.4700854700855,4,2,77,5,0,0
80310,-85.4700854700855,4,2,77,87,0,0
80835,-85.4700854700855,4,2,77,5,0,0
80910,-85.4700854700855,4,2,77,87,0,0
81510,-85.4700854700855,4,2,7,87,0,0
81585,-85.4700854700855,4,2,7,5,0,0
81660,-85.4700854700855,4,2,7,87,0,0
81885,-85.4700854700855,4,2,7,5,0,0
81960,-85.4700854700855,4,2,7,87,0,0
82110,-85.4700854700855,4,2,77,87,0,0
82335,-85.4700854700855,4,2,77,5,0,0
82410,-85.4700854700855,4,2,77,87,0,0
82635,-85.4700854700855,4,2,77,5,0,0
82710,-85.4700854700855,4,2,77,87,0,0
83235,-85.4700854700855,4,2,77,5,0,0
83310,-85.4700854700855,4,2,77,87,0,0
83910,-85.4700854700855,4,2,7,87,0,0
83985,-85.4700854700855,4,2,7,5,0,0
84060,-85.4700854700855,4,2,7,87,0,0
84285,-85.4700854700855,4,2,7,5,0,0
84360,-85.4700854700855,4,2,7,87,0,0
84510,-85.4700854700855,4,2,77,87,0,0
84735,-85.4700854700855,4,2,77,5,0,0
84810,-85.4700854700855,4,2,77,87,0,0
85185,-85.4700854700855,4,2,77,5,0,0
85260,-85.4700854700855,4,2,77,87,0,0
85635,-85.4700854700855,4,2,77,5,0,0
85710,-85.4700854700855,4,2,77,87,0,0
86910,-129.87012987013,4,2,77,67,0,0
88634,-129.87012987013,4,2,77,5,0,0
88710,-129.87012987013,4,2,77,67,0,0
91334,-129.87012987013,4,2,77,5,0,0
91410,-129.87012987013,4,2,77,67,0,0
96210,-175.438596491228,4,2,77,67,0,0
96810,-370.370370370372,4,2,77,27,0,0
101235,-370.370370370372,4,2,77,5,0,0
101310,-129.87012987013,4,2,77,67,0,0
106110,-212.765957446809,4,2,77,27,0,0
110910,-175.438596491228,4,2,77,47,0,0
111210,-129.87012987013,4,2,77,57,0,0
111510,-103.092783505155,4,2,77,67,0,0
111810,-85.4700854700855,4,2,77,77,0,0
115709,-68.0272108843537,4,2,77,87,0,0
115934,-68.0272108843537,4,2,77,5,0,0
116009,-85.4700854700855,4,2,77,87,0,0
116085,-85.4700854700855,4,2,77,5,0,0
116160,-85.4700854700855,4,2,77,87,0,0
116609,-175.438596491228,4,2,77,87,0,0
116834,-175.438596491228,4,2,77,5,0,0
116909,-129.87012987013,4,2,77,87,0,0
117209,-103.092783505155,4,2,77,87,0,0
117509,-85.4700854700855,4,2,77,87,0,0
117885,-85.4700854700855,4,2,77,5,0,0
117960,-85.4700854700855,4,2,77,87,0,0
118035,-85.4700854700855,4,2,77,5,0,0
118110,-85.4700854700855,4,2,77,87,0,0
119009,-175.438596491228,4,2,77,87,0,0
119234,-175.438596491228,4,2,77,5,0,0
119309,-85.4700854700855,4,2,77,87,0,0
120509,-68.0272108843537,4,2,77,87,0,0
120734,-68.0272108843537,4,2,77,5,0,0
120808,-85.4700854700855,4,2,77,87,0,0
120885,-85.4700854700855,4,2,77,5,0,0
120960,-85.4700854700855,4,2,77,87,0,0
121408,-175.438596491228,4,2,77,87,0,0
121634,-175.438596491228,4,2,77,5,0,0
121709,-85.4700854700855,4,2,77,87,0,0
122310,-85.4700854700855,4,2,7,87,0,0
122385,-85.4700854700855,4,2,7,5,0,0
122460,-85.4700854700855,4,2,7,87,0,0
122535,-85.4700854700855,4,2,7,5,0,0
122610,-85.4700854700855,4,2,7,87,0,0
122685,-85.4700854700855,4,2,7,5,0,0
122760,-85.4700854700855,4,2,7,87,0,0
122835,-85.4700854700855,4,2,7,5,0,0
122910,-85.4700854700855,4,2,77,87,0,0
123209,-103.092783505155,4,2,77,87,0,0
123435,-103.092783505155,4,2,77,5,0,0
123510,-103.092783505155,4,2,77,87,0,0
123808,-175.438596491228,4,2,77,87,0,0
124034,-175.438596491228,4,2,77,5,0,0
124108,-85.4700854700855,4,2,77,87,0,0
125309,-93.4579439252336,4,2,77,87,0,0
126134,-93.4579439252336,4,2,77,5,0,0
126210,-93.4579439252336,4,2,77,87,0,0
127110,-93.4579439252336,4,2,7,87,0,0
127484,-93.4579439252336,4,2,7,5,0,0
127560,-93.4579439252336,4,2,7,87,0,0
127634,-93.4579439252336,4,2,7,5,0,0
127709,-68.0272108843537,4,2,77,87,0,0
127934,-68.0272108843537,4,2,77,5,0,0
128009,-175.438596491228,4,2,77,87,0,0
128309,-68.0272108843537,4,2,77,87,0,0
128534,-68.0272108843537,4,2,77,5,0,0
128609,-175.438596491228,4,2,77,87,0,0
128909,-68.0272108843537,4,2,77,87,0,0
129134,-68.0272108843537,4,2,77,5,0,0
129209,-175.438596491228,4,2,77,87,0,0
129509,-93.4579439252336,4,2,77,87,0,0
130109,-129.87012987013,4,2,77,87,0,0
131310,-129.87012987013,4,2,7,87,0,0
132509,-93.4579439252336,4,2,77,87,0,0
132584,-93.4579439252336,4,2,77,5,0,0
132660,-93.4579439252336,4,2,77,87,0,0
133034,-93.4579439252336,4,2,77,5,0,0
133110,-93.4579439252336,4,2,77,87,0,0
133484,-93.4579439252336,4,2,77,5,0,0
133560,-93.4579439252336,4,2,77,87,0,0
133859,-68.0272108843537,4,2,77,87,0,0
133935,-93.4579439252336,4,2,77,5,0,0
134009,-78.7401574803149,4,2,77,87,0,0
134085,-93.4579439252336,4,2,77,5,0,0
134159,-93.4579439252336,4,2,77,87,0,0
134235,-93.4579439252336,4,2,77,5,0,0
134309,-72.992700729927,4,2,77,87,0,0
134535,-93.4579439252336,4,2,77,87,0,0
134684,-93.4579439252336,4,2,77,5,0,0
134760,-129.87012987013,4,2,77,87,0,0
134909,-175.438596491228,4,2,77,57,0,0
135210,-212.765957446809,4,2,77,27,0,0
137234,-212.765957446809,4,2,77,5,0,0
137310,-370.370370370374,4,2,7,47,0,0
138135,-370.370370370374,4,2,7,5,0,0
138210,-370.370370370374,4,2,7,47,0,0
138735,-370.370370370374,4,2,7,5,0,0
138960,-370.370370370374,4,2,7,47,0,0
140535,-370.370370370374,4,2,7,5,0,0
140610,-370.370370370374,4,2,7,47,0,0
143460,-370.370370370374,4,2,7,5,0,0
143535,-370.370370370374,4,2,7,47,0,0
143685,-370.370370370374,4,2,7,5,0,0
143760,-370.370370370374,4,2,7,47,0,0
147735,-370.370370370374,4,2,7,5,0,0
147810,-370.370370370374,4,2,7,47,0,0
148335,-370.370370370374,4,2,7,5,0,0
148560,-370.370370370374,4,2,7,47,0,0
150135,-370.370370370374,4,2,7,5,0,0
150210,-370.370370370374,4,2,7,47,0,0
153060,-370.370370370374,4,2,7,5,0,0
153135,-370.370370370374,4,2,7,47,0,0
153285,-370.370370370374,4,2,7,5,0,0
153360,-370.370370370374,4,2,7,47,0,0
156510,-175.438596491228,4,2,7,57,0,0
157110,-175.438596491228,4,2,77,57,0,0
157128,-175.438596491228,4,2,7,57,0,0
158010,-175.438596491228,4,2,77,57,0,0
158028,-175.438596491228,4,2,7,57,0,0
158834,-175.438596491228,4,2,7,5,0,0
158910,-175.438596491228,4,2,7,57,0,0
159510,-175.438596491228,4,2,77,57,0,0
159528,-175.438596491228,4,2,7,57,0,0
160410,-175.438596491228,4,2,77,57,0,0
160428,-175.438596491228,4,2,7,57,0,0
161234,-175.438596491228,4,2,7,5,0,0
161310,-175.438596491228,4,2,7,57,0,0
161910,-175.438596491228,4,2,77,57,0,0
161928,-175.438596491228,4,2,7,57,0,0
162434,-175.438596491228,4,2,7,5,0,0
162510,-175.438596491228,4,2,7,57,0,0
164310,-175.438596491228,4,2,77,57,0,0
164328,-175.438596491228,4,2,7,57,0,0
164610,-175.438596491228,4,2,77,57,0,0
164628,-175.438596491228,4,2,7,57,0,0
166334,-175.438596491228,4,2,7,5,0,0
166410,-175.438596491228,4,2,7,57,0,0
166710,-175.438596491228,4,2,77,57,0,0
166728,-175.438596491228,4,2,7,57,0,0
166934,-175.438596491228,4,2,7,5,0,0
167010,-175.438596491228,4,2,7,57,0,0
167610,-175.438596491228,4,2,77,57,0,0
167628,-175.438596491228,4,2,7,57,0,0
168134,-175.438596491228,4,2,7,5,0,0
168210,-175.438596491228,4,2,7,57,0,0
169110,-175.438596491228,4,2,77,57,0,0
169128,-175.438596491228,4,2,7,57,0,0
170010,-175.438596491228,4,2,77,57,0,0
170028,-175.438596491228,4,2,7,57,0,0
170910,-175.438596491228,4,2,77,57,0,0
171360,-175.438596491228,4,2,7,57,0,0
171378,-175.438596491228,4,2,77,57,0,0
172860,-175.438596491228,4,2,7,57,0,0
172878,-175.438596491228,4,2,77,57,0,0
173160,-175.438596491228,4,2,7,57,0,0
173178,-175.438596491228,4,2,77,57,0,0
173310,-149.253731343284,4,2,77,57,0,0
173760,-149.253731343284,4,2,7,57,0,0
173778,-149.253731343284,4,2,77,57,0,0
174510,-129.87012987013,4,2,77,57,0,0
175260,-129.87012987013,4,2,7,57,0,0
175278,-129.87012987013,4,2,77,57,0,0
175410,-212.765957446809,4,2,77,57,0,0
175710,-370.370370370372,4,2,77,27,0,0
179910,-93.4579439252336,4,2,77,77,0,0
180510,-85.4700854700855,4,2,77,87,0,0
181409,-175.438596491228,4,2,77,87,0,0
181634,-175.438596491228,4,2,77,5,0,0
181709,-85.4700854700855,4,2,77,87,0,0
182909,-68.0272108843537,4,2,77,87,0,0
183134,-68.0272108843537,4,2,77,5,0,0
183208,-85.4700854700855,4,2,77,87,0,0
183808,-175.438596491228,4,2,77,87,0,0
184034,-175.438596491228,4,2,77,5,0,0
184109,-85.4700854700855,4,2,77,87,0,0
184710,-85.4700854700855,4,2,7,87,0,0
184785,-85.4700854700855,4,2,7,5,0,0
184860,-85.4700854700855,4,2,7,87,0,0
184935,-85.4700854700855,4,2,7,5,0,0
185010,-85.4700854700855,4,2,7,87,0,0
185085,-85.4700854700855,4,2,7,5,0,0
185161,-85.4700854700855,4,2,7,87,0,0
185236,-85.4700854700855,4,2,7,5,0,0
185310,-85.4700854700855,4,2,77,87,0,0
185609,-103.092783505155,4,2,77,87,0,0
185835,-103.092783505155,4,2,77,5,0,0
185910,-103.092783505155,4,2,77,87,0,0
186208,-175.438596491228,4,2,77,87,0,0
186434,-175.438596491228,4,2,77,5,0,0
186508,-85.4700854700855,4,2,77,87,0,0
187709,-93.4579439252336,4,2,77,87,0,0
187934,-93.4579439252336,4,2,77,5,0,0
188010,-93.4579439252336,4,2,77,87,0,0
188084,-93.4579439252336,4,2,77,5,0,0
188160,-93.4579439252336,4,2,77,87,0,0
188534,-93.4579439252336,4,2,77,5,0,0
188610,-93.4579439252336,4,2,77,87,0,0
189434,-93.4579439252336,4,2,77,5,0,0
189510,-93.4579439252336,4,2,7,87,0,0
189734,-93.4579439252336,4,2,7,5,0,0
189810,-93.4579439252336,4,2,7,87,0,0
190034,-93.4579439252336,4,2,7,5,0,0
190109,-78.7401574803149,4,2,77,87,0,0
190334,-78.7401574803149,4,2,77,5,0,0
190410,-78.7401574803149,4,2,77,87,0,0
190710,-72.992700729927,4,2,77,87,0,0
190935,-72.992700729927,4,2,77,5,0,0
191010,-72.992700729927,4,2,77,87,0,0
191310,-68.0272108843537,4,2,77,87,0,0
191534,-68.0272108843537,4,2,77,5,0,0
191610,-68.0272108843537,4,2,77,87,0,0
191909,-93.4579439252336,4,2,77,87,0,0
192509,-129.87012987013,4,2,77,87,0,0
193710,-129.87012987013,4,2,7,87,0,0
194909,-93.4579439252336,4,2,77,87,0,0
194984,-93.4579439252336,4,2,77,5,0,0
195060,-93.4579439252336,4,2,77,87,0,0
195434,-93.4579439252336,4,2,77,5,0,0
195510,-93.4579439252336,4,2,77,87,0,0
195884,-93.4579439252336,4,2,77,5,0,0
195960,-93.4579439252336,4,2,77,87,0,0
196259,-68.0272108843537,4,2,77,87,0,0
196334,-68.0272108843537,4,2,77,5,0,0
196409,-78.7401574803149,4,2,77,87,0,0
196484,-78.7401574803149,4,2,77,5,0,0
196559,-93.4579439252336,4,2,77,87,0,0
196634,-93.4579439252336,4,2,77,5,0,0
196709,-72.992700729927,4,2,77,87,0,0
196747,-72.992700729927,4,2,77,5,0,0
196935,-72.992700729927,4,2,77,87,0,0
196972,-72.992700729927,4,2,77,5,0,0
197160,-72.992700729927,4,2,77,87,0,0
197197,-72.992700729927,4,2,77,5,0,0
197309,-85.4700854700855,4,2,77,87,0,0
197385,-85.4700854700855,4,2,77,5,0,0
197460,-85.4700854700855,4,2,77,87,0,0
197835,-85.4700854700855,4,2,77,5,0,0
197910,-85.4700854700855,4,2,77,87,0,0
198585,-85.4700854700855,4,2,77,5,0,0
198660,-85.4700854700855,4,2,77,87,0,0
199260,-85.4700854700855,4,2,7,87,0,0
199485,-85.4700854700855,4,2,7,5,0,0
199560,-85.4700854700855,4,2,7,87,0,0
199710,-85.4700854700855,4,2,77,87,0,0
199935,-85.4700854700855,4,2,77,5,0,0
200010,-85.4700854700855,4,2,77,87,0,0
200235,-85.4700854700855,4,2,77,5,0,0
200310,-85.4700854700855,4,2,77,87,0,0
200985,-85.4700854700855,4,2,77,5,0,0
201060,-85.4700854700855,4,2,77,87,0,0
201510,-85.4700854700855,4,2,7,87,0,0
201585,-85.4700854700855,4,2,7,5,0,0
201660,-85.4700854700855,4,2,7,87,0,0
201885,-85.4700854700855,4,2,7,5,0,0
201960,-85.4700854700855,4,2,7,87,0,0
202110,-85.4700854700855,4,2,77,87,0,0
202335,-85.4700854700855,4,2,77,5,0,0
202410,-85.4700854700855,4,2,77,87,0,0
202635,-85.4700854700855,4,2,77,5,0,0
202710,-85.4700854700855,4,2,77,87,0,0
203385,-85.4700854700855,4,2,77,5,0,0
203460,-85.4700854700855,4,2,77,87,0,0
203910,-85.4700854700855,4,2,7,87,0,0
203985,-85.4700854700855,4,2,7,5,0,0
204060,-85.4700854700855,4,2,7,87,0,0
204285,-85.4700854700855,4,2,7,5,0,0
204360,-85.4700854700855,4,2,7,87,0,0
204510,-85.4700854700855,4,2,77,87,0,0
204735,-85.4700854700855,4,2,77,5,0,0
204810,-85.4700854700855,4,2,77,87,0,0
205035,-85.4700854700855,4,2,77,5,0,0
205110,-85.4700854700855,4,2,77,87,0,0
205785,-85.4700854700855,4,2,77,5,0,0
205860,-85.4700854700855,4,2,77,87,0,0
207135,-85.4700854700855,4,2,77,5,0,0
207210,-85.4700854700855,4,2,77,87,0,0
207435,-85.4700854700855,4,2,77,5,0,0
207510,-85.4700854700855,4,2,77,87,0,0
208035,-85.4700854700855,4,2,77,5,0,0
208110,-85.4700854700855,4,2,77,87,0,0
208710,-85.4700854700855,4,2,7,87,0,0
208785,-85.4700854700855,4,2,7,5,0,0
208860,-85.4700854700855,4,2,7,87,0,0
209085,-85.4700854700855,4,2,7,5,0,0
209160,-85.4700854700855,4,2,7,87,0,0
209310,-85.4700854700855,4,2,77,87,0,0
209535,-85.4700854700855,4,2,77,5,0,0
209610,-85.4700854700855,4,2,77,87,0,0
209835,-85.4700854700855,4,2,77,5,0,0
209910,-85.4700854700855,4,2,77,87,0,0
210435,-85.4700854700855,4,2,77,5,0,0
210510,-85.4700854700855,4,2,77,87,0,0
211110,-85.4700854700855,4,2,7,87,0,0
211185,-85.4700854700855,4,2,7,5,0,0
211260,-85.4700854700855,4,2,7,87,0,0
211485,-85.4700854700855,4,2,7,5,0,0
211560,-85.4700854700855,4,2,7,87,0,0
211710,-85.4700854700855,4,2,77,87,0,0
211935,-85.4700854700855,4,2,77,5,0,0
212010,-85.4700854700855,4,2,77,87,0,0
212235,-85.4700854700855,4,2,77,5,0,0
212310,-85.4700854700855,4,2,77,87,0,0
212835,-85.4700854700855,4,2,77,5,0,0
212910,-85.4700854700855,4,2,77,87,0,0
213510,-85.4700854700855,4,2,7,87,0,0
213585,-85.4700854700855,4,2,7,5,0,0
213660,-85.4700854700855,4,2,7,87,0,0
213885,-85.4700854700855,4,2,7,5,0,0
213960,-85.4700854700855,4,2,7,87,0,0
214110,-85.4700854700855,4,2,77,87,0,0
214335,-85.4700854700855,4,2,77,5,0,0
214410,-85.4700854700855,4,2,77,87,0,0
214785,-85.4700854700855,4,2,77,5,0,0
214860,-85.4700854700855,4,2,77,87,0,0
215235,-85.4700854700855,4,2,77,5,0,0
215310,-85.4700854700855,4,2,77,87,0,0
216360,-370.370370370372,4,2,47,47,0,0
216510,-370.370370370372,4,2,77,5,0,0

[Colours]
Combo1 : 180,180,180
Combo2 : 74,74,74

[HitObjects]
272,50,9510,6,0,B|327:40|311:-48|217:-62|170:37|215:94,1,246.382496992401,0|0,1:0|2:0,0:0:0:0:
281,127,10110,6,0,P|276:164|271:222,1,72.2475002756023,12|0,0:0|2:0,0:0:0:0:
382,302,10260,1,0,1:0:0:0:
348,230,10410,1,0,1:0:0:0:
159,284,10560,6,0,P|124:272|89:264,1,72.2475002756023,8|0,0:0|2:0,0:0:0:0:
205,351,10710,1,0,1:0:0:0:
239,279,10860,1,0,1:0:0:0:
0,79,11010,6,0,P|-1:114|20:142,1,72.2475002756023,8|0,0:0|2:0,0:0:0:0:
231,163,11160,2,0,P|201:142|166:146,1,72.2475002756023,0|0,1:0|2:0,0:0:0:0:
41,310,11310,2,0,P|73:296|88:264,1,72.2475002756023,0|0,1:0|2:0,0:0:0:0:
92,181,11460,5,8,0:0:0:0:
292,349,11610,1,0,1:0:0:0:
414,132,11760,1,0,1:0:0:0:
333,80,11910,5,8,0:0:0:0:
330,137,11985,1,8,0:0:0:0:
326,194,12060,1,2,1:0:0:0:
324,208,12135,1,0,1:0:0:0:
323,222,12210,2,0,P|290:215|237:203,1,72.2475002756023,10|0,0:0|2:0,0:0:0:0:
421,32,12360,2,0,P|456:40|491:46,1,72.2475002756023,2|0,1:0|2:0,0:0:0:0:
245,194,12510,6,0,B|221:173|176:176|156:222|156:222|137:269|92:272|68:251,1,216.742500826807,12|0,0:0|2:0,0:0:0:0:
44,177,12810,1,0,1:0:0:0:
271,298,12960,6,0,P|303:304|357:317,1,72.2475002756023,8|0,0:0|2:0,0:0:0:0:
323,222,13110,1,0,1:0:0:0:
287,384,13260,1,0,1:0:0:0:
323,222,13410,6,0,P|315:186|307:126,1,72.2475002756023,8|0,0:0|2:0,0:0:0:0:
132,174,13560,2,0,P|166:186|221:211,1,72.2475002756023,0|0,1:0|2:0,0:0:0:0:
274,2,13710,2,0,P|245:24|194:58,1,72.2475002756023,0|0,1:0|2:0,0:0:0:0:
233,126,13860,5,8,0:0:0:0:
406,251,14010,1,0,1:0:0:0:
340,151,14160,1,0,1:0:0:0:
270,345,14310,6,0,B|272:356|272:356|286:353|284:341|281:329|267:333|267:333|253:336|255:348|258:360|272:356|272:356,1,90.772495775511,10|0,0:0|2:0,0:0:0:0:
80,293,14460,1,2,1:0:0:0:
233,126,14610,6,0,B|225:116|225:116|214:126|221:135|229:144|240:135|240:135|251:125|244:116|236:107|225:116|225:116,1,90.772495775511,10|0,0:0|2:0,0:0:0:0:
203,248,14760,1,2,1:0:0:0:
14,64,14910,6,0,P|117:49|242:25,1,216.742500826807,12|0,0:0|2:0,0:0:0:0:
302,61,15210,1,0,1:0:0:0:
197,257,15360,6,0,P|162:266|122:280,1,72.2475002756023,8|0,0:0|2:0,0:0:0:0:
236,383,15510,1,0,1:0:0:0:
265,306,15660,1,0,1:0:0:0:
126,177,15810,6,0,P|117:143|109:86,1,72.2475002756023,8|0,0:0|2:0,0:0:0:0:
348,177,15960,2,0,P|324:201|279:239,1,72.2475002756023,0|0,1:0|2:0,0:0:0:0:
243,7,16110,2,0,P|276:14|332:31,1,72.2475002756023,0|0,1:0|2:0,0:0:0:0:
245,119,16260,5,8,0:0:0:0:
384,272,16410,1,0,1:0:0:0:
441,69,16560,1,0,1:0:0:0:
363,100,16710,6,0,P|350:138|379:180,1,72.2475002756023,10|0,0:0|2:0,0:0:0:0:
435,190,16860,1,2,1:0:0:0:
244,224,17010,6,0,P|278:245|325:226,1,72.2475002756023,10|0,0:0|2:0,0:0:0:0:
432,201,17160,1,2,1:0:0:0:
189,295,17310,6,0,B|165:274|120:277|100:323|100:323|81:370|36:373|12:352,1,216.742500826807,12|0,0:0|2:0,0:0:0:0:
9,340,17610,1,0,1:0:0:0:
216,196,17760,6,0,B|277:178|296:79|219:39|160:96|195:133,1,216.742500826807,8|0,0:0|2:0,0:0:0:0:
189,123,18060,1,0,1:0:0:0:
437,360,18210,6,0,P|443:326|454:277,1,72.2475002756023,8|0,0:0|2:0,0:0:0:0:
354,227,18360,2,0,P|347:193|337:144,1,72.2475002756023,0|0,1:0|2:0,0:0:0:0:
492,112,18510,2,0,P|498:78|509:29,1,72.2475002756023,0|0,1:0|2:0,0:0:0:0:
443,190,18660,5,8,0:0:0:0:
211,33,18810,1,0,1:0:0:0:
262,103,18960,1,8,0:0:0:0:
250,152,19035,1,8,0:0:0:0:
239,201,19110,1,8,0:0:0:0:
343,63,19260,1,8,0:0:0:0:
151,131,19410,1,8,0:0:0:0:
305,281,19560,1,8,0:0:0:0:
245,342,19710,6,0,P|147:295|43:265,1,216.742500826807,12|0,0:0|2:0,0:0:0:0:
36,276,20010,1,0,1:0:0:0:
231,134,20160,1,8,0:0:0:0:
132,102,20310,5,0,1:0:0:0:
218,231,20460,1,0,1:0:0:0:
328,130,20610,6,0,P|334:95|345:46,1,72.2475002756023,8|0,0:0|2:0,0:0:0:0:
460,174,20760,2,0,P|485:197|522:232,1,72.2475002756023,0|0,1:0|2:0,0:0:0:0:
342,293,20910,2,0,P|308:302|259:314,1,72.2475002756023,0|0,1:0|2:0,0:0:0:0:
378,211,21060,5,8,0:0:0:0:
202,251,21210,1,0,1:0:0:0:
107,94,21360,1,0,1:0:0:0:
175,65,21510,6,0,P|188:103|159:145,1,72.2475002756023,10|0,0:0|2:0,0:0:0:0:
103,173,21660,1,2,1:0:0:0:
276,218,21810,6,0,P|242:239|195:220,1,72.2475002756023,10|0,0:0|2:0,0:0:0:0:
97,182,21960,1,2,1:0:0:0:
423,43,22110,6,0,P|395:137|376:268,1,216.742500826807,12|0,0:0|2:0,0:0:0:0:
390,262,22410,1,0,1:0:0:0:
300,79,22560,6,0,P|264:87|229:93,1,72.2475002756023,8|0,0:0|2:0,0:0:0:0:
279,171,22710,1,0,1:0:0:0:
248,9,22860,1,0,1:0:0:0:
279,171,23010,6,0,P|270:208|251:262,1,72.2475002756023,8|0,0:0|2:0,0:0:0:0:
53,176,23160,2,0,P|89:164|145:151,1,72.2475002756023,0|0,1:0|2:0,0:0:0:0:
189,367,23310,2,0,P|159:342|119:301,1,72.2475002756023,0|0,1:0|2:0,0:0:0:0:
171,231,23460,5,8,0:0:0:0:
387,296,23610,1,0,1:0:0:0:
311,336,23760,1,0,1:0:0:0:
387,296,23910,6,0,P|404:263|382:206,1,72.2475002756023,10|0,0:0|2:0,0:0:0:0:
330,199,24060,1,2,1:0:0:0:
512,140,24210,6,0,P|483:116|423:124,1,72.2475002756023,10|0,0:0|2:0,0:0:0:0:
335,189,24360,1,2,1:0:0:0:
170,96,24510,6,0,B|144:39|208:-38|289:-5|284:77|232:73,1,216.742500826807,12|0,0:0|2:0,0:0:0:0:
245,72,24810,1,0,1:0:0:0:
74,155,24960,6,0,P|70:192|62:242,1,72.2475002756023,8|0,0:0|2:0,0:0:0:0:
178,335,25110,1,0,1:0:0:0:
142,264,25260,1,0,1:0:0:0:
29,311,25410,6,0,P|65:319|104:332,1,72.2475002756023,8|0,0:0|2:0,0:0:0:0:
185,201,25560,2,0,P|220:194|255:183,1,72.2475002756023,0|0,1:0|2:0,0:0:0:0:
356,349,25710,2,0,P|391:356|425:367,1,72.2475002756023,0|0,1:0|2:0,0:0:0:0:
463,97,25860,5,8,0:0:0:0:
298,271,26010,1,0,1:0:0:0:
210,46,26160,1,0,1:0:0:0:
318,141,26310,6,0,L|406:163,1,72.2475002756023,10|0,0:0|2:0,0:0:0:0:
292,65,26460,1,2,1:0:0:0:
145,200,26610,6,0,L|57:222,1,72.2475002756023,10|0,0:0|2:0,0:0:0:0:
171,124,26760,1,2,1:0:0:0:
256,384,26910,6,0,B|228:367|218:324|256:291|256:291|294:259|283:215|256:199,1,216.742500826807,12|0,0:0|2:0,0:0:0:0:
241,198,27210,1,0,1:0:0:0:
119,13,27360,6,0,B|71:29|13:39|13:39|31:90|39:144,1,216.742500826807,8|0,0:0|2:0,0:0:0:0:
48,146,27660,5,0,1:0:0:0:
248,21,27810,1,8,0:0:0:0:
362,216,27960,1,0,1:0:0:0:
344,89,28110,5,0,1:0:0:0:
169,280,28260,2,0,L|87:299,1,72.2475002756023,8|0,0:0|2:0,0:0:0:0:
352,324,28410,1,0,1:0:0:0:
295,384,28560,5,8,0:0:0:0:
269,339,28635,1,8,0:0:0:0:
269,288,28710,1,8,0:0:0:0:
412,175,28860,1,8,0:0:0:0:
300,31,29010,1,8,0:0:0:0:
155,144,29160,1,8,0:0:0:0:
287,165,29310,5,4,1:2:0:0:
119,311,29610,5,6,0:3:0:0:
140,242,29760,1,8,0:3:0:0:
16,200,29910,5,6,0:3:0:0:
63,254,30060,1,4,0:3:0:0:
169,162,30210,5,10,0:3:0:0:
98,173,30360,1,4,0:3:0:0:
235,281,30510,6,0,P|282:288|329:299,1,82.7449960859758,6|4,0:3|0:3,0:0:0:0:
495,164,30810,2,0,P|448:156|401:145,1,82.7449960859758,6|4,0:3|0:3,0:0:0:0:
176,55,31110,5,6,0:3:0:0:
191,129,31260,1,4,0:3:0:0:
209,202,31410,1,6,0:3:0:0:
512,325,31710,5,6,0:3:0:0:
497,251,31860,1,0,1:3:0:0:
479,178,32010,1,4,0:3:0:0:
420,272,32160,1,8,0:3:0:0:
298,151,32310,5,4,0:3:0:0:
371,132,32460,1,8,0:3:0:0:
319,229,32610,5,8,0:3:0:0:
246,210,32760,1,4,0:3:0:0:
377,127,32910,6,0,P|388:82|407:21,2,82.7449960859758,6|8|4,0:3|0:3|0:3,0:0:0:0:
466,110,33360,1,4,0:3:0:0:
311,64,33510,2,0,P|266:75|205:94,2,82.7449960859758,10|8|4,0:3|0:3|0:3,0:0:0:0:
244,0,33960,1,0,0:0:0:0:
297,154,34110,1,4,0:3:0:0:
59,317,34410,5,6,0:3:0:0:
83,246,34560,1,8,0:3:0:0:
219,171,34710,5,6,0:3:0:0:
147,188,34860,1,4,0:3:0:0:
15,111,35010,5,10,0:3:0:0:
68,163,35160,1,4,0:3:0:0:
164,276,35310,6,0,P|202:261|256:249,1,82.7449960859758,6|4,0:3|0:3,0:0:0:0:
484,185,35610,2,0,P|445:199|391:210,1,82.7449960859758,6|4,0:3|0:3,0:0:0:0:
223,76,35910,5,6,0:3:0:0:
271,19,36060,1,4,0:3:0:0:
339,48,36210,1,6,0:3:0:0:
335,268,36510,5,6,0:3:0:0:
316,195,36660,1,0,1:3:0:0:
298,122,36810,1,4,0:3:0:0:
238,216,36960,1,8,0:3:0:0:
126,106,37110,5,4,0:3:0:0:
143,33,37260,1,8,0:3:0:0:
118,116,37410,5,8,0:3:0:0:
135,189,37560,1,4,0:3:0:0:
66,241,37710,6,0,P|91:210|133:201,2,82.7449960859758,6|8|4,0:3|0:3|0:3,0:0:0:0:
31,147,38160,1,4,0:3:0:0:
134,280,38310,5,10,0:0:0:0:
142,292,38385,2,0,P|176:297|217:308,1,72.2475002756023,8|0,0:0|0:0,0:0:0:0:
273,251,38535,5,0,1:0:0:0:
270,236,38610,1,8,0:0:0:0:
501,303,38910,6,0,P|410:321|312:363,1,190.18999622731,4|10,1:0|0:0,0:0:0:0:
320,358,39360,1,0,0:0:0:0:
391,213,39510,2,0,P|396:159|356:123,1,95.0949981136551,2|0,1:0|0:0,0:0:0:0:
181,3,39810,2,0,P|169:55|204:96,1,95.0949981136551,10|0,0:0|0:0,0:0:0:0:
320,185,40110,6,0,P|331:115|364:-5,2,190.18999622731,2|10|2,1:0|0:0|1:0,0:0:0:0:
320,185,40860,1,0,0:0:0:0:
200,303,41010,2,8,B|119:276|92:329|12:303,1,190.18999622731,10|0,0:0|1:0,0:0:0:0:
114,331,41460,1,0,0:0:0:0:
53,226,41610,2,0,P|48:177|40:120,1,95.0949981136551,10|0,0:0|0:0,0:0:0:0:
284,251,41910,2,0,P|288:299|297:357,1,95.0949981136551,2|0,1:0|0:0,0:0:0:0:
269,103,42210,1,10,0:0:0:0:
269,103,42510,6,0,P|213:79|123:72,1,142.642497170483,2|0,1:0|2:0,0:0:0:0:
125,84,42810,1,10,0:0:0:0:
330,294,43110,6,0,P|386:318|476:325,1,142.642497170483,2|0,1:0|2:0,0:0:0:0:
474,313,43410,1,10,0:0:0:0:
351,170,43710,5,2,1:0:0:0:
320,89,43860,1,0,0:0:0:0:
355,184,44010,6,0,P|410:197|423:230,1,95.0949981136551,8|0,0:0|0:0,0:0:0:0:
312,82,44310,2,0,P|227:85|188:-2,1,190.18999622731,2|8,1:0|0:0,0:0:0:0:
2,270,44910,6,0,P|87:267|126:354,1,190.18999622731,2|8,1:0|0:0,0:0:0:0:
402,171,45510,1,2,1:0:0:0:
338,221,45660,1,0,0:0:0:0:
418,271,45810,1,8,0:0:0:0:
413,252,45960,1,0,0:0:0:0:
340,311,46110,6,0,B|259:284|232:337|152:311,1,190.18999622731,2|8,1:0|0:0,0:0:0:0:
75,144,46710,1,2,1:0:0:0:
102,72,46860,1,0,0:0:0:0:
179,62,47010,1,8,0:0:0:0:
183,80,47160,1,0,0:0:0:0:
42,17,47310,5,2,1:0:0:0:
227,219,47610,2,0,P|282:206|295:169,1,95.0949981136551,8|0,0:0|0:0,0:0:0:0:
460,31,47910,5,10,0:0:0:0:
419,16,47985,1,8,0:0:0:0:
379,31,48060,1,0,1:0:0:0:
361,70,48135,1,0,1:0:0:0:
363,84,48210,5,8,0:0:0:0:
364,98,48285,1,4,0:3:0:0:
365,112,48360,1,4,0:3:0:0:
367,126,48435,1,4,0:3:0:0:
368,140,48510,1,4,1:0:0:0:
427,199,48660,1,0,1:0:0:0:
220,136,48810,6,0,P|166:126|104:98,1,107.445000901714,10|0,0:0|1:0,0:0:0:0:
346,267,49110,2,0,P|366:318|375:385,1,107.445000901714,2|0,1:0|1:0,0:0:0:0:
30,371,49410,2,0,P|92:323|182:291,1,161.167501352571,10|0,0:0|2:0,0:0:0:0:
178,304,49710,6,0,P|231:289|236:239,1,107.445000901714,2|0,0:0|1:0,0:0:0:0:
157,30,50010,2,0,P|141:82|181:113,1,107.445000901714,10|0,0:0|1:0,0:0:0:0:
252,156,50235,1,0,0:0:0:0:
262,158,50310,2,0,P|339:168|374:177,1,107.445000901714,2|0,1:0|1:0,0:0:0:0:
487,65,50610,1,10,0:0:0:0:
487,65,50910,5,2,1:0:0:0:
375,170,51060,1,0,1:0:0:0:
446,307,51210,1,8,0:0:0:0:
134,248,51510,5,2,0:0:0:0:
246,143,51660,1,0,1:0:0:0:
175,6,51810,1,8,0:0:0:0:
250,50,51960,5,0,1:0:0:0:
32,125,52110,5,10,0:0:0:0:
80,187,52210,5,8,0:0:0:0:
157,171,52310,5,8,0:0:0:0:
165,158,52410,5,2,0:3:0:0:
214,150,52510,5,8,0:3:0:0:
252,182,52610,5,12,0:3:0:0:
276,254,52710,6,0,L|265:313,2,38.6966660762024,6|4|4,1:3|0:3|0:3,0:0:0:0:
332,197,53010,2,0,P|391:189|431:229,1,116.089998228607,0|2,1:0|0:0,0:0:0:0:
161,100,55260,6,0,L|100:83,2,53.7225004508572,0|0|8,1:0|1:0|0:0,0:0:0:0:
161,100,55710,5,8,0:0:0:0:
299,299,55860,5,0,1:0:0:0:
359,292,55935,1,0,1:0:0:0:
374,235,56010,1,8,0:0:0:0:
289,64,56160,5,0,1:0:0:0:
263,118,56235,1,0,1:0:0:0:
303,161,56310,1,8,0:0:0:0:
488,167,56460,5,0,1:0:0:0:
455,116,56535,1,0,1:0:0:0:
398,127,56610,1,8,0:0:0:0:
253,232,56760,5,0,1:0:0:0:
101,126,56910,1,8,0:0:0:0:
92,136,56985,2,0,P|97:204|112:266,1,132.144995967255,8|0,0:0|1:0,0:0:0:0:
180,297,57210,1,8,0:0:0:0:
180,60,57360,5,8,0:0:0:0:
129,45,57435,1,8,0:0:0:0:
77,32,57510,1,8,0:0:0:0:
244,170,57660,1,0,1:0:0:0:
294,109,57810,5,8,0:3:0:0:
290,93,57885,1,8,0:3:0:0:
288,78,57960,1,8,0:3:0:0:
286,63,58035,1,8,0:3:0:0:
254,36,58110,6,0,B|284:11|341:17|361:77|361:77|383:136|439:143|471:119,1,272.317487326533,6|0,1:0|2:0,0:0:0:0:
475,109,58410,2,0,P|450:81|404:86,1,72.2475002756023,10|0,0:0|2:0,0:0:0:0:
238,231,58560,1,0,0:0:0:0:
213,245,58635,1,0,0:0:0:0:
183,239,58710,2,0,P|168:166|241:159,1,144.495000551205,2|0,0:0|1:0,0:0:0:0:
427,331,59010,6,0,B|460:342|488:307|488:307|458:327|425:315,1,105.592498711029,10|0,0:0|2:0,0:0:0:0:
364,270,59310,6,0,P|404:236|451:247,1,95.0949981136551,2|0,0:0|1:0,0:0:0:0:
213,223,59610,2,0,P|208:170|258:106,1,119.795002833286,10|0,0:0|1:0,0:0:0:0:
80,315,59910,2,0,P|34:288|6:187,1,144.495000551205,2|0,0:0|1:0,0:0:0:0:
72,166,60135,1,0,0:0:0:0:
84,158,60210,2,0,P|110:128|100:81,1,72.2475002756023,8|0,0:0|2:0,0:0:0:0:
28,68,60360,2,0,P|2:98|12:145,1,72.2475002756023,0|0,0:0|2:0,0:0:0:0:
184,322,60510,6,0,P|291:267|467:232,2,288.990001102409,2|10|2,1:0|0:0|0:0,0:0:0:0:
339,335,61260,1,0,1:0:0:0:
228,117,61410,6,0,B|217:84|252:56|252:56|232:86|244:119,1,105.592498711029,10|0,0:0|2:0,0:0:0:0:
302,145,61710,6,0,B|359:199|478:153|470:43|369:18|353:81,1,288.990001102409,2|8,0:0|0:0,0:0:0:0:
455,232,62160,1,0,1:0:0:0:
403,287,62310,2,0,P|332:300|267:331,1,144.495000551205,2|0,0:0|1:0,0:0:0:0:
46,250,62610,1,8,0:0:0:0:
118,312,62760,5,0,3:0:0:0:
118,312,62835,1,0,3:0:0:0:
118,312,62910,2,0,B|86:287|79:231|132:196|132:196|184:161|177:105|146:81,1,272.317487326533,6|0,1:0|2:0,0:0:0:0:
135,82,63210,2,0,P|117:123|140:162,1,72.2475002756023,10|0,0:0|2:0,0:0:0:0:
334,288,63360,1,0,0:0:0:0:
361,297,63435,1,0,0:0:0:0:
386,310,63510,2,0,P|445:270|404:196,1,144.495000551205,2|0,0:0|1:0,0:0:0:0:
256,85,63810,6,0,B|242:56|255:18|255:18|224:27|241:56,1,105.592498711029,10|0,0:0|2:0,0:0:0:0:
330,124,64110,5,2,0:0:0:0:
393,69,64260,1,0,1:0:0:0:
121,108,64410,5,10,0:0:0:0:
73,40,64560,1,0,1:0:0:0:
200,311,64710,6,0,B|199:331|179:351|179:351|183:325,1,72.2475002756023,2|0,1:0|2:0,0:0:0:0:
218,127,64860,2,0,B|218:106|238:86|238:86|234:112,1,72.2475002756023,2|0,1:0|2:0,0:0:0:0:
105,216,65010,6,0,B|84:215|64:195|64:195|90:199,1,72.2475002756023,10|0,0:0|2:0,0:0:0:0:
308,211,65160,2,0,B|328:211|348:231|348:231|322:227,1,72.2475002756023,2|0,0:0|2:0,0:0:0:0:
205,221,65310,5,2,1:0:0:0:
398,0,65610,6,0,P|358:49|382:107,1,119.795002833286,10|0,0:0|0:0,0:0:0:0:
512,257,65910,2,0,P|525:201|486:158,1,119.795002833286,2|0,0:0|1:0,0:0:0:0:
374,196,66135,5,0,0:0:0:0:
362,201,66210,2,0,P|371:244|400:210,1,105.592498711029,10|0,0:0|2:0,0:0:0:0:
294,141,66510,6,0,B|264:117|212:124|195:206|195:206|178:288|126:294|97:271,1,288.990001102409,2|8,0:0|0:0,0:0:0:0:
20,66,66960,5,0,1:0:0:0:
84,119,67110,1,2,0:0:0:0:
204,41,67260,5,0,1:0:0:0:
3,148,67410,1,8,0:0:0:0:
39,230,67560,5,0,0:0:0:0:
39,230,67635,1,0,0:0:0:0:
39,230,67710,2,0,P|103:241|166:271,1,132.144995967255,6|0,1:0|0:0,0:0:0:0:
264,0,68010,2,0,P|220:48|161:85,1,132.144995967255,10|0,0:0|0:0,0:0:0:0:
368,288,68310,2,0,P|343:227|335:158,1,132.144995967255,2|0,1:0|0:0,0:0:0:0:
214,187,68610,1,10,0:0:0:0:
497,261,68910,6,0,B|465:236|410:243|389:302|389:302|369:360|313:367|282:343,1,264.28999193451,2|8,1:0|0:0,0:0:0:0:
140,248,69360,1,0,0:0:0:0:
147,222,69435,1,0,0:0:0:0:
154,196,69510,1,2,1:0:0:0:
227,242,69660,1,2,0:0:0:0:
65,204,69810,6,0,P|32:199|0:190,1,66.0724979836274,10|0,0:0|2:0,0:0:0:0:
242,246,69960,2,0,P|275:251|306:259,1,66.0724979836274,2|0,1:0|2:0,0:0:0:0:
180,104,70110,6,0,B|130:52|175:-62|281:-54|305:43|244:58,1,272.317487326533,6|0,1:0|2:0,0:0:0:0:
166,114,70410,2,0,P|129:111|91:101,1,70.3949991406861,10|0,0:0|0:0,0:0:0:0:
286,242,70710,6,0,B|268:311|147:334|98:240|168:168|213:212,1,272.317487326533,6|0,1:0|2:0,0:0:0:0:
301,248,71010,2,0,P|318:280|329:318,1,70.3949991406861,10|0,0:0|0:0,0:0:0:0:
349,97,71310,6,0,B|417:74|500:165|446:257|349:236|362:174,1,272.317487326533,6|0,1:0|2:0,0:0:0:0:
346,81,71610,2,0,P|364:49|390:19,1,70.3949991406861,10|0,0:0|0:0,0:0:0:0:
269,147,71910,5,2,1:0:0:0:
400,327,72060,1,0,1:0:0:0:
328,384,72210,5,8,0:0:0:0:
316,339,72285,1,8,0:0:0:0:
297,296,72360,1,8,0:3:0:0:
294,289,72435,1,4,0:3:0:0:
292,284,72510,2,0,P|208:272|117:335,2,190.18999622731,6|2|10,1:0|0:0|0:0,0:0:0:0:
68,132,73410,1,2,0:0:0:0:
323,91,73560,5,0,3:0:0:0:
323,91,73635,1,0,3:0:0:0:
323,91,73710,2,0,P|367:67|417:47,1,95.0949981136551,2|0,0:0|0:0,0:0:0:0:
303,190,74010,2,0,P|259:164|215:133,1,95.0949981136551,0|2,1:0|0:0,0:0:0:0:
266,24,74310,5,10,0:0:0:0:
243,31,74385,1,0,0:0:0:0:
233,52,74460,1,0,0:0:0:0:
315,187,74610,1,0,1:0:0:0:
157,299,74760,5,2,0:0:0:0:
164,254,74835,1,0,0:0:0:0:
169,209,74910,2,0,P|135:199|88:190,1,66.0724979836274,10|0,0:0|2:0,0:0:0:0:
391,239,75060,1,6,1:2:0:0:
391,239,75360,6,0,P|425:229|472:220,1,66.0724979836274,8|0,0:0|2:0,0:0:0:0:
191,358,75510,1,4,1:2:0:0:
191,358,75810,6,0,P|181:324|172:277,1,66.0724979836274,8|0,0:0|2:0,0:0:0:0:
162,48,75960,1,4,1:2:0:0:
162,48,76260,6,0,P|195:51|257:68,1,90.772495775511,10|0,0:0|2:0,0:0:0:0:
388,137,76410,6,0,P|355:140|293:157,1,78.4224994016838,2|0,1:0|2:0,0:0:0:0:
164,203,76560,6,0,P|197:206|259:223,1,66.0724979836274,2|0,1:0|2:0,0:0:0:0:
255,288,76710,6,0,P|270:157|295:34,2,253.792507164248,6|4|4,0:3|0:3|0:3,0:0:0:0:
104,32,77310,6,0,B|41:16|-23:91|22:163|100:143|88:94,1,216.742500826807,12|0,0:0|2:0,0:0:0:0:
16,34,77610,1,0,1:0:0:0:
162,206,77760,6,0,P|198:213|241:224,1,72.2475002756023,8|0,0:0|2:0,0:0:0:0:
305,167,77910,1,0,1:0:0:0:
106,269,78060,1,0,1:0:0:0:
305,167,78210,6,0,B|337:263|273:295|305:391,1,216.742500826807,8|0,0:0|2:0,0:0:0:0:
312,384,78510,1,0,1:0:0:0:
210,216,78660,5,8,0:0:0:0:
419,182,78810,1,0,1:0:0:0:
332,271,78960,1,0,1:0:0:0:
168,102,79110,6,0,L|82:86,1,72.2475002756023,10|0,0:0|2:0,0:0:0:0:
244,49,79260,1,2,1:0:0:0:
408,174,79410,6,0,L|494:158,1,72.2475002756023,10|0,0:0|2:0,0:0:0:0:
332,121,79560,1,2,1:0:0:0:
180,356,79710,6,0,B|159:332|162:287|208:267|208:267|255:248|258:203|237:179,1,216.742500826807,12|0,0:0|2:0,0:0:0:0:
172,140,80010,1,0,1:0:0:0:
393,65,80160,6,0,P|426:73|463:81,1,72.2475002756023,8|0,0:0|2:0,0:0:0:0:
480,0,80310,1,0,1:0:0:0:
331,121,80460,1,0,1:0:0:0:
480,0,80610,6,0,P|488:89|507:231,1,216.742500826807,8|0,0:0|2:0,0:0:0:0:
451,270,80910,1,0,1:0:0:0:
249,191,81060,5,8,0:0:0:0:
393,65,81210,1,0,1:0:0:0:
362,174,81360,1,0,1:0:0:0:
119,87,81510,6,0,L|108:2,1,72.2475002756023,10|0,0:0|2:0,0:0:0:0:
184,140,81660,1,2,1:0:0:0:
53,244,81810,6,0,L|42:329,1,72.2475002756023,10|0,0:0|2:0,0:0:0:0:
118,191,81960,1,2,1:0:0:0:
366,294,82110,6,0,B|410:341|504:313|505:228|429:202|413:249,1,216.742500826807,12|0,0:0|2:0,0:0:0:0:
363,304,82410,1,0,1:0:0:0:
175,178,82560,6,0,P|173:141|167:96,1,72.2475002756023,8|0,0:0|2:0,0:0:0:0:
232,54,82710,1,0,1:0:0:0:
128,241,82860,1,0,1:0:0:0:
232,54,83010,6,0,B|122:17|158:163|48:127,1,216.742500826807,8|0,0:0|2:0,0:0:0:0:
48,114,83310,1,0,1:0:0:0:
246,216,83460,5,8,0:0:0:0:
83,343,83610,1,0,1:0:0:0:
124,235,83760,1,0,1:0:0:0:
309,349,83910,6,0,L|215:382,1,72.2475002756023,10|0,0:0|2:0,0:0:0:0:
347,275,84060,1,2,1:0:0:0:
429,133,84210,6,0,L|523:100,1,72.2475002756023,10|0,0:0|2:0,0:0:0:0:
391,207,84360,1,2,1:0:0:0:
172,143,84510,6,0,B|111:125|92:26|169:-14|228:43|193:80,1,216.742500826807,12|0,0:0|2:0,0:0:0:0:
199,69,84810,1,0,1:0:0:0:
143,278,84960,6,0,B|160:339|86:407|11:363|28:283|78:293,1,216.742500826807,8|0,0:0|2:0,0:0:0:0:
65,293,85260,1,0,1:0:0:0:
281,223,85410,6,0,B|323:176|421:202|423:289|346:317|328:269,1,216.742500826807,8|0,0:0|2:0,0:0:0:0:
334,279,85710,1,0,1:0:0:0:
200,217,85860,5,8,0:0:0:0:
440,89,86010,1,0,1:0:0:0:
389,26,86160,1,8,0:0:0:0:
363,69,86235,1,8,0:0:0:0:
366,119,86310,1,8,0:0:0:0:
468,213,86460,1,8,0:0:0:0:
298,342,86610,1,8,0:0:0:0:
171,153,86760,1,8,0:0:0:0:
91,175,86910,6,0,P|175:195|286:237,2,190.18999622731,4|10|2,1:2|0:0|0:0,0:0:0:0:
142,294,87660,1,0,1:0:0:0:
207,99,87810,2,0,P|222:50|233:7,1,95.0949981136551,10|0,0:0|1:0,0:0:0:0:
351,266,88110,2,0,P|397:277|442:292,1,95.0949981136551,2|0,0:0|1:0,0:0:0:0:
462,102,88410,2,0,P|398:166|334:134,1,142.642497170483,10|0,0:0|2:0,0:0:0:0:
355,146,88710,1,2,0:0:0:0:
225,190,88860,1,0,1:0:0:0:
251,325,89010,1,10,0:0:0:0:
251,325,89310,6,0,B|172:298|146:377|67:351,1,190.18999622731,2|8,1:0|0:0,0:0:0:0:
315,161,89910,1,0,0:0:0:0:
339,86,90060,1,0,1:0:0:0:
176,0,90210,5,8,0:0:0:0:
192,79,90360,1,0,1:0:0:0:
206,159,90510,2,0,P|260:180|391:263,1,190.18999622731,2|8,0:0|0:0,0:0:0:0:
247,273,90960,1,0,1:0:0:0:
337,112,91110,2,0,P|393:86|452:142,1,142.642497170483,2|0,0:0|2:0,0:0:0:0:
444,141,91410,1,8,0:0:0:0:
165,316,91710,1,0,1:0:0:0:
165,316,92010,6,0,P|154:271|138:214,1,95.0949981136551,10|0,0:0|0:0,0:0:0:0:
338,118,92310,2,0,P|305:150|265:194,1,95.0949981136551,2|0,0:0|0:0,0:0:0:0:
79,43,92610,2,0,P|123:53|182:63,1,95.0949981136551,10|0,0:0|0:0,0:0:0:0:
295,302,92910,6,0,P|388:317|481:339,2,190.18999622731,2|10|2,1:0|0:0|0:0,0:0:0:0:
407,228,93660,1,0,1:0:0:0:
244,383,93810,1,10,0:0:0:0:
244,383,94110,6,0,B|234:304|283:271|273:192,1,190.18999622731,2|8,1:0|0:0,0:0:0:0:
7,66,94710,1,0,0:0:0:0:
75,97,94860,1,0,1:0:0:0:
263,40,95010,5,0,0:0:0:0:
186,55,95160,1,0,1:0:0:0:
151,130,95310,2,0,P|161:228|169:327,1,190.18999622731,2|8,0:0|0:0,0:0:0:0:
55,234,95760,1,0,1:0:0:0:
260,211,95910,2,0,P|313:203|372:200,1,95.0949981136551,2|0,0:0|0:0,0:0:0:0:
468,83,96210,6,0,B|489:46|454:6|454:6|470:45|449:81,1,140.789998281372,8|4,0:0|1:2,0:0:0:0:
175,100,96810,6,0,L|162:31,2,66.6900016281739,2|0|0,0:0|0:0|0:0,0:0:0:0:
100,231,97710,2,0,P|72:246|37:237,3,66.6900016281739,2|0|0|0,0:0|0:0|0:0|0:0,0:0:0:0:
253,249,99210,6,0,L|266:318,2,66.6900016281739,2|0|0,0:0|0:0|0:0,0:0:0:0:
253,249,99960,1,0,0:0:0:0:
286,112,100110,2,0,P|314:127|349:118,2,66.6900016281739,2|0|0,0:0|0:0|0:0,0:0:0:0:
102,43,100860,5,0,0:0:0:0:
100,54,100935,1,0,0:0:0:0:
97,65,101010,2,0,L|102:118,1,50.0175012211304,2|0,0:0|2:0,0:0:0:0:
44,162,101310,6,0,B|62:140|103:137|126:176|126:176|149:215|189:212|208:191,1,190.18999622731,4|8,1:0|0:0,0:0:0:0:
203,195,101760,1,0,0:0:0:0:
332,6,101910,2,0,P|284:60|314:188,1,190.18999622731,2|8,1:0|0:0,0:0:0:0:
299,171,102360,1,0,0:0:0:0:
468,210,102510,2,0,P|382:234|281:270,1,190.18999622731,2|8,1:0|0:0,0:0:0:0:
286,267,102960,1,0,0:0:0:0:
28,384,103110,2,0,P|113:359|215:324,1,190.18999622731,2|8,1:0|0:0,0:0:0:0:
452,109,103710,6,0,B|494:69|469:-15|392:-16|369:52|411:66,1,190.18999622731,2|8,1:0|0:0,0:0:0:0:
400,60,104160,1,0,0:0:0:0:
295,186,104310,6,0,B|252:225|277:310|354:311|377:242|335:228,1,190.18999622731,2|8,1:0|0:0,0:0:0:0:
346,234,104760,1,0,0:0:0:0:
235,75,104910,5,10,0:0:0:0:
172,31,105010,1,8,0:0:0:0:
106,70,105110,1,8,0:0:0:0:
166,131,105210,5,8,0:3:0:0:
160,161,105310,1,8,0:3:0:0:
155,192,105410,1,8,0:3:0:0:
97,248,105510,5,6,0:3:0:0:
100,266,105610,1,4,0:3:0:0:
103,285,105710,1,4,0:3:0:0:
168,336,105810,5,12,0:3:0:0:
299,72,106110,6,0,P|385:54|471:41,2,174.134997342911,2|0|0,0:0|0:0|0:0,0:0:0:0:
171,245,107310,6,0,P|85:227|0:213,2,174.134997342911,2|0|0,0:0|0:0|0:0,0:0:0:0:
320,352,108510,6,0,B|295:277|344:253|320:179,2,174.134997342911,2|0|0,0:0|0:0|0:0,0:0:0:0:
114,25,109710,6,0,B|89:99|138:123|114:197,2,174.134997342911,2|0|0,0:0|0:0|0:0,0:0:0:0:
380,83,110910,6,0,P|395:64|392:31,3,35.197499570343,8|8|8|8,0:0|0:0|0:0|0:0,0:0:0:0:
341,200,111210,6,0,P|362:210|398:204,3,47.5474990568276,8|8|8|8,0:0|0:0|1:2|0:0,0:0:0:0:
201,181,111510,6,0,P|195:203|206:243,3,59.8975014166432,8|8|8|8,0:0|0:0|0:0|0:0,0:0:0:0:
209,31,111810,6,0,P|181:30|141:52,3,72.2475002756023,8|8|8|8,1:2|0:0|0:0|0:0,0:0:0:0:
288,117,112110,5,8,0:0:0:0:
330,124,112185,1,8,0:0:0:0:
373,131,112260,1,8,0:0:0:0:
416,138,112335,1,8,0:0:0:0:
430,141,112410,2,0,P|462:116|455:63,3,72.2475002756023,8|8|8|8,0:0|0:0|1:2|0:0,0:0:0:0:
355,273,112710,2,0,P|359:313|407:335,3,72.2475002756023,8|8|8|8,0:0|0:0|0:0|0:0,0:0:0:0:
224,91,113010,2,0,P|187:73|142:102,3,72.2475002756023,8|8|8|8,1:2|0:0|0:0|0:0,0:0:0:0:
244,238,113310,5,8,1:2:0:0:
201,247,113385,1,8,0:0:0:0:
159,257,113460,1,8,0:0:0:0:
116,267,113535,1,8,0:0:0:0:
74,276,113610,1,8,0:0:0:0:
32,286,113685,1,8,0:0:0:0:
27,299,113760,2,0,P|64:307|114:315,1,72.2475002756023,8|8,1:2|0:0,0:0:0:0:
345,358,113910,2,0,P|307:349|258:342,3,72.2475002756023,8|8|8|8,0:0|0:0|0:0|0:0,0:0:0:0:
423,247,114210,5,8,0:0:0:0:
425,232,114285,1,0,3:0:0:0:
427,218,114360,1,0,3:0:0:0:
430,204,114435,1,0,3:0:0:0:
432,189,114510,5,8,1:2:0:0:
435,139,114585,1,8,0:0:0:0:
407,97,114660,1,8,0:0:0:0:
361,80,114735,1,8,0:0:0:0:
349,94,114810,5,8,1:2:0:0:
299,102,114885,1,8,0:0:0:0:
255,79,114960,1,8,0:0:0:0:
233,35,115035,1,8,0:0:0:0:
238,20,115110,6,0,P|272:11|308:30,1,72.2475002756023,8|8,0:0|0:0,0:0:0:0:
259,298,115260,2,0,P|225:307|189:288,1,72.2475002756023,10|8,0:0|0:0,0:0:0:0:
71,71,115710,6,0,B|46:49|64:11|64:11|40:30|35:72|74:99|74:99|114:125|109:168|85:186,1,272.317487326533,6|0,1:0|2:0,0:0:0:0:
74,187,116010,2,0,P|52:146|65:123,1,72.2475002756023,10|0,0:0|2:0,0:0:0:0:
286,41,116160,1,0,0:0:0:0:
313,49,116235,1,0,0:0:0:0:
340,56,116310,2,0,P|405:78|486:96,1,144.495000551205,2|0,0:0|1:0,0:0:0:0:
328,306,116610,6,0,B|305:327|296:363|296:363|298:341|282:323,1,105.592498711029,10|0,0:0|2:0,0:0:0:0:
218,368,116910,6,0,B|191:343|210:302|210:302|206:338|232:362,1,95.0949981136551,2|0,0:0|1:0,0:0:0:0:
57,237,117210,2,0,B|62:196|112:187|112:187|77:207|71:247,1,119.795002833286,10|0,0:0|1:0,0:0:0:0:
110,14,117510,2,0,B|152:-8|195:33|195:33|152:13|110:35,1,144.495000551205,2|0,0:0|1:0,0:0:0:0:
151,110,117735,1,0,0:0:0:0:
164,113,117810,2,0,P|235:128|246:89,1,72.2475002756023,8|0,0:0|2:0,0:0:0:0:
323,26,117960,2,0,P|272:78|299:108,1,72.2475002756023,0|0,0:0|2:0,0:0:0:0:
376,204,118110,6,0,B|440:220|415:321|305:329|259:210|313:153,2,288.990001102409,2|10|2,1:0|0:0|0:0,0:0:0:0:
309,144,118860,1,0,1:0:0:0:
89,326,119010,6,0,B|55:317|50:272|50:272|65:305|99:313,1,105.592498711029,10|0,0:0|2:0,0:0:0:0:
123,245,119310,6,0,P|242:260|391:374,1,288.990001102409,2|8,0:0|0:0,0:0:0:0:
509,257,119760,1,0,1:0:0:0:
482,185,119910,2,0,P|418:185|402:281,1,144.495000551205,2|0,0:0|1:0,0:0:0:0:
327,38,120210,1,8,0:0:0:0:
274,104,120360,5,0,3:0:0:0:
274,104,120435,1,0,3:0:0:0:
274,104,120510,2,0,B|249:72|193:65|158:118|158:118|123:170|67:163|43:132,1,272.317487326533,6|0,1:0|2:0,0:0:0:0:
48,124,120810,2,0,P|84:145|122:139,1,72.2475002756023,10|0,0:0|2:0,0:0:0:0:
340,55,120960,1,0,0:0:0:0:
354,79,121035,1,0,0:0:0:0:
359,107,121110,1,2,0:0:0:0:
236,208,121260,1,0,1:0:0:0:
385,316,121410,6,0,B|452:324|452:324|450:321|450:321|407:315,1,105.592498711029,10|0,0:0|2:0,0:0:0:0:
377,304,121710,5,2,0:0:0:0:
341,228,121860,1,0,1:0:0:0:
433,42,122010,5,10,0:0:0:0:
397,118,122160,1,0,1:0:0:0:
79,130,122310,6,0,B|53:129|44:99|44:99|59:119|84:120,1,72.2475002756023,2|0,1:0|2:0,0:0:0:0:
292,134,122460,2,0,B|317:134|326:164|326:164|311:144|286:143,1,72.2475002756023,2|0,1:0|2:0,0:0:0:0:
194,23,122610,6,0,B|194:-2|224:-11|224:-11|204:3|203:28,1,72.2475002756023,10|0,0:0|2:0,0:0:0:0:
190,237,122760,2,0,B|189:262|159:271|159:271|179:256|180:231,1,72.2475002756023,2|0,0:0|2:0,0:0:0:0:
188,128,122910,5,2,1:0:0:0:
399,328,123210,6,0,B|440:310|485:306|485:306|467:265|463:220,1,179.69250424993,10|0,0:0|2:0,0:0:0:0:
387,192,123510,2,0,B|358:204|327:206|327:206|340:235|342:266,1,119.795002833286,2|0,0:0|1:0,0:0:0:0:
313,343,123735,5,0,0:0:0:0:
299,345,123810,2,0,P|234:355|185:376,1,105.592498711029,10|0,0:0|2:0,0:0:0:0:
186,366,124110,6,0,P|171:273|105:66,1,288.990001102409,2|8,0:0|0:0,0:0:0:0:
286,178,124560,5,0,1:0:0:0:
355,153,124710,1,2,0:0:0:0:
274,46,124860,5,0,1:0:0:0:
345,234,125010,1,8,0:0:0:0:
427,204,125160,5,0,0:0:0:0:
427,204,125235,1,0,0:0:0:0:
427,204,125310,2,0,P|443:129|463:66,1,132.144995967255,6|0,1:0|0:0,0:0:0:0:
250,257,125610,2,0,P|234:332|214:395,1,132.144995967255,10|0,0:0|0:0,0:0:0:0:
0,113,125910,2,0,B|109:76|73:186|182:149,1,198.217493950882,2|0,1:0|2:0,0:0:0:0:
183,140,126210,1,10,0:0:0:0:
458,283,126510,6,0,B|516:297|492:391|390:399|347:288|394:238,1,264.28999193451,2|8,1:0|0:0,0:0:0:0:
482,92,126960,1,0,0:0:0:0:
471,67,127035,1,0,0:0:0:0:
447,54,127110,1,2,1:0:0:0:
246,108,127260,1,2,0:0:0:0:
321,84,127410,6,0,P|317:120|311:163,1,66.0724979836274,10|0,0:0|2:0,0:0:0:0:
286,378,127560,2,0,P|289:341|296:299,1,66.0724979836274,2|0,1:0|2:0,0:0:0:0:
161,30,127710,6,0,B|95:49|26:47|26:47|45:113|43:182,1,272.317487326533,6|0,1:0|2:0,0:0:0:0:
126,126,128010,2,0,B|126:134|126:134|137:133|137:124|136:114|124:116|124:116|113:117|114:126|115:136|126:134|126:134,1,70.3949991406861,10|0,0:0|0:0,0:0:0:0:
102,273,128310,6,0,B|153:318|188:378|188:378|233:326|293:291,1,272.317487326533,6|0,1:0|2:0,0:0:0:0:
202,250,128610,2,0,B|209:244|209:244|202:235|194:241|186:247|194:256|194:256|201:265|209:259|216:253|209:244|209:244,1,70.3949991406861,10|0,0:0|0:0,0:0:0:0:
354,205,128910,6,0,B|365:137|397:76|397:76|329:65|268:32,1,272.317487326533,6|0,1:0|2:0,0:0:0:0:
281,133,129210,2,0,B|272:129|272:129|268:140|277:143|286:147|290:136|290:136|294:125|285:121|276:118|272:129|272:129,1,70.3949991406861,10|0,0:0|0:0,0:0:0:0:
397,301,129510,5,2,1:0:0:0:
141,131,129660,1,0,1:0:0:0:
181,201,129810,5,8,0:0:0:0:
226,208,129885,1,8,0:0:0:0:
270,220,129960,1,8,0:3:0:0:
282,222,130035,1,4,0:3:0:0:
293,223,130110,1,6,1:0:0:0:
70,329,130410,5,2,0:0:0:0:
259,64,130710,5,10,0:0:0:0:
403,359,131010,5,2,0:0:0:0:
253,223,131160,5,0,3:0:0:0:
253,223,131235,1,0,3:0:0:0:
253,223,131310,2,0,P|305:228|370:242,1,95.0949981136551,2|0,0:0|0:0,0:0:0:0:
116,201,131610,2,0,P|64:196|-1:182,1,95.0949981136551,0|2,1:0|0:0,0:0:0:0:
201,71,131910,5,10,0:0:0:0:
198,94,131985,1,0,0:0:0:0:
196,117,132060,1,0,0:0:0:0:
172,316,132210,1,0,1:0:0:0:
421,47,132360,5,2,0:0:0:0:
431,93,132435,1,0,0:0:0:0:
441,137,132510,2,0,P|439:173|398:197,1,66.0724979836274,10|0,0:0|2:0,0:0:0:0:
210,125,132660,1,6,1:2:0:0:
210,125,132960,6,0,P|242:107|283:129,1,66.0724979836274,8|0,0:0|2:0,0:0:0:0:
322,327,133110,1,4,1:2:0:0:
322,327,133410,6,0,P|289:309|286:261,1,66.0724979836274,8|0,0:0|2:0,0:0:0:0:
433,124,133560,1,4,1:2:0:0:
433,124,133860,6,0,P|388:133|346:155,1,90.772495775511,10|0,0:0|0:0,0:0:0:0:
226,214,134010,6,0,P|187:205|153:187,1,78.4224994016838,2|0,1:0|0:0,0:0:0:0:
102,53,134160,6,0,P|63:61|29:79,1,66.0724979836274,2|0,1:0|0:0,0:0:0:0:
70,272,134310,6,0,P|157:287|229:338,1,169.195004776165,6|0,0:3|0:0,0:0:0:0:
228,342,134535,2,0,P|295:352|312:296,1,132.144995967255,4|0,0:3|2:0,0:0:0:0:
306,292,134760,6,0,P|322:253|385:256,1,95.0949981136551,4|4,0:3|1:2,0:0:0:0:
252,374,136635,5,0,0:0:0:0:
257,364,136710,2,0,P|273:254|284:147,1,203.157496900063,0|0,0:0|2:0,0:0:0:0:
212,107,137310,5,6,1:2:0:0:
142,132,137460,1,2,0:0:0:0:
92,81,137610,1,2,0:0:0:0:
196,189,137760,2,0,P|191:233|184:274,1,83.3625020352173,2|0,0:0|2:0,0:0:0:0:
177,275,138210,1,2,1:0:0:0:
359,66,138510,5,10,0:0:0:0:
433,47,138660,2,0,L|460:41,1,16.6725004070435,2|0,0:0|2:0,0:0:0:0:
449,43,138960,5,2,0:0:0:0:
482,115,139110,1,2,0:0:0:0:
443,181,139260,1,2,0:0:0:0:
475,250,139410,2,0,L|512:258,1,33.3450008140869,2|2,1:0|0:0,0:0:0:0:
364,343,139710,5,2,1:0:0:0:
287,330,139860,1,2,0:0:0:0:
212,315,140010,1,2,0:0:0:0:
105,217,140160,2,0,L|96:126,1,83.3625020352173,2|0,0:0|2:0,0:0:0:0:
95,122,140610,1,0,1:0:0:0:
21,335,140910,1,8,0:0:0:0:
21,335,141360,5,2,0:0:0:0:
81,287,141510,1,2,0:0:0:0:
48,217,141660,1,2,0:0:0:0:
92,154,141810,1,2,1:0:0:0:
50,89,141960,1,2,0:0:0:0:
147,224,142110,6,0,L|190:230,2,33.3450008140869,2|2|2,1:0|0:0|0:0,0:0:0:0:
237,169,142560,1,2,0:0:0:0:
416,361,143010,1,2,1:0:0:0:
416,361,143310,6,0,L|423:315,1,33.3450008140869,8|0,0:0|0:0,0:0:0:0:
473,258,143535,6,0,L|480:212,1,33.3450008140869,0|0,1:0|2:0,0:0:0:0:
423,160,143760,5,2,1:0:0:0:
512,39,143910,5,2,0:0:0:0:
447,80,144060,1,2,0:0:0:0:
378,45,144210,1,2,0:0:0:0:
319,94,144360,1,2,1:0:0:0:
224,27,144510,6,0,P|221:77|211:131,2,100.035002442261,0|2|0,1:0|0:0|1:0,0:0:0:0:
69,294,145710,5,10,0:0:0:0:
27,224,145860,1,2,0:0:0:0:
96,183,146010,1,2,0:0:0:0:
137,252,146160,1,2,0:0:0:0:
286,380,146310,5,2,0:0:0:0:
328,310,146460,1,2,0:0:0:0:
259,269,146610,1,2,1:0:0:0:
218,338,146760,1,2,0:0:0:0:
414,275,146910,5,6,1:2:0:0:
423,198,147060,1,2,0:0:0:0:
432,122,147210,1,2,0:0:0:0:
295,98,147360,2,0,P|308:139|355:149,1,83.3625020352173,2|0,0:0|2:0,0:0:0:0:
353,148,147810,1,2,1:0:0:0:
106,333,148110,5,10,0:0:0:0:
155,274,148260,2,0,L|152:257,1,16.6725004070435,2|0,0:0|2:0,0:0:0:0:
152,257,148560,5,2,0:0:0:0:
114,190,148710,1,2,0:0:0:0:
148,121,148860,1,2,0:0:0:0:
92,68,149010,2,0,L|59:60,1,33.3450008140869,2|2,1:0|0:0,0:0:0:0:
213,185,149310,5,2,1:0:0:0:
273,137,149460,1,2,0:0:0:0:
341,172,149610,1,2,0:0:0:0:
290,321,149760,2,0,P|284:282|281:230,1,83.3625020352173,2|0,0:0|2:0,0:0:0:0:
282,229,150210,1,0,1:0:0:0:
465,358,150510,1,8,0:0:0:0:
465,358,150960,5,2,0:0:0:0:
401,314,151110,1,2,0:0:0:0:
429,242,151260,1,2,0:0:0:0:
381,182,151410,1,2,1:0:0:0:
418,114,151560,1,2,0:0:0:0:
298,196,151710,6,0,L|265:189,2,33.3450008140869,2|2|2,1:0|0:0|0:0,0:0:0:0:
263,272,152160,1,2,0:0:0:0:
120,44,152610,1,2,1:0:0:0:
120,44,152910,6,0,L|125:76,1,33.3450008140869,8|0,0:0|0:0,0:0:0:0:
51,122,153135,6,0,L|44:76,1,33.3450008140869,0|0,1:0|2:0,0:0:0:0:
124,162,153360,5,2,1:0:0:0:
36,338,153510,5,2,0:0:0:0:
9,265,153660,1,2,0:0:0:0:
70,218,153810,1,2,0:0:0:0:
143,239,153960,1,2,1:0:0:0:
149,343,154110,6,0,B|190:343|210:363|251:363,2,100.035002442261,0|2|0,1:0|0:0|1:0,0:0:0:0:
265,226,155310,5,10,0:0:0:0:
240,147,155460,1,2,0:0:0:0:
275,230,155610,1,2,0:0:0:0:
251,151,155760,1,2,0:0:0:0:
374,295,155910,5,2,0:0:0:0:
398,216,156060,1,2,0:0:0:0:
363,299,156210,1,2,1:0:0:0:
387,220,156360,1,2,0:0:0:0:
257,353,156510,5,6,1:2:0:0:
65,240,156810,6,0,P|57:202|48:164,1,70.3949991406861,2|2,0:0|0:0,0:0:0:0:
233,126,157110,2,0,P|204:151|177:180,1,70.3949991406861,2|0,0:0|0:0,0:0:0:0:
55,22,157410,2,0,P|91:32|130:39,1,70.3949991406861,2|0,1:0|0:0,0:0:0:0:
314,90,157710,5,10,0:0:0:0:
374,152,157860,1,2,0:0:0:0:
374,152,157935,1,0,0:0:0:0:
374,152,158010,2,0,P|383:219|398:307,1,140.789998281372,2|2,0:0|0:0,0:0:0:0:
457,222,158460,1,2,0:0:0:0:
329,349,158610,2,0,P|280:336|220:326,1,105.592498711029,2|0,1:0|2:0,0:0:0:0:
214,336,158910,6,0,P|185:305|189:267,1,70.3949991406861,2|2,1:0|0:0,0:0:0:0:
276,150,159210,2,0,P|265:191|230:207,1,70.3949991406861,2|2,0:0|0:0,0:0:0:0:
127,84,159510,2,0,P|156:115|152:153,1,70.3949991406861,2|0,0:0|0:0,0:0:0:0:
65,270,159810,2,0,P|75:228|110:212,1,70.3949991406861,0|0,1:0|0:0,0:0:0:0:
275,281,160110,5,8,0:0:0:0:
445,44,160410,5,2,0:0:0:0:
384,125,160560,1,2,0:0:0:0:
508,205,160710,2,0,P|499:169|491:125,1,70.3949991406861,2|2,0:0|0:0,0:0:0:0:
342,249,161010,2,0,P|382:259|456:288,1,105.592498711029,2|0,1:0|2:0,0:0:0:0:
448,292,161310,5,2,1:0:0:0:
313,170,161610,2,0,P|305:134|297:81,1,70.3949991406861,2|2,0:0|0:0,0:0:0:0:
131,264,161910,2,0,P|138:299|147:353,1,70.3949991406861,2|0,0:0|0:0,0:0:0:0:
51,147,162210,2,0,P|104:133|171:118,1,105.592498711029,2|0,1:0|2:0,0:0:0:0:
158,109,162510,5,8,0:0:0:0:
268,326,162735,5,0,1:0:0:0:
404,129,162960,5,2,1:0:0:0:
269,205,163110,6,0,P|302:212|337:225,1,70.3949991406861,2|2,0:0|0:0,0:0:0:0:
505,279,163410,2,0,P|472:272|437:259,1,70.3949991406861,2|2,0:0|1:0,0:0:0:0:
447,28,163710,6,0,B|443:83|413:109|409:165,2,140.789998281372,0|2|2,1:0|0:0|0:0,0:0:0:0:
488,153,164460,1,0,0:0:0:0:
357,35,164610,2,0,P|321:37|268:46,1,70.3949991406861,2|0,1:0|0:0,0:0:0:0:
68,74,164910,5,10,0:0:0:0:
145,114,165060,1,2,0:0:0:0:
146,127,165135,1,0,0:0:0:0:
147,140,165210,1,2,0:0:0:0:
91,211,165360,1,2,0:0:0:0:
175,272,165510,2,0,P|137:251|61:310,1,140.789998281372,2|2,0:0|1:0,0:0:0:0:
254,27,166110,6,0,P|262:75|280:143,1,105.592498711029,6|0,1:2|2:0,0:0:0:0:
347,160,166410,2,0,P|384:147|380:112,1,70.3949991406861,2|2,0:0|0:0,0:0:0:0:
165,40,166710,2,0,P|176:87|188:156,1,105.592498711029,2|0,0:0|2:0,0:0:0:0:
134,199,167010,2,0,P|95:203|84:169,1,70.3949991406861,2|0,1:0|0:0,0:0:0:0:
262,299,167310,5,10,0:0:0:0:
246,219,167460,1,2,0:0:0:0:
246,219,167535,1,0,0:0:0:0:
246,219,167610,1,2,0:0:0:0:
204,365,167760,1,2,0:0:0:0:
347,319,167910,2,0,P|381:311|467:299,1,105.592498711029,2|0,0:0|2:0,0:0:0:0:
457,308,168210,1,2,1:0:0:0:
125,57,168510,6,0,P|154:88|150:126,1,70.3949991406861,2|2,1:0|0:0,0:0:0:0:
63,243,168810,2,0,P|74:202|109:186,1,70.3949991406861,2|2,0:0|0:0,0:0:0:0:
212,309,169110,2,0,P|183:278|187:240,1,70.3949991406861,2|0,0:0|0:0,0:0:0:0:
274,123,169410,2,0,P|264:165|229:181,1,70.3949991406861,0|0,1:0|0:0,0:0:0:0:
64,112,169710,5,8,0:0:0:0:
276,255,170010,1,2,0:0:0:0:
346,221,170160,1,2,0:0:0:0:
346,221,170235,1,0,0:0:0:0:
346,221,170310,2,0,P|354:145|396:79,1,140.789998281372,2|2,0:0|1:0,0:0:0:0:
86,330,170910,6,0,P|47:335|5:345,1,70.3949991406861,2|0,1:0|0:0,0:0:0:0:
202,129,171210,2,0,P|241:124|283:114,1,70.3949991406861,2|2,3:2|0:0,0:0:0:0:
167,199,171435,5,0,0:0:0:0:
167,199,171510,2,0,P|174:233|178:268,1,70.3949991406861,2|0,3:0|0:0,0:0:0:0:
385,384,171811,2,0,P|377:349|373:314,1,70.3949991406861,2|0,1:0|0:0,0:0:0:0:
478,158,172110,2,0,P|466:191|421:211,1,70.3949991406861,10|0,0:0|0:0,0:0:0:0:
372,171,172335,1,0,1:0:0:0:
370,164,172410,2,0,P|341:142|293:150,1,70.3949991406861,2|0,3:0|1:0,0:0:0:0:
156,304,172710,2,0,P|188:294|242:285,1,70.3949991406861,2|2,3:0|0:0,0:0:0:0:
155,72,173010,1,2,3:0:0:0:
157,82,173085,2,0,P|159:102|165:129,1,35.197499570343,0|2,3:0|1:0,0:0:0:0:
84,174,173235,5,0,3:0:0:0:
82,161,173310,2,0,P|72:98|67:50,1,82.7449960859758,2|0,1:0|3:0,0:0:0:0:
213,207,173610,1,0,3:0:0:0:
284,227,173760,1,2,3:0:0:0:
381,82,173910,1,0,3:0:0:0:
326,131,174060,1,0,3:0:0:0:
414,299,174210,1,0,1:0:0:0:
401,226,174360,1,0,3:0:0:0:
219,293,174510,6,0,P|174:305|77:338,1,142.642497170483,8|0,1:2|3:0,0:0:0:0:
29,276,174810,1,2,0:0:0:0:
35,266,174885,2,0,L|106:239,1,47.5474990568276,0|0,3:0|0:0,0:0:0:0:
189,204,175035,1,0,3:0:0:0:
202,198,175110,2,0,P|222:140|192:107,1,95.0949981136551,2|2,1:0|0:0,0:0:0:0:
7,19,175410,6,0,L|30:141,1,116.089998228607,0|0,1:0|0:0,0:0:0:0:
255,342,178110,5,2,0:0:0:0:
45,50,179910,5,8,0:0:0:0:
253,148,180060,1,8,3:2:0:0:
255,136,180135,1,8,3:2:0:0:
258,124,180210,1,8,0:0:0:0:
232,72,180285,1,8,0:0:0:0:
176,59,180360,1,8,0:0:0:0:
129,92,180435,1,8,0:0:0:0:
132,107,180510,6,0,B|168:128|182:186|131:230|131:230|81:273|95:331|131:353,2,288.990001102409,6|10|2,1:2|0:0|0:0,0:0:0:0:
36,212,181260,1,0,1:0:0:0:
217,295,181410,6,0,P|271:305|334:320,1,105.592498711029,10|0,0:0|2:0,0:0:0:0:
403,287,181710,6,0,B|457:230|411:111|301:119|276:220|339:236,1,288.990001102409,2|8,0:0|0:0,0:0:0:0:
340,236,182160,1,0,1:0:0:0:
466,108,182310,2,0,P|483:53|403:39,1,144.495000551205,2|0,0:0|1:0,0:0:0:0:
163,154,182610,1,8,0:0:0:0:
173,74,182760,5,0,3:0:0:0:
173,74,182835,1,0,3:0:0:0:
173,74,182910,2,0,B|214:8|338:23|356:131|266:179|235:122,1,272.317487326533,6|0,1:0|2:0,0:0:0:0:
237,122,183210,1,10,0:0:0:0:
18,16,183360,1,0,0:0:0:0:
20,44,183435,1,0,0:0:0:0:
23,72,183510,2,0,P|28:141|37:224,1,144.495000551205,2|0,0:0|1:0,0:0:0:0:
211,326,183810,6,0,B|259:309|275:342|324:326,1,105.592498711029,10|0,0:0|2:0,0:0:0:0:
317,316,184110,5,2,0:0:0:0:
338,239,184260,1,0,1:0:0:0:
110,142,184410,5,10,0:0:0:0:
131,219,184560,1,0,1:0:0:0:
320,55,184710,6,0,B|320:34|300:14|300:14|304:40,1,72.2475002756023,2|0,1:0|2:0,0:0:0:0:
338,239,184860,2,0,B|339:259|359:279|359:279|355:253,1,72.2475002756023,2|0,1:0|2:0,0:0:0:0:
230,139,185010,6,0,B|210:139|190:159|190:159|216:155,1,72.2475002756023,10|0,0:0|2:0,0:0:0:0:
433,144,185161,2,0,B|454:143|474:123|474:123|449:126,1,72.2475002756023,2|0,0:0|2:0,0:0:0:0:
333,149,185310,5,2,1:0:0:0:
200,283,185460,5,0,0:0:0:0:
200,283,185535,1,0,0:0:0:0:
200,283,185610,2,0,B|144:298|136:362|136:362|128:314|88:298,1,179.69250424993,10|0,0:0|2:0,0:0:0:0:
16,273,185910,2,0,B|0:305|32:336|32:336|16:305|32:273,1,119.795002833286,2|0,0:0|1:0,0:0:0:0:
83,226,186135,5,0,0:0:0:0:
95,220,186210,2,0,P|140:191|199:166,1,105.592498711029,10|0,0:0|2:0,0:0:0:0:
283,157,186510,6,0,P|163:125|-13:102,1,288.990001102409,2|8,0:0|0:0,0:0:0:0:
146,13,186960,5,0,1:0:0:0:
249,259,187110,1,2,0:0:0:0:
442,37,187260,1,0,1:0:0:0:
280,80,187410,5,8,0:0:0:0:
287,130,187485,1,8,0:0:0:0:
291,180,187560,1,0,1:0:0:0:
19,59,187710,6,0,B|120:25|86:160|188:126,1,198.217493950882,6|0,1:0|2:0,0:0:0:0:
188,118,188010,2,0,P|161:99|125:107,1,66.0724979836274,10|0,0:0|2:0,0:0:0:0:
129,103,188160,1,0,0:0:0:0:
284,315,188310,2,0,P|348:283|508:251,1,198.217493950882,2|0,1:0|2:0,0:0:0:0:
474,238,188610,1,10,0:0:0:0:
413,354,188760,1,0,0:0:0:0:
288,145,188910,6,0,B|245:85|302:-16|402:4|412:100|352:107,1,264.28999193451,2|8,1:0|0:0,0:0:0:0:
135,212,189360,2,0,P|101:207|64:199,1,66.0724979836274,0|0,0:0|2:0,0:0:0:0:
189,145,189510,1,2,1:0:0:0:
305,238,189660,2,0,P|318:268|331:305,1,66.0724979836274,2|0,0:0|2:0,0:0:0:0:
219,227,189810,1,10,0:0:0:0:
254,86,189960,2,0,P|272:58|296:27,1,66.0724979836274,2|0,1:0|2:0,0:0:0:0:
0,53,190110,6,0,P|46:149|65:299,1,235.267498205051,4|0,1:0|2:0,0:0:0:0:
160,313,190410,1,8,0:0:0:0:
190,317,190485,1,8,0:0:0:0:
221,322,190560,2,0,P|220:287|213:241,1,78.4224994016838,8|8,0:0|0:0,0:0:0:0:
5,40,190710,6,0,P|55:145|76:310,1,253.792507164248,4|0,1:0|2:0,0:0:0:0:
181,326,191010,1,8,0:0:0:0:
214,330,191085,1,8,0:0:0:0:
248,335,191160,2,0,P|245:295|238:245,1,84.5975023880826,8|8,0:0|0:0,0:0:0:0:
11,26,191310,6,0,P|66:142|89:323,1,272.317487326533,4|0,1:0|2:0,0:0:0:0:
204,340,191610,1,8,0:0:0:0:
240,345,191685,1,8,0:0:0:0:
278,350,191760,2,0,P|275:306|267:251,1,90.772495775511,8|8,0:0|0:0,0:0:0:0:
172,16,191910,5,4,1:0:0:0:
148,58,191985,1,0,1:0:0:0:
153,107,192060,1,0,1:0:0:0:
185,143,192135,1,0,1:0:0:0:
197,141,192210,5,8,0:0:0:0:
211,138,192285,1,8,0:0:0:0:
225,136,192360,1,8,0:3:0:0:
240,134,192435,1,4,0:3:0:0:
254,132,192510,1,6,1:0:0:0:
413,365,192810,5,2,0:0:0:0:
497,93,193110,5,10,0:0:0:0:
193,364,193410,5,2,0:0:0:0:
193,364,193710,6,0,P|184:305|137:281,1,95.0949981136551,2|0,0:0|0:0,0:0:0:0:
0,186,194010,2,0,P|23:241|74:252,1,95.0949981136551,0|2,1:0|0:0,0:0:0:0:
203,108,194310,1,10,0:0:0:0:
158,121,194385,1,0,0:0:0:0:
136,162,194460,1,0,0:0:0:0:
361,373,194610,1,0,1:0:0:0:
290,334,194760,5,2,0:0:0:0:
285,286,194835,1,0,0:0:0:0:
280,239,194910,2,0,P|241:230|195:214,1,66.0724979836274,10|0,0:0|2:0,0:0:0:0:
439,160,195060,1,6,1:2:0:0:
439,160,195360,6,0,P|477:151|524:135,1,66.0724979836274,8|0,0:0|2:0,0:0:0:0:
276,49,195510,1,4,1:2:0:0:
276,49,195810,6,0,P|237:40|191:24,1,66.0724979836274,8|0,0:0|2:0,0:0:0:0:
355,194,195960,1,4,1:2:0:0:
355,194,196260,6,0,P|307:179|258:168,1,90.772495775511,10|0,0:0|2:0,0:0:0:0:
66,304,196410,6,0,P|103:271|138:236,1,78.4224994016838,2|0,1:0|2:0,0:0:0:0:
113,5,196560,6,0,P|120:54|131:102,1,66.0724979836274,2|0,1:0|2:0,0:0:0:0:
171,163,196710,6,0,B|184:156|186:138|186:138|171:144|165:156,1,42.2987511940413,6|0,0:3|0:0,0:0:0:0:
161,337,196935,6,0,B|159:351|173:362|173:362|176:346|169:336,1,42.2987511940413,4|0,0:3|2:0,0:0:0:0:
28,225,197160,6,0,B|16:215|0:221|0:221|11:233|24:232,1,42.2987511940413,4|0,0:3|0:0,0:0:0:0:
251,244,197310,6,0,P|287:251|345:260,1,72.2475002756023,12|0,0:0|2:0,0:0:0:0:
432,155,197460,1,0,1:0:0:0:
358,184,197610,1,0,1:0:0:0:
469,293,197760,6,0,P|477:256|488:222,1,72.2475002756023,8|0,0:0|2:0,0:0:0:0:
332,376,197910,1,0,1:0:0:0:
414,357,198060,1,0,1:0:0:0:
211,208,198210,6,0,P|226:131|235:53,1,144.495000551205,8|0,0:0|1:0,0:0:0:0:
308,162,198510,2,0,P|344:164|388:171,1,72.2475002756023,0|0,1:0|2:0,0:0:0:0:
124,131,198660,5,8,0:0:0:0:
284,308,198810,1,0,1:0:0:0:
53,371,198960,1,0,1:0:0:0:
144,256,199110,6,0,P|178:258|199:287,1,72.2475002756023,8|8,0:0|0:0,0:0:0:0:
215,372,199260,1,2,1:0:0:0:
323,278,199410,6,0,P|328:311|305:338,1,72.2475002756023,10|0,0:0|2:0,0:0:0:0:
225,373,199560,1,2,1:0:0:0:
200,148,199710,6,0,B|176:169|131:166|111:120|111:120|92:73|47:70|23:91,1,216.742500826807,12|0,0:0|2:0,0:0:0:0:
21,104,200010,1,0,1:0:0:0:
275,84,200160,6,0,P|307:78|361:65,1,72.2475002756023,8|0,0:0|2:0,0:0:0:0:
327,161,200310,1,0,1:0:0:0:
291,0,200460,1,0,1:0:0:0:
327,161,200610,6,0,P|340:238|357:318,1,144.495000551205,8|0,0:0|1:0,0:0:0:0:
174,260,200910,2,0,P|213:252|251:243,1,72.2475002756023,0|0,1:0|2:0,0:0:0:0:
470,152,201060,5,8,0:0:0:0:
259,11,201210,1,0,1:0:0:0:
253,248,201360,1,0,1:0:0:0:
327,161,201510,6,0,P|305:136|257:129,1,72.2475002756023,10|0,0:0|2:0,0:0:0:0:
151,179,201660,1,2,1:0:0:0:
250,22,201810,6,0,P|216:25|183:60,1,72.2475002756023,10|0,0:0|2:0,0:0:0:0:
163,176,201960,1,2,1:0:0:0:
15,22,202110,6,0,P|46:93|62:259,1,216.742500826807,12|0,0:0|2:0,0:0:0:0:
53,233,202410,1,0,1:0:0:0:
250,312,202560,6,0,P|286:304|327:294,1,72.2475002756023,8|0,0:0|2:0,0:0:0:0:
336,216,202710,1,0,1:0:0:0:
303,383,202860,1,0,1:0:0:0:
336,216,203010,6,0,P|417:192|480:172,1,144.495000551205,8|0,0:0|1:0,0:0:0:0:
195,61,203310,2,0,P|203:96|215:130,1,72.2475002756023,0|0,1:0|2:0,0:0:0:0:
373,300,203460,5,8,0:0:0:0:
332,55,203610,1,0,1:0:0:0:
142,221,203760,1,0,1:0:0:0:
297,180,203910,6,0,P|335:189|355:236,1,72.2475002756023,10|0,0:0|2:0,0:0:0:0:
332,289,204060,1,2,1:0:0:0:
463,147,204210,6,0,P|462:186|420:216,1,72.2475002756023,10|0,0:0|2:0,0:0:0:0:
343,292,204360,1,2,1:0:0:0:
183,103,204510,6,0,B|151:47|206:-36|289:-12|292:69|241:72,1,216.742500826807,12|0,0:0|2:0,0:0:0:0:
173,111,204810,1,0,1:0:0:0:
262,296,204960,6,0,P|295:301|341:312,1,72.2475002756023,8|0,0:0|2:0,0:0:0:0:
213,373,205110,1,0,1:0:0:0:
312,224,205260,1,0,1:0:0:0:
213,373,205410,6,0,P|142:356|71:346,1,144.495000551205,8|0,0:0|1:0,0:0:0:0:
50,209,205710,2,0,P|44:175|33:126,1,72.2475002756023,0|0,1:0|2:0,0:0:0:0:
4,278,205860,5,8,0:0:0:0:
201,57,206010,1,0,1:0:0:0:
149,0,206160,1,8,0:0:0:0:
118,42,206235,1,8,0:0:0:0:
122,99,206310,1,8,0:0:0:0:
256,187,206460,1,8,0:0:0:0:
443,62,206610,1,8,0:0:0:0:
478,281,206760,1,8,0:0:0:0:
423,223,206910,6,0,B|398:203|353:208|337:256|337:256|320:303|275:308|251:289,1,216.742500826807,12|0,0:0|2:0,0:0:0:0:
249,276,207210,1,0,1:0:0:0:
94,65,207360,6,0,P|117:90|119:132,1,72.2475002756023,8|0,0:0|2:0,0:0:0:0:
34,130,207510,1,0,1:0:0:0:
216,8,207660,1,0,1:0:0:0:
34,130,207810,2,0,P|120:148|259:209,1,216.742500826807,8|0,0:0|2:0,0:0:0:0:
239,209,208110,1,0,1:0:0:0:
398,384,208260,5,8,0:0:0:0:
454,160,208410,1,0,1:0:0:0:
355,259,208560,1,0,1:0:0:0:
204,106,208710,6,0,P|180:71|180:22,1,72.2475002756023,10|0,0:0|2:0,0:0:0:0:
333,132,208860,1,2,1:0:0:0:
266,258,209010,6,0,P|226:273|178:262,1,72.2475002756023,10|0,0:0|2:0,0:0:0:0:
320,138,209160,1,2,1:0:0:0:
49,16,209310,6,0,B|28:40|31:85|77:105|77:105|124:124|127:169|106:193,1,216.742500826807,12|0,0:0|2:0,0:0:0:0:
96,198,209610,1,0,1:0:0:0:
190,329,209760,6,0,P|225:334|260:345,1,72.2475002756023,8|0,0:0|2:0,0:0:0:0:
329,285,209910,1,0,1:0:0:0:
119,380,210060,1,0,1:0:0:0:
329,285,210210,6,0,B|371:236|332:144|246:151|228:230|277:243,1,216.742500826807,8|0,0:0|2:0,0:0:0:0:
266,238,210510,1,0,1:0:0:0:
475,137,210660,5,8,0:0:0:0:
285,0,210810,1,0,1:0:0:0:
334,116,210960,1,0,1:0:0:0:
149,210,211110,6,0,P|108:209|75:161,1,72.2475002756023,10|0,0:0|2:0,0:0:0:0:
83,87,211260,1,2,1:0:0:0:
20,238,211410,6,0,P|-2:203|17:149,1,72.2475002756023,10|0,0:0|2:0,0:0:0:0:
81,98,211560,1,2,1:0:0:0:
206,293,211710,6,0,P|304:305|445:342,1,216.742500826807,12|0,0:0|2:0,0:0:0:0:
426,328,212010,1,0,1:0:0:0:
329,162,212160,6,0,P|321:125|341:87,1,72.2475002756023,8|0,0:0|2:0,0:0:0:0:
266,215,212310,1,0,1:0:0:0:
400,42,212460,1,0,1:0:0:0:
266,215,212610,2,0,B|156:252|192:106|82:142,1,216.742500826807,8|0,0:0|2:0,0:0:0:0:
76,151,212910,1,0,1:0:0:0:
261,345,213060,5,8,0:0:0:0:
364,167,213210,1,0,1:0:0:0:
362,288,213360,1,0,1:0:0:0:
243,109,213510,6,0,P|232:75|226:31,1,72.2475002756023,10|0,0:0|2:0,0:0:0:0:
200,181,213660,1,2,1:0:0:0:
270,271,213810,2,0,P|281:237|287:193,1,72.2475002756023,10|0,0:0|2:0,0:0:0:0:
313,343,213960,1,2,1:0:0:0:
24,186,214110,6,0,B|45:136|49:81|49:81|99:103|154:107,1,216.742500826807,12|0,0:0|2:0,0:0:0:0:
159,117,214410,1,0,1:0:0:0:
249,295,214560,6,0,B|195:303|146:328|146:328|138:274|113:226,1,216.742500826807,8|0,0:0|2:0,0:0:0:0:
118,217,214860,1,0,1:0:0:0:
230,47,215010,6,0,B|265:88|312:116|312:116|270:151|243:198,1,216.742500826807,8|0,0:0|2:0,0:0:0:0:
233,199,215310,1,0,1:0:0:0:
496,360,215460,5,8,0:0:0:0:
309,269,215610,1,0,1:0:0:0:
351,336,215760,1,8,0:0:0:0:
392,325,215835,1,8,0:0:0:0:
434,314,215910,1,8,0:0:0:0:
345,155,216060,1,8,0:0:0:0:
271,358,216210,1,8,0:0:0:0:
158,146,216360,6,0,B|154:92|93:64|41:102|23:165|79:208|79:208|141:256|118:333|52:358|-18:317|-18:317|22:383|107:402|172:345|238:289|247:187|247:187|257:45|370:17|417:45|520:139|510:261|320:310|345:146|345:146,1,1367.14503337756,12|0,0:2|0:0,0:0:0:0:
