osu file format v14

[General]
AudioFilename: audio.mp3
AudioLeadIn: 0
PreviewTime: 137272
Countdown: 0
SampleSet: Soft
StackLeniency: 0.8
Mode: 0
LetterboxInBreaks: 0
WidescreenStoryboard: 1

[Editor]
DistanceSpacing: 1.1
BeatDivisor: 4
GridSize: 32
TimelineZoom: 1.6

[Metadata]
Title:Reirou no Hibiki
TitleUnicode:玲瓏の響
Artist:kakichoco
ArtistUnicode:柿チョコ
Creator:SMOKELIND
Version:Pepekcz's Hard
Source:
Tags:Pepekcz Shizuku- Shikibe Mayu Ayesha Altugle Kazato Asa gazimal 焔雷 Enlight Japanese Rock JRock J-Rock müchette muchette
BeatmapID:3811610
BeatmapSetID:1853651

[Difficulty]
HPDrainRate:4.5
CircleSize:3.8
OverallDifficulty:7
ApproachRate:8
SliderMultiplier:1.4
SliderTickRate:1

[Events]
//Background and Video events
0,0,"98797564_p0.jpg",0,0
//Break Periods
//Storyboard Layer 0 (Background)
//Storyboard Layer 1 (Fail)
//Storyboard Layer 2 (Pass)
//Storyboard Layer 3 (Foreground)
//Storyboard Layer 4 (Overlay)
//Storyboard Sound Samples

[TimingPoints]
510,300,4,2,77,27,1,0
9510,-111.111111111111,4,2,77,47,0,0
10110,-100,4,2,77,87,0,0
12060,-100,4,2,7,87,0,0
12510,-100,4,2,77,87,0,0
14310,-100,4,2,7,87,0,0
14910,-100,4,2,77,87,0,0
16710,-100,4,2,7,87,0,0
17310,-100,4,2,77,87,0,0
21510,-100,4,2,7,87,0,0
22110,-100,4,2,77,87,0,0
23910,-100,4,2,7,87,0,0
24510,-100,4,2,77,87,0,0
26310,-100,4,2,7,87,0,0
26910,-100,4,2,77,87,0,0
29310,-125,4,2,77,87,0,0
29610,-125,4,2,77,57,0,0
38310,-125,4,2,77,67,0,0
38910,-111.111111111111,4,2,77,67,0,0
45134,-111.111111111111,4,2,77,5,0,0
45210,-111.111111111111,4,2,77,67,0,0
47534,-111.111111111111,4,2,77,5,0,0
47610,-111.111111111111,4,2,77,67,0,0
48510,-100,4,2,77,67,0,0
49935,-100,4,2,77,5,0,0
50010,-100,4,2,77,67,0,0
50835,-100,4,2,77,5,0,0
50910,-100,4,2,77,67,0,0
53310,-125,4,2,77,27,0,0
55110,-125,4,2,77,67,0,0
55710,-100,4,2,77,77,0,0
58110,-100,4,2,77,87,0,1
58335,-100,4,2,77,5,0,1
58410,-100,4,2,77,87,0,1
63135,-100,4,2,77,5,0,1
63210,-100,4,2,77,87,0,1
64710,-100,4,2,7,87,0,1
65310,-100,4,2,77,87,0,1
69510,-100,4,2,7,87,0,1
70110,-100,4,2,77,87,0,1
70335,-100,4,2,77,5,0,1
70410,-100,4,2,77,87,0,1
70935,-100,4,2,77,5,0,1
71010,-100,4,2,77,87,0,1
72510,-111.111111111111,4,2,77,87,0,0
73710,-111.111111111111,4,2,7,87,0,0
74760,-100,4,2,7,87,0,1
74910,-100,4,2,77,87,0,1
76710,-100,4,2,77,87,0,0
77310,-100,4,2,77,87,0,1
77385,-100,4,2,77,87,0,0
79110,-100,4,2,7,87,0,0
79710,-100,4,2,77,87,0,0
81510,-100,4,2,7,87,0,0
82110,-100,4,2,77,87,0,0
83910,-100,4,2,7,87,0,0
84510,-100,4,2,77,87,0,0
86910,-111.111111111111,4,2,77,67,0,0
93134,-111.111111111111,4,2,77,5,0,0
93210,-111.111111111111,4,2,77,67,0,0
94034,-111.111111111111,4,2,77,5,0,0
94110,-111.111111111111,4,2,77,67,0,0
95534,-111.111111111111,4,2,77,5,0,0
95610,-111.111111111111,4,2,77,67,0,0
96434,-111.111111111111,4,2,77,5,0,0
96510,-125,4,2,77,67,0,0
96810,-125,4,2,77,27,0,0
101310,-111.111111111111,4,2,77,67,0,0
102734,-111.111111111111,4,2,77,5,0,0
102810,-111.111111111111,4,2,77,67,0,0
106110,-125,4,2,77,27,0,0
110910,-99.9999999999999,4,2,77,47,0,0
111210,-99.9999999999999,4,2,77,57,0,0
111510,-99.9999999999999,4,2,77,67,0,0
111810,-99.9999999999999,4,2,77,77,0,0
115710,-100,4,2,77,87,0,1
115935,-100,4,2,77,5,0,1
116010,-100,4,2,77,87,0,1
120735,-100,4,2,77,5,0,1
120810,-100,4,2,77,87,0,1
122310,-100,4,2,7,87,0,1
122910,-100,4,2,77,87,0,1
127110,-100,4,2,7,87,0,1
127709,-100,4,2,77,87,0,1
127935,-100,4,2,77,5,0,1
128010,-100,4,2,77,87,0,1
128535,-100,4,2,77,5,0,1
128610,-100,4,2,77,87,0,1
130110,-111.111111111111,4,2,77,87,0,0
131310,-111.111111111111,4,2,7,87,0,0
132360,-100,4,2,7,87,0,1
132509,-100,4,2,77,87,0,1
134310,-100,4,2,77,87,0,0
134910,-166.666666666667,4,2,77,57,0,0
135210,-166.666666666667,4,2,77,27,0,0
137310,-125,4,2,7,47,0,0
156510,-125,4,2,7,57,0,0
157110,-125,4,2,77,57,0,0
157128,-125,4,2,7,57,0,0
158010,-125,4,2,77,57,0,0
158028,-125,4,2,7,57,0,0
159510,-125,4,2,77,57,0,0
159528,-125,4,2,7,57,0,0
160410,-125,4,2,77,57,0,0
160428,-125,4,2,7,57,0,0
161910,-125,4,2,77,57,0,0
161928,-125,4,2,7,57,0,0
164310,-125,4,2,77,57,0,0
164328,-125,4,2,7,57,0,0
164610,-125,4,2,77,57,0,0
164628,-125,4,2,7,57,0,0
166710,-125,4,2,77,57,0,0
166728,-125,4,2,7,57,0,0
167610,-125,4,2,77,57,0,0
167628,-125,4,2,7,57,0,0
169110,-125,4,2,77,57,0,0
169128,-125,4,2,7,57,0,0
170010,-125,4,2,77,57,0,0
170028,-125,4,2,7,57,0,0
170910,-125,4,2,77,57,0,0
171360,-125,4,2,7,57,0,0
171378,-125,4,2,77,57,0,0
172860,-125,4,2,7,57,0,0
172878,-125,4,2,77,57,0,0
173160,-125,4,2,7,57,0,0
173178,-125,4,2,77,57,0,0
173310,-111.111111111111,4,2,77,57,0,0
173760,-111.111111111111,4,2,7,57,0,0
173778,-111.111111111111,4,2,77,57,0,0
175260,-111.111111111111,4,2,7,57,0,0
175278,-111.111111111111,4,2,77,57,0,0
175710,-125,4,2,77,27,0,0
178110,-100,4,2,77,27,0,0
179910,-100,4,2,77,77,0,0
180510,-100,4,2,77,87,0,1
183135,-100,4,2,77,5,0,1
183210,-100,4,2,77,87,0,1
184710,-100,4,2,7,87,0,1
185310,-100,4,2,77,87,0,1
189510,-100,4,2,7,87,0,1
190109,-100,4,2,77,87,0,1
192510,-111.111111111111,4,2,77,87,0,0
193710,-111.111111111111,4,2,7,87,0,0
194910,-100,4,2,77,87,0,1
196710,-100,4,2,77,87,0,0
197310,-100,4,2,77,87,0,1
197385,-100,4,2,77,87,0,0
199260,-100,4,2,7,87,0,0
199710,-100,4,2,77,87,0,0
201510,-100,4,2,7,87,0,0
202110,-100,4,2,77,87,0,0
203910,-100,4,2,7,87,0,0
204510,-100,4,2,77,87,0,0
208710,-100,4,2,7,87,0,0
209310,-100,4,2,77,87,0,0
211110,-100,4,2,7,87,0,0
211710,-100,4,2,77,87,0,0
213510,-100,4,2,7,87,0,0
214110,-100,4,2,77,87,0,0
216360,-100,4,2,47,47,0,0
216510,-100,4,2,77,5,0,0

[Colours]
Combo1 : 180,180,180
Combo2 : 74,74,74

[HitObjects]
468,367,9510,6,0,P|374:340|403:251,1,188.999994232178,0|0,1:0|0:0,0:0:0:0:
465,186,10110,5,12,0:0:0:0:
465,186,10260,2,0,P|474:134|500:34,1,140,0|8,1:0|0:0,0:0:0:0:
409,15,10710,2,0,P|361:22|323:29,1,70,0|0,1:0|1:0,0:0:0:0:
260,67,11010,1,8,0:0:0:0:
260,67,11160,2,0,L|181:56,1,70,0|0,1:0|1:0,0:0:0:0:
101,41,11460,6,0,P|118:112|129:189,1,140,8|0,0:0|1:0,0:0:0:0:
53,231,11910,2,0,L|7:223,2,35,8|8|2,0:0|0:0|1:0,0:0:0:0:
109,303,12210,1,10,0:0:0:0:
174,366,12360,1,2,1:0:0:0:
227,291,12510,5,12,0:0:0:0:
227,291,12660,2,0,B|303:291|287:323|375:323,1,140,0|8,1:0|0:0,0:0:0:0:
451,308,13110,2,0,P|465:268|453:235,1,70,0|0,1:0|1:0,0:0:0:0:
409,171,13410,1,8,0:0:0:0:
409,171,13560,2,0,P|369:157|336:169,1,70,0|0,1:0|1:0,0:0:0:0:
266,213,13860,6,0,P|189:195|115:187,1,140,8|0,0:0|1:0,0:0:0:0:
46,226,14310,1,10,0:0:0:0:
46,226,14460,1,2,1:0:0:0:
14,140,14610,2,0,P|21:104|29:69,1,70,10|2,0:0|1:0,0:0:0:0:
132,25,14910,5,12,0:0:0:0:
132,25,15060,2,0,P|201:33|269:50,1,140,0|8,1:0|0:0,0:0:0:0:
339,109,15510,2,0,P|388:107|412:92,1,70,0|0,1:0|1:0,0:0:0:0:
490,59,15810,1,8,0:0:0:0:
490,59,15960,2,0,L|474:148,1,70,0|0,1:0|1:0,0:0:0:0:
410,189,16260,6,0,P|470:212|452:291,1,140,8|0,0:0|1:0,0:0:0:0:
416,354,16710,2,0,P|380:346|336:339,1,70,10|2,0:0|1:0,0:0:0:0:
272,297,17010,1,10,0:0:0:0:
272,297,17160,1,2,1:0:0:0:
197,346,17310,5,12,0:0:0:0:
197,346,17460,2,0,P|136:366|57:315,1,140,0|8,1:0|0:0,0:0:0:0:
21,258,17910,2,0,L|34:184,1,70,0|0,1:0|1:0,0:0:0:0:
99,126,18210,1,8,0:0:0:0:
99,126,18360,2,0,L|173:139,1,70,0|0,1:0|1:0,0:0:0:0:
245,186,18660,6,0,P|319:173|397:165,1,140,8|8,0:0|0:0,0:0:0:0:
397,166,19035,1,8,0:0:0:0:
410,165,19110,1,8,0:0:0:0:
495,92,19260,1,8,0:0:0:0:
404,25,19410,1,8,0:0:0:0:
404,25,19560,1,8,0:0:0:0:
297,73,19710,5,12,0:0:0:0:
297,73,19860,2,0,B|221:81|237:33|149:41,1,140,0|8,1:0|0:0,0:0:0:0:
80,77,20310,2,0,L|94:156,1,70,0|0,1:0|1:0,0:0:0:0:
37,219,20610,1,8,0:0:0:0:
37,219,20760,2,0,L|23:298,1,70,0|0,1:0|1:0,0:0:0:0:
69,366,21060,6,0,P|128:353|232:342,1,140,8|0,0:0|1:0,0:0:0:0:
290,303,21510,1,10,0:0:0:0:
290,303,21660,1,2,1:0:0:0:
373,339,21810,2,0,P|407:344|438:329,1,70,10|2,0:0|1:0,0:0:0:0:
482,227,22110,5,12,0:0:0:0:
482,227,22260,2,0,P|471:163|458:85,1,140,0|8,1:0|0:0,0:0:0:0:
380,40,22710,2,0,P|344:34|301:44,1,70,0|0,1:0|1:0,0:0:0:0:
234,88,23010,1,8,0:0:0:0:
234,88,23160,2,0,L|249:171,1,70,0|0,1:0|1:0,0:0:0:0:
321,208,23460,6,0,P|305:281|291:354,1,140,8|0,0:0|1:0,0:0:0:0:
203,367,23910,2,0,L|130:351,1,70,10|2,0:0|1:0,0:0:0:0:
51,329,24210,1,10,0:0:0:0:
51,329,24360,1,2,1:0:0:0:
120,238,24510,5,12,0:0:0:0:
120,238,24660,2,0,P|150:189|118:106,1,140,0|8,1:0|0:0,0:0:0:0:
72,40,25110,2,0,L|152:25,1,70,0|0,1:0|1:0,0:0:0:0:
226,71,25410,1,8,0:0:0:0:
226,71,25560,2,0,L|294:83,1,70,0|0,1:0|1:0,0:0:0:0:
377,46,25860,6,0,P|431:86|417:152,1,140,8|0,0:0|1:0,0:0:0:0:
367,226,26310,1,10,0:0:0:0:
367,226,26460,1,2,1:0:0:0:
413,304,26610,2,0,L|337:320,1,70,10|2,0:0|1:0,0:0:0:0:
237,286,26910,5,12,0:0:0:0:
237,286,27060,2,0,B|192:275|161:301|161:301|139:327|95:328,1,140,0|8,1:0|0:0,0:0:0:0:
30,279,27510,2,0,P|25:239|41:199,1,70,0|0,1:0|1:0,0:0:0:0:
4,129,27810,1,8,0:0:0:0:
4,129,27960,2,0,P|36:104|78:98,1,70,0|0,1:0|1:0,0:0:0:0:
144,140,28260,6,0,P|225:154|301:177,1,140,8|8,0:0|0:0,0:0:0:0:
293,174,28635,1,8,0:0:0:0:
306,178,28710,1,8,0:0:0:0:
394,246,28860,1,8,0:0:0:0:
485,179,29010,1,8,0:0:0:0:
485,179,29160,1,8,0:0:0:0:
395,110,29310,5,4,1:2:0:0:
259,30,29610,2,0,P|211:36|131:59,2,112,6|6|10,0:3|0:3|0:3,0:0:0:0:
277,111,30360,5,4,0:3:0:0:
277,111,30510,2,0,P|229:117|149:140,1,112,6|6,0:3|0:3,0:0:0:0:
30,210,31110,2,0,P|28:242|44:279,1,56,6|4,0:3|0:3,0:0:0:0:
15,340,31410,2,0,P|42:357|81:362,1,56,6|0,0:3|0:0,0:0:0:0:
134,302,31710,6,0,P|188:288|245:280,1,112,6|4,0:3|0:3,0:0:0:0:
320,310,32160,1,8,0:3:0:0:
320,310,32310,2,0,L|306:372,2,56,4|8|8,0:3|0:3|0:3,0:0:0:0:
455,230,32910,6,0,P|479:175|407:108,1,168,6|4,0:3|0:3,0:0:0:0:
335,131,33510,2,0,L|349:193,2,56,10|8|4,0:3|0:3|0:3,0:0:0:0:
200,48,34110,5,4,0:3:0:0:
68,132,34410,2,0,P|122:145|128:200,2,112,6|6|10,0:3|0:3|0:3,0:0:0:0:
17,192,35160,5,4,0:3:0:0:
17,192,35310,2,0,P|28:240|40:320,1,112,6|6,0:3|0:3,0:0:0:0:
184,359,35910,2,0,P|226:343|251:343,1,56,6|4,0:3|0:3,0:0:0:0:
272,271,36210,2,0,P|306:299|319:321,1,56,6|0,0:3|0:0,0:0:0:0:
355,374,36510,6,0,P|367:295|383:243,1,112,6|4,0:3|0:3,0:0:0:0:
336,202,36960,1,8,0:3:0:0:
336,202,37110,2,0,P|361:190|403:192,2,56,4|8|8,0:3|0:3|0:3,0:0:0:0:
192,266,37710,6,0,P|112:282|68:206,1,168,6|4,0:3|0:3,0:0:0:0:
76,140,38310,2,0,L|69:97,2,28,10|8|0,0:0|0:0|0:0,0:0:0:0:
146,174,38610,1,8,0:0:0:0:
291,74,38910,5,4,1:0:0:0:
457,131,39210,2,0,P|417:149|420:228,1,125.999996154785,10|2,0:0|1:0,0:0:0:0:
487,271,39660,1,0,0:0:0:0:
487,271,39810,2,0,L|474:335,1,62.9999980773926,10|0,0:0|0:0,0:0:0:0:
401,370,40110,6,0,P|363:338|274:347,1,125.999996154785,2|10,1:0|0:0,0:0:0:0:
211,353,40560,1,0,0:0:0:0:
211,353,40710,2,0,P|157:340|125:334,1,62.9999980773926,2|0,1:0|0:0,0:0:0:0:
79,296,41010,2,8,P|85:265|93:234,1,62.9999980773926,10|0,0:0|0:0,0:0:0:0:
114,155,41310,5,0,1:0:0:0:
241,51,41610,2,0,B|281:41|312:61|312:61|332:88|364:88,1,125.999996154785,10|2,0:0|1:0,0:0:0:0:
434,59,42060,1,0,0:0:0:0:
434,59,42210,2,0,P|446:113|448:127,1,62.9999980773926,10|0,0:0|0:0,0:0:0:0:
434,201,42510,6,0,P|355:181|298:172,1,125.999996154785,2|10,1:0|0:0,0:0:0:0:
169,90,43110,2,0,P|134:92|106:109,1,62.9999980773926,2|0,1:0|0:0,0:0:0:0:
42,58,43410,2,0,P|26:89|26:122,1,62.9999980773926,10|0,0:0|0:0,0:0:0:0:
72,184,43710,6,0,P|90:246|105:320,1,125.999996154785,2|8,1:0|0:0,0:0:0:0:
173,357,44160,1,0,0:0:0:0:
173,357,44310,2,0,B|241:357|225:325|301:325,1,125.999996154785,2|8,1:0|0:0,0:0:0:0:
450,371,44910,6,0,P|473:326|462:273,1,94.499997116089,2|0,1:0|2:0,0:0:0:0:
459,274,45210,2,0,P|443:242|445:210,1,62.9999980773926,8|0,0:0|0:0,0:0:0:0:
482,143,45510,2,0,P|488:98|415:68,1,125.999996154785,2|8,1:0|0:0,0:0:0:0:
270,120,46110,6,0,P|207:107|136:102,1,125.999996154785,2|8,1:0|0:0,0:0:0:0:
64,115,46560,1,0,0:0:0:0:
64,115,46710,2,0,P|36:168|60:227,1,125.999996154785,2|8,1:0|0:0,0:0:0:0:
120,280,47160,5,0,0:0:0:0:
120,280,47310,2,0,P|184:265|225:258,1,94.499997116089,2|0,1:0|2:0,0:0:0:0:
225,258,47610,1,8,0:0:0:0:
380,206,47910,2,0,L|368:253,2,31.4999990386963,10|8|0,0:0|0:0|1:0,0:0:0:0:
444,154,48210,2,0,P|436:103|429:51,1,94.499997116089,8|0,0:0|0:0,0:0:0:0:
425,47,48510,6,0,P|368:17|280:40,1,140,4|10,1:0|0:0,0:0:0:0:
223,84,48960,1,0,1:0:0:0:
223,84,49110,2,0,L|140:72,1,70,2|0,1:0|1:0,0:0:0:0:
73,117,49410,2,0,L|61:200,1,70,10|0,0:0|1:0,0:0:0:0:
13,263,49710,6,0,P|66:264|110:298,1,105,2|0,0:0|2:0,0:0:0:0:
115,304,50010,2,0,P|155:329|180:328,1,70,10|0,0:0|1:0,0:0:0:0:
257,285,50310,2,0,P|297:260|322:261,1,70,2|0,1:0|1:0,0:0:0:0:
400,300,50610,2,0,P|452:303|491:259,1,105,10|0,0:0|2:0,0:0:0:0:
491,254,50910,6,0,P|479:196|468:109,1,140,2|8,1:0|0:0,0:0:0:0:
303,37,51510,2,0,P|260:42|219:50,1,70,2|0,0:0|1:0,0:0:0:0:
153,88,51810,2,0,P|118:82|83:78,1,70,8|0,0:0|1:0,0:0:0:0:
22,146,52110,6,0,L|30:198,2,46.6666666666667,10|8|8,0:0|0:0|0:0,0:0:0:0:
103,160,52410,6,0,L|119:259,1,93.3333333333333,2|12,0:3|0:3,0:0:0:0:
53,313,52710,6,0,L|45:266,2,46.6666666666667,6|4|4,1:3|0:3|0:3,0:0:0:0:
119,363,53010,6,0,P|161:326|255:335,1,140,0|2,1:0|0:0,0:0:0:0:
33,54,55260,6,0,L|29:26,2,28,0|0|8,1:0|1:0|0:0,0:0:0:0:
192,142,55710,6,0,P|252:126|271:125,1,70,8|0,0:0|1:0,0:0:0:0:
273,125,55935,1,0,1:0:0:0:
286,124,56010,1,8,0:0:0:0:
372,95,56160,2,0,L|377:59,2,35,0|0|8,1:0|1:0|0:0,0:0:0:0:
455,130,56460,2,0,L|460:94,2,35,0|0|8,1:0|1:0|0:0,0:0:0:0:
390,193,56760,1,0,1:0:0:0:
454,257,56910,6,0,L|449:291,3,35,8|8|0|0,0:0|0:0|1:0|1:0,0:0:0:0:
447,305,57210,1,8,0:0:0:0:
357,320,57360,2,0,L|352:285,2,35,8|8|8,0:0|0:0|0:0,0:0:0:0:
270,350,57660,1,0,1:0:0:0:
181,328,57810,2,0,P|160:320|139:319,3,35,8|8|8|8,0:3|0:3|0:3|0:3,0:0:0:0:
134,322,58110,6,0,P|104:289|121:212,1,105,6|0,1:0|2:0,0:0:0:0:
115,221,58410,2,0,P|155:193|131:106,1,140,10|2,0:0|0:0,0:0:0:0:
70,52,58860,1,0,1:0:0:0:
149,4,59010,2,0,P|184:7|218:15,1,70,10|0,0:0|1:0,0:0:0:0:
311,110,59310,6,0,P|364:97|453:88,1,140,2|10,0:0|0:0,0:0:0:0:
509,156,59760,1,0,1:0:0:0:
427,196,59910,2,0,P|392:202|339:215,1,70,2|0,0:0|1:0,0:0:0:0:
276,251,60210,2,0,P|241:243|207:236,1,70,8|0,0:0|0:0,0:0:0:0:
75,235,60510,6,0,P|88:290|103:387,2,140,2|10|2,1:0|0:0|0:0,0:0:0:0:
40,150,61260,1,0,1:0:0:0:
81,68,61410,2,0,P|114:50|158:53,1,70,10|0,0:0|1:0,0:0:0:0:
251,124,61710,6,0,B|323:136|311:80|399:92,1,140,2|8,0:0|0:0,0:0:0:0:
456,144,62160,1,0,1:0:0:0:
437,233,62310,2,0,P|366:243|286:261,1,140,2|8,0:0|0:0,0:0:0:0:
145,159,62910,6,0,P|106:146|47:182,1,105,6|0,1:0|2:0,0:0:0:0:
42,184,63210,2,0,P|16:245|51:318,1,140,10|2,0:0|0:0,0:0:0:0:
116,362,63660,1,0,1:0:0:0:
197,322,63810,2,0,P|244:334|271:344,1,70,10|0,0:0|1:0,0:0:0:0:
387,362,64110,6,0,P|448:360|459:275,1,140,2|10,0:0|0:0,0:0:0:0:
393,241,64560,1,0,1:0:0:0:
450,167,64710,2,0,L|465:89,1,70,2|2,1:0|1:0,0:0:0:0:
402,30,65010,2,0,L|324:15,1,70,10|2,0:0|0:0,0:0:0:0:
192,41,65310,6,0,B|120:29|132:85|44:73,2,140,2|10|2,1:0|0:0|0:0,0:0:0:0:
273,80,66060,1,0,1:0:0:0:
255,176,66210,2,0,P|220:179|179:185,1,70,10|0,0:0|1:0,0:0:0:0:
71,175,66510,6,0,P|28:210|49:287,1,140,2|8,0:0|0:0,0:0:0:0:
129,320,66960,1,0,1:0:0:0:
223,294,67110,2,0,B|260:283|302:304|302:304|321:327|360:329,1,140,2|8,0:0|0:0,0:0:0:0:
493,211,67710,6,0,P|493:169|476:137,1,70,6|0,1:0|0:0,0:0:0:0:
413,83,68010,2,0,P|371:83|339:100,1,70,10|0,0:0|0:0,0:0:0:0:
272,149,68310,2,0,P|213:131|128:125,1,140,2|10,1:0|0:0,0:0:0:0:
120,218,68760,5,0,0:0:0:0:
120,218,68910,2,0,P|189:222|256:242,1,140,2|8,1:0|0:0,0:0:0:0:
348,237,69360,1,0,0:0:0:0:
348,237,69510,2,0,P|382:298|342:364,1,140,2|10,1:0|0:0,0:0:0:0:
172,344,70110,6,0,P|120:353|45:369,1,105,6|0,1:0|2:0,0:0:0:0:
55,367,70410,2,0,P|36:336|37:301,1,70,10|0,0:0|0:0,0:0:0:0:
111,222,70710,2,0,P|138:180|117:113,1,105,6|0,1:0|2:0,0:0:0:0:
120,116,71010,2,0,P|105:85|107:44,1,70,10|0,0:0|0:0,0:0:0:0:
214,18,71310,6,0,P|317:31|375:49,1,140,6|10,1:0|0:0,0:0:0:0:
449,101,71760,1,0,0:0:0:0:
449,101,71910,2,0,L|432:185,1,70,2|0,1:0|1:0,0:0:0:0:
481,259,72210,1,8,0:0:0:0:
481,259,72285,1,8,0:0:0:0:
481,259,72360,1,8,0:3:0:0:
401,340,72510,6,0,B|333:348|349:300|273:308,1,125.999996154785,6|2,1:0|0:0,0:0:0:0:
209,343,72960,1,0,0:0:0:0:
209,343,73110,2,0,P|166:356|91:316,1,125.999996154785,10|2,0:0|0:0,0:0:0:0:
41,267,73560,5,0,3:0:0:0:
41,267,73635,1,0,3:0:0:0:
41,267,73710,2,0,L|54:191,1,62.9999980773926,2|0,0:0|0:0,0:0:0:0:
119,157,74010,1,0,1:0:0:0:
257,244,74310,2,0,P|315:229|401:224,1,125.999996154785,10|0,0:0|1:0,0:0:0:0:
473,264,74760,5,2,0:0:0:0:
473,264,74835,1,0,0:0:0:0:
473,264,74910,1,10,0:0:0:0:
496,177,75060,2,0,P|486:125|482:103,1,70,6|0,1:2|0:0,0:0:0:0:
420,41,75360,1,8,0:0:0:0:
338,80,75510,2,0,B|262:84|278:44|190:48,1,140,4|8,1:2|0:0,0:0:0:0:
113,61,75960,6,0,P|98:100|100:131,1,70,4|0,1:2|0:0,0:0:0:0:
144,207,76260,1,10,0:0:0:0:
92,281,76410,1,2,1:0:0:0:
92,281,76560,1,2,1:0:0:0:
145,354,76710,2,0,P|204:337|257:331,2,105,6|4|4,0:3|0:3|0:3,0:0:0:0:
92,281,77310,5,12,0:0:0:0:
92,281,77460,2,0,P|154:264|244:251,1,140,0|8,1:0|0:0,0:0:0:0:
308,295,77910,2,0,P|359:316|381:313,1,70,0|0,1:0|1:0,0:0:0:0:
458,278,78210,1,8,0:0:0:0:
458,278,78360,2,0,P|479:227|476:205,1,70,0|0,1:0|1:0,0:0:0:0:
437,131,78660,6,0,B|392:118|359:137|359:137|336:156|295:146,1,140,8|0,0:0|1:0,0:0:0:0:
259,67,79110,2,0,L|267:21,2,35,10|0|2,0:0|0:0|1:0,0:0:0:0:
174,95,79410,1,10,0:0:0:0:
89,127,79560,1,2,1:0:0:0:
53,236,79710,5,12,0:0:0:0:
53,236,79860,2,0,B|129:236|109:276|197:276,1,140,0|8,1:0|0:0,0:0:0:0:
275,264,80310,2,0,L|343:277,1,70,0|0,1:0|1:0,0:0:0:0:
431,299,80610,1,8,0:0:0:0:
431,299,80760,2,0,L|444:230,1,70,0|0,1:0|1:0,0:0:0:0:
403,148,81060,6,0,P|461:146|450:61,1,140,8|0,0:0|1:0,0:0:0:0:
400,25,81510,1,10,0:0:0:0:
400,25,81660,1,2,1:0:0:0:
309,37,81810,2,0,L|229:54,1,70,10|2,0:0|1:0,0:0:0:0:
131,26,82110,5,12,0:0:0:0:
131,26,82260,2,0,P|77:26|77:99,1,140,0|8,1:0|0:0,0:0:0:0:
143,157,82710,2,0,L|126:236,1,70,0|0,1:0|1:0,0:0:0:0:
53,275,83010,1,8,0:0:0:0:
53,275,83160,2,0,L|70:354,1,70,0|0,1:0|1:0,0:0:0:0:
150,380,83460,6,0,P|202:364|294:358,1,140,8|0,0:0|1:0,0:0:0:0:
369,318,83910,2,0,P|378:281|359:244,1,70,10|2,0:0|1:0,0:0:0:0:
298,200,84210,1,10,0:0:0:0:
298,200,84360,1,2,1:0:0:0:
203,264,84510,5,12,0:0:0:0:
203,264,84660,2,0,P|142:284|63:233,1,140,0|8,1:0|0:0,0:0:0:0:
21,180,85110,2,0,L|34:106,1,70,0|0,1:0|1:0,0:0:0:0:
103,53,85410,1,8,0:0:0:0:
103,53,85560,2,0,L|177:66,1,70,0|0,1:0|1:0,0:0:0:0:
251,109,85860,6,0,B|327:109|307:69|395:69,1,140,8|8,0:0|0:0,0:0:0:0:
396,71,86235,1,8,0:0:0:0:
409,75,86310,1,8,0:0:0:0:
483,158,86460,1,8,0:0:0:0:
407,236,86610,1,8,0:0:0:0:
407,236,86760,1,8,0:0:0:0:
484,318,86910,5,4,1:2:0:0:
327,366,87210,2,0,P|270:354|190:343,1,125.999996154785,10|2,0:0|0:0,0:0:0:0:
121,352,87660,1,0,1:0:0:0:
121,352,87810,2,0,P|104:323|104:286,1,62.9999980773926,10|0,0:0|1:0,0:0:0:0:
148,226,88110,6,0,P|170:183|141:103,1,125.999996154785,2|10,0:0|0:0,0:0:0:0:
111,44,88560,1,0,1:0:0:0:
111,44,88710,2,0,L|190:31,1,62.9999980773926,2|0,0:0|1:0,0:0:0:0:
244,73,89010,2,0,L|306:83,1,62.9999980773926,10|0,0:0|0:0,0:0:0:0:
381,49,89310,5,2,1:0:0:0:
468,187,89610,2,0,P|410:197|332:216,1,125.999996154785,8|0,0:0|0:0,0:0:0:0:
268,232,90060,1,0,1:0:0:0:
268,232,90210,2,0,L|197:216,1,62.9999980773926,8|0,0:0|1:0,0:0:0:0:
131,183,90510,6,0,P|79:200|86:266,1,125.999996154785,2|8,0:0|0:0,0:0:0:0:
212,362,91110,2,0,P|248:365|278:354,1,62.9999980773926,2|0,0:0|1:0,0:0:0:0:
341,311,91410,2,0,P|377:308|407:319,1,62.9999980773926,8|0,0:0|0:0,0:0:0:0:
472,358,91710,6,0,P|481:305|496:227,1,125.999996154785,0|10,1:0|0:0,0:0:0:0:
462,163,92160,1,0,0:0:0:0:
462,163,92310,2,0,P|504:149|488:78,1,125.999996154785,2|10,0:0|0:0,0:0:0:0:
338,25,92910,6,0,P|292:32|245:43,1,94.499997116089,2|0,1:0|2:0,0:0:0:0:
234,49,93210,2,0,L|156:35,1,62.9999980773926,10|0,0:0|1:0,0:0:0:0:
92,58,93510,2,0,P|77:90|83:125,1,62.9999980773926,2|0,0:0|1:0,0:0:0:0:
117,189,93810,2,0,P|135:237|112:293,1,94.499997116089,10|0,0:0|2:0,0:0:0:0:
117,287,94110,6,0,B|159:278|191:296|191:296|214:321|256:320,1,125.999996154785,2|8,1:0|0:0,0:0:0:0:
390,368,94710,2,0,P|415:332|392:254,1,125.999996154785
330,207,95160,5,0,1:0:0:0:
330,207,95310,2,0,P|284:195|237:186,1,94.499997116089,2|0,0:0|2:0,0:0:0:0:
225,184,95610,1,8,0:0:0:0:
63,208,95910,2,0,L|75:255,2,31.4999990386963,2|0|0,0:0|0:0|0:0,0:0:0:0:
17,139,96210,2,0,P|56:122|58:68,1,94.499997116089,8|0,0:0|2:0,0:0:0:0:
57,64,96510,5,4,1:2:0:0:
489,21,101310,6,0,P|477:74|460:154,1,125.999996154785,4|8,1:0|0:0,0:0:0:0:
500,221,101760,1,0,0:0:0:0:
500,221,101910,2,0,P|440:198|375:222,1,125.999996154785,2|8,1:0|0:0,0:0:0:0:
262,326,102510,6,0,P|225:349|155:342,1,94.499997116089,2|0,1:0|2:0,0:0:0:0:
163,345,102810,2,0,L|151:276,1,62.9999980773926,8|0,0:0|0:0,0:0:0:0:
87,232,103110,2,0,P|98:169|113:105,1,125.999996154785,2|8,1:0|0:0,0:0:0:0:
261,40,103710,6,0,B|329:32|313:80|389:72,1,125.999996154785,2|8,1:0|0:0,0:0:0:0:
457,47,104160,1,0,0:0:0:0:
457,47,104310,2,0,P|482:97|455:172,1,125.999996154785,2|8,1:0|0:0,0:0:0:0:
387,307,104910,6,0,P|411:311|451:320,2,41.9999987182618,10|8|8,0:0|0:0|0:0,0:0:0:0:
328,258,105210,6,0,P|285:263|222:277,1,83.9999974365235,8|8,0:3|0:3,0:0:0:0:
172,307,105510,6,0,L|164:358,2,41.9999987182618,6|4|4,0:3|0:3|0:3,0:0:0:0:
123,238,105810,6,0,P|175:205|139:147,1,125.999996154785,12|2,0:3|0:0,0:0:0:0:
16,16,110910,6,0,L|66:26,3,35,8|8|8|8,0:0|0:0|0:0|0:0,0:0:0:0:
61,31,111210,2,0,P|106:22|149:19,1,70,8|8,0:0|1:2,0:0:0:0:
191,87,111510,1,8,0:0:0:0:
280,60,111660,1,8,0:0:0:0:
279,60,111810,2,0,P|314:65|348:73,1,70,8|8,1:2|0:0,0:0:0:0:
437,77,112110,6,0,P|443:98|442:129,3,35,8|8|8|8,0:0|0:0|0:0|0:0,0:0:0:0:
439,124,112410,2,0,P|411:187|416:213,1,70,8|8,0:0|1:2,0:0:0:0:
491,229,112710,1,8,0:0:0:0:
486,325,112860,1,8,0:0:0:0:
486,325,113010,2,0,L|396:343,1,70,8|8,1:2|0:0,0:0:0:0:
307,311,113310,6,0,P|254:300|211:294,1,70,8|8,1:2|0:0,0:0:0:0:
200,293,113535,1,8,0:0:0:0:
189,295,113610,2,0,P|160:260|168:206,1,70,8|8,0:0|0:0,0:0:0:0:
167,202,113835,1,8,0:0:0:0:
173,193,113910,2,0,P|192:157|190:117,1,70,8|8,0:0|0:0,0:0:0:0:
277,94,114210,2,0,P|255:59|219:41,1,70,8|0,0:0|3:0,0:0:0:0:
142,21,114510,6,0,L|100:30,7,35,8|8|8|8|8|8|8|8,1:2|0:0|0:0|0:0|1:2|0:0|0:0|0:0,0:0:0:0:
94,32,115110,2,0,L|103:74,3,35,8|8|10|8,0:0|0:0|0:0|0:0,0:0:0:0:
18,278,115710,6,0,P|71:288|136:306,1,105,6|0,1:0|2:0,0:0:0:0:
131,309,116010,2,0,P|197:299|280:295,1,140,10|2,0:0|0:0,0:0:0:0:
344,347,116460,1,0,1:0:0:0:
410,284,116610,2,0,P|424:242|414:212,1,70,10|0,0:0|1:0,0:0:0:0:
389,92,116910,6,0,P|319:76|242:70,1,140,2|10,0:0|0:0,0:0:0:0:
160,62,117360,1,0,1:0:0:0:
92,117,117510,2,0,L|81:193,1,70,2|0,0:0|1:0,0:0:0:0:
9,242,117810,2,0,L|20:318,1,70,8|0,0:0|0:0,0:0:0:0:
142,350,118110,6,0,B|179:339|221:360|221:360|240:383|279:385,2,140,2|10|2,1:0|0:0|0:0,0:0:0:0:
51,340,118860,1,0,1:0:0:0:
94,260,119010,2,0,L|176:243,1,70,10|0,0:0|1:0,0:0:0:0:
280,300,119310,6,0,P|352:316|428:338,1,140,2|8,0:0|0:0,0:0:0:0:
478,267,119760,1,0,1:0:0:0:
408,209,119910,2,0,P|340:190|272:174,1,140,2|8,0:0|0:0,0:0:0:0:
89,180,120510,6,0,P|58:141|71:73,1,105,6|0,1:0|2:0,0:0:0:0:
70,77,120810,2,0,P|140:62|223:52,1,140,10|2,0:0|0:0,0:0:0:0:
293,85,121260,1,0,1:0:0:0:
345,10,121410,2,0,P|376:-2|425:6,1,70,10|0,0:0|1:0,0:0:0:0:
499,97,121710,6,0,P|480:165|472:234,1,140,2|10,0:0|0:0,0:0:0:0:
508,318,122160,1,0,1:0:0:0:
430,365,122310,2,0,P|393:367|357:350,1,70,2|2,1:0|1:0,0:0:0:0:
317,274,122610,2,0,P|280:272|244:289,1,70,10|2,0:0|0:0,0:0:0:0:
134,371,122910,6,0,P|124:304|108:233,2,140,2|10|2,1:0|0:0|0:0,0:0:0:0:
42,376,123660,1,0,1:0:0:0:
0,292,123810,2,0,L|11:217,1,70,10|0,0:0|1:0,0:0:0:0:
56,100,124110,6,0,P|80:72|175:82,1,140,2|8,0:0|0:0,0:0:0:0:
203,167,124560,1,0,1:0:0:0:
266,236,124710,2,0,B|303:225|331:238|331:238|360:269|403:271,1,140,2|8,0:0|0:0,0:0:0:0:
496,118,125310,6,0,P|503:84|489:39,1,70,6|0,1:0|0:0,0:0:0:0:
410,14,125610,2,0,P|376:7|331:21,1,70,10|0,0:0|0:0,0:0:0:0:
273,74,125910,2,0,P|205:61|129:50,1,140,2|10,1:0|0:0,0:0:0:0:
54,95,126360,5,0,0:0:0:0:
54,95,126510,2,0,P|83:140|57:228,1,140,2|8,1:0|0:0,0:0:0:0:
22,303,126960,1,0,0:0:0:0:
22,303,127110,2,0,P|91:313|160:326,1,140,2|10,1:0|0:0,0:0:0:0:
339,362,127710,6,0,P|398:360|428:314,1,105,6|0,1:0|2:0,0:0:0:0:
430,314,128010,2,0,L|444:233,1,70,10|0,0:0|0:0,0:0:0:0:
493,144,128310,2,0,P|441:140|419:83,1,105,6|0,1:0|2:0,0:0:0:0:
416,83,128610,2,0,L|345:68,1,70,10|0,0:0|0:0,0:0:0:0:
237,78,128910,6,0,B|161:78|177:46|89:46,1,140,6|10,1:0|0:0,0:0:0:0:
36,108,129360,1,0,0:0:0:0:
36,108,129510,2,0,P|30:146|47:189,1,70,2|0,1:0|1:0,0:0:0:0:
112,246,129810,1,8,0:0:0:0:
112,246,129885,1,8,0:0:0:0:
112,246,129960,1,8,0:3:0:0:
212,190,130110,6,0,B|250:179|276:203|276:203|298:227|340:222,1,125.999996154785,6|2,1:0|0:0,0:0:0:0:
407,194,130560,1,0,0:0:0:0:
407,194,130710,2,0,P|436:223|416:302,1,125.999996154785,10|2,0:0|0:0,0:0:0:0:
356,349,131160,5,0,3:0:0:0:
356,349,131235,1,0,3:0:0:0:
356,349,131310,2,0,L|291:338,1,62.9999980773926,2|0,0:0|0:0,0:0:0:0:
213,324,131610,1,0,1:0:0:0:
57,376,131910,2,0,P|21:329|37:256,1,125.999996154785,10|0,0:0|1:0,0:0:0:0:
94,200,132360,5,2,0:0:0:0:
94,200,132435,1,0,0:0:0:0:
94,200,132510,1,10,0:0:0:0:
44,123,132660,2,0,P|39:81|49:48,1,70,6|0,1:2|0:0,0:0:0:0:
132,23,132960,1,8,0:0:0:0:
211,66,133110,2,0,B|283:78|271:22|359:34,1,140,4|8,1:2|0:0,0:0:0:0:
426,70,133560,6,0,L|433:142,1,70,4|0,1:2|0:0,0:0:0:0:
498,203,133860,1,10,0:0:0:0:
448,280,134010,1,2,1:0:0:0:
448,280,134160,1,2,1:0:0:0:
478,365,134310,2,0,P|424:367|374:336,2,105,6|4|4,0:3|0:3|0:3,0:0:0:0:
448,280,134910,5,4,1:2:0:0:
256,192,135060,12,0,136710,0:0:0:0:
15,375,137310,6,0,P|17:347|23:319,1,56,6|2,1:2|0:0,0:0:0:0:
81,265,137610,1,2,0:0:0:0:
81,265,137760,2,0,P|75:207|55:88,1,168,2|2,0:0|1:0,0:0:0:0:
207,46,138510,5,10,0:0:0:0:
207,46,138660,1,2,0:0:0:0:
352,104,138960,1,2,0:0:0:0:
352,104,139110,2,0,P|362:62|369:37,2,56,2|2|2,0:0|0:0|1:0,0:0:0:0:
454,222,139710,6,0,L|463:283,1,56,2|2,1:0|0:0,0:0:0:0:
476,358,140010,1,2,0:0:0:0:
476,358,140160,2,0,B|428:382|398:349|407:340|369:305|320:321,1,168,2|0,0:0|1:0,0:0:0:0:
175,374,140910,6,0,P|152:331|175:266,1,112,8|0,0:0|0:0,0:0:0:0:
233,227,141360,1,2,0:0:0:0:
233,227,141510,2,0,L|294:240,2,56,2|2|2,0:0|0:0|1:0,0:0:0:0:
129,109,142110,6,0,P|91:109|67:121,1,56,2|2,1:0|0:0,0:0:0:0:
18,171,142410,1,2,0:0:0:0:
18,171,142560,2,0,P|-3:238|40:333,1,168,2|2,0:0|1:0,0:0:0:0:
182,280,143310,6,0,L|193:375,2,84,8|0|2,0:0|1:0|1:0,0:0:0:0:
240,227,143910,2,0,L|232:164,2,56,2|2|2,0:0|0:0|0:0,0:0:0:0:
308,274,144360,5,2,1:0:0:0:
308,274,144510,1,0,1:0:0:0:
447,198,144810,1,2,0:0:0:0:
447,198,144960,2,0,P|490:166|428:89,1,168,2|0,0:0|1:0,0:0:0:0:
281,101,145710,6,0,P|220:86|160:82,1,112,10|2,0:0|0:0,0:0:0:0:
98,67,146160,1,2,0:0:0:0:
98,67,146310,2,0,L|87:3,2,56,2|2|2,0:0|0:0|1:0,0:0:0:0:
36,211,146910,6,0,L|27:276,1,56,6|2,1:2|0:0,0:0:0:0:
42,347,147210,1,2,0:0:0:0:
42,347,147360,2,0,B|92:368|127:338|110:323|148:296|196:311,1,168,2|2,0:0|1:0,0:0:0:0:
341,366,148110,5,10,0:0:0:0:
341,366,148260,1,2,0:0:0:0:
465,270,148560,1,2,0:0:0:0:
465,270,148710,2,0,P|473:242|472:207,2,56,2|2|2,0:0|0:0|1:0,0:0:0:0:
309,249,149310,6,0,P|309:221|317:194,1,56,2|2,1:0|0:0,0:0:0:0:
358,129,149610,1,2,0:0:0:0:
358,129,149760,2,0,P|318:113|187:93,1,168,2|0,0:0|1:0,0:0:0:0:
56,166,150510,6,0,P|74:238|81:278,1,112,8|0,0:0|0:0,0:0:0:0:
94,356,150960,1,2,0:0:0:0:
94,356,151110,2,0,L|27:343,2,56,2|2|2,0:0|0:0|1:0,0:0:0:0:
240,300,151710,6,0,L|245:232,1,56,2|2,1:0|0:0,0:0:0:0:
317,212,152010,1,2,0:0:0:0:
317,212,152160,2,0,P|266:199|299:104,1,168,2|2,0:0|1:0,0:0:0:0:
442,105,152910,6,0,P|447:62|460:12,2,84,8|0|2,0:0|1:0|1:0,0:0:0:0:
489,173,153510,1,2,0:0:0:0:
489,173,153660,2,0,L|498:238,2,56,2|2|2,0:0|0:0|1:0,0:0:0:0:
411,183,154110,5,0,1:0:0:0:
453,338,154410,1,2,0:0:0:0:
453,338,154560,2,0,P|381:319|283:304,1,168,2|0,0:0|1:0,0:0:0:0:
142,363,155310,6,0,P|95:350|86:280,1,112,10|2,0:0|0:0,0:0:0:0:
127,232,155760,1,2,0:0:0:0:
127,232,155910,2,0,L|137:166,2,56,2|2|2,0:0|0:0|1:0,0:0:0:0:
39,101,156510,6,0,P|73:68|155:77,1,112,6|2,1:2|0:0,0:0:0:0:
200,117,156960,1,2,0:0:0:0:
200,117,157110,2,0,P|234:150|316:141,1,112,2|2,0:0|1:0,0:0:0:0:
450,126,157710,2,0,P|446:64|438:8,2,112,10|2|2,0:0|0:0|0:0,0:0:0:0:
458,208,158460,1,2,0:0:0:0:
458,208,158610,1,2,1:0:0:0:
371,338,158910,6,0,P|325:324|242:311,1,112,2|2,1:0|0:0,0:0:0:0:
189,336,159360,1,2,0:0:0:0:
189,336,159510,2,0,P|133:345|80:361,1,112,2|0,0:0|1:0,0:0:0:0:
10,220,160110,6,0,P|44:181|115:192,1,112,8|2,0:0|0:0,0:0:0:0:
170,228,160560,1,2,0:0:0:0:
170,228,160710,2,0,L|239:243,1,56,2|2,0:0|0:0,0:0:0:0:
299,263,161010,1,2,1:0:0:0:
430,348,161310,6,0,P|457:318|443:245,1,112,2|2,1:0|0:0,0:0:0:0:
491,186,161760,1,2,0:0:0:0:
491,186,161910,2,0,P|478:147|408:123,1,112,2|2,0:0|1:0,0:0:0:0:
264,78,162510,6,0,P|271:117|279:173,2,84,8|0|2,0:0|1:0|1:0,0:0:0:0:
201,31,163110,2,0,P|155:19|105:56,1,112,2|2,0:0|0:0,0:0:0:0:
27,190,163710,6,0,P|40:257|47:317,1,112,0|2,1:0|0:0,0:0:0:0:
115,345,164160,1,2,0:0:0:0:
115,345,164310,2,0,P|168:337|240:328,1,112,2|2,0:0|1:0,0:0:0:0:
379,361,164910,6,0,P|404:325|391:253,1,112,10|2,0:0|0:0,0:0:0:0:
343,201,165360,1,2,0:0:0:0:
343,201,165510,2,0,L|271:215,1,56,2|2,0:0|0:0,0:0:0:0:
212,234,165810,1,2,1:0:0:0:
89,331,166110,6,0,P|67:293|81:210,1,112,6|2,1:2|0:0,0:0:0:0:
9,176,166560,1,2,0:0:0:0:
9,176,166710,2,0,P|30:137|109:108,1,112,2|2,0:0|1:0,0:0:0:0:
224,27,167310,6,0,P|261:31|348:58,1,112,10|2,0:0|0:0,0:0:0:0:
410,81,167760,1,2,0:0:0:0:
410,81,167910,2,0,L|403:18,2,56,2|2|2,0:0|0:0|1:0,0:0:0:0:
489,216,168510,6,0,P|441:216|430:276,1,112,2|2,1:0|0:0,0:0:0:0:
472,339,168960,1,2,0:0:0:0:
472,339,169110,2,0,P|421:349|347:370,1,112,2|0,0:0|1:0,0:0:0:0:
231,279,169710,6,0,P|240:220|253:162,2,112,8|2|2,0:0|0:0|0:0,0:0:0:0:
215,358,170460,1,2,0:0:0:0:
215,358,170610,1,2,1:0:0:0:
68,301,170910,6,0,P|59:269|63:236,1,56,2|0,1:0|0:0,0:0:0:0:
116,191,171210,2,0,P|125:159|121:126,1,56,2|2,3:2|0:0,0:0:0:0:
84,68,171510,2,0,P|125:54|217:47,1,112,2|2,3:0|1:0,0:0:0:0:
339,100,172110,2,0,P|410:114|441:124,1,84,10|0,0:0|1:0,0:0:0:0:
431,122,172410,2,0,P|443:154|439:188,1,56,2|0,3:0|1:0,0:0:0:0:
506,220,172710,2,0,P|484:246|452:259,1,56,2|2,3:0|0:0,0:0:0:0:
448,333,173010,2,0,L|409:324,3,28,2|0|2|0,3:0|3:0|1:0|3:0,0:0:0:0:
409,321,173310,6,0,P|327:336|273:352,1,125.999996154785,2|0,1:0|3:0,0:0:0:0:
210,316,173760,1,2,3:0:0:0:
210,316,173910,2,0,L|136:303,1,62.9999980773926,0|0,3:0|3:0,0:0:0:0:
67,288,174210,2,0,L|80:214,1,62.9999980773926,0|0,1:0|3:0,0:0:0:0:
40,135,174510,6,0,P|90:137|110:65,2,125.999996154785,8|2|2,1:2|0:0|1:0,0:0:0:0:
44,43,175260,1,2,0:0:0:0:
44,43,175410,2,0,P|113:27|178:24,1,125.999996154785,0|0,1:0|0:0,0:0:0:0:
256,192,178110,5,2,0:0:0:0:
256,192,179910,1,8,0:0:0:0:
338,250,180060,1,8,3:2:0:0:
338,250,180135,1,8,3:2:0:0:
338,250,180210,2,0,L|327:298,3,35,8|8|8|8,0:0|0:0|0:0|0:0,0:0:0:0:
327,297,180510,6,0,P|260:306|182:328,2,140,6|10|2,1:2|0:0|0:0,0:0:0:0:
406,340,181260,1,0,1:0:0:0:
472,278,181410,2,0,P|486:244|480:201,1,70,10|0,0:0|1:0,0:0:0:0:
459,80,181710,6,0,B|422:69|380:90|380:90|361:113|322:115,1,140,2|8,0:0|0:0,0:0:0:0:
237,105,182160,1,0,1:0:0:0:
175,48,182310,2,0,P|120:33|67:96,1,140,2|8,0:0|0:0,0:0:0:0:
29,266,182910,6,0,P|70:277|145:301,1,105,6|0,1:0|2:0,0:0:0:0:
134,308,183210,2,0,P|202:325|271:346,1,140,10|2,0:0|0:0,0:0:0:0:
356,317,183660,1,0,1:0:0:0:
438,356,183810,2,0,P|458:308|448:277,1,70,10|0,0:0|1:0,0:0:0:0:
383,173,184110,6,0,P|323:158|236:140,1,140,2|10,0:0|0:0,0:0:0:0:
170,200,184560,1,0,1:0:0:0:
85,166,184710,2,0,P|76:127|85:87,1,70,2|2,1:0|1:0,0:0:0:0:
152,41,185010,2,0,P|191:31|231:41,1,70,10|2,0:0|0:0,0:0:0:0:
332,88,185310,6,0,P|383:121|476:102,2,140,2|10|2,1:0|0:0|0:0,0:0:0:0:
248,49,186060,1,0,1:0:0:0:
167,91,186210,2,0,L|177:160,1,70,10|0,0:0|1:0,0:0:0:0:
245,270,186510,6,0,P|314:256|402:246,1,140,2|8,0:0|0:0,0:0:0:0:
463,289,186960,1,0,1:0:0:0:
384,338,187110,2,0,P|314:347|245:360,1,140,2|8,0:0|0:0,0:0:0:0:
232,364,187485,1,8,0:0:0:0:
218,368,187560,1,0,1:0:0:0:
108,350,187710,6,0,P|99:314|109:274,1,70,6|0,1:0|0:0,0:0:0:0:
157,207,188010,2,0,P|166:171|156:131,1,70,10|0,0:0|0:0,0:0:0:0:
110,63,188310,2,0,P|179:48|254:42,1,140,2|10,1:0|0:0,0:0:0:0:
338,25,188760,5,0,0:0:0:0:
338,25,188910,2,0,P|401:29|403:103,1,140,2|8,1:0|0:0,0:0:0:0:
334,144,189360,1,0,0:0:0:0:
334,144,189510,2,0,P|293:178|342:238,1,140,2|10,1:0|0:0,0:0:0:0:
492,330,190110,6,0,L|419:348,1,70,4|0,1:0|0:0,0:0:0:0:
333,333,190410,2,0,L|290:322,3,35,8|8|8|8,0:0|0:0|0:0|0:0,0:0:0:0:
285,327,190710,2,0,L|212:345,1,70,4|0,1:0|0:0,0:0:0:0:
127,324,191010,2,0,L|84:313,3,35,8|8|8|8,0:0|0:0|0:0|0:0,0:0:0:0:
79,318,191310,6,0,P|59:278|69:237,1,70,4|0,1:0|0:0,0:0:0:0:
132,196,191610,2,0,L|165:187,3,35,8|8|8|8,0:0|0:0|0:0|0:0,0:0:0:0:
179,191,191910,2,0,L|272:216,1,70,4|0,1:0|1:0,0:0:0:0:
329,261,192210,2,0,L|362:252,3,35,8|8|8|4,0:0|0:0|0:3|0:3,0:0:0:0:
374,256,192510,6,0,P|404:225|391:144,1,125.999996154785,6|2,1:0|0:0,0:0:0:0:
478,130,192960,1,0,0:0:0:0:
478,130,193110,2,0,P|465:85|389:59,1,125.999996154785,10|2,0:0|0:0,0:0:0:0:
324,87,193560,5,0,3:0:0:0:
324,87,193635,1,0,3:0:0:0:
324,87,193710,2,0,P|289:86|259:76,1,62.9999980773926,2|0,0:0|0:0,0:0:0:0:
186,45,194010,1,0,1:0:0:0:
24,19,194310,2,0,P|36:75|51:159,1,125.999996154785,10|0,0:0|1:0,0:0:0:0:
82,227,194760,5,2,0:0:0:0:
82,227,194835,1,0,0:0:0:0:
82,227,194910,1,10,0:0:0:0:
37,306,195060,2,0,L|106:326,1,70,6|0,1:2|0:0,0:0:0:0:
189,357,195360,1,8,0:0:0:0:
264,305,195510,2,0,B|336:293|324:349|412:337,1,140,4|8,1:2|0:0,0:0:0:0:
479,300,195960,6,0,P|483:265|472:230,1,70,4|0,1:2|0:0,0:0:0:0:
407,169,196260,1,10,0:0:0:0:
327,208,196410,1,2,1:0:0:0:
327,208,196560,1,2,1:0:0:0:
251,157,196710,2,0,P|201:164|139:177,2,105,6|4|4,0:3|0:3|0:3,0:0:0:0:
325,103,197310,5,12,0:0:0:0:
325,103,197460,2,0,P|355:54|292:8,1,140,0|8,1:0|0:0,0:0:0:0:
210,12,197910,2,0,P|162:19|124:26,1,70,0|0,1:0|1:0,0:0:0:0:
60,63,198210,1,8,0:0:0:0:
60,63,198360,2,0,L|71:141,1,70,0|0,1:0|1:0,0:0:0:0:
31,214,198660,6,0,P|95:219|90:303,1,140,8|0,0:0|1:0,0:0:0:0:
37,343,199110,2,0,L|-9:335,2,35,8|8|2,0:0|0:0|1:0,0:0:0:0:
121,376,199410,1,10,0:0:0:0:
192,319,199560,1,2,1:0:0:0:
292,363,199710,5,12,0:0:0:0:
292,363,199860,2,0,P|365:374|422:322,1,140,0|8,1:0|0:0,0:0:0:0:
434,246,200310,2,0,L|446:161,1,70,0|0,1:0|1:0,0:0:0:0:
426,91,200610,1,8,0:0:0:0:
426,91,200760,2,0,L|341:79,1,70,0|0,1:0|1:0,0:0:0:0:
266,90,201060,6,0,B|194:94|210:50|118:54,1,140,8|0,0:0|1:0,0:0:0:0:
57,102,201510,1,10,0:0:0:0:
57,102,201660,1,2,1:0:0:0:
6,177,201810,2,0,P|2:214|12:247,1,70,10|2,0:0|1:0,0:0:0:0:
85,329,202110,5,12,0:0:0:0:
85,329,202260,2,0,P|154:337|222:354,1,140,0|8,1:0|0:0,0:0:0:0:
313,343,202710,2,0,P|324:309|314:276,1,70,0|0,1:0|1:0,0:0:0:0:
254,215,203010,1,8,0:0:0:0:
254,215,203160,2,0,P|243:181|253:148,1,70,0|0,1:0|1:0,0:0:0:0:
295,68,203460,6,0,P|336:39|425:68,1,140,8|0,0:0|1:0,0:0:0:0:
469,135,203910,2,0,L|478:210,1,70,10|2,0:0|1:0,0:0:0:0:
492,298,204210,1,10,0:0:0:0:
492,298,204360,1,2,1:0:0:0:
399,360,204510,5,12,0:0:0:0:
399,360,204660,2,0,B|327:364|343:320|251:324,1,140,0|8,1:0|0:0,0:0:0:0:
181,357,205110,2,0,L|104:342,1,70,0|0,1:0|1:0,0:0:0:0:
34,307,205410,1,8,0:0:0:0:
34,307,205560,2,0,L|49:230,1,70,0|0,1:0|1:0,0:0:0:0:
5,157,205860,6,0,P|45:108|120:117,1,140,8|8,0:0|0:0,0:0:0:0:
127,122,206235,1,8,0:0:0:0:
137,131,206310,1,8,0:0:0:0:
230,193,206460,1,8,0:0:0:0:
330,143,206610,1,8,0:0:0:0:
330,143,206760,1,8,0:0:0:0:
429,193,206910,5,12,0:0:0:0:
429,193,207060,2,0,P|459:253|431:326,1,140,0|8,1:0|0:0,0:0:0:0:
357,362,207510,2,0,L|281:349,1,70,0|0,1:0|1:0,0:0:0:0:
214,304,207810,1,8,0:0:0:0:
214,304,207960,2,0,L|145:315,1,70,0|0,1:0|1:0,0:0:0:0:
65,361,208260,6,0,P|37:318|59:232,1,140,8|0,0:0|1:0,0:0:0:0:
126,176,208710,1,10,0:0:0:0:
126,176,208860,1,2,1:0:0:0:
209,211,209010,2,0,L|293:227,1,70,10|2,0:0|1:0,0:0:0:0:
387,267,209310,5,12,0:0:0:0:
387,267,209460,2,0,P|425:223|401:135,1,140,0|8,1:0|0:0,0:0:0:0:
364,68,209910,2,0,P|330:59|292:54,1,70,0|0,1:0|1:0,0:0:0:0:
214,24,210210,1,8,0:0:0:0:
214,24,210360,2,0,P|179:29|145:37,1,70,0|0,1:0|1:0,0:0:0:0:
57,60,210660,6,0,P|73:133|87:206,1,140,8|0,0:0|1:0,0:0:0:0:
49,281,211110,2,0,P|84:301|121:300,1,70,10|2,0:0|1:0,0:0:0:0:
201,271,211410,1,10,0:0:0:0:
201,271,211560,1,2,1:0:0:0:
283,309,211710,5,12,0:0:0:0:
283,309,211860,2,0,B|332:306|365:321|365:321|391:346|429:352,1,140,0|8,1:0|0:0,0:0:0:0:
491,302,212310,2,0,P|496:264|483:224,1,70,0|0,1:0|1:0,0:0:0:0:
418,184,212610,1,8,0:0:0:0:
418,184,212760,2,0,P|413:146|426:106,1,70,0|0,1:0|1:0,0:0:0:0:
483,50,213060,6,0,P|419:35|342:23,1,140,8|0,0:0|1:0,0:0:0:0:
264,62,213510,1,10,0:0:0:0:
264,62,213660,1,2,1:0:0:0:
200,127,213810,2,0,L|213:207,1,70,10|2,0:0|1:0,0:0:0:0:
250,302,214110,5,12,0:0:0:0:
250,302,214260,2,0,B|207:289|181:313|181:313|153:341|110:342,1,140,0|8,1:0|0:0,0:0:0:0:
38,304,214710,2,0,P|43:267|51:224,1,70,0|0,1:0|1:0,0:0:0:0:
16,154,215010,1,8,0:0:0:0:
16,154,215160,2,0,P|10:117|3:74,1,70,0|0,1:0|1:0,0:0:0:0:
73,25,215460,6,0,P|154:39|230:62,1,140,8|8,0:0|0:0,0:0:0:0:
222,59,215835,1,8,0:0:0:0:
235,63,215910,1,8,0:0:0:0:
333,118,216060,1,8,0:0:0:0:
445,94,216210,1,8,0:0:0:0:
445,94,216360,2,0,L|456:163,1,70,12|0,0:2|0:0,0:0:0:0:
256,192,216585,12,0,222510,0:0:0:0:
