osu file format v14

[General]
AudioFilename: audio.mp3
AudioLeadIn: 0
PreviewTime: 137272
Countdown: 0
SampleSet: Soft
StackLeniency: 0.8
Mode: 0
LetterboxInBreaks: 0
WidescreenStoryboard: 1

[Editor]
DistanceSpacing: 1.1
BeatDivisor: 4
GridSize: 32
TimelineZoom: 2

[Metadata]
Title:Reirou no Hibiki
TitleUnicode:玲瓏の響
Artist:kakichoco
ArtistUnicode:柿チョコ
Creator:SMOKELIND
Version:Ayesha's Insane
Source:
Tags:Pepekcz Shizuku- Shikibe Mayu Ayesha Altugle Kazato Asa gazimal 焔雷 Enlight Japanese Rock JRock J-Rock müchette muchette
BeatmapID:3810510
BeatmapSetID:1853651

[Difficulty]
HPDrainRate:5
CircleSize:4
OverallDifficulty:8
ApproachRate:9
SliderMultiplier:1.67
SliderTickRate:1

[Events]
//Background and Video events
0,0,"98797564_p0.jpg",0,0
//Break Periods
2,96710,100260
//Storyboard Layer 0 (Background)
//Storyboard Layer 1 (Fail)
//Storyboard Layer 2 (Pass)
//Storyboard Layer 3 (Foreground)
//Storyboard Layer 4 (Overlay)
//Storyboard Sound Samples

[TimingPoints]
510,300,4,2,77,27,1,0
510,-333.333333333333,4,2,77,27,0,0
9360,-500,4,2,77,27,0,0
9510,-500,4,2,77,47,0,0
10110,-100,4,2,77,87,0,0
12060,-100,4,2,7,87,0,0
12510,-100,4,2,77,87,0,0
14310,-100,4,2,7,87,0,0
14910,-100,4,2,77,87,0,0
16710,-100,4,2,7,87,0,0
17310,-100,4,2,77,87,0,0
21510,-100,4,2,7,87,0,0
22110,-100,4,2,77,87,0,0
23835,-100,4,2,77,5,0,0
23910,-100,4,2,7,87,0,0
24510,-100,4,2,77,87,0,0
26310,-100,4,2,7,87,0,0
26835,-100,4,2,7,5,0,0
26910,-100,4,2,77,87,0,0
29085,-100,4,2,77,5,0,0
29160,-100,4,2,77,87,0,0
29235,-100,4,2,77,5,0,0
29310,-125,4,2,77,87,0,0
29610,-125,4,2,77,57,0,0
34035,-125,4,2,77,5,0,0
34110,-125,4,2,77,57,0,0
36435,-125,4,2,77,5,0,0
36510,-125,4,2,77,57,0,0
38310,-100,4,2,77,67,0,0
38835,-100,4,2,77,5,0,0
38910,-100,4,2,77,67,0,0
40335,-100,4,2,77,5,0,0
40410,-100,4,2,77,67,0,0
42735,-100,4,2,77,5,0,0
42810,-100,4,2,77,67,0,0
43635,-100,4,2,77,5,0,0
43710,-100,4,2,77,67,0,0
46335,-100,4,2,77,5,0,0
46410,-100,4,2,77,67,0,0
46935,-100,4,2,77,5,0,0
47010,-100,4,2,77,67,0,0
48510,-100,4,2,77,67,0,0
50835,-100,4,2,77,5,0,0
50910,-100,4,2,77,67,0,0
53310,-100,4,2,77,27,0,0
55110,-100,4,2,77,67,0,0
55635,-100,4,2,77,5,0,0
55710,-100,4,2,77,77,0,0
56835,-100,4,2,77,5,0,0
56910,-100,4,2,77,77,0,0
58035,-100,4,2,77,77,0,0
58110,-90.9090909090909,4,2,77,87,0,1
59535,-90.9090909090909,4,2,77,5,0,1
59610,-90.9090909090909,4,2,77,87,0,1
60735,-90.9090909090909,4,2,77,5,0,1
60810,-90.9090909090909,4,2,77,87,0,1
63735,-90.9090909090909,4,2,77,5,0,1
63810,-90.9090909090909,4,2,77,87,0,1
64710,-90.9090909090909,4,2,7,87,0,1
65310,-90.9090909090909,4,2,77,87,0,1
65535,-90.9090909090909,4,2,77,5,0,1
65610,-90.9090909090909,4,2,77,87,0,1
66435,-90.9090909090909,4,2,77,5,0,1
66510,-90.9090909090909,4,2,77,87,0,1
67635,-90.9090909090909,4,2,77,5,0,1
67710,-90.9090909090909,4,2,77,87,0,1
68835,-90.9090909090909,4,2,77,5,0,1
68910,-90.9090909090909,4,2,77,87,0,1
69435,-90.9090909090909,4,2,77,5,0,1
69510,-90.9090909090909,4,2,7,87,0,1
70110,-90.9090909090909,4,2,77,87,0,1
70335,-90.9090909090909,4,2,77,5,0,1
70410,-90.9090909090909,4,2,77,87,0,1
71535,-90.9090909090909,4,2,77,5,0,1
71610,-90.9090909090909,4,2,77,87,0,1
72510,-111.111111111111,4,2,77,87,0,0
73710,-111.111111111111,4,2,7,87,0,0
74760,-90.9090909090909,4,2,7,87,0,1
74910,-90.9090909090909,4,2,77,87,0,1
76710,-142.857142857143,4,2,77,87,0,0
77310,-100,4,2,77,87,0,1
77385,-100,4,2,77,87,0,0
79110,-100,4,2,7,87,0,0
79710,-100,4,2,77,87,0,0
81510,-100,4,2,7,87,0,0
82110,-100,4,2,77,87,0,0
83910,-100,4,2,7,87,0,0
84510,-100,4,2,77,87,0,0
86910,-100,4,2,77,67,0,0
87135,-100,4,2,77,5,0,0
87210,-100,4,2,77,67,0,0
88335,-100,4,2,77,5,0,0
88410,-100,4,2,77,67,0,0
89235,-100,4,2,77,5,0,0
89310,-100,4,2,77,67,0,0
93135,-100,4,2,77,5,0,0
93210,-100,4,2,77,67,0,0
96435,-100,4,2,77,5,0,0
96510,-100,4,2,77,67,0,0
96810,-100,4,2,77,27,0,0
101235,-100,4,2,77,5,0,0
101310,-100,4,2,77,67,0,0
104835,-100,4,2,77,5,0,0
104910,-100,4,2,77,67,0,0
105810,-100,4,2,77,67,0,0
106110,-166.666666666667,4,2,77,27,0,0
110910,-100,4,2,77,47,0,0
111210,-100,4,2,77,57,0,0
111510,-100,4,2,77,67,0,0
111810,-100,4,2,77,77,0,0
114435,-100,4,2,77,77,0,0
114510,-100,4,2,77,77,0,0
115710,-90.9090909090909,4,2,77,87,0,1
117135,-90.9090909090909,4,2,77,5,0,1
117210,-90.9090909090909,4,2,77,87,0,1
119235,-90.9090909090909,4,2,77,5,0,1
119310,-90.9090909090909,4,2,77,87,0,1
121935,-90.9090909090909,4,2,77,5,0,1
122010,-90.9090909090909,4,2,77,87,0,1
122310,-90.9090909090909,4,2,7,87,0,1
122910,-90.9090909090909,4,2,77,87,0,1
124635,-90.9090909090909,4,2,77,5,0,1
124710,-90.9090909090909,4,2,77,87,0,1
125535,-90.9090909090909,4,2,77,5,0,1
125610,-90.9090909090909,4,2,77,87,0,1
127110,-90.9090909090909,4,2,7,87,0,1
127709,-90.9090909090909,4,2,77,87,0,1
127935,-90.9090909090909,4,2,77,5,0,1
128010,-90.9090909090909,4,2,77,87,0,1
130110,-111.111111111111,4,2,77,87,0,0
131310,-111.111111111111,4,2,7,87,0,0
132360,-90.9090909090909,4,2,7,87,0,1
132509,-90.9090909090909,4,2,77,87,0,1
134310,-142.857142857143,4,2,77,87,0,0
134909,-142.857142857143,4,2,77,57,0,0
135210,-142.857142857143,4,2,77,27,0,0
136710,-100,4,2,77,27,0,0
137310,-100,4,2,7,47,0,0
138060,-125,4,2,7,47,0,0
156510,-125,4,2,7,57,0,0
157110,-125,4,2,77,57,0,0
157128,-125,4,2,7,57,0,0
158010,-125,4,2,77,57,0,0
158028,-125,4,2,7,57,0,0
159510,-125,4,2,77,57,0,0
159528,-125,4,2,7,57,0,0
160410,-125,4,2,77,57,0,0
160428,-125,4,2,7,57,0,0
161910,-125,4,2,77,57,0,0
161928,-125,4,2,7,57,0,0
164310,-125,4,2,77,57,0,0
164328,-125,4,2,7,57,0,0
164610,-125,4,2,77,57,0,0
164628,-125,4,2,7,57,0,0
166710,-125,4,2,77,57,0,0
166728,-125,4,2,7,57,0,0
167610,-125,4,2,77,57,0,0
167628,-125,4,2,7,57,0,0
169110,-125,4,2,77,57,0,0
169128,-125,4,2,7,57,0,0
170010,-125,4,2,77,57,0,0
170028,-125,4,2,7,57,0,0
170910,-125,4,2,77,57,0,0
171360,-125,4,2,7,57,0,0
171378,-125,4,2,77,57,0,0
172860,-125,4,2,7,57,0,0
172878,-125,4,2,77,57,0,0
173160,-125,4,2,7,57,0,0
173178,-125,4,2,77,57,0,0
173760,-125,4,2,7,57,0,0
173778,-125,4,2,77,57,0,0
175260,-125,4,2,7,57,0,0
175278,-125,4,2,77,57,0,0
175710,-125,4,2,77,27,0,0
179910,-125,4,2,77,77,0,0
180510,-90.9090909090909,4,2,77,87,0,1
180735,-90.9090909090909,4,2,77,5,0,1
180810,-90.9090909090909,4,2,77,87,0,1
183135,-90.9090909090909,4,2,77,5,0,1
183210,-90.9090909090909,4,2,77,87,0,1
184335,-90.9090909090909,4,2,77,5,0,1
184410,-90.9090909090909,4,2,77,87,0,1
184710,-90.9090909090909,4,2,7,87,0,1
185310,-90.9090909090909,4,2,77,87,0,1
189510,-90.9090909090909,4,2,7,87,0,1
190109,-90.9090909090909,4,2,77,87,0,1
192510,-111.111111111111,4,2,77,87,0,0
193710,-111.111111111111,4,2,7,87,0,0
194910,-90.9090909090909,4,2,77,87,0,1
196710,-142.857142857143,4,2,77,87,0,0
197310,-100,4,2,77,87,0,1
197385,-100,4,2,77,87,0,0
199260,-100,4,2,7,87,0,0
199710,-100,4,2,77,87,0,0
201510,-100,4,2,7,87,0,0
202110,-100,4,2,77,87,0,0
203910,-100,4,2,7,87,0,0
204510,-100,4,2,77,87,0,0
208710,-100,4,2,7,87,0,0
209310,-100,4,2,77,87,0,0
211110,-100,4,2,7,87,0,0
211710,-100,4,2,77,87,0,0
213510,-100,4,2,7,87,0,0
214110,-100,4,2,77,87,0,0
216360,-100,4,2,47,47,0,0
216510,-100,4,2,77,5,0,0

[Colours]
Combo1 : 180,180,180
Combo2 : 74,74,74

[HitObjects]
400,377,510,6,0,P|407:342|418:305,3,75.1499977066041,2|0|0|0,0:0|0:0|0:0|0:0,0:0:0:0:
310,70,2310,5,2,0:0:0:0:
324,73,2460,1,0,0:0:0:0:
337,72,2610,1,0,0:0:0:0:
348,65,2760,1,0,0:0:0:0:
474,163,2910,6,0,P|445:152|399:145,3,75.1499977066041,2|0|0|0,0:0|0:0|0:0|0:0,0:0:0:0:
279,238,4710,5,2,0:0:0:0:
291,227,4860,1,0,0:0:0:0:
299,207,5010,1,0,0:0:0:0:
297,189,5160,1,0,0:0:0:0:
197,295,5310,6,0,P|209:327|216:377,3,75.1499977066041,2|0|0|0,0:0|0:0|0:0|0:0,0:0:0:0:
31,118,7110,5,2,0:0:0:0:
46,117,7260,1,0,0:0:0:0:
59,111,7410,1,0,0:0:0:0:
67,98,7560,1,0,0:0:0:0:
168,217,7710,6,0,P|136:202|93:193,3,75.1499977066041,2|0|0|0,0:0|0:0|0:0|0:0,0:0:0:0:
256,64,9510,6,0,P|263:43|267:16,1,50.1,0|0,1:0|0:0,0:0:0:0:
267,15,10110,6,0,B|354:3|333:59|436:41,1,167,12|0,0:0|1:0,0:0:0:0:
412,251,10560,2,0,P|459:243|504:236,1,83.5,8|0,0:0|1:0,0:0:0:0:
438,162,10860,1,0,1:0:0:0:
450,346,11010,6,0,P|419:292|310:272,1,167,8|0,0:0|1:0,0:0:0:0:
137,343,11460,2,0,L|48:364,1,83.5,8|0,0:0|1:0,0:0:0:0:
200,265,11760,1,0,1:0:0:0:
259,346,11910,5,8,0:0:0:0:
255,356,11985,1,8,0:0:0:0:
251,370,12060,1,2,1:0:0:0:
200,265,12210,2,0,P|195:217|194:177,1,83.5,10|2,0:0|1:0,0:0:0:0:
329,55,12510,6,0,P|386:65|486:-3,1,167,12|0,0:0|1:0,0:0:0:0:
290,150,12960,2,0,P|253:115|136:102,1,167,8|0,0:0|1:0,0:0:0:0:
30,83,13410,2,0,P|24:38|23:-5,1,83.5,8|0,0:0|1:0,0:0:0:0:
70,158,13710,5,0,1:0:0:0:
0,241,13860,2,0,P|-1:317|67:383,1,167,8|0,0:0|1:0,0:0:0:0:
232,253,14310,5,10,0:0:0:0:
156,228,14460,1,2,1:0:0:0:
96,278,14610,1,10,0:0:0:0:
173,307,14760,1,2,1:0:0:0:
308,182,14910,6,0,B|288:89|343:127|314:7,1,167,12|0,0:0|1:0,0:0:0:0:
421,122,15360,2,0,P|464:115|517:108,1,83.5,8|0,0:0|1:0,0:0:0:0:
241,61,15660,1,0,1:0:0:0:
158,100,15810,6,0,P|99:98|38:4,1,167,8|0,0:0|1:0,0:0:0:0:
211,201,16260,2,0,P|197:288|183:395,1,167,8|0,0:0|1:0,0:0:0:0:
122,266,16710,5,10,0:0:0:0:
280,292,16860,1,2,1:0:0:0:
122,266,17010,1,10,0:0:0:0:
280,292,17160,1,2,1:0:0:0:
152,138,17310,6,0,B|90:125|41:170|41:170|-15:136,1,167,12|0,0:0|1:0,0:0:0:0:
203,242,17760,1,8,0:0:0:0:
242,76,17910,2,0,P|253:120|261:166,1,83.5,0|0,1:0|1:0,0:0:0:0:
439,375,18210,6,0,P|487:305|468:225,1,167,8|0,0:0|1:0,0:0:0:0:
342,110,18660,1,8,0:0:0:0:
490,134,18810,2,0,P|450:143|410:158,1,83.5,0|8,1:0|0:0,0:0:0:0:
396,164,19035,1,8,0:0:0:0:
386,175,19110,1,8,0:0:0:0:
235,65,19260,1,8,0:0:0:0:
298,243,19410,1,8,0:0:0:0:
372,30,19560,1,8,0:0:0:0:
167,159,19710,6,0,B|109:162|67:120|67:120|-13:145,1,167,12|0,0:0|1:0,0:0:0:0:
144,61,20160,1,8,0:0:0:0:
251,224,20310,2,0,P|258:180|270:142,1,83.5,0|0,1:0|1:0,0:0:0:0:
65,349,20610,6,0,P|150:337|245:398,1,167,8|0,0:0|1:0,0:0:0:0:
369,268,21060,2,0,P|332:288|260:304,1,83.5,8|0,0:0|1:0,0:0:0:0:
365,377,21360,1,0,1:0:0:0:
365,377,21435,1,0,0:0:0:0:
365,377,21510,1,10,0:0:0:0:
306,200,21660,1,2,1:0:0:0:
365,377,21810,1,10,0:0:0:0:
473,230,21960,1,2,1:0:0:0:
212,243,22110,6,0,P|134:257|50:286,1,167,12|0,0:0|1:0,0:0:0:0:
0,100,22560,2,0,P|62:142|161:119,1,167,8|0,0:0|1:0,0:0:0:0:
308,66,23010,5,8,0:0:0:0:
239,12,23160,2,0,P|231:52|222:101,1,83.5,0|0,1:0|1:0,0:0:0:0:
458,212,23460,5,8,0:0:0:0:
500,114,23610,2,0,L|369:143,1,125.25,0|0,1:0|2:0,0:0:0:0:
366,144,23910,1,10,0:0:0:0:
335,256,24060,1,2,1:0:0:0:
437,218,24210,1,10,0:0:0:0:
263,167,24360,1,2,1:0:0:0:
286,327,24510,6,0,P|231:373|116:356,1,167,12|0,0:0|1:0,0:0:0:0:
32,290,24960,2,0,P|40:332|49:383,1,83.5,8|0,0:0|1:0,0:0:0:0:
120,289,25260,1,0,1:0:0:0:
58,124,25410,5,8,0:0:0:0:
0,199,25560,2,0,P|49:208|88:224,1,83.5,0|0,1:0|1:0,0:0:0:0:
246,109,25860,5,8,0:0:0:0:
132,16,26010,2,0,P|147:59|157:103,1,83.5,0|0,1:0|1:0,0:0:0:0:
268,220,26310,5,10,0:0:0:0:
346,56,26460,1,2,1:0:0:0:
185,173,26610,1,10,0:0:0:0:
368,227,26760,2,0,P|363:206|356:186,1,41.75,2|0,1:0|2:0,0:0:0:0:
284,132,26910,6,0,P|367:153|468:171,1,167,12|0,0:0|1:0,0:0:0:0:
511,384,27360,2,0,P|479:358|355:351,1,167,8|0,0:0|1:0,0:0:0:0:
205,253,27810,1,8,0:0:0:0:
264,384,27960,2,0,P|273:340|283:299,1,83.5,0|0,1:0|1:0,0:0:0:0:
68,151,28260,5,8,0:0:0:0:
7,248,28410,2,0,P|53:256|104:269,1,83.5,0|8,1:0|0:0,0:0:0:0:
88,264,28635,1,8,0:0:0:0:
88,264,28710,1,8,0:0:0:0:
244,187,28860,1,8,0:0:0:0:
116,115,29010,6,0,L|108:157,1,41.75,8|0,0:0|2:0,0:0:0:0:
179,289,29160,2,0,L|186:247,1,41.75,8|0,0:0|2:0,0:0:0:0:
286,103,29310,6,0,P|365:110|414:71,1,133.6,4|6,1:2|0:3,0:0:0:0:
469,25,29760,2,0,L|441:162,1,133.6,8|4,0:3|0:3,0:0:0:0:
442,155,30210,1,10,0:3:0:0:
487,344,30510,5,6,0:3:0:0:
487,344,30660,2,0,P|457:298|369:287,1,133.6,4|4,0:3|0:3,0:0:0:0:
383,282,31110,2,0,L|314:296,1,66.8,6|4,0:3|0:3,0:0:0:0:
256,364,31410,2,0,L|187:378,1,66.8,6|0,0:3|0:0,0:0:0:0:
112,329,31710,6,0,P|119:290|127:264,1,66.8,6|0,0:3|1:3,0:0:0:0:
195,218,32010,1,4,0:3:0:0:
152,131,32160,2,0,P|101:166|28:157,1,133.6,8|8,0:3|0:3,0:0:0:0:
152,131,32610,1,8,0:3:0:0:
195,218,32760,6,0,P|231:226|265:237,1,66.8,4|6,0:3|0:3,0:0:0:0:
341,147,33060,2,0,P|371:85|364:18,1,133.6,8|4,0:3|0:3,0:0:0:0:
447,100,33510,2,0,P|490:94|512:88,1,66.8,10|8,0:3|0:3,0:0:0:0:
285,70,33810,2,0,P|234:78|186:87,1,100.2,4|0,0:3|2:0,0:0:0:0:
100,74,34110,6,0,P|157:106|166:179,1,133.6,4|6,0:3|0:3,0:0:0:0:
109,229,34560,2,0,P|66:214|40:207,1,66.8,8|6,0:3|0:3,0:0:0:0:
169,168,34860,1,4,0:3:0:0:
62,300,35010,6,0,P|114:283|196:264,1,133.6,10|6,0:3|0:3,0:0:0:0:
254,324,35460,2,0,P|285:354|383:343,1,133.6,4|4,0:3|0:3,0:0:0:0:
447,384,35910,2,0,L|462:310,1,66.8,6|4,0:3|0:3,0:0:0:0:
511,202,36210,2,0,L|412:224,1,100.2,6|0,0:3|2:0,0:0:0:0:
405,232,36510,6,0,B|326:236|351:199|266:210,1,133.6,6|4,0:3|0:3,0:0:0:0:
275,208,36960,2,0,P|284:170|291:138,1,66.8,8|4,0:3|0:3,0:0:0:0:
243,72,37260,1,8,0:3:0:0:
170,115,37410,2,0,P|161:153|154:185,1,66.8,8|4,0:3|0:3,0:0:0:0:
152,332,37710,5,6,0:3:0:0:
66,366,37860,1,8,0:3:0:0:
14,305,38010,1,4,0:3:0:0:
14,305,38310,2,0,L|6:251,2,41.75,10|8|0,0:0|0:0|0:0,0:0:0:0:
251,346,38610,6,0,B|313:345|305:374|381:367,1,125.25,8|0,0:0|2:0,0:0:0:0:
449,384,38910,6,0,P|494:311|470:232,1,167,4|10,1:0|0:0,0:0:0:0:
411,157,39360,1,0,0:0:0:0:
510,140,39510,2,0,P|473:153|426:164,1,83.5,2|0,1:0|0:0,0:0:0:0:
360,324,39810,2,0,P|369:280|382:236,1,83.5,10|0,0:0|0:0,0:0:0:0:
282,117,40110,6,0,P|272:181|258:244,1,125.25,2|0,1:0|2:0,0:0:0:0:
266,249,40410,2,0,P|220:258|173:276,1,83.5,10|0,0:0|0:0,0:0:0:0:
126,216,40710,1,2,1:0:0:0:
167,357,40860,1,0,0:0:0:0:
26,319,41010,2,8,P|65:312|111:297,1,83.5,10|0,0:0|0:0,0:0:0:0:
32,195,41310,6,0,P|10:153|40:21,2,167,0|10|2,1:0|0:0|1:0,0:0:0:0:
176,94,42060,1,0,0:0:0:0:
176,94,42210,2,0,P|133:104|77:114,1,83.5,10|0,0:0|0:0,0:0:0:0:
238,184,42510,6,0,P|291:198|356:236,1,125.25,2|0,1:0|2:0,0:0:0:0:
368,240,42810,2,0,P|431:222|461:216,1,83.5,10|0,0:0|0:0,0:0:0:0:
502,384,43110,1,2,1:0:0:0:
439,313,43260,1,0,0:0:0:0:
338,346,43410,2,0,P|273:352|225:319,1,125.25,10|0,0:0|2:0,0:0:0:0:
199,332,43710,6,0,B|145:333|111:367|111:367|34:355,1,167,2|8,1:0|0:0,0:0:0:0:
170,247,44160,1,0,0:0:0:0:
71,198,44310,2,0,P|81:241|90:283,1,83.5,2|0,1:0|0:0,0:0:0:0:
241,192,44610,2,0,P|249:151|259:110,1,83.5,8|0,0:0|0:0,0:0:0:0:
158,21,44910,6,0,B|82:15|81:51|-7:42,2,167,2|8|2,1:0|0:0|1:0,0:0:0:0:
259,110,45660,1,0,0:0:0:0:
331,81,45810,2,0,P|338:41|351:-6,1,83.5,8|0,0:0|0:0,0:0:0:0:
189,162,46110,6,0,P|266:161|323:201,1,125.25,2|0,1:0|2:0,0:0:0:0:
328,200,46410,2,0,P|366:192|411:179,1,83.5,8|0,0:0|0:0,0:0:0:0:
512,375,46710,6,0,P|440:375|394:345,1,125.25,2|0,1:0|2:0,0:0:0:0:
386,358,47010,2,0,P|396:316|404:274,1,83.5,8|0,0:0|0:0,0:0:0:0:
259,110,47310,6,0,P|239:194|223:278,1,167,2|8,1:0|0:0,0:0:0:0:
330,189,47760,1,0,0:0:0:0:
158,151,47910,2,0,P|138:156|118:159,2,41.75,10|8|0,0:0|0:0|1:0,0:0:0:0:
225,360,48210,6,0,P|163:351|108:377,1,125.25,8|0,0:0|0:0,0:0:0:0:
96,373,48510,6,0,P|45:348|23:234,1,167,4|10,1:0|0:0,0:0:0:0:
140,159,48960,1,0,1:0:0:0:
71,100,49110,2,0,P|59:137|51:183,1,83.5,2|0,1:0|1:0,0:0:0:0:
155,314,49410,2,0,P|162:272|174:233,1,83.5,10|0,0:0|1:0,0:0:0:0:
343,254,49710,6,0,B|435:238|420:278|521:261,1,167,2|10,0:0|0:0,0:0:0:0:
381,337,50160,1,0,1:0:0:0:
266,299,50310,2,0,P|254:342|245:389,1,83.5,2|0,1:0|1:0,0:0:0:0:
299,163,50610,6,0,P|321:106|308:35,1,125.25,10|0,0:0|2:0,0:0:0:0:
304,30,50910,6,0,B|343:34|374:22|374:22|409:52|478:55,2,167,2|8|2,1:0|0:0|0:0,0:0:0:0:
184,109,51660,1,0,1:0:0:0:
106,57,51810,2,0,P|54:34|3:25,1,83.5,8|0,0:0|1:0,0:0:0:0:
258,189,52110,5,10,0:0:0:0:
252,226,52210,1,8,0:0:0:0:
243,267,52310,1,8,0:0:0:0:
274,308,52410,6,0,P|301:303|328:298,2,55.6666666666667,2|8|12,0:3|0:3|0:3,0:0:0:0:
196,377,52710,5,6,1:3:0:0:
181,343,52810,1,4,0:3:0:0:
150,329,52910,1,4,0:3:0:0:
118,327,53010,5,0,1:0:0:0:
102,346,53110,1,0,0:0:0:0:
86,351,53210,1,0,0:0:0:0:
70,347,53310,5,2,0:0:0:0:
256,192,53385,12,0,55110,0:0:0:0:
251,68,55260,5,0,1:0:0:0:
251,68,55335,1,0,1:0:0:0:
251,68,55410,2,0,B|228:146|263:118|229:218,1,125.25,8|0,0:0|2:0,0:0:0:0:
308,247,55710,6,0,P|346:241|397:230,1,83.5,8|0,0:0|1:0,0:0:0:0:
390,231,55935,1,0,1:0:0:0:
390,231,56010,1,8,0:0:0:0:
464,167,56160,2,0,L|472:126,2,41.75,0|0|8,1:0|1:0|0:0,0:0:0:0:
501,324,56460,2,0,L|493:365,2,41.75,0|0|8,1:0|1:0|0:0,0:0:0:0:
308,247,56760,2,0,L|316:293,1,41.75,0|0,1:0|2:0,0:0:0:0:
269,377,56910,5,8,0:0:0:0:
251,356,56985,1,8,0:0:0:0:
221,347,57060,1,0,1:0:0:0:
193,346,57135,1,0,1:0:0:0:
161,358,57210,1,8,0:0:0:0:
0,245,57360,5,8,0:0:0:0:
0,245,57435,1,8,0:0:0:0:
0,245,57510,2,0,L|82:261,1,83.5,8|0,0:0|1:0,0:0:0:0:
192,96,57810,6,0,B|166:71|129:76|129:76|159:93|169:132,1,125.25,8|8,0:3|0:3,0:0:0:0:
249,166,58110,6,0,P|159:143|68:137,2,183.700005606079,6|10|2,1:0|0:0|0:0,0:0:0:0:
387,64,58860,1,0,1:0:0:0:
289,8,59010,2,0,P|296:56|307:98,1,91.8500028030396,10|0,0:0|1:0,0:0:0:0:
498,211,59310,6,0,P|428:214|369:255,1,137.775004204559,2|0,0:0|2:0,0:0:0:0:
376,260,59610,2,0,P|329:248|277:240,1,91.8500028030396,10|0,0:0|1:0,0:0:0:0:
129,365,59910,2,0,P|174:372|218:383,1,91.8500028030396,2|0,0:0|1:0,0:0:0:0:
255,313,60210,1,8,0:0:0:0:
42,373,60360,5,0,0:0:0:0:
42,373,60435,1,0,0:0:0:0:
42,373,60510,2,0,P|26:284|1:210,1,137.775004204559,2|0,1:0|2:0,0:0:0:0:
0,232,60810,2,0,P|50:232|92:209,1,91.8500028030396,10|0,0:0|0:0,0:0:0:0:
183,144,61110,1,2,0:0:0:0:
237,273,61260,1,0,1:0:0:0:
332,190,61410,2,0,P|342:144|354:99,1,91.8500028030396,10|0,0:0|1:0,0:0:0:0:
154,319,61710,6,0,B|259:299|229:359|352:323,1,183.700005606079,2|8,0:0|0:0,0:0:0:0:
472,376,62160,1,0,1:0:0:0:
512,247,62310,2,0,P|468:261|423:268,1,91.8500028030396,2|0,0:0|1:0,0:0:0:0:
281,153,62610,1,8,0:0:0:0:
398,101,62760,5,0,3:0:0:0:
398,101,62835,1,0,3:0:0:0:
398,101,62910,2,0,P|382:151|375:199,1,91.8500028030396,6|0,1:0|0:0,0:0:0:0:
209,92,63210,2,0,P|225:42|232:-6,1,91.8500028030396,10|0,0:0|0:0,0:0:0:0:
299,243,63510,6,0,B|220:234|240:263|147:254,1,137.775004204559,2|0,0:0|2:0,0:0:0:0:
148,270,63810,2,0,P|107:268|76:226,1,91.8500028030396,10|0,0:0|1:0,0:0:0:0:
0,75,64110,6,0,P|85:60|189:27,2,183.700005606079,2|10|2,0:0|0:0|1:0,0:0:0:0:
175,138,64860,1,2,1:0:0:0:
278,10,65010,2,0,P|263:64|255:107,1,91.8500028030396,10|2,0:0|0:0,0:0:0:0:
461,238,65310,6,0,P|423:192|346:180,1,137.775004204559,2|0,1:0|2:0,0:0:0:0:
348,179,65610,2,0,L|256:197,1,91.8500028030396,10|0,0:0|0:0,0:0:0:0:
156,292,65910,2,0,L|63:309,1,91.8500028030396,2|0,0:0|1:0,0:0:0:0:
313,382,66210,2,0,P|377:354|459:381,1,137.775004204559,10|0,0:0|2:0,0:0:0:0:
461,379,66510,6,0,P|473:288|490:197,1,183.700005606079,2|8,0:0|0:0,0:0:0:0:
398,78,66960,1,0,1:0:0:0:
314,155,67110,2,0,P|357:167|401:188,1,91.8500028030396,2|0,0:0|1:0,0:0:0:0:
206,256,67410,2,0,P|147:292|85:272,1,137.775004204559,8|0,0:0|2:0,0:0:0:0:
73,279,67710,6,0,P|81:233|89:183,1,91.8500028030396,6|0,1:0|0:0,0:0:0:0:
230,66,68010,2,0,P|222:112|214:162,1,91.8500028030396,10|0,0:0|0:0,0:0:0:0:
319,303,68310,1,2,1:0:0:0:
207,248,68460,1,0,0:0:0:0:
74,384,68610,6,0,P|138:369|249:355,1,137.775004204559,10|0,0:0|2:0,0:0:0:0:
219,366,68910,2,0,P|268:367|302:341,1,91.8500028030396,2|0,1:0|0:0,0:0:0:0:
103,175,69210,2,0,P|135:241|222:242,1,137.775004204559,8|0,0:0|2:0,0:0:0:0:
207,248,69510,1,2,1:0:0:0:
322,190,69660,1,2,0:0:0:0:
392,282,69810,2,0,P|405:330|414:374,1,91.8500028030396,10|2,0:0|1:0,0:0:0:0:
512,151,70110,6,0,P|433:148|372:105,1,137.775004204559,6|0,1:0|2:0,0:0:0:0:
375,124,70410,2,0,P|383:78|395:31,1,91.8500028030396,10|0,0:0|0:0,0:0:0:0:
266,189,70710,1,6,1:0:0:0:
220,31,70860,1,0,0:0:0:0:
110,99,71010,2,0,P|164:111|213:128,1,91.8500028030396,10|0,0:0|0:0,0:0:0:0:
355,239,71310,6,0,P|303:276|199:252,1,137.775004204559,6|0,1:0|2:0,0:0:0:0:
221,288,71610,1,10,0:0:0:0:
72,210,71760,1,0,0:0:0:0:
120,369,71910,6,0,P|129:319|135:275,1,91.8500028030396,2|0,1:0|1:0,0:0:0:0:
9,153,72210,1,8,0:0:0:0:
0,127,72285,1,8,0:0:0:0:
3,99,72360,1,8,0:3:0:0:
18,76,72435,1,4,0:3:0:0:
41,62,72510,6,0,P|131:78|210:89,2,150.299995413208,6|2|10,1:0|0:0|0:0,0:0:0:0:
338,180,73410,1,2,0:0:0:0:
400,123,73560,5,0,3:0:0:0:
400,123,73635,1,0,3:0:0:0:
400,123,73710,2,0,P|441:108|475:101,1,75.1499977066041,2|0,0:0|0:0,0:0:0:0:
356,262,74010,2,0,P|348:305|337:337,1,75.1499977066041,0|2,1:0|0:0,0:0:0:0:
260,154,74310,2,0,B|204:118|187:158|114:121,1,150.299995413208,10|0,0:0|1:0,0:0:0:0:
171,54,74760,1,2,0:0:0:0:
218,235,74910,5,10,0:0:0:0:
357,109,75060,2,0,P|403:102|450:88,1,91.8500028030396,6|0,1:2|0:0,0:0:0:0:
373,197,75360,5,8,0:0:0:0:
204,140,75510,2,0,P|159:133|115:120,1,91.8500028030396,4|0,1:2|0:0,0:0:0:0:
267,67,75810,5,8,0:0:0:0:
324,276,75960,2,0,B|251:260|188:304|188:304|135:292,1,183.700005606079,4|10,1:2|0:0,0:0:0:0:
148,295,76335,1,0,0:0:0:0:
148,295,76410,1,2,1:0:0:0:
11,179,76560,1,2,1:0:0:0:
55,322,76710,6,0,P|62:278|73:236,2,87.6749973243714,6|4|4,0:3|0:3|0:3,0:0:0:0:
11,179,77310,6,0,B|62:141|116:166|116:166|139:145|176:145,1,167,12|0,0:0|1:0,0:0:0:0:
305,86,77760,1,8,0:0:0:0:
237,0,77910,2,0,P|227:42|216:98,1,83.5,0|0,1:0|1:0,0:0:0:0:
346,273,78210,6,0,P|401:230|506:232,1,167,8|0,0:0|1:0,0:0:0:0:
429,109,78660,2,0,P|440:68|451:27,1,83.5,8|0,0:0|1:0,0:0:0:0:
302,162,78960,5,0,1:0:0:0:
302,162,79035,1,0,0:0:0:0:
302,162,79110,2,0,P|311:207|322:253,1,83.5,10|2,0:0|1:0,0:0:0:0:
305,361,79410,1,10,0:0:0:0:
418,241,79560,1,2,1:0:0:0:
249,294,79710,6,0,B|155:266|185:319|79:283,1,167,12|0,0:0|1:0,0:0:0:0:
27,126,80160,1,8,0:0:0:0:
2,218,80310,2,0,P|52:207|107:195,1,83.5,0|0,1:0|1:0,0:0:0:0:
236,0,80610,5,8,0:0:0:0:
160,33,80760,2,0,P|150:74|144:114,1,83.5,0|0,1:0|1:0,0:0:0:0:
332,237,81060,6,0,B|426:214|391:264|509:238,1,167,8|0,0:0|1:0,0:0:0:0:
471,76,81510,5,10,0:0:0:0:
392,41,81660,1,2,1:0:0:0:
358,116,81810,1,10,0:0:0:0:
438,156,81960,1,2,1:0:0:0:
378,313,82110,6,0,B|333:275|289:282|289:282|261:318|203:308,1,167,12|0,0:0|1:0,0:0:0:0:
117,246,82560,1,8,0:0:0:0:
79,326,82710,2,0,P|39:341|-1:352,1,83.5,0|0,1:0|1:0,0:0:0:0:
208,219,83010,6,0,P|251:153|231:47,1,167,8|0,0:0|1:0,0:0:0:0:
180,10,83460,2,0,P|141:20|94:28,1,83.5,8|0,0:0|1:0,0:0:0:0:
328,171,83760,5,0,1:0:0:0:
393,114,83910,2,0,P|437:102|486:94,1,83.5,10|2,0:0|1:0,0:0:0:0:
314,86,84210,5,10,0:0:0:0:
409,200,84360,1,2,1:0:0:0:
222,292,84510,6,0,P|302:280|370:326,1,167,12|0,0:0|1:0,0:0:0:0:
151,178,84960,1,8,0:0:0:0:
91,237,85110,2,0,P|46:252|0:263,1,83.5,0|0,1:0|1:0,0:0:0:0:
245,177,85410,6,0,P|277:114|255:13,1,167,8|0,0:0|1:0,0:0:0:0:
175,113,85860,1,8,0:0:0:0:
349,192,86010,2,0,P|393:177|444:168,1,83.5,0|8,1:0|0:0,0:0:0:0:
437,171,86235,1,8,0:0:0:0:
447,175,86310,1,8,0:0:0:0:
346,103,86460,1,8,0:0:0:0:
245,177,86610,1,8,0:0:0:0:
210,300,86760,1,8,0:0:0:0:
84,334,86910,6,0,P|24:315|5:233,1,125.25,4|0,1:2|2:0,0:0:0:0:
0,261,87210,2,0,L|16:177,1,83.5,10|0,0:0|0:0,0:0:0:0:
149,69,87510,1,2,0:0:0:0:
149,69,87660,1,0,1:0:0:0:
44,23,87810,2,0,P|57:66|68:113,1,83.5,10|0,0:0|1:0,0:0:0:0:
202,193,88110,6,0,B|271:181|250:207|331:194,1,125.25,2|0,0:0|2:0,0:0:0:0:
339,201,88410,2,0,B|379:209|421:221,1,83.5,10|0,0:0|1:0,0:0:0:0:
355,294,88710,5,2,0:0:0:0:
400,128,88860,1,0,1:0:0:0:
355,294,89010,2,0,P|292:286|239:326,1,125.25,10|0,0:0|2:0,0:0:0:0:
184,372,89310,6,0,P|101:352|18:337,2,167,2|8|0,1:0|0:0|0:0,0:0:0:0:
243,319,90060,1,0,1:0:0:0:
205,245,90210,2,0,P|164:258|122:267,1,83.5,8|0,0:0|1:0,0:0:0:0:
329,322,90510,6,0,B|394:337|437:288|437:288|505:303,1,167,2|8,0:0|0:0,0:0:0:0:
483,298,90960,1,0,1:0:0:0:
372,162,91110,2,0,P|365:200|357:246,1,83.5,2|0,0:0|1:0,0:0:0:0:
256,384,91410,2,0,P|176:322|100:322,1,167,8|0,0:0|1:0,0:0:0:0:
113,318,92010,6,0,P|104:275|92:232,1,83.5,10|0,0:0|0:0,0:0:0:0:
153,170,92310,1,2,0:0:0:0:
153,170,92460,1,0,0:0:0:0:
235,218,92610,2,0,P|278:227|321:239,1,83.5,10|0,0:0|0:0,0:0:0:0:
45,150,92910,6,0,P|27:106|49:27,1,125.25,2|0,1:0|2:0,0:0:0:0:
49,27,93210,2,0,P|92:19|131:8,1,83.5,10|0,0:0|1:0,0:0:0:0:
246,160,93510,1,2,0:0:0:0:
246,160,93660,1,0,1:0:0:0:
312,77,93810,2,0,P|269:69|230:58,1,83.5,10|0,0:0|0:0,0:0:0:0:
381,171,94110,6,0,P|403:86|444:20,2,167,2|8|0,1:0|0:0|0:0,0:0:0:0:
416,313,94860,1,0,1:0:0:0:
512,213,95010,2,0,P|471:224|430:234,1,83.5,0|0,0:0|1:0,0:0:0:0:
342,384,95310,6,0,P|300:318|210:307,1,167,2|8,0:0|0:0,0:0:0:0:
151,213,95760,1,0,1:0:0:0:
38,314,95910,6,0,P|85:305|122:293,1,83.5,2|0,0:0|0:0,0:0:0:0:
247,209,96210,2,0,P|318:221|373:239,1,125.25,8|0,0:0|2:0,0:0:0:0:
368,237,96510,5,4,1:2:0:0:
418,181,100860,5,0,0:0:0:0:
418,181,101010,2,0,B|410:150|430:123|430:123|401:145|367:135,1,125.25,2|0,0:0|2:0,0:0:0:0:
339,213,101310,6,0,P|420:195|503:189,2,167,4|8|2,1:0|0:0|1:0,0:0:0:0:
253,147,102060,1,0,0:0:0:0:
217,232,102210,2,0,P|201:266|186:314,1,83.5,8|0,0:0|0:0,0:0:0:0:
182,90,102510,6,0,P|103:101|26:34,1,167,2|8,1:0|0:0,0:0:0:0:
134,189,102960,1,0,0:0:0:0:
272,65,103110,2,0,P|259:112|251:159,1,83.5,2|0,1:0|0:0,0:0:0:0:
428,296,103410,2,0,P|469:280|513:271,1,83.5,8|0,0:0|0:0,0:0:0:0:
286,246,103710,6,0,P|215:237|127:182,1,167,2|8,1:0|0:0,0:0:0:0:
65,364,104160,1,0,0:0:0:0:
5,291,104310,2,0,P|49:282|87:269,1,83.5,2|0,1:0|0:0,0:0:0:0:
177,338,104610,2,0,P|238:339|287:378,1,125.25,8|0,0:0|2:0,0:0:0:0:
366,354,104910,5,10,0:0:0:0:
360,314,105010,1,8,0:0:0:0:
354,271,105110,1,8,0:0:0:0:
389,236,105210,6,0,L|445:248,2,55.6666666666667,8|8|8,0:3|0:3|0:3,0:0:0:0:
343,158,105510,5,6,0:3:0:0:
343,158,105610,2,0,P|376:151|400:142,1,55.6666666666667,4|4,0:3|0:3,0:0:0:0:
500,93,105810,5,12,0:3:0:0:
500,93,105910,2,0,P|467:86|443:77,1,55.6666666666667,8|8,0:3|2:3,0:0:0:0:
372,6,106110,6,0,B|318:7|281:45|281:45|257:30|225:22,2,150.299995413208,2|0|0,0:0|0:0|0:0,0:0:0:0:
181,118,107310,2,0,L|79:142,1,100.199996942139,2|0,0:0|0:0,0:0:0:0:
83,140,107760,1,0,0:0:0:0:
31,198,107910,2,0,P|80:193|126:211,1,100.199996942139
309,374,108510,6,0,P|339:311|330:230,1,150.299995413208,2|0,0:0|0:0,0:0:0:0:
390,170,109110,2,0,P|437:182|487:191,1,100.199996942139
206,316,109710,6,0,B|165:345|111:333,1,100.199996942139,2|0,0:0|0:0,0:0:0:0:
34,377,110160,1,0,0:0:0:0:
34,377,110310,2,0,P|28:328|19:278,1,100.199996942139
107,123,110910,6,0,L|98:165,5,41.75,8|8|8|8|8|8,0:0|0:0|0:0|0:0|0:0|0:0,0:0:0:0:
172,221,111360,2,0,L|180:180,5,41.75,8|8|8|8|8|8,1:2|0:0|0:0|0:0|0:0|0:0,0:0:0:0:
213,87,111810,1,8,1:2:0:0:
228,95,111885,1,8,0:0:0:0:
257,92,111960,1,8,0:0:0:0:
276,81,112035,1,8,0:0:0:0:
291,53,112110,6,0,L|335:44,5,41.75,8|8|8|8|8|8,0:0|0:0|0:0|0:0|0:0|0:0,0:0:0:0:
436,85,112560,2,0,L|392:94,5,41.75,8|8|8|8|8|8,1:2|0:0|0:0|0:0|0:0|0:0,0:0:0:0:
325,154,113010,5,8,1:2:0:0:
315,176,113085,1,8,0:0:0:0:
314,195,113160,1,8,0:0:0:0:
323,214,113235,1,8,0:0:0:0:
346,228,113310,6,0,L|393:216,5,41.75,8|8|8|8|8|8,1:2|0:0|0:0|0:0|0:0|0:0,0:0:0:0:
421,295,113760,1,8,1:2:0:0:
501,258,113910,2,0,L|511:217,2,41.75,8|8|8,0:0|0:0|0:0,0:0:0:0:
352,384,114210,2,0,P|319:336|251:329,1,125.25,8|0,0:0|3:0,0:0:0:0:
167,339,114510,5,8,1:2:0:0:
138,336,114585,1,8,0:0:0:0:
105,350,114660,1,8,0:0:0:0:
73,368,114735,1,8,0:0:0:0:
42,362,114810,6,0,P|28:348|10:337,3,41.75,8|8|8|8,1:2|0:0|0:0|0:0,0:0:0:0:
16,243,115110,5,8,0:0:0:0:
52,253,115185,1,8,0:0:0:0:
93,244,115260,1,10,0:0:0:0:
130,228,115335,1,8,0:0:0:0:
167,198,115410,1,8,0:0:0:0:
167,198,115710,6,0,B|214:229|214:229|287:220|323:168,2,183.700005606079,6|10|2,1:0|0:0|0:0,0:0:0:0:
328,290,116460,1,0,1:0:0:0:
399,225,116610,2,0,P|446:209|488:201,1,91.8500028030396,10|0,0:0|1:0,0:0:0:0:
293,384,116910,6,0,P|233:352|154:355,1,137.775004204559,2|0,0:0|2:0,0:0:0:0:
164,351,117210,2,0,P|120:362|72:372,1,91.8500028030396,10|0,0:0|1:0,0:0:0:0:
0,233,117510,2,0,P|89:214|178:191,1,183.700005606079,2|8,0:0|0:0,0:0:0:0:
287,148,117960,5,0,0:0:0:0:
287,148,118035,1,0,0:0:0:0:
287,148,118110,2,0,P|276:194|264:248,1,91.8500028030396,2|0,1:0|0:0,0:0:0:0:
406,384,118410,2,0,P|416:339|426:294,1,91.8500028030396,10|0,0:0|0:0,0:0:0:0:
397,127,118710,5,2,0:0:0:0:
488,215,118860,1,0,1:0:0:0:
340,273,119010,2,0,B|260:267|283:307|164:287,1,137.775004204559,10|0,0:0|2:0,0:0:0:0:
189,311,119310,6,0,P|93:299|22:364,1,183.700005606079,2|8,0:0|0:0,0:0:0:0:
170,184,119760,1,0,1:0:0:0:
98,120,119910,2,0,P|83:166|77:214,1,91.8500028030396,2|0,0:0|1:0,0:0:0:0:
261,384,120210,2,0,P|267:338|281:295,1,91.8500028030396,8|0,0:0|3:0,0:0:0:0:
286,283,120435,1,0,3:0:0:0:
284,273,120510,6,0,B|319:278|354:290|354:290|405:271|469:263,2,183.700005606079,6|10|2,1:0|0:0|0:0,0:0:0:0:
224,183,121260,1,0,1:0:0:0:
305,90,121410,2,0,P|316:133|323:183,1,91.8500028030396,10|0,0:0|1:0,0:0:0:0:
202,357,121710,6,0,P|144:314|58:315,1,137.775004204559,2|0,0:0|2:0,0:0:0:0:
69,311,122010,2,0,P|59:252|46:208,1,91.8500028030396,10|0,0:0|1:0,0:0:0:0:
186,0,122310,2,0,P|207:79|150:157,1,183.700005606079,2|10,1:0|0:0,0:0:0:0:
225,247,122760,5,2,0:0:0:0:
225,247,122835,1,0,0:0:0:0:
225,247,122910,2,0,P|271:240|320:224,1,91.8500028030396,2|0,1:0|0:0,0:0:0:0:
509,315,123210,2,0,P|463:322|414:338,1,91.8500028030396,10|0,0:0|0:0,0:0:0:0:
350,384,123510,5,2,0:0:0:0:
387,257,123660,1,0,1:0:0:0:
255,340,123810,2,0,P|209:333|160:317,1,91.8500028030396,10|0,0:0|1:0,0:0:0:0:
42,64,124110,6,0,P|63:115|70:160,1,91.8500028030396,2|0,0:0|1:0,0:0:0:0:
0,283,124410,2,0,P|62:240|139:242,1,137.775004204559,8|0,0:0|2:0,0:0:0:0:
122,237,124710,1,2,0:0:0:0:
241,199,124860,1,0,1:0:0:0:
286,328,125010,2,0,P|328:346|375:356,1,91.8500028030396,8|0,0:0|0:0,0:0:0:0:
504,224,125310,6,0,L|361:254,1,137.775004204559,6|0,1:0|2:0,0:0:0:0:
361,261,125610,2,0,P|338:221|336:172,1,91.8500028030396,10|0,0:0|0:0,0:0:0:0:
398,0,125910,1,2,1:0:0:0:
431,138,126060,1,0,0:0:0:0:
270,104,126210,2,0,P|315:96|358:80,1,91.8500028030396,10|0,0:0|0:0,0:0:0:0:
175,248,126510,6,0,B|112:244|58:283|58:283|35:262|-5:258,2,183.700005606079,2|8|2,1:0|0:0|1:0,0:0:0:0:
67,180,127260,1,2,0:0:0:0:
141,340,127410,2,0,P|187:348|240:366,1,91.8500028030396,10|2,0:0|1:0,0:0:0:0:
438,246,127710,6,0,L|292:284,1,137.775004204559,6|0,1:0|2:0,0:0:0:0:
296,284,128010,2,0,P|278:240|278:186,1,91.8500028030396,10|0,0:0|0:0,0:0:0:0:
392,60,128310,5,6,1:0:0:0:
488,106,128460,1,0,0:0:0:0:
481,7,128610,1,10,0:0:0:0:
366,155,128760,5,0,0:0:0:0:
366,155,128835,1,0,0:0:0:0:
366,155,128910,2,0,B|247:139|291:181|173:160,1,183.700005606079,6|10,1:0|0:0,0:0:0:0:
25,58,129360,1,0,0:0:0:0:
116,5,129510,2,0,P|113:47|113:101,1,91.8500028030396,2|0,1:0|1:0,0:0:0:0:
0,265,129810,5,8,0:0:0:0:
27,261,129885,1,8,0:0:0:0:
54,266,129960,1,8,0:3:0:0:
78,279,130035,1,4,0:3:0:0:
98,298,130110,6,0,L|254:265,2,150.299995413208,6|2|10,1:0|0:0|0:0,0:0:0:0:
350,380,131010,5,2,0:0:0:0:
424,337,131160,1,0,3:0:0:0:
424,337,131235,1,0,3:0:0:0:
424,337,131310,2,0,P|432:300|451:256,1,75.1499977066041,2|0,0:0|0:0,0:0:0:0:
369,110,131610,2,0,P|361:147|342:191,1,75.1499977066041,0|2,1:0|0:0,0:0:0:0:
225,356,131910,6,0,P|179:310|91:299,1,150.299995413208,10|0,0:0|1:0,0:0:0:0:
229,220,132360,5,2,0:0:0:0:
229,220,132435,1,0,0:0:0:0:
229,220,132510,1,10,0:0:0:0:
106,110,132660,2,0,P|118:154|126:199,1,91.8500028030396,6|0,1:2|0:0,0:0:0:0:
308,162,132960,5,8,0:0:0:0:
400,25,133110,2,0,P|387:69|379:114,1,91.8500028030396,4|0,1:2|0:0,0:0:0:0:
431,361,133410,5,8,0:0:0:0:
179,306,133560,6,0,B|277:323|259:268|359:285,1,183.700005606079,4|10,1:2|0:0,0:0:0:0:
491,227,134010,1,2,1:0:0:0:
371,138,134160,1,2,1:0:0:0:
445,298,134310,2,0,P|434:341|429:384,2,87.6749973243714,6|4|4,0:3|0:3|0:3,0:0:0:0:
405,213,134910,5,4,1:2:0:0:
256,192,134985,12,0,136560,0:0:0:0:
22,71,136710,6,0,B|108:67|180:4|180:4|178:10|178:10|130:61|129:105,1,250.5
124,206,137310,5,6,1:2:0:0:
121,196,137460,1,2,0:0:0:0:
112,184,137610,1,2,0:0:0:0:
102,176,137760,1,2,0:0:0:0:
256,64,138210,6,0,P|244:98|240:131,1,66.8,2|0,1:0|0:0,0:0:0:0:
321,249,138510,5,10,0:0:0:0:
446,272,138660,2,0,P|387:243|313:252,1,133.6,2|2,0:0|0:0,0:0:0:0:
237,277,139110,5,2,0:0:0:0:
243,285,139260,1,2,0:0:0:0:
249,295,139410,1,2,1:0:0:0:
252,306,139560,1,2,0:0:0:0:
320,248,139710,5,2,1:0:0:0:
273,255,139860,1,2,0:0:0:0:
228,245,140010,1,2,0:0:0:0:
190,206,140160,1,2,0:0:0:0:
190,206,140610,6,0,P|188:172|177:129,1,66.8,0|0,1:0|0:0,0:0:0:0:
332,23,140910,6,0,B|378:-2|427:18|436:73|436:73|390:77|365:121,1,200.4,8|2,0:0|0:0,0:0:0:0:
445,177,141510,5,2,0:0:0:0:
451,167,141660,1,2,0:0:0:0:
449,157,141810,1,2,1:0:0:0:
440,150,141960,1,2,0:0:0:0:
485,258,142110,5,2,1:0:0:0:
457,215,142260,1,2,0:0:0:0:
403,203,142410,1,2,0:0:0:0:
351,221,142560,1,2,0:0:0:0:
95,368,143010,6,0,L|164:353,1,66.8,2|0,1:0|0:0,0:0:0:0:
246,358,143310,5,8,0:0:0:0:
40,292,143535,1,0,1:0:0:0:
195,159,143760,1,2,1:0:0:0:
199,256,143910,6,0,P|165:260|133:267,3,66.8,2|2|2|2,0:0|0:0|0:0|1:0,0:0:0:0:
359,365,144510,5,0,1:0:0:0:
363,350,144660,1,2,0:0:0:0:
371,334,144810,1,2,0:0:0:0:
381,321,144960,1,2,0:0:0:0:
383,122,145410,2,0,P|372:92|367:54,1,66.8,0|0,1:0|0:0,0:0:0:0:
474,272,145710,6,0,B|495:276|512:287|512:287|474:185|366:218,1,200.4,10|2,0:0|0:0,0:0:0:0:
301,194,146310,5,2,0:0:0:0:
300,202,146460,1,2,0:0:0:0:
295,197,146610,1,2,1:0:0:0:
292,204,146760,1,2,0:0:0:0:
192,148,146910,5,6,1:2:0:0:
155,184,147060,1,2,0:0:0:0:
101,196,147210,1,2,0:0:0:0:
51,180,147360,1,2,0:0:0:0:
51,180,147810,6,0,P|46:143|30:106,1,66.8,2|0,1:0|0:0,0:0:0:0:
0,280,148110,5,10,0:0:0:0:
46,343,148260,2,0,B|92:337|127:360|127:360|197:343,1,133.6,2|2,0:0|0:0,0:0:0:0:
276,309,148710,5,2,0:0:0:0:
276,309,148860,1,2,0:0:0:0:
276,309,149010,2,0,L|260:377,1,66.8,2|2,1:0|0:0,0:0:0:0:
206,232,149310,5,2,1:0:0:0:
194,196,149460,1,2,0:0:0:0:
201,150,149610,1,2,0:0:0:0:
226,117,149760,1,2,0:0:0:0:
226,117,150210,6,0,P|221:84|214:45,1,66.8,0|0,1:0|0:0,0:0:0:0:
352,141,150510,6,0,B|407:179|488:119|461:33|386:26|367:83|382:98,1,200.4,8|2,0:0|0:0,0:0:0:0:
385,69,151110,1,2,0:0:0:0:
385,69,151260,1,2,0:0:0:0:
385,69,151410,1,2,1:0:0:0:
275,187,151710,5,2,1:0:0:0:
263,223,151860,1,2,0:0:0:0:
270,269,152010,1,2,0:0:0:0:
295,302,152160,1,2,0:0:0:0:
295,302,152610,1,2,1:0:0:0:
189,55,152910,5,8,0:0:0:0:
133,238,153135,1,0,1:0:0:0:
18,123,153360,1,2,1:0:0:0:
114,133,153510,5,2,0:0:0:0:
109,144,153660,1,2,0:0:0:0:
106,152,153810,1,2,0:0:0:0:
106,165,153960,1,2,1:0:0:0:
176,200,154110,6,0,B|197:146|159:108|149:113|139:117|91:78|129:15,2,200.4,0|2|0,1:0|0:0|1:0,0:0:0:0:
27,342,155310,5,10,0:0:0:0:
46,344,155460,1,2,0:0:0:0:
71,352,155610,1,2,0:0:0:0:
97,370,155760,1,2,0:0:0:0:
171,308,155910,5,2,0:0:0:0:
242,292,156060,1,2,0:0:0:0:
304,240,156210,1,2,1:0:0:0:
332,167,156360,1,2,0:0:0:0:
389,319,156510,6,0,P|467:326|523:369,3,133.6,6|2|2|2,1:2|0:0|0:0|1:0,0:0:0:0:
242,175,157710,6,0,B|164:118|168:5|267:-36|287:38|217:68,1,267.2,10|2,0:0|0:0,0:0:0:0:
277,376,158610,1,2,1:0:0:0:
277,376,158760,1,2,0:0:0:0:
343,324,158910,6,0,P|365:259|331:197,1,133.6,2|2,1:0|0:0,0:0:0:0:
396,140,159360,2,0,P|327:157|251:171,1,133.6,2|0,0:0|0:0,0:0:0:0:
265,168,159810,1,0,1:0:0:0:
36,63,160110,6,0,B|95:66|166:2|166:2|162:12|162:12|108:65|120:131,1,267.2,8|2,0:0|0:0,0:0:0:0:
210,83,160860,2,0,P|244:88|276:96,1,66.8,2|2,0:0|1:0,0:0:0:0:
190,309,161310,6,0,P|135:270|63:274,1,133.6,2|2,1:0|0:0,0:0:0:0:
0,222,161760,2,0,P|71:225|133:178,1,133.6,2|0,0:0|0:0,0:0:0:0:
122,192,162210,1,2,1:0:0:0:
273,359,162510,6,0,B|324:351|324:351|364:378,2,100.2,8|0|2,0:0|1:0|1:0,0:0:0:0:
186,355,163110,2,0,B|200:277|226:319|239:230,1,133.6,2|2,0:0|0:0,0:0:0:0:
238,234,163560,1,2,1:0:0:0:
238,234,163710,6,0,P|317:222|381:194,2,133.6,0|2|2,1:0|0:0|0:0,0:0:0:0:
81,47,164610,1,2,1:0:0:0:
81,47,164760,1,0,0:0:0:0:
5,129,164910,2,0,P|71:138|136:169,1,133.6,10|2,0:0|0:0,0:0:0:0:
230,52,165360,1,2,0:0:0:0:
230,52,165510,2,0,B|199:52|173:20|173:20|199:52|188:93,1,133.6,2|2,0:0|1:0,0:0:0:0:
31,222,166110,6,0,B|-26:264|-14:362|112:393|107:340|107:340|77:317|76:256|135:241,1,334,6|0,1:2|0:0,0:0:0:0:
109,252,167010,1,2,1:0:0:0:
368,353,167310,6,0,B|303:344|268:288|268:288|293:336|273:377,1,200.4,10|2,0:0|0:0,0:0:0:0:
205,342,167910,1,2,0:0:0:0:
374,233,168210,5,2,1:0:0:0:
374,233,168360,1,2,0:0:0:0:
374,233,168510,2,0,P|389:159|411:98,1,133.6,2|2,1:0|0:0,0:0:0:0:
435,13,168960,1,2,0:0:0:0:
435,13,169110,2,0,P|400:22|343:35,1,66.8,2|0,0:0|0:0,0:0:0:0:
239,110,169410,2,0,P|271:102|303:93,1,66.8,0|0,1:0|0:0,0:0:0:0:
417,302,169710,6,0,B|396:236|306:203|246:238|246:238|279:238|309:268,1,267.2,8|2,0:0|0:0,0:0:0:0:
234,384,170460,2,0,P|240:348|247:318,1,66.8,2|2,0:0|1:0,0:0:0:0:
74,223,170910,6,0,P|38:170|55:100,1,133.6,2|2,1:0|3:2,0:0:0:0:
51,105,171360,1,2,0:0:0:0:
0,50,171510,2,0,P|67:68|132:85,1,133.6,2|2,3:0|1:0,0:0:0:0:
402,273,172110,6,0,B|375:250|375:250|368:220|372:186,2,100.2,10|0|0,0:0|1:0|1:0,0:0:0:0:
418,117,172710,6,0,P|351:156|287:141,1,133.6,2|2,3:0|3:0,0:0:0:0:
247,74,173160,1,2,1:0:0:0:
247,74,173235,1,0,3:0:0:0:
247,74,173310,2,0,P|240:37|232:1,1,66.8,2|0,1:0|3:0,0:0:0:0:
168,115,173610,2,0,P|161:78|153:42,1,66.8,0|2,3:0|3:0,0:0:0:0:
13,167,173910,6,0,P|47:177|83:186,1,66.8,0|0,3:0|3:0,0:0:0:0:
190,299,174210,2,0,P|157:290|125:281,1,66.8,0|0,1:0|3:0,0:0:0:0:
237,371,174510,2,0,P|273:320|253:244,1,133.6,8|2,1:2|0:0,0:0:0:0:
116,113,174960,5,0,0:0:0:0:
116,113,175035,1,0,3:0:0:0:
116,113,175110,2,0,P|187:102|248:68,1,133.6,2|0,1:0|1:0,0:0:0:0:
331,121,175560,1,0,0:0:0:0:
369,28,175710,1,0,0:0:0:0:
256,192,175785,12,2,178110,0:0:0:0:
324,11,179910,5,8,0:0:0:0:
512,160,180060,1,8,3:2:0:0:
501,130,180135,1,8,3:2:0:0:
483,106,180210,1,8,0:0:0:0:
458,89,180285,1,8,0:0:0:0:
428,81,180360,1,8,0:0:0:0:
397,83,180435,1,8,0:0:0:0:
370,95,180510,6,0,B|343:97|323:111|323:111|281:83|217:90,1,137.775004204559,6|0,1:2|2:0,0:0:0:0:
220,104,180810,2,0,P|210:148|202:197,1,91.8500028030396,10|0,0:0|0:0,0:0:0:0:
303,373,181110,1,2,0:0:0:0:
277,251,181260,1,0,1:0:0:0:
373,292,181410,2,0,P|417:284|468:267,1,91.8500028030396,10|0,0:0|1:0,0:0:0:0:
198,369,181710,6,0,P|140:337|14:318,1,183.700005606079,2|8,0:0|0:0,0:0:0:0:
170,203,182160,1,0,1:0:0:0:
89,165,182310,2,0,P|77:125|72:70,1,91.8500028030396,2|0,0:0|1:0,0:0:0:0:
46,242,182610,1,8,0:0:0:0:
221,112,182760,5,0,3:0:0:0:
221,112,182835,1,0,3:0:0:0:
221,112,182910,2,0,B|290:106|290:140|372:126,1,137.775004204559,6|0,1:0|2:0,0:0:0:0:
387,108,183210,2,0,P|394:68|405:15,1,91.8500028030396,10|0,0:0|0:0,0:0:0:0:
493,253,183510,5,2,0:0:0:0:
389,216,183660,1,0,1:0:0:0:
335,314,183810,2,0,P|288:335|229:343,1,91.8500028030396,10|0,0:0|1:0,0:0:0:0:
389,216,184110,6,0,P|401:141|426:75,1,137.775004204559,2|0,0:0|2:0,0:0:0:0:
432,61,184410,2,0,P|378:63|335:32,1,91.8500028030396,10|0,0:0|1:0,0:0:0:0:
142,183,184710,2,0,P|185:134|303:143,1,183.700005606079,2|10,1:0|0:0,0:0:0:0:
179,33,185160,1,2,0:0:0:0:
236,216,185310,6,0,P|225:262|219:313,1,91.8500028030396,2|0,1:0|0:0,0:0:0:0:
322,374,185610,2,0,P|333:328|339:277,1,91.8500028030396,10|0,0:0|0:0,0:0:0:0:
106,91,185910,5,2,0:0:0:0:
144,246,186060,1,0,1:0:0:0:
106,91,186210,1,10,0:0:0:0:
227,146,186360,5,0,1:0:0:0:
227,146,186435,1,0,0:0:0:0:
227,146,186510,2,0,B|255:145|286:159|286:159|338:128|403:128,1,183.700005606079,2|8,0:0|0:0,0:0:0:0:
318,34,186960,1,0,1:0:0:0:
504,112,187110,2,0,P|490:159|478:211,1,91.8500028030396,2|0,0:0|1:0,0:0:0:0:
383,266,187410,1,8,0:0:0:0:
391,301,187485,1,8,0:0:0:0:
415,328,187560,1,0,1:0:0:0:
450,339,187635,1,0,1:0:0:0:
485,328,187710,6,0,B|433:312|384:336|417:351|360:381|304:359,2,183.700005606079,6|10|2,1:0|0:0|1:0,0:0:0:0:
274,242,188460,1,0,0:0:0:0:
234,318,188610,2,0,P|191:329|134:348,1,91.8500028030396,10|0,0:0|0:0,0:0:0:0:
361,268,188910,6,0,P|413:196|392:102,1,183.700005606079,2|8,1:0|0:0,0:0:0:0:
348,0,189360,1,0,0:0:0:0:
512,4,189510,2,0,P|467:20|417:32,1,91.8500028030396,2|2,1:0|0:0,0:0:0:0:
339,195,189810,1,10,0:0:0:0:
250,149,189960,5,2,1:0:0:0:
250,149,190035,1,0,0:0:0:0:
250,149,190110,2,0,P|239:102|230:42,1,91.8500028030396,4|0,1:0|0:0,0:0:0:0:
407,246,190410,1,8,0:0:0:0:
373,236,190485,1,8,0:0:0:0:
339,239,190560,1,8,0:0:0:0:
308,252,190635,1,8,0:0:0:0:
282,275,190710,2,0,P|234:262|184:250,1,91.8500028030396,4|0,1:0|0:0,0:0:0:0:
0,243,191010,5,8,0:0:0:0:
4,269,191085,1,8,0:0:0:0:
9,296,191160,1,8,0:0:0:0:
13,323,191235,1,8,0:0:0:0:
16,351,191310,2,0,B|75:337|75:337|133:351|133:351|198:332,1,183.700005606079,4|8,1:0|0:0,0:0:0:0:
218,345,191685,1,8,0:0:0:0:
245,346,191760,1,8,0:0:0:0:
271,337,191835,1,8,0:0:0:0:
289,316,191910,2,0,L|297:269,3,45.9250014015198,4|0|0|0,1:0|1:0|1:0|1:0,0:0:0:0:
368,192,192210,5,8,0:0:0:0:
386,189,192285,1,8,0:0:0:0:
404,186,192360,1,8,0:3:0:0:
422,182,192435,1,4,0:3:0:0:
436,180,192510,2,0,B|455:95|483:155|503:49,2,150.299995413208,6|2|10,1:0|0:0|0:0,0:0:0:0:
194,126,193410,5,2,0:0:0:0:
122,85,193560,1,0,3:0:0:0:
122,85,193635,1,0,3:0:0:0:
122,85,193710,2,0,P|104:53|93:17,1,75.1499977066041,2|0,0:0|0:0,0:0:0:0:
194,208,194010,2,0,P|175:239|149:267,1,75.1499977066041,0|2,1:0|0:0,0:0:0:0:
265,85,194310,6,0,B|348:63|327:100|415:75,1,150.299995413208,10|0,0:0|1:0,0:0:0:0:
505,233,194760,5,2,0:0:0:0:
505,233,194835,1,0,0:0:0:0:
505,233,194910,1,10,0:0:0:0:
361,174,195060,2,0,P|407:167|451:155,1,91.8500028030396,6|0,1:2|0:0,0:0:0:0:
310,278,195360,5,8,0:0:0:0:
399,354,195510,2,0,P|405:307|416:261,1,91.8500028030396,4|0,1:2|0:0,0:0:0:0:
166,121,195810,5,8,0:0:0:0:
267,46,195960,2,0,P|255:140|233:232,1,183.700005606079,4|10,1:2|0:0,0:0:0:0:
310,311,196410,1,2,1:0:0:0:
415,263,196560,1,2,1:0:0:0:
415,263,196635,1,0,0:0:0:0:
415,263,196710,2,0,B|456:256|456:256|505:289,2,87.6749973243714,6|4|4,0:3|0:3|0:3,0:0:0:0:
192,341,197310,6,0,B|139:340|76:370|76:370|17:360,1,167,12|0,0:0|1:0,0:0:0:0:
152,242,197760,1,8,0:0:0:0:
48,196,197910,2,0,P|62:243|71:296,1,83.5,0|0,1:0|1:0,0:0:0:0:
273,147,198210,6,0,P|253:234|241:322,1,167,8|0,0:0|1:0,0:0:0:0:
357,371,198660,1,8,0:0:0:0:
420,264,198810,2,0,P|375:272|330:283,1,83.5,0|0,1:0|1:0,0:0:0:0:
338,280,199035,1,0,0:0:0:0:
338,280,199110,1,8,0:0:0:0:
454,180,199260,1,2,1:0:0:0:
358,99,199410,2,0,P|362:142|371:188,1,83.5,10|2,0:0|1:0,0:0:0:0:
242,310,199710,6,0,B|180:324|129:295|129:295|75:309,1,167,12|0,0:0|1:0,0:0:0:0:
274,179,200160,1,8,0:0:0:0:
176,146,200310,2,0,P|186:189|193:238,1,83.5,0|0,1:0|1:0,0:0:0:0:
264,40,200610,6,0,P|170:42|106:-5,1,167,8|0,0:0|1:0,0:0:0:0:
278,156,201060,2,0,P|321:166|362:176,1,83.5,8|0,0:0|1:0,0:0:0:0:
510,60,201360,5,0,1:0:0:0:
510,60,201435,1,0,0:0:0:0:
510,60,201510,1,10,0:0:0:0:
405,20,201660,1,2,1:0:0:0:
372,103,201810,1,10,0:0:0:0:
474,143,201960,1,2,1:0:0:0:
309,30,202110,6,0,B|218:30|248:75|144:75,1,167,12|0,0:0|1:0,0:0:0:0:
201,154,202560,1,8,0:0:0:0:
72,16,202710,2,0,P|60:59|54:105,1,83.5,0|0,1:0|1:0,0:0:0:0:
180,251,203010,5,8,0:0:0:0:
24,206,203160,2,0,P|68:195|114:186,1,83.5,0|0,1:0|1:0,0:0:0:0:
311,77,203460,6,0,P|289:159|273:259,1,167,8|0,0:0|1:0,0:0:0:0:
425,368,203910,5,10,0:0:0:0:
395,239,204060,1,2,1:0:0:0:
317,328,204210,1,10,0:0:0:0:
498,280,204360,1,2,1:0:0:0:
309,331,204510,6,0,B|269:312|269:312|205:314|162:367,1,167,12|0,0:0|1:0,0:0:0:0:
58,205,204960,1,8,0:0:0:0:
0,275,205110,2,0,P|42:292|89:297,1,83.5,0|0,1:0|1:0,0:0:0:0:
313,190,205410,6,0,L|110:230,1,167,8|0,0:0|1:0,0:0:0:0:
217,114,205860,1,8,0:0:0:0:
388,249,206010,2,0,P|397:210|410:160,1,83.5,0|8,1:0|0:0,0:0:0:0:
407,167,206235,1,8,0:0:0:0:
407,167,206310,1,8,0:0:0:0:
328,35,206460,1,8,0:0:0:0:
497,94,206610,1,8,0:0:0:0:
304,200,206760,1,8,0:0:0:0:
497,94,206910,6,0,B|410:84|431:133|326:115,1,167,12|0,0:0|1:0,0:0:0:0:
196,5,207360,1,8,0:0:0:0:
129,51,207510,2,0,P|115:94|105:136,1,83.5,0|0,1:0|1:0,0:0:0:0:
199,185,207810,6,0,P|131:175|47:232,1,167,8|0,0:0|1:0,0:0:0:0:
248,99,208260,1,8,0:0:0:0:
314,153,208410,2,0,P|363:171|406:179,1,83.5,0|0,1:0|1:0,0:0:0:0:
393,177,208635,1,0,0:0:0:0:
393,177,208710,1,10,0:0:0:0:
439,99,208860,1,2,1:0:0:0:
492,239,209010,2,0,P|496:197|510:158,1,83.5,10|2,0:0|1:0,0:0:0:0:
512,365,209310,6,0,P|415:352|341:406,1,167,12|0,0:0|1:0,0:0:0:0:
268,264,209760,1,8,0:0:0:0:
190,303,209910,2,0,P|180:343|172:385,1,83.5,0|0,1:0|1:0,0:0:0:0:
355,223,210210,6,0,P|270:223|196:165,1,167,8|0,0:0|1:0,0:0:0:0:
77,55,210660,1,8,0:0:0:0:
18,169,210810,2,0,P|60:158|105:150,1,83.5,0|0,1:0|1:0,0:0:0:0:
99,150,211035,1,0,0:0:0:0:
99,150,211110,1,10,0:0:0:0:
181,15,211260,1,2,1:0:0:0:
77,55,211410,1,10,0:0:0:0:
223,117,211560,1,2,1:0:0:0:
69,252,211710,6,0,P|122:203|226:205,1,167,12|0,0:0|1:0,0:0:0:0:
373,89,212160,1,8,0:0:0:0:
305,19,212310,2,0,P|291:64|282:114,1,83.5,0|0,1:0|1:0,0:0:0:0:
501,156,212610,6,0,B|438:158|398:188|398:188|372:176|337:174,1,167,8|0,0:0|1:0,0:0:0:0:
258,317,213060,1,8,0:0:0:0:
330,373,213210,2,0,P|338:330|350:291,1,83.5,0|0,1:0|1:0,0:0:0:0:
349,292,213435,1,0,0:0:0:0:
349,292,213510,1,10,0:0:0:0:
324,151,213660,1,2,1:0:0:0:
429,208,213810,1,10,0:0:0:0:
255,241,213960,1,2,1:0:0:0:
429,208,214110,6,0,P|469:152|469:55,1,167,12|0,0:0|1:0,0:0:0:0:
324,151,214560,1,8,0:0:0:0:
460,307,214710,2,0,P|417:296|362:294,1,83.5,0|0,1:0|1:0,0:0:0:0:
163,189,215010,6,0,P|246:179|327:149,1,167,8|0,0:0|1:0,0:0:0:0:
259,266,215460,1,8,0:0:0:0:
162,358,215610,2,0,P|168:316|178:276,1,83.5,0|8,1:0|0:0,0:0:0:0:
178,276,215835,1,8,0:0:0:0:
178,276,215910,5,8,0:0:0:0:
75,85,216060,1,8,0:0:0:0:
11,250,216210,1,8,0:0:0:0:
186,110,216360,1,12,0:2:0:0:
