osu file format v14

[General]
AudioFilename: audio.mp3
AudioLeadIn: 0
PreviewTime: 182978
Countdown: 0
SampleSet: Soft
StackLeniency: 0.7
Mode: 0
LetterboxInBreaks: 0
WidescreenStoryboard: 0

[Editor]
Bookmarks: 16645,23045,29445,42245,55045,61445,67845,80645,93445,106245,119045,131845,138245,144645,151045,157445,170245,183045,195845
DistanceSpacing: 0.3
BeatDivisor: 8
GridSize: 4
TimelineZoom: 3.799999

[Metadata]
Title:Do you love me? feat. Rntl
TitleUnicode:Do you love me? feat. りんたる
Artist:Kakeru
ArtistUnicode:Kakeru
Creator:lcfc
Version:kurukuru
Source:
Tags:lowcombofc realazy encore emotional vocal pop japanese electronic k@keru megarex mrx-055 rintaru 01
BeatmapID:2569027
BeatmapSetID:1235834

[Difficulty]
HPDrainRate:6
CircleSize:4.2
OverallDifficulty:8.7
ApproachRate:9.4
SliderMultiplier:2.5
SliderTickRate:1

[Events]
//Background and Video events
0,0,"aa.png",0,0
//Break Periods
2,94045,102505
//Storyboard Layer 0 (Background)
//Storyboard Layer 1 (Fail)
//Storyboard Layer 2 (Pass)
//Storyboard Layer 3 (Foreground)
//Storyboard Layer 4 (Overlay)
//Storyboard Sound Samples

[TimingPoints]
645,400,4,2,1,70,1,0
16445,-200,4,2,1,70,0,0
16645,-66.6666666666667,4,2,1,70,0,0
17045,-100,4,2,1,70,0,0
25511,-100,4,2,1,5,0,0
25578,-100,4,2,1,70,0,0
26245,-83.3333333333333,4,2,1,70,0,0
26378,-83.3333333333333,4,2,1,5,0,0
26445,-71.4285714285714,4,2,1,70,0,0
26578,-71.4285714285714,4,2,1,5,0,0
26645,-62.5,4,2,1,70,0,0
26778,-62.5,4,2,1,5,0,0
26845,-55.5555555555556,4,2,1,70,0,0
26978,-55.5555555555556,4,2,1,5,0,0
27045,-50,4,2,1,70,0,0
27111,-50,4,2,1,5,0,0
27178,-50,4,2,1,70,0,0
27311,-50,4,2,1,5,0,0
27378,-50,4,2,1,70,0,0
27511,-50,4,2,1,5,0,0
27578,-50,4,2,1,70,0,0
27711,-50,4,2,1,5,0,0
27778,-50,4,2,1,70,0,0
27845,-133.333333333333,4,2,1,70,0,0
29245,-200,4,2,1,70,0,0
29311,-200,4,2,1,5,0,0
29445,-50,4,2,1,80,0,0
29645,-50,4,2,1,5,0,0
29845,-80,4,2,1,80,0,0
30911,-80,4,2,1,5,0,0
31045,-80,4,2,1,80,0,0
32378,-80,4,2,1,5,0,0
32445,-80,4,2,1,80,0,0
32578,-80,4,2,1,5,0,0
32645,-50,4,2,1,80,0,0
32845,-50,4,2,1,5,0,0
33045,-80,4,2,1,80,0,0
34111,-80,4,2,1,5,0,0
34245,-80,4,2,1,80,0,0
35578,-80,4,2,1,5,0,0
35645,-200,4,2,1,80,0,0
35711,-200,4,2,1,5,0,0
35845,-50,4,2,1,80,0,0
36045,-50,4,2,1,5,0,0
36245,-80,4,2,1,80,0,0
37311,-80,4,2,1,5,0,0
37445,-80,4,2,1,80,0,0
38778,-80,4,2,1,5,0,0
38845,-80,4,2,1,80,0,0
38978,-80,4,2,1,5,0,0
39045,-50,4,2,1,80,0,0
39245,-50,4,2,1,5,0,0
39445,-80,4,2,1,80,0,0
40511,-80,4,2,1,5,0,0
40645,-80,4,2,1,80,0,0
41745,-80,4,2,1,5,0,0
41845,-66.6666666666667,4,2,1,80,0,0
41945,-66.6666666666667,4,2,1,5,0,0
42045,-57.1428571428571,4,2,1,80,0,0
42145,-57.1428571428571,4,2,1,5,0,0
42245,-50,4,2,1,90,0,0
42445,-50,4,2,1,5,0,0
42645,-80,4,2,1,90,0,0
45178,-80,4,2,1,5,0,0
45245,-80,4,2,1,90,0,0
45378,-80,4,2,1,5,0,0
45445,-50,4,2,1,90,0,0
45645,-50,4,2,1,5,0,0
45845,-80,4,2,1,90,0,0
48378,-80,4,2,1,5,0,0
48445,-200,4,2,1,90,0,0
48511,-200,4,2,1,5,0,0
48645,-50,4,2,1,90,0,0
48845,-50,4,2,1,5,0,0
49045,-80,4,2,1,90,0,0
51578,-80,4,2,1,5,0,0
51645,-80,4,2,1,90,0,0
51778,-80,4,2,1,5,0,0
51845,-50,4,2,1,90,0,0
52045,-50,4,2,1,5,0,0
52245,-80,4,2,1,90,0,0
54845,-200,4,2,1,90,0,0
54911,-200,4,2,1,5,0,0
55045,-66.6666666666667,4,2,1,60,0,0
55445,-100,4,2,1,60,0,0
61445,-100,4,2,1,70,0,0
63911,-100,4,2,1,5,0,0
63978,-100,4,2,1,70,0,0
64645,-83.3333333333333,4,2,1,70,0,0
64778,-83.3333333333333,4,2,1,5,0,0
64845,-71.4285714285714,4,2,1,70,0,0
64978,-71.4285714285714,4,2,1,5,0,0
65045,-62.5,4,2,1,70,0,0
65178,-62.5,4,2,1,5,0,0
65245,-55.5555555555556,4,2,1,70,0,0
65378,-55.5555555555556,4,2,1,5,0,0
65445,-50,4,2,1,70,0,0
65511,-50,4,2,1,5,0,0
65578,-50,4,2,1,70,0,0
65711,-50,4,2,1,5,0,0
65778,-50,4,2,1,70,0,0
65911,-50,4,2,1,5,0,0
65978,-50,4,2,1,70,0,0
66111,-50,4,2,1,5,0,0
66178,-50,4,2,1,70,0,0
66245,-133.333333333333,4,2,1,70,0,0
67845,-50,4,2,1,100,0,0
68045,-50,4,2,1,5,0,0
68245,-66.6666666666667,4,2,1,100,0,1
68311,-66.6666666666667,4,2,1,5,0,1
68378,-66.6666666666667,4,2,1,100,0,1
68511,-66.6666666666667,4,2,1,5,0,1
68578,-66.6666666666667,4,2,1,100,0,1
69511,-66.6666666666667,4,2,1,5,0,1
69578,-66.6666666666667,4,2,1,100,0,1
69711,-66.6666666666667,4,2,1,5,0,1
69778,-66.6666666666667,4,2,1,100,0,1
69911,-66.6666666666667,4,2,1,5,0,1
69978,-66.6666666666667,4,2,1,100,0,1
70911,-66.6666666666667,4,2,1,5,0,1
70978,-66.6666666666667,4,2,1,100,0,1
71511,-66.6666666666667,4,2,1,5,0,1
71578,-66.6666666666667,4,2,1,100,0,1
71711,-66.6666666666667,4,2,1,5,0,1
71778,-66.6666666666667,4,2,1,100,0,1
72711,-66.6666666666667,4,2,1,5,0,1
72778,-66.6666666666667,4,2,1,100,0,1
72911,-66.6666666666667,4,2,1,5,0,1
72978,-66.6666666666667,4,2,1,100,0,1
73111,-66.6666666666667,4,2,1,5,0,1
73178,-66.6666666666667,4,2,1,100,0,1
73845,-133.333333333333,4,2,1,100,0,0
74245,-50,4,2,1,100,0,0
74445,-50,4,2,1,5,0,0
74645,-66.6666666666667,4,2,1,100,0,1
74711,-66.6666666666667,4,2,1,5,0,1
74778,-66.6666666666667,4,2,1,100,0,1
74911,-66.6666666666667,4,2,1,5,0,1
74978,-66.6666666666667,4,2,1,100,0,1
75911,-66.6666666666667,4,2,1,5,0,1
75978,-66.6666666666667,4,2,1,100,0,1
76111,-66.6666666666667,4,2,1,5,0,1
76178,-66.6666666666667,4,2,1,100,0,1
76311,-66.6666666666667,4,2,1,5,0,1
76378,-66.6666666666667,4,2,1,100,0,1
77311,-66.6666666666667,4,2,1,5,0,1
77378,-66.6666666666667,4,2,1,100,0,1
77911,-66.6666666666667,4,2,1,5,0,1
77978,-66.6666666666667,4,2,1,100,0,1
78111,-66.6666666666667,4,2,1,5,0,1
78178,-66.6666666666667,4,2,1,100,0,1
79045,-133.333333333333,4,2,1,80,0,0
79378,-133.333333333333,4,2,1,5,0,0
79445,-133.333333333333,4,2,1,80,0,0
79778,-133.333333333333,4,2,1,5,0,0
79845,-133.333333333333,4,2,1,80,0,0
80445,-133.333333333333,4,2,1,5,0,0
80645,-100,4,2,1,80,0,0
81978,-100,4,2,1,5,0,0
82045,-200,4,2,1,80,0,0
82111,-200,4,2,1,5,0,0
82245,-50,4,2,1,100,0,0
82445,-50,4,2,1,5,0,0
82645,-66.6666666666667,4,2,1,100,0,1
82711,-66.6666666666667,4,2,1,5,0,1
82778,-66.6666666666667,4,2,1,100,0,1
83711,-66.6666666666667,4,2,1,5,0,1
83778,-66.6666666666667,4,2,1,100,0,1
84311,-66.6666666666667,4,2,1,5,0,1
84378,-66.6666666666667,4,2,1,100,0,1
84511,-66.6666666666667,4,2,1,5,0,1
84578,-66.6666666666667,4,2,1,100,0,1
85511,-66.6666666666667,4,2,1,5,0,1
85578,-66.6666666666667,4,2,1,100,0,1
85711,-66.6666666666667,4,2,1,5,0,1
85778,-66.6666666666667,4,2,1,100,0,1
85911,-66.6666666666667,4,2,1,5,0,1
85978,-66.6666666666667,4,2,1,100,0,1
87045,-133.333333333333,4,2,1,100,0,0
87445,-50,4,2,1,100,0,1
87645,-50,4,2,1,5,0,1
87845,-66.6666666666667,4,2,1,100,0,1
88311,-66.6666666666667,4,2,1,5,0,1
88378,-66.6666666666667,4,2,1,100,0,1
88911,-66.6666666666667,4,2,1,5,0,1
88978,-66.6666666666667,4,2,1,100,0,1
89111,-66.6666666666667,4,2,1,5,0,1
89178,-66.6666666666667,4,2,1,100,0,1
90111,-66.6666666666667,4,2,1,5,0,1
90178,-66.6666666666667,4,2,1,100,0,1
90711,-66.6666666666667,4,2,1,5,0,1
90778,-66.6666666666667,4,2,1,100,0,1
90911,-66.6666666666667,4,2,1,5,0,1
90978,-66.6666666666667,4,2,1,100,0,1
91845,-133.333333333333,4,2,1,100,0,0
91878,-133.333333333333,4,2,1,5,0,0
91911,-133.333333333333,4,2,1,100,0,0
91945,-133.333333333333,4,2,1,5,0,0
91978,-133.333333333333,4,2,1,100,0,0
92011,-133.333333333333,4,2,1,5,0,0
92045,-133.333333333333,4,2,1,100,0,0
92078,-133.333333333333,4,2,1,5,0,0
92111,-133.333333333333,4,2,1,100,0,0
92145,-133.333333333333,4,2,1,5,0,0
92178,-133.333333333333,4,2,1,100,0,0
92211,-133.333333333333,4,2,1,5,0,0
92245,-28.5714285714287,4,2,1,100,0,0
92445,-28.5714285714287,4,2,1,5,0,0
92645,-33.3333333333333,4,2,1,100,0,0
92845,-33.3333333333333,4,2,1,5,0,0
93045,-40,4,2,1,100,0,0
93245,-40,4,2,1,5,0,0
93445,-50,4,2,1,100,0,0
93645,-50,4,2,1,5,0,0
93845,-80,4,2,1,100,0,0
103045,-80,4,2,1,70,0,0
104878,-80,4,2,1,5,0,0
105245,-80,4,2,1,70,0,0
105278,-80,4,2,1,5,0,0
105445,-80,4,2,1,70,0,0
106245,-50,4,2,1,80,0,0
106445,-50,4,2,1,5,0,0
106645,-100,4,2,1,60,0,0
106711,-100,4,2,1,5,0,0
106845,-100,4,2,1,60,0,0
106911,-100,4,2,1,5,0,0
107045,-100,4,2,1,60,0,0
107111,-100,4,2,1,5,0,0
107345,-100,4,2,1,60,0,0
107411,-100,4,2,1,5,0,0
107645,-100,4,2,1,60,0,0
108045,-100,4,2,1,5,0,0
108245,-100,4,2,1,60,0,0
108311,-100,4,2,1,5,0,0
108545,-100,4,2,1,60,0,0
108611,-100,4,2,1,5,0,0
108745,-100,4,2,1,60,0,0
108811,-100,4,2,1,5,0,0
109045,-66.6666666666667,4,2,1,70,0,0
109445,-50,4,2,1,80,0,0
109645,-50,4,2,1,5,0,0
109845,-80,4,2,1,80,0,0
110911,-80,4,2,1,5,0,0
111045,-80,4,2,1,80,0,0
112378,-80,4,2,1,5,0,0
112445,-200,4,2,1,80,0,0
112511,-200,4,2,1,5,0,0
112645,-50,4,2,1,80,0,0
112845,-50,4,2,1,5,0,0
113045,-80,4,2,1,80,0,0
114111,-80,4,2,1,5,0,0
114245,-80,4,2,1,80,0,0
115578,-80,4,2,1,5,0,0
115645,-80,4,2,1,80,0,0
115778,-80,4,2,1,5,0,0
115845,-50,4,2,1,80,0,0
116045,-50,4,2,1,5,0,0
116245,-80,4,2,1,80,0,0
117311,-80,4,2,1,5,0,0
117445,-80,4,2,1,80,0,0
118645,-66.6666666666667,4,2,1,80,0,0
118745,-66.6666666666667,4,2,1,5,0,0
118845,-57.1428571428571,4,2,1,80,0,0
118945,-57.1428571428571,4,2,1,5,0,0
119045,-50,4,2,1,90,0,0
119245,-50,4,2,1,5,0,0
119445,-80,4,2,1,90,0,0
120245,-66.6666666666667,4,2,1,90,0,0
120645,-80,4,2,1,90,0,0
122111,-80,4,2,1,5,0,0
122245,-50,4,2,1,90,0,0
122445,-50,4,2,1,5,0,0
122645,-80,4,2,1,90,0,0
123711,-80,4,2,1,5,0,0
123845,-80,4,2,1,90,0,0
125178,-80,4,2,1,5,0,0
125245,-200,4,2,1,90,0,0
125311,-200,4,2,1,5,0,0
125445,-50,4,2,1,90,0,0
125645,-50,4,2,1,5,0,0
125845,-80,4,2,1,90,0,0
126911,-80,4,2,1,5,0,0
127045,-80,4,2,1,90,0,0
128378,-80,4,2,1,5,0,0
128445,-80,4,2,1,90,0,0
128578,-80,4,2,1,5,0,0
128645,-50,4,2,1,90,0,0
128845,-50,4,2,1,5,0,0
129045,-80,4,2,1,90,0,0
130111,-80,4,2,1,5,0,0
130245,-80,4,2,1,90,0,0
130645,-133.333333333333,4,2,1,80,0,0
130711,-133.333333333333,4,2,1,5,0,0
130945,-133.333333333333,4,2,1,80,0,0
131011,-133.333333333333,4,2,1,5,0,0
131145,-133.333333333333,4,2,1,80,0,0
131211,-133.333333333333,4,2,1,5,0,0
131445,-133.333333333333,4,2,1,80,0,0
131511,-133.333333333333,4,2,1,5,0,0
131645,-200,4,2,1,80,0,0
131711,-200,4,2,1,5,0,0
131845,-66.6666666666667,4,2,1,60,0,0
132245,-100,4,2,1,60,0,0
138245,-100,4,2,1,70,0,0
140711,-100,4,2,1,5,0,0
140778,-100,4,2,1,70,0,0
141445,-83.3333333333333,4,2,1,70,0,0
141578,-83.3333333333333,4,2,1,5,0,0
141645,-71.4285714285714,4,2,1,70,0,0
141778,-71.4285714285714,4,2,1,5,0,0
141845,-62.5,4,2,1,70,0,0
141978,-62.5,4,2,1,5,0,0
142045,-55.5555555555556,4,2,1,70,0,0
142178,-55.5555555555556,4,2,1,5,0,0
142245,-50,4,2,1,70,0,0
142311,-50,4,2,1,5,0,0
142378,-50,4,2,1,70,0,0
142511,-50,4,2,1,5,0,0
142578,-50,4,2,1,70,0,0
142711,-50,4,2,1,5,0,0
142778,-50,4,2,1,70,0,0
142911,-50,4,2,1,5,0,0
142978,-50,4,2,1,70,0,0
143045,-133.333333333333,4,2,1,70,0,0
144445,-200,4,2,1,70,0,0
144511,-200,4,2,1,5,0,0
144645,-100,4,2,1,80,0,0
145045,-100,4,2,1,80,0,1
145111,-100,4,2,1,5,0,1
145178,-100,4,2,1,80,0,1
145245,-50,4,2,1,80,0,1
145378,-50,4,2,1,5,0,1
145445,-100,4,2,1,80,0,1
145578,-100,4,2,1,5,0,1
145645,-50,4,2,1,80,0,1
145778,-50,4,2,1,5,0,1
145845,-100,4,2,1,80,0,1
145978,-100,4,2,1,5,0,1
146045,-50,4,2,1,80,0,1
146178,-50,4,2,1,5,0,1
146245,-100,4,2,1,80,0,1
146378,-100,4,2,1,5,0,1
146445,-50,4,2,1,100,0,1
146578,-50,4,2,1,5,0,1
146645,-100,4,2,1,80,0,1
146778,-100,4,2,1,5,0,1
146845,-50,4,2,1,80,0,1
146978,-50,4,2,1,5,0,1
147045,-100,4,2,1,80,0,1
147245,-50,4,2,1,80,0,1
147378,-50,4,2,1,5,0,1
147445,-100,4,2,1,80,0,1
147578,-100,4,2,1,5,0,1
147645,-66.6666666666667,4,2,1,80,0,1
147778,-66.6666666666667,4,2,1,5,0,1
147845,-50,4,2,1,80,0,1
147978,-50,4,2,1,5,0,1
148045,-50,4,2,1,80,0,1
148178,-50,4,2,1,5,0,1
148245,-100,4,2,1,80,0,1
148445,-50,4,2,1,80,0,1
148578,-50,4,2,1,5,0,1
148645,-100,4,2,1,80,0,1
148778,-100,4,2,1,5,0,1
148845,-50,4,2,1,80,0,1
148978,-50,4,2,1,5,0,1
149045,-100,4,2,1,80,0,1
149178,-100,4,2,1,5,0,1
149245,-50,4,2,1,80,0,1
149378,-50,4,2,1,5,0,1
149445,-100,4,2,1,80,0,1
149511,-100,4,2,1,5,0,1
149578,-100,4,2,1,80,0,1
149645,-50,4,2,1,80,0,1
149778,-50,4,2,1,5,0,1
149845,-100,4,2,1,80,0,1
149978,-100,4,2,1,5,0,1
150045,-50,4,2,1,80,0,1
150178,-50,4,2,1,5,0,1
150245,-50,4,2,1,80,0,1
150645,-100,4,2,1,80,0,1
150778,-100,4,2,1,5,0,1
150845,-66.6666666666667,4,2,1,80,0,1
150978,-66.6666666666667,4,2,1,5,0,1
151045,-100,4,2,1,80,0,0
151445,-66.6666666666667,4,2,1,80,0,1
151511,-66.6666666666667,4,2,1,5,0,1
151578,-66.6666666666667,4,2,1,80,0,1
151645,-33.3333333333333,4,2,1,80,0,1
151778,-33.3333333333333,4,2,1,5,0,1
151845,-66.6666666666667,4,2,1,80,0,1
151978,-66.6666666666667,4,2,1,5,0,1
152045,-33.3333333333333,4,2,1,80,0,1
152178,-33.3333333333333,4,2,1,5,0,1
152245,-66.6666666666667,4,2,1,80,0,1
152378,-66.6666666666667,4,2,1,5,0,1
152445,-33.3333333333333,4,2,1,80,0,1
152578,-33.3333333333333,4,2,1,5,0,1
152645,-66.6666666666667,4,2,1,80,0,1
152778,-66.6666666666667,4,2,1,5,0,1
152845,-33.3333333333333,4,2,1,80,0,1
152978,-33.3333333333333,4,2,1,5,0,1
153045,-66.6666666666667,4,2,1,80,0,1
153178,-66.6666666666667,4,2,1,5,0,1
153245,-33.3333333333333,4,2,1,80,0,1
153378,-33.3333333333333,4,2,1,5,0,1
153445,-66.6666666666667,4,2,1,80,0,1
153511,-66.6666666666667,4,2,1,5,0,1
153578,-66.6666666666667,4,2,1,80,0,1
153645,-33.3333333333333,4,2,1,80,0,1
153778,-33.3333333333333,4,2,1,5,0,1
153845,-66.6666666666667,4,2,1,80,0,1
153978,-66.6666666666667,4,2,1,5,0,1
154045,-50,4,2,1,80,0,1
154178,-50,4,2,1,5,0,1
154245,-33.3333333333333,4,2,1,80,0,1
154378,-33.3333333333333,4,2,1,5,0,1
154445,-33.3333333333333,4,2,1,80,0,1
154578,-33.3333333333333,4,2,1,5,0,1
154645,-66.6666666666667,4,2,1,80,0,1
154845,-33.3333333333333,4,2,1,80,0,1
154978,-33.3333333333333,4,2,1,5,0,1
155045,-66.6666666666667,4,2,1,80,0,1
155178,-66.6666666666667,4,2,1,5,0,1
155245,-33.3333333333333,4,2,1,80,0,1
155378,-33.3333333333333,4,2,1,5,0,1
155445,-66.6666666666667,4,2,1,80,0,1
155578,-66.6666666666667,4,2,1,5,0,1
155645,-33.3333333333333,4,2,1,80,0,1
155778,-33.3333333333333,4,2,1,5,0,1
155845,-66.6666666666667,4,2,1,80,0,1
155911,-66.6666666666667,4,2,1,5,0,1
155978,-66.6666666666667,4,2,1,80,0,1
156045,-33.3333333333333,4,2,1,80,0,1
156178,-33.3333333333333,4,2,1,5,0,1
156245,-66.6666666666667,4,2,1,80,0,1
156378,-66.6666666666667,4,2,1,5,0,1
156445,-33.3333333333333,4,2,1,80,0,1
156578,-33.3333333333333,4,2,1,5,0,1
156645,-33.3333333333333,4,2,1,80,0,1
157045,-66.6666666666667,4,2,1,80,0,1
157178,-66.6666666666667,4,2,1,5,0,1
157245,-50,4,2,1,80,0,1
157378,-50,4,2,1,5,0,1
157445,-100,4,2,1,80,0,0
157845,-50,4,2,1,90,0,1
157911,-50,4,2,1,5,0,1
157978,-50,4,2,1,90,0,1
158111,-50,4,2,1,5,0,1
158178,-50,4,2,1,90,0,1
159111,-50,4,2,1,5,0,1
159178,-50,4,2,1,90,0,1
159311,-50,4,2,1,5,0,1
159378,-50,4,2,1,90,0,1
159511,-50,4,2,1,5,0,1
159578,-50,4,2,1,90,0,1
160511,-50,4,2,1,5,0,1
160578,-50,4,2,1,90,0,1
161111,-50,4,2,1,5,0,1
161178,-50,4,2,1,90,0,1
161311,-50,4,2,1,5,0,1
161378,-50,4,2,1,90,0,1
162311,-50,4,2,1,5,0,1
162378,-50,4,2,1,90,0,1
162511,-50,4,2,1,5,0,1
162578,-50,4,2,1,90,0,1
162711,-50,4,2,1,5,0,1
162778,-50,4,2,1,90,0,1
163845,-50,4,2,1,90,0,0
164245,-50,4,2,1,90,0,1
164311,-50,4,2,1,5,0,1
164378,-50,4,2,1,90,0,1
164511,-50,4,2,1,5,0,1
164578,-50,4,2,1,90,0,1
165511,-50,4,2,1,5,0,1
165578,-50,4,2,1,90,0,1
165711,-50,4,2,1,5,0,1
165778,-50,4,2,1,90,0,1
165911,-50,4,2,1,5,0,1
165978,-50,4,2,1,90,0,1
166911,-50,4,2,1,5,0,1
166978,-50,4,2,1,90,0,1
167511,-50,4,2,1,5,0,1
167578,-50,4,2,1,90,0,1
167711,-50,4,2,1,5,0,1
167778,-50,4,2,1,90,0,1
168645,-133.333333333333,4,2,1,80,0,0
168978,-133.333333333333,4,2,1,5,0,0
169045,-133.333333333333,4,2,1,80,0,0
169378,-133.333333333333,4,2,1,5,0,0
169445,-133.333333333333,4,2,1,80,0,0
170245,-50,4,2,1,100,0,1
170445,-50,4,2,1,5,0,1
170645,-100,4,2,1,100,0,0
171845,-50,4,2,1,100,0,1
172045,-50,4,2,1,5,0,1
172245,-66.6666666666667,4,2,1,100,0,1
172311,-66.6666666666667,4,2,1,5,0,1
172378,-66.6666666666667,4,2,1,100,0,1
173311,-66.6666666666667,4,2,1,5,0,1
173378,-66.6666666666667,4,2,1,100,0,1
173911,-66.6666666666667,4,2,1,5,0,1
173978,-66.6666666666667,4,2,1,100,0,1
174111,-66.6666666666667,4,2,1,5,0,1
174178,-66.6666666666667,4,2,1,100,0,1
175111,-66.6666666666667,4,2,1,5,0,1
175178,-66.6666666666667,4,2,1,100,0,1
175311,-66.6666666666667,4,2,1,5,0,1
175378,-66.6666666666667,4,2,1,100,0,1
175511,-66.6666666666667,4,2,1,5,0,1
175578,-66.6666666666667,4,2,1,100,0,1
176245,-133.333333333333,4,2,1,100,0,0
176645,-50,4,2,1,100,0,0
176845,-50,4,2,1,5,0,0
177045,-66.6666666666667,4,2,1,100,0,1
177111,-66.6666666666667,4,2,1,5,0,1
177178,-66.6666666666667,4,2,1,100,0,1
177911,-66.6666666666667,4,2,1,5,0,1
177978,-66.6666666666667,4,2,1,100,0,1
178511,-66.6666666666667,4,2,1,5,0,1
178578,-66.6666666666667,4,2,1,100,0,1
178711,-66.6666666666667,4,2,1,5,0,1
178778,-66.6666666666667,4,2,1,100,0,1
179711,-66.6666666666667,4,2,1,5,0,1
179778,-66.6666666666667,4,2,1,100,0,1
180311,-66.6666666666667,4,2,1,5,0,1
180378,-66.6666666666667,4,2,1,100,0,1
180711,-66.6666666666667,4,2,1,5,0,1
180778,-66.6666666666667,4,2,1,100,0,1
180911,-66.6666666666667,4,2,1,5,0,1
180978,-66.6666666666667,4,2,1,100,0,1
181445,-133.333333333333,4,2,1,80,0,0
181778,-133.333333333333,4,2,1,5,0,0
181845,-133.333333333333,4,2,1,80,0,0
182178,-133.333333333333,4,2,1,5,0,0
182245,-133.333333333333,4,2,1,80,0,0
182845,-133.333333333333,4,2,1,5,0,0
183045,-100,4,2,1,80,0,0
184378,-100,4,2,1,5,0,0
184445,-200,4,2,1,80,0,0
184511,-200,4,2,1,5,0,0
184645,-50,4,2,1,100,0,0
184845,-50,4,2,1,5,0,0
185045,-66.6666666666667,4,2,1,100,0,1
185111,-66.6666666666667,4,2,1,5,0,1
185178,-66.6666666666667,4,2,1,100,0,1
186111,-66.6666666666667,4,2,1,5,0,1
186178,-66.6666666666667,4,2,1,100,0,1
186711,-66.6666666666667,4,2,1,5,0,1
186778,-66.6666666666667,4,2,1,100,0,1
186911,-66.6666666666667,4,2,1,5,0,1
186978,-66.6666666666667,4,2,1,100,0,1
187911,-66.6666666666667,4,2,1,5,0,1
187978,-66.6666666666667,4,2,1,100,0,1
188111,-66.6666666666667,4,2,1,5,0,1
188178,-66.6666666666667,4,2,1,100,0,1
188311,-66.6666666666667,4,2,1,5,0,1
188378,-66.6666666666667,4,2,1,100,0,1
189445,-133.333333333333,4,2,1,100,0,0
189845,-50,4,2,1,100,0,1
190045,-50,4,2,1,5,0,1
190245,-66.6666666666667,4,2,1,100,0,1
190711,-66.6666666666667,4,2,1,5,0,1
190778,-66.6666666666667,4,2,1,100,0,1
191311,-66.6666666666667,4,2,1,5,0,1
191378,-66.6666666666667,4,2,1,100,0,1
191511,-66.6666666666667,4,2,1,5,0,1
191578,-66.6666666666667,4,2,1,100,0,1
192511,-66.6666666666667,4,2,1,5,0,1
192578,-66.6666666666667,4,2,1,100,0,1
193111,-66.6666666666667,4,2,1,5,0,1
193178,-66.6666666666667,4,2,1,100,0,1
193311,-66.6666666666667,4,2,1,5,0,1
193378,-66.6666666666667,4,2,1,100,0,1
194245,-133.333333333333,4,2,1,100,0,0
194278,-133.333333333333,4,2,1,5,0,0
194311,-133.333333333333,4,2,1,100,0,0
194345,-133.333333333333,4,2,1,5,0,0
194378,-133.333333333333,4,2,1,100,0,0
194411,-133.333333333333,4,2,1,5,0,0
194445,-133.333333333333,4,2,1,100,0,0
194478,-133.333333333333,4,2,1,5,0,0
194511,-133.333333333333,4,2,1,100,0,0
194545,-133.333333333333,4,2,1,5,0,0
194578,-133.333333333333,4,2,1,100,0,0
194611,-133.333333333333,4,2,1,5,0,0
194645,-28.5714285714286,4,2,1,100,0,0
194845,-28.5714285714286,4,2,1,5,0,0
195045,-33.3333333333333,4,2,1,100,0,0
195245,-33.3333333333333,4,2,1,5,0,0
195445,-40,4,2,1,100,0,0
195645,-40,4,2,1,5,0,0
195845,-50,4,2,1,100,0,0
196045,-50,4,2,1,5,0,0
196245,-50,4,2,1,100,0,0

[Colours]
Combo1 : 111,100,240
Combo2 : 201,62,236
Combo3 : 248,92,209
Combo4 : 168,132,208
Combo5 : 239,58,108
Combo6 : 172,188,253

[HitObjects]
94,70,16445,6,0,L|99:90,1,20.8333333333333
60,155,16645,6,0,B|108:169|131:213|131:213|130:167|163:127,1,187.500007152558,6|0,1:2|0:0,0:0:0:0:
313,77,16978,5,0,3:0:0:0:
303,84,17045,2,0,B|245:106|245:106|204:57,1,125,2|0,3:2|0:0,0:0:0:0:
384,39,17445,2,0,P|394:76|372:134,1,83.3333333333333,2|0,3:2|0:0,0:0:0:0:
378,130,17645,2,0,P|368:167|390:225,1,83.3333333333333,2|0,3:2|0:0,0:0:0:0:
387,218,17845,1,2,3:2:0:0:
313,343,18045,6,0,B|250:351|256:302|196:308,2,125,2|0|0,3:2|0:0|0:0,0:0:0:0:
313,343,18645,2,0,P|348:371|392:359,1,83.3333333333333,2|0,3:2|0:0,0:0:0:0:
395,361,18845,2,0,P|425:387|465:383,1,83.3333333333333,2|0,3:2|0:0,0:0:0:0:
476,377,19045,1,2,3:2:0:0:
313,257,19245,2,0,L|299:138,1,83.3333333333333,2|0,3:2|0:0,0:0:0:0:
294,166,19445,2,0,L|303:83,1,83.3333333333333,2|0,3:2|0:0,0:0:0:0:
313,75,19645,1,2,3:2:0:0:
190,26,19845,6,0,P|134:39|145:95,1,125,2|0,3:2|0:0,0:0:0:0:
199,255,20178,1,0,3:0:0:0:
210,261,20245,2,0,B|229:224|229:224|204:193|209:145,1,125,2|0,3:2|0:0,0:0:0:0:
363,115,20645,2,0,P|378:173|369:202,1,83.3333333333333,2|0,3:2|0:0,0:0:0:0:
384,200,20845,2,0,P|442:183|471:192,1,83.3333333333333,2|0,3:2|0:0,0:0:0:0:
473,195,21045,1,2,3:2:0:0:
448,99,21245,2,0,L|467:62,1,41.6666666666667,2|0,3:2|0:0,0:0:0:0:
343,271,21445,5,2,3:2:0:0:
384,200,21578,1,0,3:0:0:0:
373,194,21645,2,0,P|310:196|249:207,1,125,2|0,3:2|0:0,0:0:0:0:
127,280,21978,1,0,3:0:0:0:
137,273,22045,2,0,P|165:217|187:158,1,125,2|0,3:2|0:0,0:0:0:0:
186,17,22378,1,0,3:0:0:0:
187,29,22445,2,0,P|220:81|260:129,2,125,2|0|2,3:2|0:0|3:2,0:0:0:0:
3,128,23045,6,0,P|51:164|109:150,1,125,6|0,1:2|0:0,0:0:0:0:
271,243,23378,1,2,0:0:0:0:
266,231,23445,2,0,P|217:194|159:208,1,125,2|0,1:2|0:0,0:0:0:0:
36,266,23778,1,0,3:0:0:0:
32,278,23845,2,0,L|49:373,1,83.3333333333333,2|0,1:2|0:0,0:0:0:0:
57,366,24045,2,0,L|139:351,1,83.3333333333333,0|0,3:0|0:0,0:0:0:0:
146,341,24245,1,2,1:2:0:0:
147,228,24445,2,0,L|122:261,1,41.6666666666667,2|0,0:0|0:0,0:0:0:0:
244,356,24645,6,0,B|255:289|220:303|232:233,1,125,2|0,1:2|0:0,0:0:0:0:
405,171,24978,1,0,3:0:0:0:
414,179,25045,2,0,P|436:251|422:315,1,125,0|0,1:0|0:0,0:0:0:0:
324,275,25378,1,0,3:0:0:0:
318,264,25445,2,0,L|328:205,1,41.6666666666667,0|0,1:0|0:0,0:0:0:0:
304,149,25578,1,0,3:0:0:0:
295,140,25645,2,0,P|257:133|215:176,1,83.3333333333333,0|0,3:0|0:0,0:0:0:0:
210,162,25845,2,0,P|169:155|137:179,1,83.3333333333333,0|0,1:0|0:0,0:0:0:0:
132,191,26045,1,0,0:0:0:0:
48,320,26245,6,0,L|145:340,1,99.9999969482423,2|0,1:2|0:0,0:0:0:0:
229,319,26445,6,0,L|114:295,1,116.666663106283,2|0,1:2|0:0,0:0:0:0:
7,241,26645,6,0,L|137:267,1,133.333333333333,2|0,1:2|0:0,0:0:0:0:
278,221,26845,6,0,L|131:190,1,149.999995422363,2|0,1:2|0:0,0:0:0:0:
81,133,27045,6,0,P|78:90|96:51,1,83.3333333333333,0|0,1:0|0:0,0:0:0:0:
292,88,27178,1,2,1:2:0:0:
292,88,27245,6,0,P|319:121|327:163,1,83.3333333333333,2|0,1:2|0:0,0:0:0:0:
148,247,27378,1,2,1:2:0:0:
148,247,27445,6,0,P|106:236|74:207,1,83.3333333333333,2|0,1:2|0:0,0:0:0:0:
171,34,27578,1,2,1:2:0:0:
171,34,27645,6,0,P|210:18|253:23,1,83.3333333333333,2|0,1:2|0:0,0:0:0:0:
278,221,27778,1,2,1:2:0:0:
278,221,27845,5,6,1:2:0:0:
256,192,28245,12,0,29045,0:0:0:0:
219,275,29245,6,0,L|214:255,1,20.8333333333333,2|0,0:3|0:0,0:0:0:0:
135,226,29445,6,2,B|95:243|62:224|70:170|131:136|136:217|194:237|255:191,1,250,6|0,1:0|0:0,1:0:0:0:
447,294,29845,6,0,P|369:272|360:340,1,156.25,10|0,0:0|0:0,0:0:0:0:
354,328,30145,2,0,P|317:228|213:254,1,234.375,2|0,1:2|1:0,0:0:0:0:
144,352,30578,1,0,3:0:0:0:
128,354,30645,2,0,L|-14:321,1,104.166666666667,10|0,3:2|0:0,0:0:0:0:
17,317,30845,2,0,L|76:307,1,52.0833333333333,2|0,0:1|0:0,0:0:0:0:
223,267,31045,5,0,1:0:0:0:
108,208,31245,2,0,P|89:161|89:109,1,104.166666666667,2|0,0:0|0:0,0:0:0:0:
100,97,31445,1,8,0:0:0:0:
313,102,31578,2,0,L|370:117,1,52.0833333333333,2|0,0:0|0:0,0:0:0:0:
364,116,31745,6,0,B|291:96|268:172|191:151,1,182.291666666667,2|0,1:2|0:0,0:0:0:0:
178,140,32045,1,0,1:0:0:0:
293,223,32178,1,0,3:0:0:0:
299,237,32245,2,0,B|314:285|314:285|280:326,1,104.166666666667,10|0,3:2|0:0,0:0:0:0:
342,373,32445,2,0,B|376:335|376:335|428:344,1,104.166666666667,2|0,0:0|0:0,0:0:0:0:
496,298,32645,6,2,B|457:242|466:185|466:185|418:141|343:163,1,250,2|0,1:0|0:0,1:0:0:0:
223,267,33045,6,0,B|187:289|153:267|153:267|126:228|82:234,1,156.25,10|0,0:0|0:0,0:0:0:0:
83,233,33345,2,0,P|172:237|254:114,1,234.375,2|0,1:2|1:0,0:0:0:0:
415,11,33778,1,0,3:0:0:0:
425,22,33845,2,0,L|400:144,1,104.166666666667,10|0,3:2|0:0,0:0:0:0:
412,137,34045,2,0,P|429:155|455:158,1,52.0833333333333,2|0,0:1|0:0,0:0:0:0:
321,56,34245,5,0,1:0:0:0:
248,211,34445,2,0,P|238:260|264:304,1,104.166666666667,2|0,0:0|0:0,0:0:0:0:
279,310,34645,1,10,0:0:0:0:
253,130,34778,2,0,L|240:79,1,52.0833333333333,2|0,0:0|0:0,0:0:0:0:
240,79,34945,6,0,L|123:222,1,182.291666666667,2|0,1:2|0:0,0:0:0:0:
114,232,35245,1,0,1:0:0:0:
59,56,35378,1,0,3:0:0:0:
66,42,35445,2,2,L|88:143,1,104.166666666667,10|10,3:2|0:1,1:0:0:0:
114,232,35645,6,0,L|118:252,1,20.8333333333333,2|0,0:3|0:0,0:0:0:0:
28,346,35845,6,2,B|51:290|119:272|119:272|182:307|179:377,1,250,6|0,1:0|0:0,1:0:0:0:
279,310,36245,6,0,B|345:347|345:347|388:278,1,156.25,10|0,0:0|0:0,0:0:0:0:
387,278,36545,2,0,B|427:212|427:212|426:301|458:364,1,234.375,2|0,1:2|1:0,0:0:0:0:
316,237,36978,1,0,3:0:0:0:
328,228,37045,2,0,P|345:170|340:119,1,104.166666666667,10|0,3:2|0:0,0:0:0:0:
334,113,37245,2,0,L|282:122,1,52.0833333333333,2|0,0:1|0:0,0:0:0:0:
41,150,37445,5,0,1:0:0:0:
223,168,37645,2,0,L|105:137,1,104.166666666667,2|0,0:0|0:0,0:0:0:0:
112,129,37845,1,10,0:0:0:0:
273,71,37978,2,0,L|282:122,1,52.0833333333333,2|0,0:0|0:0,0:0:0:0:
282,122,38145,6,0,P|332:131|408:32,1,182.291666666667,2|0,1:2|0:0,0:0:0:0:
399,26,38445,1,0,1:0:0:0:
466,136,38578,1,0,3:0:0:0:
475,148,38645,2,0,P|482:185|441:238,1,104.166666666667,10|0,3:2|0:0,0:0:0:0:
385,281,38845,2,0,P|351:318|356:368,1,104.166666666667,2|0,0:1|0:0,0:0:0:0:
457,312,39045,6,2,B|368:187|368:187|385:282,1,250,2|0,1:0|0:0,1:0:0:0:
277,247,39445,6,0,B|220:325|220:325|231:265,1,156.25,10|0,0:0|0:0,0:0:0:0:
231,267,39745,2,0,P|140:226|140:325,1,234.375,2|0,1:2|1:0,0:0:0:0:
328,309,40178,1,0,3:0:0:0:
341,301,40245,2,0,B|360:253|360:253|348:199,1,104.166666666667,10|0,3:2|0:0,0:0:0:0:
337,190,40445,2,0,P|315:203|290:210,1,52.0833333333333,2|0,0:1|0:0,0:0:0:0:
102,164,40645,5,0,1:0:0:0:
215,42,40845,2,0,B|196:90|196:90|208:144,1,104.166666666667,2|0,0:0|0:0,0:0:0:0:
220,149,41045,1,10,0:0:0:0:
140,327,41178,2,0,P|114:320|93:306,1,52.0833333333333,2|0,0:0|0:0,0:0:0:0:
93,306,41345,6,0,P|149:371|235:355,1,182.291666666667,2|0,1:2|0:0,0:0:0:0:
324,363,41645,6,0,P|336:355|313:357,1,78.125,2|0,1:2|0:0,0:0:0:0:
230,244,41845,6,0,P|219:211|215:245,1,93.7500035762788,2|0,1:0|0:0,0:0:0:0:
101,103,42045,6,0,P|70:76|86:112,1,109.375001043081,2|0,1:0|0:0,0:0:0:0:
407,169,42245,6,2,B|354:186|325:259|325:259|331:183|291:143,1,250,6|0,1:0|0:0,1:0:0:0:
137,173,42645,6,0,B|113:196|116:244|116:244|98:198|65:188,1,156.25,10|0,0:0|0:0,0:0:0:0:
63,187,42945,2,0,P|25:291|105:368,1,234.375,2|0,1:2|1:0,0:0:0:0:
326,258,43445,1,10,3:2:0:0:
331,233,43545,1,0,3:0:0:0:
337,210,43645,1,0,3:0:0:0:
343,187,43745,6,0,L|326:108,1,78.125,0|0,3:2|1:0,0:0:0:0:
184,50,44045,2,0,L|207:167,1,104.166666666667,2|0,0:0|0:0,0:0:0:0:
208,167,44245,1,10,0:0:0:0:
226,247,44378,2,0,L|236:298,1,52.0833333333333,2|0,0:0|0:0,0:0:0:0:
236,298,44545,6,0,P|174:279|96:363,1,182.291666666667,2|0,1:2|0:0,0:0:0:0:
104,367,44845,1,0,1:0:0:0:
297,348,44978,1,0,3:0:0:0:
309,338,45045,2,0,P|322:289|299:244,1,104.166666666667,10|0,3:2|0:0,0:0:0:0:
377,222,45245,2,0,P|390:173|367:128,1,104.166666666667,2|0,0:1|0:0,0:0:0:0:
316,72,45445,6,2,B|314:198|406:179|404:300,1,250,2|0,1:0|0:0,1:0:0:0:
185,367,45845,6,0,P|107:367|41:328,1,156.25,10|0,0:0|0:0,0:0:0:0:
41,328,46145,2,0,P|153:333|223:241,1,234.375,2|0,1:2|1:0,0:0:0:0:
174,70,46645,1,10,3:2:0:0:
155,84,46745,1,0,3:0:0:0:
147,106,46845,1,0,3:0:0:0:
152,128,46945,6,0,P|180:148|239:139,1,78.125,2|0,3:2|1:0,0:0:0:0:
405,47,47245,2,0,P|355:40|315:71,1,104.166666666667,2|0,0:0|0:0,0:0:0:0:
313,87,47445,1,10,0:0:0:0:
308,172,47578,2,0,L|318:222,1,52.0833333333333,2|0,0:0|0:0,0:0:0:0:
318,222,47745,6,0,B|240:212|233:278|145:267,1,182.291666666667,2|0,1:2|0:0,0:0:0:0:
131,262,48045,1,0,1:0:0:0:
45,165,48178,1,0,3:0:0:0:
36,151,48245,2,0,B|9:107|9:107|47:71,1,104.166666666667,10|0,3:2|0:0,0:0:0:0:
111,116,48445,6,0,L|117:139,1,20.8333333333333,2|0,0:3|0:0,0:0:0:0:
234,214,48645,6,2,B|277:235|277:235|293:86|293:86|243:103,1,250,6|0,1:0|0:0,1:0:0:0:
231,306,49045,6,0,P|305:318|358:265,1,156.25,10|0,0:0|0:0,0:0:0:0:
358,264,49345,2,0,B|472:284|472:284|388:367,1,234.375,2|0,1:2|1:0,0:0:0:0:
227,172,49845,1,10,3:2:0:0:
232,149,49945,1,0,3:0:0:0:
237,126,50045,1,0,3:0:0:0:
243,103,50145,6,0,L|264:178,1,78.125,2|0,3:2|1:0,0:0:0:0:
158,334,50445,2,0,L|128:234,1,104.166666666667,2|0,0:0|0:0,0:0:0:0:
123,219,50645,1,10,0:0:0:0:
216,243,50778,2,0,L|266:255,1,52.0833333333333,2|0,0:0|0:0,0:0:0:0:
266,255,50945,6,0,P|292:181|279:74,1,182.291666666667,2|0,1:2|0:0,0:0:0:0:
273,66,51245,1,0,1:0:0:0:
439,17,51378,1,0,3:0:0:0:
454,13,51445,2,0,L|445:120,1,104.166666666667,10|0,3:2|0:0,0:0:0:0:
408,245,51645,2,0,L|416:141,1,104.166666666667,2|0,0:1|0:0,0:0:0:0:
381,74,51845,6,2,L|454:312,1,250,2|0,1:0|0:0,1:0:0:0:
261,334,52245,6,0,L|275:178,1,156.25,10|0,0:0|0:0,0:0:0:0:
275,178,52545,2,0,L|117:356,1,234.375,2|0,1:2|1:0,0:0:0:0:
40,179,53045,1,10,3:2:0:0:
62,172,53145,1,0,3:0:0:0:
84,165,53245,1,0,3:0:0:0:
106,158,53345,2,0,L|191:168,1,78.125,2|0,3:2|1:0,0:0:0:0:
256,192,53545,12,0,54645,0:0:0:0:
256,192,54845,6,0,L|256:212,1,20.8333333333333,2|0,0:3|0:0,0:0:0:0:
256,320,55045,6,0,P|293:279|225:300,1,187.500007152558,4|0,1:2|0:0,0:0:0:0:
341,365,55378,1,0,3:0:0:0:
353,368,55445,6,0,B|423:377|405:330|470:338,1,125,2|0,3:2|0:0,0:0:0:0:
512,169,55845,2,0,P|476:190|435:198,1,83.3333333333333,2|0,3:2|0:0,0:0:0:0:
423,197,56045,2,0,P|382:189|346:167,1,83.3333333333333,2|0,3:2|0:0,0:0:0:0:
338,158,56245,1,2,3:2:0:0:
205,48,56445,6,0,L|81:68,2,125,2|0|0,3:2|3:2|3:2,0:0:0:0:
205,48,57045,2,0,B|228:82|228:82|211:120,1,83.3333333333333,2|0,3:2|0:0,0:0:0:0:
207,132,57245,2,0,B|190:170|190:170|213:204,1,83.3333333333333,2|0,3:2|0:0,0:0:0:0:
220,214,57445,1,2,3:2:0:0:
151,350,57645,2,0,L|49:337,1,83.3333333333333,2|0,3:2|0:0,0:0:0:0:
59,330,57845,2,0,L|141:319,1,83.3333333333333,2|0,3:2|0:0,0:0:0:0:
152,312,58045,1,2,3:2:0:0:
284,340,58245,6,0,P|324:294|310:235,1,125,2|0,3:2|0:0,0:0:0:0:
227,92,58578,1,0,3:0:0:0:
215,87,58645,2,0,B|174:131|174:131|215:182,1,125,2|0,3:2|0:0,0:0:0:0:
416,255,59045,2,0,L|498:244,1,83.3333333333333,2|0,3:2|0:0,0:0:0:0:
511,242,59245,2,0,L|500:160,1,83.3333333333333,2|0,3:2|0:0,0:0:0:0:
498,146,59445,1,2,3:2:0:0:
396,153,59645,2,0,L|429:178,1,41.6666666666667,2|0,3:2|0:0,0:0:0:0:
294,75,59845,5,2,3:2:0:0:
289,224,59978,1,0,3:0:0:0:
285,235,60045,2,0,P|243:279|182:277,1,125,2|0,3:2|0:0,0:0:0:0:
112,139,60378,1,0,3:0:0:0:
124,136,60445,2,0,P|183:149|211:203,1,125,2|0,3:2|0:0,0:0:0:0:
128,334,60778,1,0,3:0:0:0:
119,325,60845,2,0,P|101:266|133:215,2,125,2|0|0,3:2|0:0|0:0,0:0:0:0:
385,334,61445,6,0,P|377:272|381:209,1,125,6|0,1:2|0:0,0:0:0:0:
210,202,61778,1,0,3:0:0:0:
217,211,61845,2,0,P|224:272|220:335,1,125,2|0,1:2|0:0,0:0:0:0:
63,241,62178,1,0,3:0:0:0:
52,233,62245,2,0,P|33:203|41:157,1,83.3333333333333,2|0,1:2|0:0,0:0:0:0:
48,147,62445,2,0,P|78:128|124:136,1,83.3333333333333,2|0,3:2|0:0,0:0:0:0:
133,142,62645,1,2,1:2:0:0:
119,292,62845,2,0,P|107:308|88:316,1,41.6666666666667,2|0,3:2|0:0,0:0:0:0:
192,336,63045,6,0,P|235:378|294:369,1,125,2|0,1:2|0:0,0:0:0:0:
420,207,63378,1,0,3:0:0:0:
408,201,63445,2,0,B|353:193|359:236|289:224,1,125,2|0,1:2|0:0,0:0:0:0:
133,142,63778,1,0,3:0:0:0:
123,135,63845,2,0,L|129:86,1,41.6666666666667,2|0,1:2|0:0,0:0:0:0:
185,43,63978,1,0,3:2:0:0:
194,34,64045,2,0,L|212:129,1,83.3333333333333,2|0,3:2|0:0,0:0:0:0:
221,120,64245,2,0,L|316:102,1,83.3333333333333,2|0,1:2|0:0,0:0:0:0:
313,97,64445,1,2,3:2:0:0:
455,167,64645,6,0,P|476:211|470:260,1,99.9999969482423,2|0,1:2|0:0,0:0:0:0:
417,355,64845,6,0,P|394:301|398:244,1,116.666663106283,2|0,1:2|0:0,0:0:0:0:
313,97,65045,6,0,P|335:150|327:225,1,133.333333333333,2|0,1:2|0:0,0:0:0:0:
262,348,65245,6,0,P|237:278|255:206,1,149.999995422363,2|0,1:2|0:0,0:0:0:0:
210,67,65445,6,0,P|223:106|213:145,1,83.3333333333333,2|0,1:2|0:0,0:0:0:0:
168,384,65578,1,2,1:2:0:0:
168,384,65645,6,0,P|154:344|164:305,1,83.3333333333333,2|0,1:2|0:0,0:0:0:0:
322,164,65778,1,2,1:2:0:0:
322,164,65845,6,0,P|294:194|255:206,1,83.3333333333333,2|0,1:2|0:0,0:0:0:0:
26,286,65978,1,2,1:2:0:0:
26,286,66045,6,0,P|53:255|92:243,1,83.3333333333333,2|0,1:2|0:0,0:0:0:0:
177,227,66178,1,2,1:2:0:0:
177,227,66245,5,2,1:3:0:0:
256,192,66645,12,2,67445,0:3:0:0:
201,199,67845,6,2,P|286:149|264:245,1,250,2|0,1:0|0:0,1:0:0:0:
51,384,68245,6,0,P|34:357|35:326,1,62.5000023841859,14|0,1:2|0:0,0:0:0:0:
183,275,68378,1,2,0:0:0:0:
199,283,68445,2,0,P|215:309|214:340,1,62.5000023841859,2|0,0:0|0:0,0:0:0:0:
95,255,68578,1,2,0:0:0:0:
83,239,68645,2,0,L|97:95,1,125.000004768372,0|0,1:0|0:0,0:0:0:0:
107,100,68845,5,2,0:0:0:0:
292,60,68978,1,2,0:0:0:0:
309,66,69045,2,0,B|343:116|343:116|283:154,1,125.000004768372,10|0,1:2|0:0,0:0:0:0:
197,103,69245,2,0,L|218:237,1,125.000004768372,2|0,0:0|0:0,0:0:0:0:
282,327,69445,6,0,P|312:330|338:314,1,62.5000023841859,2|0,1:2|0:0,0:0:0:0:
462,263,69578,1,2,0:0:0:0:
448,274,69645,2,0,P|417:277|391:261,1,62.5000023841859,2|0,0:0|0:0,0:0:0:0:
216,226,69778,1,2,0:0:0:0:
230,237,69845,2,0,P|260:240|286:224,1,62.5000023841859,10|0,1:2|0:0,0:0:0:0:
512,120,69978,1,2,0:0:0:0:
498,130,70045,6,0,P|436:128|385:92,1,125.000004768372,2|0,0:0|0:0,0:0:0:0:
385,74,70245,1,0,1:2:0:0:
197,103,70378,1,2,0:0:0:0:
186,118,70445,1,2,0:0:0:0:
182,136,70511,1,2,0:0:0:0:
190,152,70578,1,2,0:0:0:0:
205,163,70645,2,0,P|253:125|314:128,1,125.000004768372,10|0,1:2|0:0,0:0:0:0:
331,139,70845,2,0,L|317:206,1,62.5000023841859,2|0,0:0|0:0,0:0:0:0:
250,327,70978,1,2,0:0:0:0:
237,342,71045,6,0,B|178:361|178:361|112:315,1,125.000004768372,2|0,1:2|0:0,0:0:0:0:
124,306,71245,1,2,0:0:0:0:
318,200,71445,2,0,L|327:261,1,62.5000023841859,10|0,1:2|0:0,0:0:0:0:
407,380,71578,1,2,0:0:0:0:
398,363,71645,2,0,L|407:301,1,62.5000023841859,2|0,0:0|0:0,0:0:0:0:
497,162,71778,1,2,0:0:0:0:
481,150,71845,2,0,P|437:135|414:210,1,125.000004768372,2|0,1:2|0:0,0:0:0:0:
409,212,72045,5,2,0:0:0:0:
311,374,72178,1,2,0:0:0:0:
293,380,72245,2,0,L|159:352,1,125.000004768372,10|0,1:2|0:0,0:0:0:0:
85,297,72445,2,0,L|208:272,1,125.000004768372,2|0,0:0|0:0,0:0:0:0:
234,151,72645,6,0,P|238:120|227:91,1,62.5000023841859,2|0,1:2|0:0,0:0:0:0:
71,208,72778,1,2,0:0:0:0:
60,223,72845,2,0,P|55:253|66:282,1,62.5000023841859,2|0,0:0|0:0,0:0:0:0:
150,70,72978,1,2,0:0:0:0:
142,52,73045,2,0,P|118:32|87:28,1,62.5000023841859,10|0,1:2|0:0,0:0:0:0:
144,304,73178,1,2,0:0:0:0:
152,322,73245,6,0,P|206:349|261:324,1,125.000004768372,2|0,0:0|0:0,0:0:0:0:
270,308,73445,1,0,1:0:0:0:
327,112,73578,1,2,0:1:0:0:
312,100,73645,2,0,P|313:162|323:224,1,125.000004768372,2|0,0:1|0:0,0:0:0:0:
390,277,73845,6,0,B|429:251|429:251|406:210,1,93.7500035762788,2|2,3:0|3:2,0:0:0:0:
406,210,74245,6,2,B|438:206|475:169|475:169|433:242|442:330,1,250,2|0,1:0|0:0,1:0:0:0:
302,352,74645,6,0,P|273:340|242:337,1,62.5000023841859,14|0,1:2|0:0,0:0:0:0:
149,188,74778,1,2,0:0:0:0:
165,197,74845,2,0,P|196:194|224:182,1,62.5000023841859,2|0,0:0|0:0,0:0:0:0:
364,306,74978,1,2,0:0:0:0:
351,291,75045,2,0,P|293:267|231:262,1,125.000004768372,2|0,1:2|0:0,0:0:0:0:
214,269,75245,5,2,0:0:0:0:
62,322,75378,1,2,0:0:0:0:
45,312,75445,2,0,P|23:256|66:216,1,125.000004768372,10|0,1:2|0:0,0:0:0:0:
149,188,75645,2,0,P|192:147|170:92,1,125.000004768372,2|0,0:0|0:0,0:0:0:0:
106,41,75845,6,0,L|44:54,1,62.5000023841859,2|0,1:2|0:0,0:0:0:0:
149,188,75978,1,2,0:0:0:0:
165,197,76045,2,0,L|226:210,1,62.5000023841859,2|0,0:0|0:0,0:0:0:0:
377,27,76178,1,2,0:0:0:0:
359,21,76245,2,0,L|297:34,1,62.5000023841859,10|0,1:2|0:0,0:0:0:0:
362,262,76378,1,2,0:0:0:0:
378,271,76445,6,0,B|441:283|441:283|482:238,1,125.000004768372,2|0,0:0|0:0,0:0:0:0:
487,220,76645,1,0,1:0:0:0:
405,142,76778,1,2,0:0:0:0:
387,134,76845,1,2,0:0:0:0:
376,149,76911,1,2,0:0:0:0:
358,141,76978,1,2,0:0:0:0:
348,157,77045,2,0,B|286:144|291:191|228:178,1,125.000004768372,10|0,1:2|0:0,0:0:0:0:
215,165,77245,2,0,P|202:193|208:223,1,62.5000023841859,2|0,0:0|0:0,0:0:0:0:
285,384,77378,1,2,0:0:0:0:
301,374,77445,6,0,L|281:250,1,125.000004768372,2|0,1:2|0:0,0:0:0:0:
296,239,77645,1,2,0:0:0:0:
487,220,77845,2,0,P|492:250|480:278,1,62.5000023841859,10|0,1:2|0:0,0:0:0:0:
301,374,77978,1,2,0:0:0:0:
285,384,78045,2,0,L|196:368,1,62.5000023841859,2|0,0:0|0:0,0:0:0:0:
73,230,78178,1,2,0:0:0:0:
85,244,78245,2,0,L|208:222,1,125.000004768372,2|0,1:2|0:0,0:0:0:0:
216,205,78445,5,2,0:0:0:0:
309,0,78578,1,2,0:0:0:0:
320,12,78645,2,0,P|333:72|323:133,1,125.000004768372,10|0,1:2|0:0,0:0:0:0:
189,134,78845,2,0,P|178:72|192:12,1,125.000004768372,2|0,0:0|0:0,0:0:0:0:
323,134,79045,5,2,1:2:0:0:
371,197,79178,1,0,1:0:0:0:
324,259,79311,2,0,P|308:262|294:255,1,31.2500011920929,0|0,1:0|0:0,0:0:0:0:
189,134,79445,5,2,1:2:0:0:
101,196,79578,1,0,1:0:0:0:
187,259,79711,2,0,P|203:262|217:255,1,31.2500011920929,0|0,1:0|0:0,0:0:0:0:
256,160,79845,5,2,1:2:0:0:
248,176,79912,1,2,0:0:0:0:
256,208,79978,1,2,1:2:0:0:
248,224,80045,1,2,0:0:0:0:
256,256,80111,1,2,1:2:0:0:
248,272,80177,1,2,0:0:0:0:
255,303,80245,6,0,P|288:336|334:340,1,93.7500035762788,10|0,0:0|0:0,1:0:0:0:
376,192,80645,6,0,B|260:140|252:244|136:192,2,250,2|2|2,1:2|3:2|3:2,0:0:0:0:
256,192,81645,5,2,0:0:0:0:
256,116,81845,2,0,B|272:84|240:68|256:36,1,83.3333333333333,0|0,3:3|0:0,0:0:0:0:
256,20,82045,6,0,L|256:-4,1,20.8333333333333,2|0,0:3|0:0,0:0:0:0:
136,80,82245,6,0,B|252:28|260:132|376:80,1,250,2|0,1:0|0:0,0:0:0:0:
376,79,82645,6,0,P|357:118|361:157,1,62.5000023841859,14|0,1:2|0:0,0:0:0:0:
446,311,82778,1,2,0:0:0:0:
459,298,82845,6,0,P|470:256|394:208,1,125.000004768372,2|0,0:0|0:0,0:0:0:0:
397,210,83045,1,0,1:0:0:0:
292,315,83178,1,2,0:0:0:0:
274,322,83245,1,2,0:0:0:0:
255,322,83311,1,2,0:0:0:0:
237,314,83378,1,2,0:0:0:0:
224,300,83445,2,0,L|243:176,1,125.000004768372,10|0,1:2|0:0,0:0:0:0:
188,121,83645,2,0,P|157:119|130:135,1,62.5000023841859,2|0,0:0|0:0,0:0:0:0:
137,369,83778,1,2,0:0:0:0:
150,356,83845,6,0,P|141:323|126:224,1,125.000004768372,2|0,1:2|0:0,0:0:0:0:
140,221,84045,1,2,0:0:0:0:
257,87,84178,1,2,0:0:0:0:
265,104,84245,2,0,L|326:114,1,62.5000023841859,10|0,1:2|0:0,0:0:0:0:
384,294,84378,2,0,L|260:273,1,125.000004768372,2|0,0:0|0:0,0:0:0:0:
281,195,84578,1,2,0:0:0:0:
299,190,84645,6,0,L|422:210,1,125.000004768372,2|0,1:2|0:0,0:0:0:0:
439,203,84845,1,2,0:0:0:0:
223,36,85045,2,0,L|212:98,2,62.5000023841859,10|2|2,1:2|0:0|0:0,0:0:0:0:
147,38,85245,2,0,B|111:88|111:88|139:144,1,125.000004768372,2|0,0:0|0:0,0:0:0:0:
140,221,85445,6,0,P|112:234|81:231,1,62.5000023841859,2|0,1:2|0:0,0:0:0:0:
213,98,85578,1,2,0:0:0:0:
229,88,85645,2,0,P|259:85|287:98,1,62.5000023841859,2|0,0:0|0:0,0:0:0:0:
349,271,85778,1,2,0:0:0:0:
338,286,85845,2,0,P|310:299|279:296,1,62.5000023841859,10|0,1:2|0:0,0:0:0:0:
384,68,85978,1,2,0:0:0:0:
399,58,86045,6,0,P|460:62|508:100,1,125.000004768372,2|0,0:0|0:0,0:0:0:0:
510,118,86245,1,0,1:0:0:0:
439,324,86378,1,2,0:1:0:0:
429,307,86445,2,0,L|443:163,1,125.000004768372,2|0,0:1|0:0,0:0:0:0:
455,170,86645,1,2,0:0:0:0:
455,170,86845,1,2,0:0:0:0:
256,72,87045,5,0,1:0:0:0:
256,192,87178,5,0,1:0:0:0:
298,218,87245,1,0,1:0:0:0:
256,322,87345,5,0,1:0:0:0:
165,365,87445,2,2,B|195:309|195:309|316:289|316:289|360:334,1,250,14|0,1:2|0:0,1:0:0:0:
165,365,87845,6,0,L|41:345,1,125.000004768372,2|0,1:2|0:0,0:0:0:0:
30,330,88045,1,2,0:0:0:0:
111,128,88178,1,2,0:0:0:0:
121,144,88245,2,0,L|135:204,1,62.5000023841859,10|0,1:2|0:0,0:0:0:0:
160,347,88378,1,2,0:0:0:0:
165,365,88445,6,0,P|198:352|302:351,1,125.000004768372,2|0,0:0|0:0,0:0:0:0:
297,363,88645,1,0,1:0:0:0:
430,266,88778,1,2,0:0:0:0:
440,251,88845,2,0,P|449:221|448:189,1,62.5000023841859,2|0,0:0|0:0,0:0:0:0:
248,163,88978,1,2,0:0:0:0:
237,177,89045,2,0,P|228:206|229:238,1,62.5000023841859,10|0,1:2|0:0,0:0:0:0:
409,124,89178,1,2,0:0:0:0:
409,106,89245,6,0,B|361:66|361:66|300:85,1,125.000004768372,2|0,0:0|0:0,0:0:0:0:
288,98,89445,1,0,1:0:0:0:
135,204,89578,1,2,0:0:0:0:
118,212,89644,1,2,0:0:0:0:
99,216,89711,1,2,0:0:0:0:
80,218,89778,1,2,0:0:0:0:
61,214,89845,2,0,P|95:176|166:178,1,125.000004768372,10|0,1:2|0:0,0:0:0:0:
229,238,90045,2,0,L|217:304,1,62.5000023841859,2|0,0:0|0:0,0:0:0:0:
389,348,90178,1,2,0:0:0:0:
404,336,90245,6,0,L|374:200,1,125.000004768372,2|0,1:2|0:0,0:0:0:0:
390,200,90445,1,2,0:0:0:0:
291,22,90578,1,2,0:0:0:0:
283,38,90645,2,0,P|278:68|287:98,1,62.5000023841859,10|0,1:2|0:0,0:0:0:0:
454,131,90778,2,0,P|464:70|439:13,1,125.000004768372,2|0,0:0|0:0,0:0:0:0:
386,67,90978,1,2,0:0:0:0:
375,82,91045,6,0,P|364:142|389:199,1,125.000004768372,2|0,1:2|0:0,0:0:0:0:
405,208,91245,1,2,0:0:0:0:
295,314,91378,1,2,0:0:0:0:
306,299,91445,2,0,P|316:238|291:181,1,125.000004768372,10|0,1:2|0:0,0:0:0:0:
276,173,91645,1,2,0:0:0:0:
15,181,91845,6,0,L|-7:189,1,15.6250005960465,2|2,3:0|3:0,0:0:0:0:
62,230,91911,2,0,L|84:238,1,15.6250005960465,2|2,3:0|3:0,0:0:0:0:
25,269,91978,2,0,L|3:277,1,15.6250005960465,2|2,3:0|3:0,0:0:0:0:
53,310,92045,2,0,L|75:318,1,15.6250005960465,2|2,3:0|3:0,0:0:0:0:
36,330,92111,2,0,L|14:338,1,15.6250005960465,2|2,3:0|3:0,0:0:0:0:
47,339,92178,2,0,L|69:347,1,15.6250005960465,2|2,3:0|3:0,0:0:0:0:
44,344,92245,6,2,B|162:280|185:180|185:180|162:280|230:384,1,437.500004172325,6|0,1:0|0:0,1:0:0:0:
229,383,92645,6,2,B|288:284|263:200|263:200|288:284|382:331,1,375.000014305115,6|0,1:0|0:0,1:0:0:0:
383,332,93045,6,2,B|393:236|343:182|343:182|393:236|482:239,1,312.5,6|0,1:0|0:0,1:0:0:0:
479,238,93445,6,2,B|473:164|410:130|410:130|386:63|432:24,1,250,6|0,1:0|0:0,1:0:0:0:
431,24,93845,1,8,1:2:0:0:
256,192,103045,12,0,104445,0:0:0:0:
256,192,104645,5,0,1:0:0:0:
256,114,104845,2,0,L|256:88,1,26.0416666666667,2|0,0:0|0:0,0:0:0:0:
256,269,105245,2,0,L|256:296,1,26.0416666666667,2|0,0:0|0:0,0:0:0:0:
339,370,105445,5,2,0:0:0:0:
353,374,105511,1,2,0:0:0:0:
368,373,105578,1,2,0:0:0:0:
382,366,105645,1,2,0:0:0:0:
391,353,105711,1,2,0:0:0:0:
395,338,105778,1,2,0:0:0:0:
392,322,105845,1,2,0:0:0:0:
389,306,105911,1,2,0:0:0:0:
393,291,105978,1,2,0:0:0:0:
402,278,106044,1,2,0:0:0:0:
416,271,106111,1,2,0:0:0:0:
431,270,106178,1,2,0:0:0:0:
469,293,106245,6,2,B|485:245|460:205|410:197|410:197|291:234,1,250,6|0,1:0|0:0,1:0:0:0:
224,202,106645,6,0,L|218:243,1,41.6666666666667,2|0,0:0|0:0,0:0:0:0:
150,192,106845,2,0,L|144:233,1,41.6666666666667,2|0,0:0|0:0,0:0:0:0:
76,182,107045,2,0,L|70:223,1,41.6666666666667,2|0,0:0|0:0,0:0:0:0:
69,236,107345,2,0,L|64:277,1,41.6666666666667,2|0,0:0|0:0,0:0:0:0:
63,291,107645,6,0,B|53:353|53:353|105:392|186:378|220:327,1,250,2|0,0:0|0:0,0:0:0:0:
294,292,108245,6,0,L|306:348,1,41.6666666666667,2|0,0:0|0:0,0:0:0:0:
369,271,108545,2,0,L|381:327,1,41.6666666666667,2|0,0:0|0:0,0:0:0:0:
452,290,108745,2,0,L|444:250,1,41.6666666666667,2|0,0:0|0:0,0:0:0:0:
463,128,109045,5,2,0:0:0:0:
390,151,109178,1,8,3:2:0:0:
387,132,109245,1,0,3:0:0:0:
323,186,109378,1,0,3:0:0:0:
315,112,109445,6,2,B|263:86|209:117|219:165|219:165|251:188|264:219|250:263,1,250,6|0,1:0|0:0,1:0:0:0:
203,384,109845,6,0,B|215:310|153:316|170:236,1,156.25,10|0,0:0|0:0,0:0:0:0:
170,236,110145,2,0,P|134:339|26:327,1,234.375,2|0,1:2|1:0,0:0:0:0:
126,165,110578,1,0,3:0:0:0:
139,157,110645,2,0,B|188:141|188:141|225:178,1,104.166666666667,10|0,3:2|0:0,0:0:0:0:
232,193,110845,2,0,L|288:186,1,52.0833333333333,2|0,0:1|0:0,0:0:0:0:
450,53,111045,5,0,1:0:0:0:
268,92,111245,2,0,P|316:111|367:111,1,104.166666666667,2|0,0:0|0:0,0:0:0:0:
382,104,111445,1,10,0:0:0:0:
509,268,111578,2,0,P|490:285|464:289,1,52.0833333333333,2|0,0:0|0:0,0:0:0:0:
464,289,111745,6,0,P|381:252|291:263,1,182.291666666667,2|0,1:2|0:0,0:0:0:0:
281,275,112045,1,2,1:2:0:0:
160,358,112178,1,0,3:0:0:0:
145,362,112245,2,0,B|113:322|113:322|164:309,1,104.166666666667,2|0,3:1|0:0,0:0:0:0:
237,342,112445,6,0,L|243:371,1,20.8333333333333,2|0,0:3|0:0,0:0:0:0:
71,245,112645,6,2,B|45:235|44:213|44:213|204:236|204:236|208:211|184:200,1,250,6|0,1:0|0:0,1:0:0:0:
83,67,113045,6,0,P|144:23|219:34,1,156.25,10|0,0:0|0:0,0:0:0:0:
220,34,113345,2,0,B|207:81|175:98|175:98|333:121,1,234.375,2|0,1:2|1:0,0:0:0:0:
478,215,113778,1,0,3:0:0:0:
469,228,113845,2,0,L|357:244,1,104.166666666667,10|0,3:2|0:0,0:0:0:0:
356,254,114045,2,0,P|351:284|363:310,1,52.0833333333333,2|0,0:1|0:0,0:0:0:0:
401,100,114245,5,0,1:0:0:0:
276,238,114445,2,0,P|233:265|182:258,1,104.166666666667,2|0,0:0|0:0,0:0:0:0:
171,247,114645,1,10,0:0:0:0:
80,116,114778,2,0,P|75:86|87:60,1,52.0833333333333,2|0,0:0|0:0,0:0:0:0:
82,66,114945,6,0,B|122:97|144:127|144:127|186:107|236:106,1,182.291666666667,2|0,1:2|0:0,0:0:0:0:
250,112,115245,1,2,1:2:0:0:
462,115,115378,1,0,3:0:0:0:
456,129,115445,2,0,P|405:141|353:145,1,104.166666666667,10|0,3:2|0:0,0:0:0:0:
471,222,115645,2,0,P|419:225|368:238,1,104.166666666667,2|0,0:1|0:0,0:0:0:0:
289,270,115845,6,2,B|283:227|272:197|272:197|315:179|340:142|340:142|322:101|331:57,1,250,6|0,1:0|0:0,1:0:0:0:
210,313,116245,6,0,B|257:375|257:375|333:356,1,156.25,10|0,0:0|0:0,0:0:0:0:
333,356,116545,2,0,L|103:306,1,234.375,2|0,1:2|1:0,0:0:0:0:
8,164,116978,1,0,3:0:0:0:
20,173,117045,2,0,P|70:175|123:140,1,104.166666666667,10|0,3:2|0:0,0:0:0:0:
117,132,117245,2,0,L|168:141,1,52.0833333333333,2|0,0:0|0:0,0:0:0:0:
368,237,117445,5,0,1:0:0:0:
234,80,117645,2,0,P|259:124|252:175,1,104.166666666667,2|0,0:0|0:0,0:0:0:0:
244,189,117845,1,10,0:0:0:0:
298,338,117978,2,0,P|323:334|344:320,1,52.0833333333333,2|0,0:0|0:0,0:0:0:0:
344,320,118145,6,0,P|327:231|353:143,1,182.291666666667,2|0,1:2|0:0,0:0:0:0:
394,81,118445,6,0,P|430:85|426:120,1,78.125,2|0,1:2|0:0,0:0:0:0:
344,320,118645,6,0,P|302:312|309:271,1,93.7500035762788,10|0,0:0|0:0,0:0:0:0:
167,56,118845,6,0,P|216:58|211:107,1,109.375001043081,2|0,0:1|0:0,0:0:0:0:
92,358,119045,6,2,P|68:249|179:237,1,250,2|0,1:0|0:0,1:0:0:0:
177,235,120045,1,0,1:0:0:0:
211,106,120245,5,8,3:2:0:0:
287,116,120378,1,0,3:0:0:0:
283,133,120445,1,8,3:2:0:0:
364,104,120578,1,0,3:0:0:0:
351,176,120645,5,4,1:0:0:0:
176,235,120845,2,0,P|217:203|268:208,1,104.166666666667,2|0,0:0|0:0,0:0:0:0:
281,216,121045,1,10,0:0:0:0:
411,324,121178,2,0,L|395:387,1,52.0833333333333,2|0,0:0|0:0,0:0:0:0:
398,374,121345,6,0,P|359:309|415:226,1,182.291666666667,2|0,1:2|0:0,0:0:0:0:
426,225,121645,1,2,1:2:0:0:
480,113,121778,1,0,3:0:0:0:
491,102,121845,2,0,P|499:60|455:12,1,104.166666666667,10|0,3:2|0:0,0:0:0:0:
447,12,122045,2,0,L|395:21,1,52.0833333333333,2|0,0:1|0:0,0:0:0:0:
214,73,122245,6,2,B|194:119|194:119|259:163|329:144|329:144|324:87,1,250,6|0,1:0|0:0,1:0:0:0:
133,64,122645,6,0,B|126:101|103:132|103:132|134:160|148:198,1,156.25,10|0,0:0|0:0,0:0:0:0:
147,198,122945,2,0,P|69:262|33:168,1,234.375,2|0,1:2|1:0,0:0:0:0:
195,120,123378,1,0,3:0:0:0:
210,118,123445,2,0,L|326:146,1,104.166666666667,10|0,3:2|0:0,0:0:0:0:
318,156,123645,2,0,L|245:176,1,52.0833333333333,2|0,0:1|0:0,0:0:0:0:
129,298,123845,5,0,1:0:0:0:
218,358,124045,2,0,P|235:319|222:242,1,104.166666666667,2|0,0:0|0:0,0:0:0:0:
220,246,124245,1,10,0:0:0:0:
396,184,124378,2,0,L|469:204,1,52.0833333333333,2|0,0:0|0:0,0:0:0:0:
446,197,124545,6,0,B|458:287|392:270|403:368,1,182.291666666667,2|0,1:2|0:0,0:0:0:0:
416,378,124845,1,2,1:2:0:0:
220,246,124978,1,0,3:0:0:0:
210,233,125045,2,0,B|236:217|236:217|306:238,1,104.166666666667,2|0,3:1|0:0,0:0:0:0:
332,311,125245,6,0,L|312:314,1,20.8333333333333,2|0,0:3|0:0,0:0:0:0:
124,224,125445,6,2,P|236:253|292:151,1,250,6|0,1:0|0:0,1:0:0:0:
74,64,125845,6,0,B|47:98|16:116|16:116|54:123|89:143,1,156.25,10|0,0:0|0:0,0:0:0:0:
89,143,126145,2,0,P|140:47|246:73,1,234.375,2|0,1:2|1:0,0:0:0:0:
413,215,126578,1,0,3:0:0:0:
427,208,126645,2,0,P|447:171|432:108,1,104.166666666667,10|0,3:2|0:0,0:0:0:0:
422,103,126845,2,0,L|357:113,1,52.0833333333333,2|0,0:1|0:0,0:0:0:0:
152,207,127045,5,0,1:0:0:0:
312,171,127245,2,0,L|195:150,1,104.166666666667,2|0,0:0|0:0,0:0:0:0:
197,142,127445,1,10,0:0:0:0:
142,289,127578,2,0,P|167:290|191:280,1,52.0833333333333,2|0,0:0|0:0,0:0:0:0:
191,280,127745,6,0,P|132:344|46:328,1,182.291666666667,2|0,1:2|0:0,0:0:0:0:
36,316,128045,1,0,1:0:0:0:
18,132,128178,1,0,3:0:0:0:
13,116,128245,2,0,B|38:70|38:70|86:88,1,104.166666666667,10|0,3:2|0:0,0:0:0:0:
118,176,128445,2,0,B|93:222|93:222|44:203,1,104.166666666667,2|0,0:1|0:0,0:0:0:0:
103,76,128645,6,0,B|156:57|203:117|203:117|251:180|320:155,1,250,6|0,1:0|0:0,0:0:0:0:
439,285,129045,6,0,P|384:337|308:337,1,156.25,10|0,0:0|0:0,0:0:0:0:
308,337,129345,2,0,P|218:264|103:261,1,234.375,2|0,1:2|1:0,0:0:0:0:
31,74,129778,1,0,3:0:0:0:
45,67,129845,2,0,P|43:121|32:174,1,104.166666666667,10|0,3:2|0:0,0:0:0:0:
23,182,130045,2,0,L|32:246,1,52.0833333333333,2|0,0:1|0:0,0:0:0:0:
106,373,130245,5,0,1:0:0:0:
106,373,130645,2,0,P|94:362|79:360,1,31.2500011920929,2|0,0:0|0:0,0:0:0:0:
139,288,130945,2,0,P|151:298|156:313,1,31.2500011920929,2|0,0:0|0:0,0:0:0:0:
227,284,131145,2,0,P|231:269|226:255,1,31.2500011920929,2|0,0:0|0:0,0:0:0:0:
318,270,131445,2,0,P|315:285|305:296,1,31.2500011920929,2|0,0:1|0:0,0:0:0:0:
256,360,131645,6,0,L|256:380,1,20.8333333333333,2|0,0:3|0:0,0:0:0:0:
255,183,131845,6,0,P|294:123|301:195,1,187.500007152558,6|0,1:0|0:0,0:0:0:0:
139,288,132178,1,0,3:0:0:0:
130,297,132245,2,0,P|71:311|19:280,1,125,2|0,3:2|0:0,0:0:0:0:
170,83,132645,2,0,L|157:170,1,83.3333333333333,2|0,3:2|0:0,0:0:0:0:
162,177,132845,2,0,L|249:190,1,83.3333333333333,2|0,3:2|0:0,0:0:0:0:
255,183,133045,1,2,3:2:0:0:
348,69,133245,6,0,P|402:37|464:35,2,125,2|0|0,3:2|3:0|3:0,0:0:0:0:
349,69,133845,2,0,P|382:93|422:105,1,83.3333333333333,2|0,3:2|0:0,0:0:0:0:
434,104,134045,2,0,P|400:128|360:140,1,83.3333333333333,2|0,3:2|0:0,0:0:0:0:
348,141,134245,1,2,3:2:0:0:
239,261,134445,2,0,B|229:281|229:281|239:354,1,83.3333333333333,2|0,3:2|0:0,0:0:0:0:
241,353,134645,2,0,B|261:363|261:363|334:353,1,83.3333333333333,2|0,3:2|0:0,0:0:0:0:
333,352,134845,1,2,3:2:0:0:
446,235,135045,6,0,B|399:223|382:275|328:263,1,125,2|0,3:2|0:0,0:0:0:0:
144,161,135378,1,0,3:0:0:0:
151,150,135445,2,0,P|196:135|282:135,1,125,2|0,3:2|0:0,0:0:0:0:
234,358,135845,2,0,P|195:358|156:338,1,83.3333333333333,2|0,3:2|0:0,0:0:0:0:
148,327,136045,2,0,P|109:327|70:307,1,83.3333333333333,2|0,3:2|0:0,0:0:0:0:
63,296,136245,1,2,3:2:0:0:
188,213,136445,2,0,L|177:253,1,41.6666666666667,2|0,3:2|0:0,0:0:0:0:
223,65,136645,5,2,3:2:0:0:
38,125,136778,1,2,3:2:0:0:
42,136,136845,2,0,B|100:157|100:157|157:130,1,125,2|0,3:2|0:0,0:0:0:0:
335,111,137178,1,2,3:2:0:0:
323,108,137245,2,0,B|275:147|275:147|269:210,1,125,2|0,3:2|0:0,0:0:0:0:
198,375,137579,1,2,3:2:0:0:
207,366,137645,2,0,B|196:305|196:305|144:268,2,125,2|0|0,3:2|3:2|3:2,0:0:0:0:
193,204,138245,6,0,P|193:141|201:79,1,125,6|0,1:2|0:0,0:0:0:0:
404,46,138578,1,0,3:0:0:0:
410,56,138645,2,0,P|409:118|401:180,1,125,2|0,1:2|0:0,0:0:0:0:
338,313,138978,1,0,3:0:0:0:
326,318,139045,2,0,L|229:303,1,83.3333333333333,2|0,1:2|0:0,0:0:0:0:
240,293,139245,2,0,L|322:280,1,83.3333333333333,2|0,3:2|0:0,0:0:0:0:
330,270,139445,1,0,1:2:0:0:
163,291,139645,2,0,P|163:308|172:335,1,41.6666666666667,2|0,3:2|0:0,0:0:0:0:
407,371,139845,6,0,P|423:332|401:248,1,125,2|0,1:2|0:0,0:0:0:0:
284,79,140178,1,0,3:0:0:0:
275,88,140245,2,0,P|259:127|281:211,1,125,2|0,1:2|0:0,0:0:0:0:
209,372,140578,1,0,3:0:0:0:
201,361,140645,2,0,L|210:305,1,41.6666666666667,2|0,1:2|0:0,0:0:0:0:
125,223,140778,1,0,3:0:0:0:
119,234,140845,2,0,L|135:329,1,83.3333333333333,2|0,3:2|0:0,0:0:0:0:
124,325,141045,2,0,L|29:341,1,83.3333333333333,2|0,1:2|0:0,0:0:0:0:
31,331,141245,1,2,0:0:0:0:
62,162,141445,6,0,B|100:128|100:128|147:139,1,99.9999969482423,2|0,1:2|0:0,0:0:0:0:
294,245,141645,6,0,B|252:284|252:284|194:271,1,116.666663106283,2|0,1:2|0:0,0:0:0:0:
193,81,141845,6,0,B|242:34|242:34|306:49,1,133.333333333333,2|0,1:2|0:0,0:0:0:0:
498,220,142045,6,0,B|441:272|441:272|370:256,1,149.999995422363,2|0,1:2|0:0,0:0:0:0:
346,186,142245,6,0,L|356:103,1,83.3333333333333,2|0,1:2|0:0,0:0:0:0:
193,81,142378,1,2,1:2:0:0:
193,81,142445,6,0,L|203:163,1,83.3333333333333,2|0,1:2|0:0,0:0:0:0:
359,338,142578,1,2,1:2:0:0:
359,338,142645,6,0,L|369:255,1,83.3333333333333,2|0,1:2|0:0,0:0:0:0:
170,232,142778,1,2,1:2:0:0:
170,232,142845,6,0,L|180:314,1,83.3333333333333,2|0,1:2|0:0,0:0:0:0:
269,378,142978,1,2,1:2:0:0:
269,378,143045,5,2,1:2:0:0:
256,192,143445,12,2,144245,0:3:0:0:
269,378,144445,6,0,L|274:355,1,20.8333333333333,2|0,0:1|0:0,0:0:0:0:
291,283,144645,5,0,1:0:0:0:
207,225,144778,5,0,1:0:0:0:
217,259,144845,1,0,1:0:0:0:
399,106,144978,5,0,1:0:0:0:
378,183,145045,2,0,L|336:190,1,41.6666666666667,12|0,1:2|0:0,0:0:0:0:
214,21,145178,1,2,0:3:0:0:
235,4,145245,6,0,P|271:77|259:158,1,166.666666666667,2|0,3:0|0:0,0:0:0:0:
207,225,145445,2,0,P|171:225|181:191,1,83.3333333333333,0|0,1:0|0:0,0:0:0:0:
358,55,145645,6,0,P|331:132|265:181,1,166.666666666667,2|0,3:0|0:0,0:0:0:0:
181,191,145845,2,0,P|155:166|186:149,1,83.3333333333333,8|0,1:2|0:0,0:0:0:0:
407,177,146045,6,0,P|333:213|252:201,1,166.666666666667,2|0,3:0|0:0,0:0:0:0:
186,149,146245,2,0,P|185:113|219:123,1,83.3333333333333,0|0,1:0|0:0,0:0:0:0:
356,300,146445,6,0,P|278:273|229:207,1,166.666666666667,2|0,3:0|0:0,0:0:0:0:
220,123,146645,2,0,P|244:97|261:128,1,83.3333333333333,8|0,1:2|0:0,0:0:0:0:
233,350,146845,6,0,P|196:276|208:195,1,166.666666666667,2|0,3:0|0:0,0:0:0:0:
261,128,147045,1,0,1:0:0:0:
481,258,147178,1,2,3:0:0:0:
460,272,147245,6,0,L|290:247,1,166.666666666667,2|0,3:0|0:0,0:0:0:0:
351,180,147445,2,0,L|434:192,1,83.3333333333333,8|0,1:2|0:0,0:0:0:0:
436,346,147645,2,0,L|313:328,1,125.000004768372,2|0,3:2|0:0,0:0:0:0:
278,260,147845,6,0,P|199:244|143:301,1,166.666666666667,0|0,1:0|0:0,0:0:0:0:
44,361,148045,2,0,P|122:376|178:319,1,166.666666666667,2|0,3:0|0:0,0:0:0:0:
192,206,148245,1,8,1:2:0:0:
5,80,148445,6,0,P|58:141|139:140,1,166.666666666667,2|0,3:0|0:0,0:0:0:0:
214,130,148645,2,0,P|228:95|192:84,1,83.3333333333333,0|0,1:0|0:0,0:0:0:0:
192,206,148845,6,0,P|244:145|325:146,1,166.666666666667,2|0,3:0|0:0,0:0:0:0:
400,157,149045,2,0,P|413:191|377:202,1,83.3333333333333,8|0,1:2|0:0,0:0:0:0:
325,146,149245,6,0,P|264:198|265:279,1,166.666666666667,2|0,3:0|0:0,0:0:0:0:
275,354,149445,2,0,P|295:350|313:339,1,41.6666666666667,0|0,1:0|0:0,0:0:0:0:
373,88,149578,1,2,3:0:0:0:
374,62,149645,6,0,P|321:1|240:2,1,166.666666666667,2|0,3:0|0:0,0:0:0:0:
166,13,149845,2,0,P|152:47|188:58,1,83.3333333333333,8|0,1:2|0:0,0:0:0:0:
165,137,150045,6,0,P|217:76|298:77,1,166.666666666667,2|0,3:0|0:0,0:0:0:0:
325,146,150245,1,0,1:0:0:0:
173,214,150345,2,0,B|114:228|114:172|56:183,2,125,2|0|2,3:0|0:0|3:0,0:0:0:0:
259,205,150645,6,0,P|278:241|264:279,1,83.3333333333333,8|0,1:2|0:0,0:0:0:0:
100,365,150845,2,0,P|59:319|64:258,1,125.000004768372,2|0,3:0|0:0,0:0:0:0:
127,156,151045,5,0,1:0:0:0:
194,311,151178,5,0,1:0:0:0:
182,345,151245,1,0,1:0:0:0:
380,305,151378,5,0,1:0:0:0:
361,225,151445,2,0,L|370:163,1,62.5000023841859,14|0,1:2|0:0,0:0:0:0:
450,46,151578,1,2,3:0:0:0:
418,66,151645,6,0,B|349:82|314:19|314:19|236:3|205:61,1,250.000009536744,2|0,3:0|0:0,0:0:0:0:
162,120,151845,2,0,P|156:168|191:134,1,125.000004768372,0|0,1:0|0:0,0:0:0:0:
205,61,152045,6,0,B|188:129|251:164|251:164|267:242|209:273,1,250.000009536744,2|0,3:0|0:0,0:0:0:0:
151,317,152245,2,0,P|102:322|136:287,1,125.000004768372,8|0,1:2|0:0,0:0:0:0:
209,273,152445,6,0,B|277:256|312:319|312:319|390:335|421:277,1,250.000009536744,2|0,3:0|0:0,0:0:0:0:
465,219,152645,2,0,P|470:170|435:204,1,125.000004768372,0|0,1:0|0:0,0:0:0:0:
421,277,152845,6,0,B|437:208|374:173|374:173|358:95|416:64,1,250.000009536744,2|0,3:0|0:0,0:0:0:0:
475,21,153045,2,0,P|523:15|489:50,1,125.000004768372,8|0,1:2|0:0,0:0:0:0:
416,64,153245,6,0,B|347:80|312:17|312:17|234:1|203:59,1,250.000009536744,2|0,3:0|0:0,0:0:0:0:
159,117,153445,2,0,P|180:139|209:132,1,62.5000023841859,0|0,1:0|0:0,0:0:0:0:
353,245,153578,1,2,3:0:0:0:
343,267,153645,6,0,L|77:314,1,250.000009536744,2|0,3:0|0:0,0:0:0:0:
169,377,153845,2,0,L|292:355,1,125.000004768372,10|0,1:2|0:0,0:0:0:0:
287,199,154045,2,0,L|122:227,1,166.666666666667,2|0,3:2|0:0,0:0:0:0:
68,56,154245,6,0,P|175:24|208:132,1,250.000009536744,0|0,1:0|0:0,0:0:0:0:
395,152,154445,2,0,P|287:184|254:76,1,250.000009536744,2|0,3:0|0:0,0:0:0:0:
291,9,154645,1,8,1:2:0:0:
474,155,154845,6,0,B|476:94|476:94|408:85|350:60|350:60|325:113,1,250.000009536744,2|0,3:0|0:0,0:0:0:0:
395,152,155045,2,0,B|381:213|430:213|420:270,1,125.000004768372,0|0,1:0|0:0,0:0:0:0:
352,298,155245,6,0,B|354:359|354:359|286:368|228:393|228:393|202:340,1,250.000009536744,2|0,3:0|0:0,0:0:0:0:
272,301,155445,2,0,B|258:240|307:240|297:182,1,125.000004768372,8|0,1:2|0:0,0:0:0:0:
229,155,155645,6,0,B|231:94|231:94|163:85|105:60|105:60|79:112,1,250.000009536744,2|0,3:0|0:0,0:0:0:0:
149,152,155845,2,0,B|142:182|162:180|154:213,1,62.5000023841859,0|0,1:0|0:0,0:0:0:0:
189,312,155978,1,2,3:0:0:0:
202,340,156045,6,0,B|228:393|228:393|286:368|354:359|354:359|352:298,1,250.000009536744,2|0,3:0|0:0,0:0:0:0:
272,301,156245,2,0,B|258:240|307:240|297:182,1,125.000004768372,8|0,1:2|0:0,0:0:0:0:
325,113,156445,6,0,B|350:60|350:60|408:85|476:94|476:94|474:155,1,250.000009536744,2|0,3:0|0:0,0:0:0:0:
394,152,156645,1,0,1:0:0:0:
444,275,156745,2,0,B|475:278|500:302|500:302|513:261|474:234|474:234|452:235|432:224,2,187.500007152558,2|0|2,3:0|0:0|3:0,0:0:0:0:
292,384,157045,6,0,P|246:344|251:284,1,125.000004768372,8|0,1:2|0:0,0:0:0:0:
152,109,157245,2,0,P|214:156|195:232,1,166.666666666667,2|0,3:0|0:0,0:0:0:0:
135,278,157445,1,0,1:0:0:0:
134,278,157845,6,0,P|94:277|61:251,1,83.3333333333333,12|0,1:2|0:0,0:0:0:0:
115,40,157978,1,2,3:0:0:0:
137,29,158045,2,0,P|177:29|210:55,1,83.3333333333333,2|0,3:0|0:0,0:0:0:0:
255,148,158178,1,2,3:0:0:0:
233,135,158245,2,0,B|150:128|163:188|77:181,1,166.666666666667,2|0,1:3|0:0,0:0:0:0:
55,168,158445,5,2,3:0:0:0:
65,332,158578,1,2,3:0:0:0:
81,349,158645,2,0,B|160:370|160:370|231:291,1,166.666666666667,8|0,1:2|0:0,0:0:0:0:
286,220,158845,2,0,L|310:384,1,166.666666666667,2|0,3:0|0:0,0:0:0:0:
474,332,159045,6,0,P|433:336|399:314,1,83.3333333333333,0|0,1:0|0:0,0:0:0:0:
286,220,159178,1,2,3:0:0:0:
298,198,159245,2,0,P|331:175|372:180,1,83.3333333333333,2|0,3:0|0:0,0:0:0:0:
325,364,159378,1,2,3:0:0:0:
310,384,159445,2,0,P|269:388|235:366,1,83.3333333333333,8|0,1:2|0:0,0:0:0:0:
44,190,159578,1,2,3:0:0:0:
55,168,159645,6,0,P|122:122|201:139,1,166.666666666667,2|0,3:0|0:0,0:0:0:0:
221,155,159845,1,0,1:0:0:0:
47,371,159978,1,2,3:0:0:0:
28,354,160045,1,2,3:0:0:0:
19,330,160111,1,2,3:0:0:0:
24,305,160178,1,2,3:0:0:0:
39,284,160246,2,0,B|117:266|112:321|201:299,1,166.666666666667,8|0,1:2|0:0,0:0:0:0:
223,288,160445,2,0,P|241:324|234:365,1,83.3333333333333,2|0,3:0|0:0,0:0:0:0:
412,268,160578,1,2,3:0:0:0:
425,248,160645,6,0,P|376:185|297:197,1,166.666666666667,2|0,1:3|0:0,0:0:0:0:
286,220,160845,1,2,3:0:0:0:
78,146,161045,2,0,P|59:109|66:68,1,83.3333333333333,8|0,1:2|0:0,0:0:0:0:
266,19,161178,1,2,3:0:0:0:
284,36,161245,2,0,P|302:72|295:113,1,83.3333333333333,2|0,3:0|0:0,0:0:0:0:
223,288,161378,1,2,3:0:0:0:
203,274,161445,2,0,B|158:239|158:239|187:120,1,166.666666666667,0|0,1:0|0:0,0:0:0:0:
189,107,161645,5,2,3:0:0:0:
403,63,161778,1,2,3:0:0:0:
415,83,161845,2,0,P|429:164|424:247,1,166.666666666667,8|0,1:2|0:0,0:0:0:0:
483,318,162045,2,0,P|468:236|473:153,1,166.666666666667,2|0,3:0|0:0,0:0:0:0:
423,247,162245,6,0,P|417:288|406:328,1,83.3333333333333,0|0,1:0|0:0,0:0:0:0:
329,166,162378,1,2,3:0:0:0:
321,189,162445,2,0,P|326:230|337:270,1,83.3333333333333,2|0,3:0|0:0,0:0:0:0:
207,254,162578,1,2,3:0:0:0:
215,277,162645,2,0,P|209:318|198:358,1,83.3333333333333,8|0,1:2|0:0,0:0:0:0:
54,128,162778,1,2,3:0:0:0:
42,150,162845,6,0,B|31:197|74:217|74:217|118:238|106:288,1,166.666666666667,2|0,3:0|0:0,0:0:0:0:
99,312,163045,1,0,1:0:0:0:
231,170,163178,1,2,3:0:0:0:
245,149,163245,2,0,P|225:93|131:109,1,166.666666666667,2|0,3:0|0:0,0:0:0:0:
127,129,163445,1,8,1:2:0:0:
289,235,163645,2,0,L|479:210,1,166.666666666667,2|0,3:0|0:0,0:0:0:0:
479,209,163845,5,0,1:0:0:0:
478,209,164245,6,0,P|484:168|467:130,1,83.3333333333333,12|0,1:2|0:0,0:0:0:0:
322,31,164378,1,2,3:0:0:0:
312,54,164445,2,0,L|329:153,1,83.3333333333333,2|0,3:0|0:0,0:0:0:0:
350,311,164578,1,2,3:0:0:0:
339,332,164645,2,0,B|263:360|263:360|199:293,1,166.666666666667,0|0,1:0|0:0,0:0:0:0:
207,273,164845,5,2,3:0:0:0:
56,189,164978,1,2,3:0:0:0:
78,201,165045,2,0,L|268:176,1,166.666666666667,8|0,1:2|0:0,0:0:0:0:
207,273,165245,2,0,L|41:294,1,166.666666666667,2|0,3:0|0:0,0:0:0:0:
80,379,165445,6,0,L|162:368,1,83.3333333333333,0|0,1:0|0:0,0:0:0:0:
264,193,165578,1,2,3:0:0:0:
243,179,165645,2,0,L|160:168,1,83.3333333333333,2|0,3:0|0:0,0:0:0:0:
256,366,165778,1,2,3:0:0:0:
278,377,165845,2,0,L|360:366,1,83.3333333333333,8|0,1:2|0:0,0:0:0:0:
496,162,165978,1,2,3:0:0:0:
475,148,166045,6,0,L|307:124,1,166.666666666667,2|0,3:0|0:0,0:0:0:0:
294,104,166245,1,0,1:0:0:0:
207,273,166378,1,2,3:0:0:0:
230,263,166445,1,2,3:0:0:0:
239,285,166511,1,2,3:0:0:0:
262,275,166578,1,2,3:0:0:0:
271,297,166645,2,0,B|354:304|341:244|427:251,1,166.666666666667,8|0,1:2|0:0,0:0:0:0:
449,261,166845,2,0,P|460:309|425:349,1,83.3333333333333,2|0,3:0|0:0,0:0:0:0:
157,351,166978,1,2,3:0:0:0:
136,336,167045,6,0,P|123:270|167:184,1,166.666666666667,0|0,1:0|0:0,0:0:0:0:
191,180,167245,1,0,1:0:0:0:
394,120,167445,2,0,B|412:160|412:160|372:177,1,83.3333333333333,8|0,1:2|0:0,0:0:0:0:
213,98,167578,1,2,3:0:0:0:
194,80,167645,2,0,B|176:40|176:40|216:23,1,83.3333333333333,2|0,3:0|0:0,0:0:0:0:
298,48,167778,1,2,3:0:0:0:
287,70,167845,2,0,L|305:246,1,166.666666666667,0|0,1:0|0:0,0:0:0:0:
320,254,168045,5,0,1:0:0:0:
220,367,168178,1,0,1:0:0:0:
203,385,168245,2,0,P|154:323|192:253,1,166.666666666667,8|0,1:2|0:0,0:0:0:0:
319,253,168445,2,0,P|357:323|308:385,1,166.666666666667,0|0,1:0|0:0,0:0:0:0:
190,253,168645,5,2,1:2:0:0:
256,192,168778,1,2,0:0:0:0:
328,128,168911,2,0,L|324:87,1,31.2500011920929,2|0,0:0|0:0,0:0:0:0:
117,150,169045,5,2,0:0:0:0:
256,192,169178,1,2,0:0:0:0:
395,234,169311,2,0,L|399:193,1,31.2500011920929,2|0,0:0|0:0,0:0:0:0:
256,48,169445,5,2,0:0:0:0:
248,64,169511,1,2,0:0:0:0:
256,96,169578,1,2,0:0:0:0:
248,112,169644,1,2,0:0:0:0:
256,144,169711,1,2,0:0:0:0:
248,160,169777,1,2,0:0:0:0:
256,192,169845,1,10,0:0:0:0:
320,268,170245,6,2,B|264:304|256:372|256:372|248:304|196:268,1,250,6|0,1:0|0:0,1:0:0:0:
196,268,171445,5,0,1:0:0:0:
265,158,171578,5,0,1:0:0:0:
256,192,171645,1,0,1:0:0:0:
85,126,171778,5,0,1:0:0:0:
68,45,171845,2,2,B|110:49|144:35|144:35|104:203,1,250,6|0,1:0|0:0,1:0:0:0:
104,203,172245,6,0,L|28:218,1,62.5000023841859,10|0,1:2|0:0,0:0:0:0:
167,368,172378,1,2,0:0:0:0:
181,379,172445,6,0,P|211:326|195:267,1,125.000004768372,2|0,0:0|0:0,0:0:0:0:
182,254,172645,1,0,1:0:0:0:
137,92,172778,1,2,0:0:0:0:
132,73,172845,1,2,0:0:0:0:
138,55,172911,1,2,0:0:0:0:
152,42,172978,1,2,0:0:0:0:
170,39,173045,2,0,P|182:100|185:162,1,125.000004768372,10|0,1:2|0:0,0:0:0:0:
260,216,173245,2,0,P|264:185|274:155,1,62.5000023841859,2|0,0:0|0:0,0:0:0:0:
403,39,173378,1,2,0:0:0:0:
417,27,173445,6,0,B|452:79|452:79|432:138,1,125.000004768372,2|0,1:2|0:0,0:0:0:0:
416,148,173645,1,2,0:0:0:0:
495,286,173778,1,2,0:0:0:0:
480,274,173845,2,0,L|390:288,1,62.5000023841859,10|0,1:2|0:0,0:0:0:0:
345,322,173978,2,0,L|202:301,1,125.000004768372,2|0,0:0|0:0,0:0:0:0:
104,217,174178,1,2,0:0:0:0:
120,208,174245,6,0,L|243:226,1,125.000004768372,2|0,1:2|0:0,0:0:0:0:
260,216,174445,1,2,0:0:0:0:
174,97,174645,2,0,B|162:68|162:68|197:65,2,62.5000023841859,10|2|2,1:2|0:0|0:0,0:0:0:0:
242,138,174845,2,0,P|294:105|355:111,1,125.000004768372,2|0,0:0|0:0,0:0:0:0:
403,171,175045,6,0,P|432:165|429:136,1,62.5000023841859,2|0,1:2|0:0,0:0:0:0:
363,259,175178,1,2,0:0:0:0:
363,277,175245,2,0,P|390:285|403:259,1,62.5000023841859,2|0,0:0|0:0,0:0:0:0:
232,333,175378,1,2,0:0:0:0:
223,348,175445,2,0,P|242:369|266:352,1,62.5000023841859,10|0,1:2|0:0,0:0:0:0:
54,234,175578,1,2,0:0:0:0:
38,241,175645,6,0,P|66:294|126:296,1,125.000004768372,2|0,0:2|0:0,0:0:0:0:
142,285,175845,1,0,1:0:0:0:
236,69,175978,1,2,0:1:0:0:
223,81,176045,2,0,P|222:144|233:205,1,125.000004768372,2|0,0:1|0:0,0:0:0:0:
286,267,176245,6,0,B|297:241|313:231|313:231|304:206|307:183,1,93.7500035762788,2|2,3:0|3:2,0:0:0:0:
306,183,176645,6,2,P|400:138|396:242,1,250,2|0,1:0|0:0,1:0:0:0:
266,352,177045,6,0,L|192:340,1,62.5000023841859,10|0,1:2|0:0,0:0:0:0:
117,252,177178,1,2,0:0:0:0:
123,234,177245,2,0,B|170:194|170:194|233:205,1,125.000004768372,2|0,0:0|0:0,0:0:0:0:
282,87,177445,2,0,B|234:126|234:126|172:116,1,125.000004768372,2|0,1:2|0:0,0:0:0:0:
160,101,177645,1,2,0:0:0:0:
174,348,177778,1,2,0:0:0:0:
186,336,177845,2,0,L|197:274,1,62.5000023841859,10|0,1:2|0:0,0:0:0:0:
307,183,177978,1,2,0:0:0:0:
320,195,178045,6,0,B|331:259|291:249|302:315,1,125.000004768372,2|0,0:0|0:0,0:0:0:0:
314,330,178245,1,0,1:0:0:0:
444,251,178378,1,2,0:0:0:0:
454,235,178445,2,0,P|456:204|440:178,1,62.5000023841859,2|0,0:0|0:0,0:0:0:0:
193,202,178578,1,2,0:0:0:0:
183,218,178645,2,0,P|180:248|196:274,1,62.5000023841859,10|0,1:2|0:0,0:0:0:0:
320,195,178778,1,2,0:0:0:0:
334,183,178845,6,0,P|341:121|342:30,1,125.000004768372,2|0,0:0|0:0,0:0:0:0:
332,43,179045,1,0,1:0:0:0:
116,25,179178,1,2,0:0:0:0:
99,34,179245,1,2,0:0:0:0:
87,48,179311,1,2,0:0:0:0:
80,65,179378,1,2,0:0:0:0:
78,83,179445,2,0,P|113:109|195:98,1,125.000004768372,10|0,1:2|0:0,0:0:0:0:
248,150,179645,2,0,L|238:211,1,62.5000023841859,2|0,0:0|0:0,0:0:0:0:
86,329,179778,1,2,0:0:0:0:
72,315,179845,6,0,P|64:281|109:186,1,125.000004768372,2|0,1:2|0:0,0:0:0:0:
110,190,180045,1,2,0:0:0:0:
301,288,180178,1,2,0:0:0:0:
286,300,180245,2,0,L|220:288,1,62.5000023841859,10|0,1:2|0:0,0:0:0:0:
173,108,180378,1,2,0:0:0:0:
190,101,180445,2,0,L|313:121,1,125.000004768372,2|0,0:0|0:0,0:0:0:0:
365,182,180645,6,0,P|395:178|421:160,1,62.5000023841859,2|0,1:2|0:0,0:0:0:0:
296,5,180778,1,2,0:0:0:0:
280,15,180845,2,0,P|262:41|259:72,1,62.5000023841859,2|0,0:0|0:0,0:0:0:0:
306,233,180978,1,2,0:0:0:0:
322,249,181045,2,0,P|333:311|319:372,1,125.000004768372,10|0,1:2|0:0,0:0:0:0:
191,371,181245,2,0,P|177:311|189:250,1,125.000004768372,2|0,0:0|0:0,0:0:0:0:
323,250,181445,5,2,1:2:0:0:
365,182,181578,1,0,1:0:0:0:
324,113,181711,2,0,P|308:110|294:117,1,31.2500011920929,0|0,1:0|0:0,0:0:0:0:
189,250,181845,5,2,1:2:0:0:
103,182,181978,1,0,1:0:0:0:
188,113,182111,2,0,P|204:110|218:117,1,31.2500011920929,0|0,1:0|0:0,0:0:0:0:
256,224,182245,5,2,1:2:0:0:
264,208,182311,1,2,1:2:0:0:
256,176,182378,1,2,1:2:0:0:
264,160,182444,1,2,1:2:0:0:
256,128,182511,1,2,1:2:0:0:
264,112,182577,1,2,1:2:0:0:
257,81,182645,6,0,P|224:48|174:39,1,93.7500035762788,10|0,0:0|0:0,0:0:0:0:
136,192,183045,6,0,B|252:140|260:244|376:192,2,250,2|2|2,1:2|0:0|0:0,0:0:0:0:
256,192,184045,5,2,0:0:0:0:
256,268,184245,2,0,B|272:300|240:316|256:348,1,83.3333333333333,0|0,3:0|0:0,0:0:0:0:
256,364,184445,6,0,L|256:388,1,20.8333333333333,2|0,0:3|0:0,0:0:0:0:
136,304,184645,6,2,B|252:356|260:252|376:304,1,250,2|0,1:0|0:0,1:0:0:0:
376,305,185045,6,0,P|357:266|361:227,1,62.5000023841859,14|0,1:2|0:0,0:0:0:0:
446,73,185178,1,2,0:0:0:0:
459,86,185245,6,0,P|470:128|394:176,1,125.000004768372,2|0,0:0|0:0,0:0:0:0:
397,174,185445,1,0,1:0:0:0:
260,51,185578,1,2,0:0:0:0:
241,55,185645,1,2,0:0:0:0:
226,66,185711,1,2,0:0:0:0:
217,82,185778,1,2,0:0:0:0:
214,100,185845,2,0,L|231:239,1,125.000004768372,10|0,1:2|0:0,0:0:0:0:
287,276,186045,2,0,L|277:337,1,62.5000023841859,2|0,0:0|0:0,0:0:0:0:
105,305,186178,1,2,0:0:0:0:
94,288,186245,6,0,P|83:248|147:168,1,125.000004768372,2|0,1:2|0:0,0:0:0:0:
142,174,186445,1,2,0:0:0:0:
315,112,186578,1,2,0:0:0:0:
330,103,186645,2,0,P|343:75|341:44,1,62.5000023841859,10|0,1:2|0:0,0:0:0:0:
416,13,186778,2,0,P|437:69|495:89,1,125.000004768372,2|0,0:0|0:0,0:0:0:0:
478,182,186978,1,2,0:0:0:0:
463,169,187045,6,0,P|403:160|358:200,1,125.000004768372,2|0,1:2|0:0,0:0:0:0:
354,218,187245,1,2,0:0:0:0:
238,322,187445,2,0,B|213:312|204:329|176:318,2,62.5000023841859,10|2|2,1:2|0:0|0:0,0:0:0:0:
303,366,187645,2,0,B|321:305|321:305|283:256,1,125.000004768372,2|0,0:0|0:0,0:0:0:0:
215,218,187845,6,0,P|193:239|152:239,1,62.5000023841859,2|0,1:2|0:0,0:0:0:0:
116,170,187978,1,2,0:0:0:0:
122,152,188045,2,0,P|144:131|185:131,1,62.5000023841859,2|0,0:0|0:0,0:0:0:0:
93,282,188178,1,2,0:0:0:0:
75,276,188245,2,0,P|54:254|54:213,1,62.5000023841859,10|0,1:2|0:0,0:0:0:0:
244,92,188378,1,2,0:0:0:0:
262,98,188445,6,0,P|283:120|297:221,1,125.000004768372,2|0,0:0|0:0,0:0:0:0:
294,227,188645,1,0,1:0:0:0:
169,362,188778,1,2,0:1:0:0:
151,369,188845,2,0,L|5:353,1,125.000004768372,2|0,0:1|0:0,0:0:0:0:
14,340,189045,1,2,0:0:0:0:
14,340,189245,1,2,0:0:0:0:
122,152,189445,5,0,1:0:0:0:
256,192,189578,5,0,1:0:0:0:
248,232,189645,1,0,1:0:0:0:
390,232,189778,5,0,1:0:0:0:
372,152,189845,2,2,B|403:110|403:110|481:178|481:178|468:222|461:270,1,250,14|0,1:2|0:0,1:0:0:0:
372,152,190245,6,0,P|352:93|362:32,1,125.000004768372,2|0,1:2|0:0,0:0:0:0:
374,18,190445,1,2,0:0:0:0:
207,85,190578,1,2,0:0:0:0:
216,101,190645,2,0,P|243:115|274:114,1,62.5000023841859,10|0,1:2|0:0,0:0:0:0:
390,232,190778,1,2,0:0:0:0:
379,247,190845,2,0,B|327:277|327:277|263:264,1,125.000004768372,2|0,0:0|0:0,0:0:0:0:
252,248,191045,5,0,1:0:0:0:
65,351,191178,1,2,0:0:0:0:
75,366,191245,2,0,L|161:354,1,62.5000023841859,2|0,0:0|0:0,0:0:0:0:
197,195,191378,1,2,0:0:0:0:
187,180,191445,2,0,L|101:192,1,62.5000023841859,10|0,1:2|0:0,0:0:0:0:
41,222,191578,1,2,0:0:0:0:
26,211,191645,6,0,P|13:158|75:113,1,125.000004768372,2|0,0:0|0:0,0:0:0:0:
79,117,191845,1,0,1:0:0:0:
205,25,191978,1,2,0:0:0:0:
211,42,192045,1,2,0:0:0:0:
221,57,192111,1,2,0:0:0:0:
235,69,192178,1,2,0:0:0:0:
252,76,192245,2,0,L|383:58,1,125.000004768372,10|0,1:2|0:0,0:0:0:0:
359,140,192445,2,0,L|296:147,1,62.5000023841859,2|0,0:0|0:0,0:0:0:0:
210,270,192578,1,2,0:0:0:0:
204,288,192645,6,0,B|235:343|235:343|308:312,1,125.000004768372,2|0,1:2|0:0,0:0:0:0:
299,301,192845,1,2,0:0:0:0:
431,229,192978,1,2,0:0:0:0:
415,220,193045,2,0,L|352:227,1,62.5000023841859,10|0,1:2|0:0,0:0:0:0:
218,175,193178,2,0,P|203:115|220:56,1,125.000004768372,2|0,0:0|0:0,0:0:0:0:
343,93,193378,1,2,0:0:0:0:
354,108,193445,6,0,P|369:167|352:227,1,125.000004768372,2|0,1:2|0:0,0:0:0:0:
337,238,193645,1,2,0:0:0:0:
103,244,193778,1,2,0:0:0:0:
92,229,193845,2,0,P|76:169|93:109,1,125.000004768372,10|0,1:2|0:0,0:0:0:0:
109,99,194045,1,2,0:0:0:0:
352,3,194245,6,0,L|345:32,1,15.6250005960465,2|2,3:0|3:0,0:0:0:0:
429,25,194311,2,0,L|414:51,1,15.6250005960465,2|2,3:0|3:0,0:0:0:0:
471,57,194378,2,0,L|450:78,1,15.6250005960465,2|2,3:0|3:0,0:0:0:0:
483,86,194445,2,0,L|457:101,1,15.6250005960465,2|2,3:0|3:0,0:0:0:0:
473,107,194511,2,0,L|444:115,1,15.6250005960465,2|2,3:0|3:0,0:0:0:0:
468,119,194578,2,0,L|438:119,1,15.6250005960465,2|2,3:0|3:0,0:0:0:0:
463,125,194645,6,2,B|418:180|327:120|327:120|239:58|173:134|173:134|195:245,1,437.500004172325,6|0,1:0|0:0,1:0:0:0:
52,212,195045,6,2,B|90:259|169:208|169:208|245:153|302:218|302:218|282:315,1,375.000014305115,6|0,1:0|0:0,1:0:0:0:
397,290,195445,6,2,B|365:329|300:286|300:286|235:241|187:295|187:295|204:376,1,312.5,6|0,1:0|0:0,1:0:0:0:
328,132,195845,6,0,B|279:93|256:31|256:31|232:95|188:134,1,250,6|0,1:0|0:0,0:0:0:0:
188,133,196245,1,12,1:2:0:0:
