osu file format v14

[General]
AudioFilename: I like turtles.mp3
AudioLeadIn: 0
PreviewTime: 49459
Countdown: 1
SampleSet: Normal
StackLeniency: 0.7
Mode: 0
LetterboxInBreaks: 0
WidescreenStoryboard: 1

[Editor]
DistanceSpacing: 0.6
BeatDivisor: 4
GridSize: 4
TimelineZoom: 1

[Metadata]
Title:Sis puella magica!
TitleUnicode:Sis puella magica!
Artist:Kajiura Yuki
ArtistUnicode:Kajiura Yuki
Creator:Lollipop860
Version:Hard
Source:Madoka Magica
Tags:
BeatmapID:928564
BeatmapSetID:418283

[Difficulty]
HPDrainRate:5
CircleSize:4
OverallDifficulty:5
ApproachRate:8
SliderMultiplier:0.6
SliderTickRate:1

[Events]
//Background and Video events
0,0,"Fuahh.jpg",0,0
//Break Periods
2,40334,43438
//Storyboard Layer 0 (Background)
//Storyboard Layer 1 (Fail)
//Storyboard Layer 2 (Pass)
//Storyboard Layer 3 (Foreground)
//Storyboard Sound Samples

[TimingPoints]
0,405.403265306122,4,1,0,55,1,0
9020,-76.9230769230769,4,1,0,55,0,0
13984,-66.6666666666667,4,1,0,55,0,0
17633,-100,4,1,0,55,0,0
23308,-66.6666666666667,4,1,0,55,0,0
24830,-100,4,1,0,55,0,0
27466,-76.9230769230769,4,1,0,55,0,0
31114,-66.6666666666667,4,1,0,55,0,0
34155,-100,4,1,0,55,0,0
36688,-133.333333333333,4,1,0,55,0,0
39628,-100,4,1,0,55,0,0
48950,-66.6666666666667,4,1,0,55,0,0
49445,-66.6666666666667,4,1,0,55,0,1
90680,-66.6666666666667,4,1,0,55,0,0

[HitObjects]
400,84,3243,6,0,L|348:136,1,60
248,308,4054,1,0,0:0:0:0:
248,308,4459,2,0,L|297:269,1,60
256,224,5270,6,0,L|277:201,1,30
197,259,5675,1,0,0:0:0:0:
193,255,6081,2,0,L|135:213,1,60
96,84,6891,2,0,L|151:129,2,60
256,72,8108,1,0,0:0:0:0:
144,268,8716,1,0,0:0:0:0:
144,268,8918,1,0,0:0:0:0:
144,268,9324,6,0,L|224:268,1,75
328,256,10135,1,0,0:0:0:0:
408,192,10540,1,0,0:0:0:0:
448,128,10742,1,0,0:0:0:0:
408,56,10945,1,0,0:0:0:0:
192,256,11351,1,0,0:0:0:0:
136,160,11553,1,0,0:0:0:0:
192,64,11756,1,0,0:0:0:0:
304,60,12162,5,0,0:0:0:0:
364,164,12567,1,0,0:0:0:0:
144,244,12972,2,0,P|152:264|212:300,2,77.9999964294435
160,164,14189,1,0,0:0:0:0:
260,112,14594,1,0,0:0:0:0:
320,204,14999,1,0,0:0:0:0:
352,160,15810,2,0,L|388:112,2,45.0000017166138
204,224,16621,1,0,0:0:0:0:
280,116,17026,1,0,0:0:0:0:
52,232,17432,1,0,0:0:0:0:
64,196,17837,1,0,0:0:0:0:
76,160,18243,1,0,0:0:0:0:
179,109,18648,6,0,L|211:169,2,60
264,92,19864,1,0,0:0:0:0:
264,92,20270,6,0,L|304:144,1,60
372,196,20878,1,0,0:0:0:0:
312,256,21080,6,0,L|272:308,1,60
192,276,21891,1,0,0:0:0:0:
144,100,22297,1,0,0:0:0:0:
200,40,22702,5,0,0:0:0:0:
276,20,23107,1,0,0:0:0:0:
344,296,23513,2,0,P|296:296|252:264,1,90.0000034332277
320,208,24324,1,0,0:0:0:0:
272,108,24729,1,0,0:0:0:0:
152,280,25135,2,0,P|132:272|124:228,1,60
120,132,25945,2,0,P|144:96|168:92,1,60
272,316,26756,5,0,0:0:0:0:
356,316,26959,1,0,0:0:0:0:
424,264,27162,1,0,0:0:0:0:
440,180,27364,1,0,0:0:0:0:
384,96,27567,2,0,P|352:84|316:112,1,75
136,68,28378,5,0,0:0:0:0:
136,68,28580,1,0,0:0:0:0:
136,68,28783,2,0,P|96:112|100:144,2,77.9999964294435
208,200,30000,1,0,0:0:0:0:
208,200,30405,5,0,0:0:0:0:
196,108,30810,2,0,P|236:72|260:72,1,77.9999964294435
352,144,31621,2,0,L|380:88,1,45.0000017166138
316,76,32027,2,0,L|288:132,1,45.0000017166138
232,84,32432,1,0,0:0:0:0:
184,272,32837,1,0,0:0:0:0:
184,272,33040,1,0,0:0:0:0:
184,272,33243,2,0,P|212:296|264:280,1,90.0000034332277
260,284,34053,1,0,0:0:0:0:
380,188,34459,5,0,0:0:0:0:
380,188,34864,2,0,P|328:216|328:216,1,60
320,224,35675,1,0,0:0:0:0:
320,224,36080,2,0,L|384:260,1,60
184,276,36891,2,0,L|220:236,1,45.0000017166138
192,196,37499,1,0,0:0:0:0:
184,152,37702,2,0,L|216:108,1,45.0000017166138
388,52,38513,5,0,0:0:0:0:
388,52,38716,1,0,0:0:0:0:
388,52,38919,2,0,L|352:88,1,45.0000017166138
332,132,39527,1,0,0:0:0:0:
344,188,39729,2,0,B|364:204|364:224|328:240,1,60
256,192,44188,12,0,47026,0:0:0:0:
188,120,49459,5,0,0:0:0:0:
280,64,50067,1,0,0:0:0:0:
368,224,50270,1,0,0:0:0:0:
192,280,50675,1,0,0:0:0:0:
160,192,51080,5,0,0:0:0:0:
136,88,51486,1,0,0:0:0:0:
224,72,51891,1,0,0:0:0:0:
224,72,52297,1,0,0:0:0:0:
148,112,52499,5,0,0:0:0:0:
168,228,52702,1,0,0:0:0:0:
328,224,53107,1,0,0:0:0:0:
360,120,53513,1,0,0:0:0:0:
360,120,53918,1,0,0:0:0:0:
360,120,54324,2,0,P|392:152|368:192,1,90.0000034332277
370,190,55134,5,0,0:0:0:0:
100,232,55539,1,0,0:0:0:0:
100,232,55945,2,0,B|104:176|136:160|160:156,1,90.0000034332277
68,120,56553,1,0,0:0:0:0:
148,36,56756,1,0,0:0:0:0:
324,100,56959,1,0,0:0:0:0:
244,224,57161,1,0,0:0:0:0:
168,236,58783,5,0,0:0:0:0:
204,72,58986,1,0,0:0:0:0:
372,272,59188,1,0,0:0:0:0:
88,124,59796,1,0,0:0:0:0:
144,44,59999,1,0,0:0:0:0:
248,184,60405,1,0,0:0:0:0:
364,204,60810,1,0,0:0:0:0:
144,296,61215,1,0,0:0:0:0:
304,40,62026,5,0,0:0:0:0:
112,112,62229,1,0,0:0:0:0:
188,296,62432,1,0,0:0:0:0:
376,204,62837,1,0,0:0:0:0:
200,40,63242,1,0,0:0:0:0:
144,208,63648,1,0,0:0:0:0:
296,268,64053,2,0,P|352:260|364:216,1,90.0000034332277
344,108,64864,5,0,0:0:0:0:
224,52,65269,1,0,0:0:0:0:
148,152,65675,1,0,0:0:0:0:
244,188,66080,1,0,0:0:0:0:
304,248,66486,1,0,0:0:0:0:
284,328,66688,1,0,0:0:0:0:
208,344,66891,1,0,0:0:0:0:
296,32,68107,5,0,0:0:0:0:
328,196,68310,1,0,0:0:0:0:
208,96,68513,1,0,0:0:0:0:
148,156,68715,1,0,0:0:0:0:
148,156,68918,1,0,0:0:0:0:
264,252,69323,1,0,0:0:0:0:
372,112,69932,5,0,0:0:0:0:
372,112,70134,2,0,L|400:208,1,90.0000034332277
397,198,70945,1,0,0:0:0:0:
376,272,71350,2,0,B|368:312|316:328|288:312,1,90.0000034332277
72,132,72972,1,0,0:0:0:0:
160,64,73175,1,0,0:0:0:0:
124,208,73377,1,0,0:0:0:0:
224,140,73580,1,0,0:0:0:0:
176,292,73783,5,0,0:0:0:0:
176,292,74188,1,0,0:0:0:0:
368,76,74796,1,0,0:0:0:0:
368,76,74999,2,0,P|388:100|368:168,1,90.0000034332277
300,32,75810,1,0,0:0:0:0:
300,32,76215,2,0,B|228:24|172:72|180:140,1,180.000006866455
176,132,77432,1,0,0:0:0:0:
268,308,77837,5,0,0:0:0:0:
336,244,78040,1,0,0:0:0:0:
260,192,78243,1,0,0:0:0:0:
320,128,78445,1,0,0:0:0:0:
316,56,78648,2,0,B|368:32|392:44|396:60,1,90.0000034332277
232,156,79864,5,0,0:0:0:0:
136,320,80269,1,0,0:0:0:0:
284,272,80675,1,0,0:0:0:0:
380,192,81080,2,0,P|352:144|320:148,1,90.0000034332277
96,156,81891,2,0,P|144:112|136:100,1,90.0000034332277
200,56,82702,5,0,0:0:0:0:
200,56,83107,2,0,L|264:48,1,45.0000017166138
312,44,83514,1,0,0:0:0:0:
384,160,83918,1,0,0:0:0:0:
280,196,84323,1,0,0:0:0:0:
216,208,84729,2,0,P|176:168|156:188,1,90.0000034332277
104,228,85540,5,0,0:0:0:0:
184,296,85945,2,0,L|240:320,2,45.0000017166138
256,192,86756,12,0,89188,0:0:0:0:
364,140,90810,5,0,0:0:0:0:
320,220,91418,1,0,0:0:0:0:
200,184,91621,1,0,0:0:0:0:
148,116,92026,2,0,P|104:104|96:144,2,90.0000034332277
192,324,93648,1,0,0:0:0:0:
260,304,93850,1,0,0:0:0:0:
248,232,94053,1,0,0:0:0:0:
316,188,94458,2,0,P|316:152|272:156,2,90.0000034332277
316,320,95675,6,0,B|408:332|428:296|436:280,1,135.000005149841
435,281,96485,1,0,0:0:0:0:
392,176,96891,1,0,0:0:0:0:
320,100,97296,1,0,0:0:0:0:
220,92,97702,1,0,0:0:0:0:
220,92,98107,2,0,L|168:120,2,45.0000017166138
164,52,100540,5,0,0:0:0:0:
268,72,101148,1,0,0:0:0:0:
268,72,101350,1,0,0:0:0:0:
331,201,101756,1,0,0:0:0:0:
269,250,101958,5,0,0:0:0:0:
193,231,102161,1,0,0:0:0:0:
132,272,102567,1,0,0:0:0:0:
356,312,103377,6,0,L|392:272,1,45.0000017166138
386,278,103782,1,0,0:0:0:0:
408,224,104188,2,0,P|372:192|352:224,2,90.0000034332277
272,240,105404,2,0,P|208:220|172:156,1,135.000005149841
173,164,106215,1,0,0:0:0:0:
192,68,106621,5,0,0:0:0:0:
60,192,107026,1,0,0:0:0:0:
192,68,107431,1,0,0:0:0:0:
256,156,107837,1,0,0:0:0:0:
448,52,108039,1,0,0:0:0:0:
408,296,108242,1,0,0:0:0:0:
176,324,109661,6,0,L|140:272,1,45.0000017166138
148,280,110066,1,0,0:0:0:0:
148,176,110269,1,0,0:0:0:0:
216,112,110675,2,0,P|260:64|288:60,2,90.0000034332277
116,176,111891,1,0,0:0:0:0:
340,136,112296,1,0,0:0:0:0:
188,328,112702,1,0,0:0:0:0:
408,260,113107,1,0,0:0:0:0:
408,260,114323,6,0,P|379:290|365:289,2,45.0000017166138
418,177,114931,1,0,0:0:0:0:
396,161,115134,1,0,0:0:0:0:
335,158,115539,2,0,P|293:182|247:165,1,90.0000034332277
191,118,116350,5,0,0:0:0:0:
121,294,116756,1,0,0:0:0:0:
224,328,117161,1,0,0:0:0:0:
344,280,117364,1,0,0:0:0:0:
332,120,117566,1,0,0:0:0:0:
180,80,117769,1,0,0:0:0:0:
75,167,117972,1,0,0:0:0:0:
75,167,118377,6,0,P|47:227|60:260,2,90.0000034332277
150,98,119593,1,0,0:0:0:0:
257,52,119796,1,0,0:0:0:0:
361,112,119999,1,0,0:0:0:0:
414,207,120404,1,0,0:0:0:0:
366,271,120810,2,0,L|322:298,1,45.0000017166138
241,279,121215,1,0,0:0:0:0:
380,78,121620,5,0,0:0:0:0:
425,145,122026,1,0,0:0:0:0:
280,93,122431,2,0,P|256:74|233:78,2,45.0000017166138
370,212,123647,2,0,P|377:241|373:255,1,45.0000017166138
372,255,124053,1,0,0:0:0:0:
231,283,124864,1,0,0:0:0:0:
174,261,125066,1,0,0:0:0:0:
113,255,125269,1,0,0:0:0:0:
110,206,126080,6,0,P|80:167|80:166,1,45.0000017166138
103,98,126485,1,0,0:0:0:0:
207,108,126891,1,0,0:0:0:0:
251,231,127296,1,0,0:0:0:0:
256,192,127702,12,0,130945,0:0:0:0:
153,138,131350,6,0,P|174:130|189:114,1,45.0000017166138
217,83,131756,1,0,0:0:0:0:
293,134,131958,1,0,0:0:0:0:
338,234,132161,1,0,0:0:0:0:
204,283,132566,1,0,0:0:0:0:
338,271,132972,6,0,B|372:284|398:288|399:287,1,45.0000017166138
466,249,133377,1,0,0:0:0:0:
455,130,133580,1,0,0:0:0:0:
345,169,133783,1,0,0:0:0:0:
253,198,134188,2,0,P|226:181|211:125,1,90.0000034332277
265,65,134999,1,0,0:0:0:0:
354,91,135404,1,0,0:0:0:0:
385,176,135810,5,0,0:0:0:0:
191,306,136215,1,0,0:0:0:0:
60,218,136418,1,0,0:0:0:0:
202,210,136620,1,0,0:0:0:0:
72,299,136823,1,0,0:0:0:0:
160,323,137026,2,0,P|196:341|231:307,1,90.0000034332277
414,198,138039,5,0,0:0:0:0:
387,93,138242,2,0,P|336:59|325:72,2,90.0000034332277
265,146,139458,1,0,0:0:0:0:
105,142,139864,1,0,0:0:0:0:
179,244,140269,1,0,0:0:0:0:
265,146,140674,1,0,0:0:0:0:
153,302,141080,6,0,L|93:304,2,45.0000017166138
153,302,141688,1,0,0:0:0:0:
293,290,141891,1,0,0:0:0:0:
423,189,142296,1,0,0:0:0:0:
295,132,142701,1,0,0:0:0:0:
295,132,143107,2,0,P|258:89|216:96,1,90.0000034332277
185,144,143918,2,0,P|134:122|101:140,1,90.0000034332277
142,238,144728,1,0,0:0:0:0:
302,286,145134,6,0,P|350:290|346:255,1,90.0000034332277
370,212,145742,1,0,0:0:0:0:
368,154,145945,2,0,P|343:122|282:130,1,90.0000034332277
216,120,146755,2,0,P|224:160|180:184,2,90.0000034332277
129,108,147972,1,0,0:0:0:0:
76,293,148175,1,0,0:0:0:0:
242,180,148377,1,0,0:0:0:0:
361,221,148782,6,0,B|399:175|453:188,2,90.0000034332277
256,192,149999,12,0,151620,0:0:0:0:
256,192,154053,12,0,158918,0:0:0:0:
